osu file format v14

[General]
AudioFilename: audio.mp3
AudioLeadIn: 0
PreviewTime: 113570
Countdown: 1
SampleSet: Normal
StackLeniency: 0.7
Mode: 2
LetterboxInBreaks: 0
WidescreenStoryboard: 1

[Editor]
DistanceSpacing: 1.1
BeatDivisor: 4
GridSize: 8
TimelineZoom: 2.1

[Metadata]
Title:Knight of Firmament (The Chevalier)
TitleUnicode:Knight of Firmament (The Chevalier)
Artist:EYE XY feat. Yoneko
ArtistUnicode:EYE XY feat. Yoneko
Creator:[-naniwa-]
Version:Overdose
Source:Cytus
Tags:eyemedia The Chevalier Holy Knight Deemo
BeatmapID:1710718
BeatmapSetID:800856

[Difficulty]
HPDrainRate:8
CircleSize:4.5
OverallDifficulty:9.5
ApproachRate:9.5
SliderMultiplier:2
SliderTickRate:1

[Events]
//Background and Video events
0,0,"MDUrJi7[1].jpg",0,0
//Break Periods
//Storyboard Layer 0 (Background)
//Storyboard Layer 1 (Fail)
//Storyboard Layer 2 (Pass)
//Storyboard Layer 3 (Foreground)
//Storyboard Layer 4 (Overlay)
//Storyboard Sound Samples

[TimingPoints]
2276,387.096774193548,4,1,0,40,1,0
6921,-100,4,1,0,50,0,0
8469,-90.9090909090909,4,1,0,50,0,0
27050,-125,4,1,0,30,0,0
33244,-100,4,1,0,30,0,0
39437,-111.111111111111,4,1,0,50,0,0
45631,-100,4,1,0,50,0,0
51824,-100,4,1,0,40,0,0
54928,-100,4,1,0,50,0,0
56469,-100,4,1,0,50,0,0
58018,-100,4,1,0,50,0,0
62673,-100,4,1,0,70,0,0
63437,-100,4,1,0,50,0,0
64211,-83.3333333333333,4,1,0,60,0,1
75050,-83.3333333333333,4,1,0,50,0,1
76211,-83.3333333333333,4,1,0,40,0,1
76598,254.237288135593,3,1,0,50,1,1
76598,-200,3,1,0,30,0,0
82191,-100,3,1,0,20,0,0
82318,-200,3,1,0,30,0,0
82445,-200,3,1,0,40,0,0
82699,-125,3,1,0,40,0,0
88038,-133.333333333333,3,1,0,45,0,0
88208,-142.857142857143,3,1,0,45,0,0
88377,-153.846153846154,3,1,0,50,0,0
88547,-166.666666666667,3,1,0,50,0,0
88801,387.096774193548,4,1,0,50,1,0
88801,-100,4,1,0,40,0,0
93446,-100,4,1,0,50,0,0
94994,-100,4,1,0,50,0,0
99639,-100,4,1,0,70,0,0
100413,-90.9090909090909,4,1,0,50,0,0
101188,-83.3333333333333,4,1,0,60,0,1
107381,-83.3333333333333,4,1,0,60,0,1
112026,-100,4,1,0,50,0,0
113575,-76.9230769230769,4,1,0,60,0,1
119768,-76.9230769230769,4,1,0,60,0,1
124413,-76.9230769230769,4,1,0,30,0,1
125962,-133.333333333333,4,1,0,50,0,0
126155,320,4,1,0,30,1,0
126155,-142.857142857143,4,1,0,30,0,0
126475,338.983050847458,3,1,0,25,1,0
126475,-142.857142857143,3,1,0,25,0,0
127152,348.837209302326,3,1,0,20,1,0
127152,-142.857142857143,3,1,0,20,0,0
130620,379.746835443038,3,1,0,20,1,0
130620,-133.333333333333,3,1,0,20,0,0
131379,428.571428571429,3,1,0,20,1,0
131379,-125,3,1,0,20,0,0
131807,513.918629550321,3,1,0,20,1,0
131807,-117.647058823529,3,1,0,18,0,0
132320,641.711229946524,3,1,0,16,1,0
132961,606.060606060606,3,1,0,14,1,0
132961,-111.111111111111,3,1,0,14,0,0
133567,649.350649350649,3,1,0,12,1,0
133567,-111.111111111111,3,1,0,12,0,0
134216,727.272727272727,3,1,0,10,1,0
134216,-105.263157894737,3,1,0,10,0,0
134943,800,3,1,0,5,1,0
135743,-100,3,1,0,10,0,0

[HitObjects]
304,288,2276,5,0,0:0:0:0:
360,288,2373,1,0,0:0:0:0:
416,288,2469,1,0,0:0:0:0:
200,200,2663,1,0,0:0:0:0:
256,200,2759,1,0,0:0:0:0:
312,200,2856,1,0,0:0:0:0:
416,136,3824,5,0,0:0:0:0:
360,136,3921,1,0,0:0:0:0:
304,136,4017,1,0,0:0:0:0:
104,176,4211,1,0,0:0:0:0:
160,176,4307,1,0,0:0:0:0:
216,176,4404,1,0,0:0:0:0:
264,160,5373,5,0,0:0:0:0:
216,160,5470,1,0,0:0:0:0:
168,160,5566,1,0,0:0:0:0:
320,96,5760,1,0,0:0:0:0:
272,96,5857,1,0,0:0:0:0:
224,96,5953,1,0,0:0:0:0:
416,296,6147,1,0,0:0:0:0:
496,224,6340,1,0,0:0:0:0:
472,120,6534,1,0,0:0:0:0:
376,56,6727,1,0,0:0:0:0:
78,201,6921,5,0,0:0:0:0:
134,201,7018,1,0,0:0:0:0:
190,201,7114,1,0,0:0:0:0:
472,120,7308,1,0,0:0:0:0:
416,121,7405,1,0,0:0:0:0:
360,121,7501,1,0,0:0:0:0:
168,152,7695,1,0,0:0:0:0:
66,96,7889,1,0,0:0:0:0:
416,224,8082,2,0,L|472:224,1,50
272,152,8276,2,0,L|200:152,1,50
456,256,8469,6,0,P|496:200|440:120,1,165.000005035401
144,176,8856,2,0,L|56:176,1,55.0000016784668
304,160,9050,2,0,L|368:160,1,55.0000016784668
168,88,9244,2,0,L|112:88,2,55.0000016784668
360,72,9631,1,0,0:0:0:0:
408,96,9727,1,0,0:0:0:0:
440,144,9824,1,0,0:0:0:0:
432,200,9921,1,0,0:0:0:0:
264,240,10018,6,0,L|144:208,1,110.000003356934
320,144,10405,1,0,0:0:0:0:
432,136,10598,1,0,0:0:0:0:
168,120,10792,1,0,0:0:0:0:
152,176,10889,1,0,0:0:0:0:
176,224,10985,1,0,0:0:0:0:
216,256,11082,1,0,0:0:0:0:
312,152,11179,2,0,L|424:112,1,110.000003356934
144,216,11566,5,0,0:0:0:0:
88,216,11663,1,0,0:0:0:0:
32,216,11760,1,0,0:0:0:0:
216,136,11953,2,0,L|104:136,1,110.000003356934
368,216,12340,1,0,0:0:0:0:
480,216,12534,1,0,0:0:0:0:
296,136,12727,2,0,L|408:136,1,110.000003356934
136,176,13114,5,0,0:0:0:0:
424,208,13308,1,0,0:0:0:0:
216,152,13502,1,0,0:0:0:0:
344,144,13695,1,0,0:0:0:0:
90,264,13889,1,0,0:0:0:0:
408,200,14082,1,0,0:0:0:0:
194,138,14276,1,0,0:0:0:0:
368,168,14469,1,0,0:0:0:0:
96,256,14663,6,0,L|160:256,3,55.0000016784668
40,216,15050,2,0,P|-24:160|0:104,1,110.000003356934
392,128,15437,2,0,L|336:128,1,55.0000016784668
168,136,15631,2,0,L|96:136,1,55.0000016784668
399,176,15824,2,0,L|344:176,1,55.0000016784668
136,64,16018,2,0,L|72:64,1,55.0000016784668
416,256,16211,6,0,L|352:256,3,55.0000016784668
472,216,16598,2,0,P|536:160|512:104,1,110.000003356934
120,128,16985,2,0,L|176:128,1,55.0000016784668
344,136,17179,2,0,L|416:136,1,55.0000016784668
113,176,17372,2,0,L|168:176,1,55.0000016784668
376,64,17566,2,0,L|440:64,1,55.0000016784668
246,209,17760,5,0,0:0:0:0:
359,167,17953,1,0,0:0:0:0:
219,95,18147,1,0,0:0:0:0:
411,63,18340,1,0,0:0:0:0:
164,200,18534,2,0,L|84:200,1,55.0000016784668
380,176,18727,2,0,L|444:176,1,55.0000016784668
100,120,18921,2,0,L|36:120,1,55.0000016784668
268,112,19114,2,0,L|324:112,1,55.0000016784668
16,200,19308,6,0,L|-8:120,1,55.0000016784668
256,200,19502,2,0,L|328:200,1,55.0000016784668
56,112,19695,2,0,L|64:48,1,55.0000016784668
312,136,19889,2,0,L|376:136,1,55.0000016784668
112,80,20082,6,0,L|160:40,1,55.0000016784668
368,80,20276,2,0,L|440:80,1,55.0000016784668
216,48,20469,2,0,L|280:48,1,55.0000016784668
424,40,20663,2,0,L|488:40,1,55.0000016784668
176,224,20856,5,0,0:0:0:0:
128,224,20953,1,0,0:0:0:0:
72,224,21050,1,0,0:0:0:0:
280,128,21244,1,0,0:0:0:0:
232,128,21341,1,0,0:0:0:0:
176,128,21438,1,0,0:0:0:0:
512,104,21631,1,0,0:0:0:0:
464,104,21728,1,0,0:0:0:0:
408,104,21825,1,0,0:0:0:0:
24,118,22018,1,0,0:0:0:0:
80,118,22115,1,0,0:0:0:0:
128,118,22212,1,0,0:0:0:0:
376,208,22405,6,0,L|440:208,2,55.0000016784668
120,168,22792,2,0,L|176:168,2,55.0000016784668
440,128,23179,2,0,L|368:128,2,55.0000016784668
72,136,23566,2,0,L|16:136,2,55.0000016784668
408,232,23953,6,0,L|480:232,1,55.0000016784668
160,160,24147,1,0,0:0:0:0:
400,120,24534,1,0,0:0:0:0:
104,232,24727,2,0,L|32:232,1,55.0000016784668
352,160,24921,1,0,0:0:0:0:
400,120,25308,1,0,0:0:0:0:
8,72,25502,5,0,0:0:0:0:
412,270,27050,6,0,L|423:141,1,120
281,128,27631,1,0,0:0:0:0:
427,72,27824,1,0,0:0:0:0:
133,204,28211,2,0,L|111:116,1,80
367,148,28598,6,0,L|216:148,2,120
157,278,30147,6,0,L|94:150,1,120
247,133,30727,1,0,0:0:0:0:
119,141,30921,2,0,P|84:114|150:36,1,160
328,47,31502,1,0,0:0:0:0:
55,185,31695,6,0,L|207:184,2,120
354,88,33244,5,0,0:0:0:0:
412,120,33340,1,0,0:0:0:0:
415,184,33437,1,0,0:0:0:0:
357,210,33534,1,0,0:0:0:0:
129,227,33631,2,0,L|40:228,1,50
299,185,33824,2,0,L|358:185,1,50
120,200,34018,5,0,0:0:0:0:
48,200,34114,1,0,0:0:0:0:
120,200,34211,1,0,0:0:0:0:
184,200,34307,1,0,0:0:0:0:
400,112,34405,2,0,L|469:112,1,50
174,117,34598,2,0,L|103:117,1,50
353,40,34792,5,0,0:0:0:0:
417,74,34889,1,0,0:0:0:0:
420,142,34985,1,0,0:0:0:0:
360,175,35082,1,0,0:0:0:0:
81,195,35179,2,0,L|132:194,1,50
344,259,35373,2,0,L|400:259,1,50
130,194,35566,5,0,0:0:0:0:
349,245,36340,6,0,L|442:225,1,50
111,219,36631,2,0,P|52:190|58:80,1,150
244,168,37114,2,0,L|156:161,1,50
468,226,37405,2,0,P|445:176|344:134,1,150
149,294,37889,5,0,0:0:0:0:
97,275,37985,1,0,0:0:0:0:
73,225,38082,1,0,0:0:0:0:
103,178,38179,1,0,0:0:0:0:
154,159,38276,1,0,0:0:0:0:
208,155,38373,1,0,0:0:0:0:
256,129,38469,1,0,0:0:0:0:
247,80,38566,1,0,0:0:0:0:
198,53,38663,1,0,0:0:0:0:
72,263,39437,6,0,P|32:243|3:157,1,134.999995880127
180,179,39824,1,0,0:0:0:0:
119,181,39921,1,0,0:0:0:0:
180,179,40018,1,0,0:0:0:0:
242,178,40114,1,0,0:0:0:0:
464,262,40211,2,0,L|486:124,1,134.999995880127
304,199,40598,2,0,L|416:198,1,89.9999972534181
134,276,40985,6,0,L|44:220,1,89.9999972534181
269,242,41276,2,0,L|358:207,1,89.9999972534181
38,123,41566,1,0,0:0:0:0:
402,316,42534,6,0,P|451:306|480:212,1,134.999995880127
244,248,42921,1,0,0:0:0:0:
288,245,43017,1,0,0:0:0:0:
336,240,43114,1,0,0:0:0:0:
380,238,43210,1,0,0:0:0:0:
93,235,43308,2,0,P|41:199|13:110,1,134.999995880127
231,191,43695,1,0,0:0:0:0:
164,193,43792,1,0,0:0:0:0:
98,196,43889,1,0,0:0:0:0:
362,280,44082,6,0,L|465:223,1,89.9999972534181
226,214,44373,2,0,L|144:168,1,89.9999972534181
489,138,44663,1,0,0:0:0:0:
120,245,45631,5,0,0:0:0:0:
64,248,45727,1,0,0:0:0:0:
120,245,45824,1,0,0:0:0:0:
176,248,45920,1,0,0:0:0:0:
477,190,46018,2,0,L|415:189,1,50
118,161,46211,2,0,L|171:160,1,50
378,67,46405,5,0,0:0:0:0:
439,113,46502,1,0,0:0:0:0:
435,177,46598,1,0,0:0:0:0:
373,205,46695,1,0,0:0:0:0:
94,203,46792,2,0,L|33:203,1,50
331,147,46985,2,0,L|262:147,1,50
122,48,47179,5,0,0:0:0:0:
72,69,47276,1,0,0:0:0:0:
39,114,47373,1,0,0:0:0:0:
34,174,47469,1,0,0:0:0:0:
58,225,47566,1,0,0:0:0:0:
100,250,47663,1,0,0:0:0:0:
357,229,47760,2,0,L|281:293,1,100
401,125,48147,1,0,0:0:0:0:
226,153,48340,2,0,L|120:153,1,100
390,229,48727,6,0,L|441:229,1,50
180,191,49018,2,0,L|348:192,1,150
122,229,49501,2,0,L|71:229,1,50
332,191,49792,2,0,L|164:192,1,150
442,194,50276,6,0,L|330:123,1,100
70,151,50566,2,0,L|182:61,1,100
442,194,50856,2,0,L|361:194,1,50
148,89,51050,1,0,0:0:0:0:
70,151,51179,1,0,0:0:0:0:
148,89,51308,1,0,0:0:0:0:
364,89,51437,1,0,0:0:0:0:
442,151,51566,1,0,0:0:0:0:
364,89,51695,1,0,0:0:0:0:
63,274,51824,6,0,P|12:188|69:108,1,200
208,106,52405,1,0,0:0:0:0:
353,206,52598,2,0,P|384:168|305:69,1,200
133,65,53179,1,0,0:0:0:0:
406,152,53373,5,0,0:0:0:0:
147,227,53663,1,0,0:0:0:0:
354,267,53953,1,0,0:0:0:0:
168,199,54147,2,0,L|232:107,1,100
102,94,54534,2,0,L|205:94,1,100
458,103,54921,6,0,L|358:211,2,150
210,230,55695,2,0,L|115:106,1,150
359,155,56082,2,0,L|442:86,1,100
183,203,56469,6,0,L|71:203,1,100
147,114,56760,1,0,0:0:0:0:
429,214,56953,2,0,L|446:145,1,50
176,227,57631,1,0,0:0:0:0:
317,163,57824,1,0,0:0:0:0:
64,243,58018,6,0,P|30:188|78:62,1,200
218,77,58598,1,0,0:0:0:0:
60,323,58792,2,0,P|18:262|80:48,1,300
333,236,59566,5,0,0:0:0:0:
185,187,59856,1,0,0:0:0:0:
447,112,60147,1,0,0:0:0:0:
161,126,60340,2,0,L|48:109,1,100
321,100,60727,2,0,L|226:60,1,100
489,198,61114,6,0,L|493:95,1,100
301,232,61405,2,0,P|196:184|227:74,1,250
422,211,62276,2,0,L|498:135,1,100
58,187,62663,5,0,0:0:0:0:
467,118,62953,1,0,0:0:0:0:
155,97,63437,1,0,0:0:0:0:
409,156,63631,2,0,L|466:145,1,50
213,212,63824,2,0,L|141:202,1,50
364,56,64018,1,0,0:0:0:0:
109,264,64211,6,0,P|42:235|48:111,1,179.999994506836
146,84,64598,2,0,L|21:82,1,119.999996337891
276,242,64985,2,0,L|118:209,1,119.999996337891
242,125,65276,1,0,0:0:0:0:
430,59,65373,1,0,0:0:0:0:
480,103,65469,1,0,0:0:0:0:
480,172,65566,1,0,0:0:0:0:
417,204,65663,1,0,0:0:0:0:
167,215,65760,6,0,L|330:134,1,179.999994506836
36,199,66147,2,0,L|36:74,1,119.999996337891
292,220,66534,2,0,L|167:171,1,119.999996337891
279,84,66824,1,0,0:0:0:0:
452,206,66921,2,0,L|472:83,1,119.999996337891
209,274,67308,6,0,P|145:254|153:134,1,179.999994506836
252,127,67695,2,0,L|400:127,1,119.999996337891
82,130,68082,1,0,0:0:0:0:
297,65,68373,1,0,0:0:0:0:
96,43,68663,1,0,0:0:0:0:
392,174,68856,6,0,L|472:172,1,59.9999981689454
141,178,69050,2,0,L|73:178,1,59.9999981689454
238,113,69244,2,0,L|310:113,1,59.9999981689454
459,54,69437,2,0,L|399:55,1,59.9999981689454
134,44,69631,5,0,0:0:0:0:
63,107,69727,1,0,0:0:0:0:
63,177,69824,1,0,0:0:0:0:
142,221,69921,1,0,0:0:0:0:
325,108,70018,2,0,L|173:106,1,119.999996337891
453,293,70405,6,0,P|491:229|404:175,1,179.999994506836
334,142,70792,2,0,L|435:66,1,119.999996337891
155,287,71179,2,0,P|91:237|113:116,1,179.999994506836
270,168,71566,2,0,P|309:113|245:68,1,119.999996337891
133,192,71953,6,0,P|107:125|167:77,1,119.999996337891
239,33,72244,1,0,0:0:0:0:
334,158,72340,2,0,L|408:53,1,119.999996337891
98,229,72727,2,0,P|37:203|67:100,1,179.999994506836
140,85,73114,2,0,L|214:87,2,59.9999981689454
401,235,73502,6,0,L|484:209,1,79.9999975585938
312,175,73760,1,0,0:0:0:0:
434,156,73889,2,0,P|479:98|448:57,1,119.999996337891
101,279,74276,2,0,L|181:282,1,79.9999975585938
326,215,74534,1,0,0:0:0:0:
222,123,74663,1,0,0:0:0:0:
414,254,75050,6,0,L|348:255,6,59.9999981689454
476,98,75727,1,0,0:0:0:0:
189,189,76211,5,0,0:0:0:0:
123,186,76308,1,0,0:0:0:0:
189,189,76405,1,0,0:0:0:0:
267,190,76502,1,0,0:0:0:0:
454,191,76598,5,0,0:0:0:0:
355,141,76852,1,0,0:0:0:0:
250,107,77106,1,0,0:0:0:0:
489,152,77360,1,0,0:0:0:0:
379,154,77614,1,0,0:0:0:0:
268,156,77869,1,0,0:0:0:0:
58,191,78123,5,0,0:0:0:0:
157,141,78377,1,0,0:0:0:0:
262,107,78631,1,0,0:0:0:0:
23,152,78886,1,0,0:0:0:0:
132,153,79140,1,0,0:0:0:0:
23,152,79394,1,0,0:0:0:0:
419,283,79648,6,0,P|458:248|382:50,1,300
152,232,80792,5,0,0:0:0:0:
305,175,80920,2,0,L|255:175,1,50
37,141,81174,2,0,L|141:141,2,100
425,315,81936,6,0,L|475:315,1,50
291,313,82191,1,0,0:0:0:0:
257,276,82254,1,0,0:0:0:0:
247,228,82318,1,0,0:0:0:0:
261,180,82381,1,0,0:0:0:0:
297,146,82445,1,0,0:0:0:0:
345,135,82508,1,0,0:0:0:0:
393,148,82572,1,0,0:0:0:0:
203,195,82699,6,0,L|278:169,1,80
89,119,82953,2,0,L|64:39,1,80
385,159,83208,2,0,L|427:142,2,40
287,257,83462,1,0,0:0:0:0:
225,191,83589,1,0,0:0:0:0:
235,117,83716,1,0,0:0:0:0:
304,70,83843,1,0,0:0:0:0:
25,143,83970,2,0,L|89:90,1,80
487,217,84225,6,0,L|388:72,1,160
63,190,84733,2,0,L|142:189,1,80
403,100,84987,1,0,0:0:0:0:
469,150,85114,1,0,0:0:0:0:
478,223,85242,1,0,0:0:0:0:
407,276,85369,1,0,0:0:0:0:
123,246,85496,2,0,L|216:205,1,80
470,177,85750,6,0,L|304:177,2,160
227,271,86513,2,0,P|164:224|192:156,1,160
371,144,87021,2,0,L|297:79,1,80
96,132,87275,2,0,L|261:132,2,160
409,206,88038,5,0,0:0:0:0:
238,154,88208,1,0,0:0:0:0:
352,122,88377,1,0,0:0:0:0:
470,94,88547,1,0,0:0:0:0:
378,21,88716,1,0,0:0:0:0:
78,281,88801,6,0,P|20:223|54:145,1,150
153,151,89381,1,0,0:0:0:0:
268,162,89575,2,0,P|322:110|261:14,1,200
87,163,90155,1,0,0:0:0:0:
438,221,90349,6,0,L|296:137,2,150
177,226,91123,2,0,L|73:198,1,100
386,164,91510,2,0,L|496:164,1,100
162,203,91897,6,0,L|238:138,1,100
137,83,92188,2,0,L|229:20,1,100
124,149,92478,1,0,0:0:0:0:
376,272,92671,2,0,P|313:198|202:159,1,200
418,263,93446,6,0,P|494:232|511:215,1,100
410,94,93736,1,0,0:0:0:0:
59,155,94026,1,0,0:0:0:0:
400,207,94607,1,0,0:0:0:0:
216,169,94801,1,0,0:0:0:0:
494,164,94994,6,0,P|454:102|382:59,1,150
266,176,95381,2,0,L|382:177,1,100
458,98,95768,2,0,L|458:222,1,100
282,99,96155,2,0,L|372:40,1,100
75,179,96542,6,0,L|216:126,2,150
445,240,97317,2,0,L|336:207,1,100
70,266,97704,1,0,0:0:0:0:
20,235,97800,1,0,0:0:0:0:
21,171,97897,1,0,0:0:0:0:
78,136,97994,1,0,0:0:0:0:
438,248,98091,6,0,L|516:247,1,50
218,179,98284,2,0,L|283:178,1,50
465,145,98478,2,0,L|518:145,1,50
164,101,98671,2,0,L|235:101,1,50
499,266,98865,2,0,L|369:266,1,100
49,236,99252,2,0,L|47:130,1,100
436,193,99639,5,0,0:0:0:0:
162,161,99930,1,0,0:0:0:0:
467,141,100413,1,0,0:0:0:0:
189,229,100607,2,0,L|264:228,1,55.0000016784668
409,161,100800,2,0,L|344:161,1,55.0000016784668
88,157,100994,2,0,L|34:156,1,55.0000016784668
364,201,101188,6,0,L|198:95,1,179.999994506836
321,82,101575,2,0,P|387:56|432:28,1,119.999996337891
91,278,101962,2,0,P|50:234|97:121,1,179.999994506836
208,162,102349,2,0,L|120:65,1,119.999996337891
433,288,102736,6,0,P|466:225|421:186,1,119.999996337891
332,180,103026,2,0,P|384:128|445:117,1,119.999996337891
88,177,103317,2,0,L|11:175,1,59.9999981689454
260,135,103510,2,0,L|344:136,1,59.9999981689454
83,94,103704,2,0,L|155:94,1,59.9999981689454
427,213,103897,2,0,L|341:212,1,59.9999981689454
201,137,104091,2,0,L|116:139,1,59.9999981689454
427,264,104284,6,0,P|380:145|420:99,1,179.999994506836
512,83,104671,2,0,L|371:46,1,119.999996337891
144,232,105059,2,0,L|295:198,1,119.999996337891
182,136,105349,1,0,0:0:0:0:
31,240,105446,2,0,P|0:174|47:114,1,119.999996337891
311,267,105833,5,0,0:0:0:0:
234,175,106026,1,0,0:0:0:0:
355,121,106220,1,0,0:0:0:0:
478,94,106413,2,0,L|429:52,1,59.9999981689454
80,141,106607,2,0,L|151:139,1,59.9999981689454
80,77,106801,2,0,L|11:77,1,59.9999981689454
80,259,106994,2,0,L|11:257,1,59.9999981689454
80,186,107187,2,0,L|147:187,1,59.9999981689454
431,273,107381,6,0,P|346:241|343:150,1,179.999994506836
444,144,107768,2,0,L|342:39,1,119.999996337891
112,229,108155,2,0,L|113:34,1,179.999994506836
254,176,108542,2,0,L|126:137,1,119.999996337891
438,277,108930,6,0,P|498:232|489:119,1,179.999994506836
364,164,109317,2,0,L|471:57,1,119.999996337891
352,40,109607,1,0,0:0:0:0:
132,277,109704,2,0,P|78:254|59:82,1,239.999992675781
153,55,110284,1,0,0:0:0:0:
400,252,110478,6,0,L|296:187,2,79.9999975585938
232,224,110865,2,0,P|210:174|237:114,1,119.999996337891
373,124,111252,2,0,L|466:122,2,79.9999975585938
512,74,111639,2,0,L|359:-14,1,119.999996337891
107,260,112026,6,0,P|58:201|67:126,1,150
218,214,112413,2,0,L|158:214,1,50
98,88,112607,2,0,L|148:88,1,50
80,145,112800,2,0,L|30:146,1,50
101,39,112994,2,0,L|161:40,1,50
215,116,113188,2,0,L|150:116,1,50
86,184,113381,2,0,L|150:184,1,50
429,261,113575,6,0,P|496:172|455:99,1,194.999991073609
310,161,113962,2,0,L|388:162,2,64.9999970245363
36,80,114349,2,0,P|15:173|63:256,1,194.999991073609
178,107,114736,2,0,L|73:25,1,129.999994049073
356,208,115123,6,0,P|300:155|176:102,1,194.999991073609
407,233,115510,2,0,L|452:92,1,129.999994049073
148,195,115897,2,0,L|70:196,1,64.9999970245363
307,171,116091,2,0,L|387:170,1,64.9999970245363
125,143,116284,1,0,0:0:0:0:
61,143,116381,1,0,0:0:0:0:
125,143,116478,1,0,0:0:0:0:
194,144,116575,1,0,0:0:0:0:
440,290,116671,6,0,P|497:235|395:164,1,194.999991073609
144,179,117059,2,0,L|46:179,2,64.9999970245363
447,148,117446,2,0,L|208:150,1,194.999991073609
70,179,118026,2,0,L|47:139,3,32.4999985122681
357,262,118220,6,0,P|484:239|375:75,1,389.999982147218
131,197,118994,2,0,L|200:196,1,64.9999970245363
383,157,119188,2,0,L|301:157,1,64.9999970245363
44,144,119381,2,0,L|117:143,1,64.9999970245363
321,97,119575,2,0,L|248:98,1,64.9999970245363
30,207,119768,6,0,P|49:108|135:72,1,194.999991073609
229,66,120155,2,0,L|113:3,1,129.999994049073
400,271,120542,2,0,P|466:186|436:61,1,194.999991073609
343,63,120930,1,0,0:0:0:0:
453,9,121123,1,0,0:0:0:0:
160,288,121317,6,0,L|51:194,1,129.999994049073
165,134,121607,1,0,0:0:0:0:
437,249,121704,2,0,L|332:147,1,129.999994049073
146,283,122091,2,0,L|246:192,1,129.999994049073
145,120,122381,1,0,0:0:0:0:
417,266,122478,2,0,L|520:174,1,129.999994049073
107,221,122865,6,0,L|205:218,2,86.6666626993817
242,125,123252,2,0,L|112:127,1,129.999994049073
447,216,123639,2,0,L|507:150,1,86.6666626993817
349,179,123897,2,0,P|270:130|318:30,1,216.666656748454
256,192,124413,12,0,125575,0:0:0:0:
117,250,126155,6,0,L|113:90,1,139.999995727539
248,197,126813,2,0,L|325:196,1,69.9999978637696
179,134,127152,2,0,L|259:133,1,69.9999978637696
477,112,127413,6,0,L|453:85,1,34.9999989318848
307,131,127849,2,0,L|394:132,1,69.9999978637696
190,244,128198,2,0,L|347:242,1,139.999995727539
190,164,128896,1,0,0:0:0:0:
439,96,129245,1,0,0:0:0:0:
38,199,129593,5,0,0:0:0:0:
349,218,129942,1,0,0:0:0:0:
241,162,130117,1,0,0:0:0:0:
476,101,130465,1,0,0:0:0:0:
189,225,130620,2,0,P|238:149|291:119,1,150.000005722046
326,219,131379,5,0,0:0:0:0:
198,165,131593,1,0,0:0:0:0:
379,115,131807,5,0,0:0:0:0:
167,108,132320,5,0,0:0:0:0:
456,121,132961,5,0,0:0:0:0:
133,161,133567,5,0,0:0:0:0:
473,234,134216,5,0,0:0:0:0:
206,247,134943,5,0,0:0:0:0:
256,192,135743,12,0,137343,0:0:0:0:
