osu file format v14

[General]
AudioFilename: audio.mp3
AudioLeadIn: 0
PreviewTime: 105025
Countdown: 1
SampleSet: Normal
StackLeniency: 0.7
Mode: 1
LetterboxInBreaks: 0
WidescreenStoryboard: 1

[Editor]
DistanceSpacing: 1.1
BeatDivisor: 4
GridSize: 32
TimelineZoom: 2.1

[Metadata]
Title:Knight of Firmament (The Chevalier)
TitleUnicode:Knight of Firmament (The Chevalier)
Artist:EYE XY feat. Yoneko
ArtistUnicode:EYE XY feat. Yoneko
Creator:[-naniwa-]
Version:Oni
Source:Cytus
Tags:eyemedia The Chevalier Holy Knight Deemo
BeatmapID:2223218
BeatmapSetID:800856

[Difficulty]
HPDrainRate:5
CircleSize:5
OverallDifficulty:5
ApproachRate:5
SliderMultiplier:1.4
SliderTickRate:1

[Events]
//Background and Video events
0,0,"MDUrJi7[1].jpg",0,0
//Break Periods
//Storyboard Layer 0 (Background)
//Storyboard Layer 1 (Fail)
//Storyboard Layer 2 (Pass)
//Storyboard Layer 3 (Foreground)
//Storyboard Layer 4 (Overlay)
//Storyboard Sound Samples

[TimingPoints]
2276.28301886792,387.096774193548,4,1,0,50,1,0
5373,-100,4,1,0,60,0,0
8469,-90.9090909090909,4,1,0,70,0,0
27050,-125,4,1,0,50,0,0
39437,-111.111111111111,4,1,0,60,0,0
51824,-100,4,1,0,70,0,0
64211,-83.3333333333333,4,1,0,80,0,1
76211,-100,4,1,0,70,0,1
76308,-105.263157894737,4,1,0,70,0,1
76405,-111.111111111111,4,1,0,70,0,1
76502,-117.647058823529,4,1,0,70,0,1
76598,254.237288135593,3,1,0,100,1,0
76598,-200,3,1,0,50,0,0
82445,-166.666666666667,3,1,0,60,0,0
82572,-142.857142857143,3,1,0,65,0,0
82699,-125,3,1,0,70,0,0
88038,-153.846153846153,3,1,0,50,0,0
88208,-166.666666666667,3,1,0,50,0,0
88377,-181.818181818182,3,1,0,50,0,0
88547,-200,3,1,0,50,0,0
88716,-181.818181818182,3,1,0,50,0,0
88801,387.096774193548,4,1,0,60,1,0
101188,-83.3333333333333,4,1,0,80,0,1
112026,-100,4,1,0,60,0,0
113575,-76.9230769230769,4,1,0,90,0,1
125962,-133.333333333333,4,1,0,40,0,0
126155,320,4,1,0,40,1,8
126155,-142.857142857143,4,1,0,40,0,0
126475,338.983050847458,3,1,0,40,1,0
126475,-142.857142857143,3,1,0,40,0,0
127152,348.837209302326,3,1,0,40,1,8
127152,-142.857142857143,3,1,0,40,0,0
130620,379.746835443038,3,1,0,40,1,8
130620,-142.857142857143,3,1,0,30,0,0
130999,-166.666666666667,3,1,0,30,0,0
131379,428.571428571429,3,1,0,30,1,8
131379,-166.666666666667,3,1,0,30,0,0
131593,-181.818181818182,3,1,0,30,0,0
131807,513.918629550321,5,1,0,30,1,0
131807,-166.666666666667,5,1,0,20,0,0
132320,641.711229946524,3,1,0,20,1,8
132320,-142.857142857143,3,1,0,20,0,8
132961,606.060606060606,3,1,0,20,1,8
132961,-166.666666666667,3,1,0,10,0,0
133567,649.350649350649,3,1,0,10,1,8
133567,-166.666666666667,3,1,0,10,0,0
134216,727.272727272727,3,1,0,10,1,0
134216,-153.846153846155,3,1,0,10,0,0
134943,800,3,1,0,10,1,8
134943,-142.857142857143,3,1,0,10,0,8

[HitObjects]
256,192,2276,5,0,0:0:0:0:
256,192,2469,1,2,0:0:0:0:
256,192,2663,1,0,0:0:0:0:
256,192,2856,1,2,0:0:0:0:
256,192,3824,1,0,0:0:0:0:
256,192,4018,1,2,0:0:0:0:
256,192,4211,1,0,0:0:0:0:
256,192,4405,1,2,0:0:0:0:
256,192,5373,1,0,0:0:0:0:
256,192,5566,1,2,0:0:0:0:
256,192,5760,1,0,0:0:0:0:
256,192,5953,1,0,0:0:0:0:
256,192,6340,1,0,0:0:0:0:
256,192,6534,1,2,0:0:0:0:
256,192,6727,1,0,0:0:0:0:
256,192,6921,1,0,0:0:0:0:
256,192,7114,1,2,0:0:0:0:
256,192,7308,1,0,0:0:0:0:
256,192,7502,1,2,0:0:0:0:
256,192,7889,1,0,0:0:0:0:
256,192,8082,1,0,0:0:0:0:
256,192,8179,1,2,0:0:0:0:
256,192,8276,1,2,0:0:0:0:
256,192,8469,1,0,0:0:0:0:
256,192,8856,1,2,0:0:0:0:
256,192,9050,1,0,0:0:0:0:
256,192,9244,1,2,0:0:0:0:
256,192,9631,1,0,0:0:0:0:
256,192,9824,1,0,0:0:0:0:
256,192,10018,1,2,0:0:0:0:
256,192,10211,1,0,0:0:0:0:
256,192,10598,1,0,0:0:0:0:
256,192,10792,1,2,0:0:0:0:
256,192,10889,1,2,0:0:0:0:
256,192,10985,1,0,0:0:0:0:
256,192,11179,1,0,0:0:0:0:
256,192,11373,1,2,0:0:0:0:
256,192,11566,1,2,0:0:0:0:
256,192,11663,1,0,0:0:0:0:
256,192,11760,1,0,0:0:0:0:
256,192,11953,1,2,0:0:0:0:
256,192,12147,1,2,0:0:0:0:
256,192,12340,1,0,0:0:0:0:
256,192,12727,1,0,0:0:0:0:
256,192,13114,1,2,0:0:0:0:
256,192,13308,1,2,0:0:0:0:
256,192,13502,1,0,0:0:0:0:
256,192,13695,1,0,0:0:0:0:
256,192,13889,1,2,0:0:0:0:
256,192,14276,1,0,0:0:0:0:
256,192,14663,1,2,0:0:0:0:
256,192,14856,1,0,0:0:0:0:
256,192,15050,1,2,0:0:0:0:
256,192,15437,1,2,0:0:0:0:
256,192,15631,1,0,0:0:0:0:
256,192,15824,1,2,0:0:0:0:
256,192,16018,1,2,0:0:0:0:
256,192,16211,1,0,0:0:0:0:
256,192,16405,1,0,0:0:0:0:
256,192,16598,1,2,0:0:0:0:
256,192,16985,1,2,0:0:0:0:
256,192,17179,1,2,0:0:0:0:
256,192,17373,1,2,0:0:0:0:
256,192,17566,1,0,0:0:0:0:
256,192,17760,1,0,0:0:0:0:
256,192,17953,1,0,0:0:0:0:
256,192,18147,1,2,0:0:0:0:
256,192,18534,1,2,0:0:0:0:
256,192,18727,1,0,0:0:0:0:
256,192,18921,1,2,0:0:0:0:
256,192,19114,1,0,0:0:0:0:
256,192,19308,1,2,0:0:0:0:
256,192,19502,1,2,0:0:0:0:
256,192,19889,1,0,0:0:0:0:
256,192,20082,1,0,0:0:0:0:
256,192,20276,1,2,0:0:0:0:
256,192,20469,1,2,0:0:0:0:
256,192,20566,1,2,0:0:0:0:
256,192,20663,1,0,0:0:0:0:
256,192,20856,1,2,0:0:0:0:
256,192,21244,1,0,0:0:0:0:
256,192,21631,1,2,0:0:0:0:
256,192,22018,1,2,0:0:0:0:
256,192,22405,1,2,0:0:0:0:
256,192,22598,1,0,0:0:0:0:
256,192,22792,1,2,0:0:0:0:
256,192,22985,1,0,0:0:0:0:
256,192,23179,1,2,0:0:0:0:
256,192,23373,1,2,0:0:0:0:
256,192,23566,1,0,0:0:0:0:
256,192,23953,1,0,0:0:0:0:
256,192,24147,1,2,0:0:0:0:
256,192,24534,1,0,0:0:0:0:
256,192,24727,1,2,0:0:0:0:
256,192,24920,1,2,0:0:0:0:
256,192,25308,1,2,0:0:0:0:
256,192,25502,1,4,0:0:0:0:
256,192,27050,1,0,0:0:0:0:
256,192,27340,1,2,0:0:0:0:
256,192,27824,1,0,0:0:0:0:
256,192,28114,1,2,0:0:0:0:
256,192,28598,1,2,0:0:0:0:
256,192,28889,1,0,0:0:0:0:
256,192,29179,1,2,0:0:0:0:
256,192,30147,1,0,0:0:0:0:
256,192,30437,1,2,0:0:0:0:
256,192,30727,1,0,0:0:0:0:
256,192,30921,1,2,0:0:0:0:
256,192,31211,1,2,0:0:0:0:
256,192,31502,1,0,0:0:0:0:
256,192,31695,1,2,0:0:0:0:
256,192,31985,1,2,0:0:0:0:
256,192,32276,1,0,0:0:0:0:
256,192,33244,1,0,0:0:0:0:
256,192,33534,1,2,0:0:0:0:
256,192,33824,1,2,0:0:0:0:
256,192,34211,1,0,0:0:0:0:
256,192,34405,1,2,0:0:0:0:
256,192,34598,1,0,0:0:0:0:
256,192,34792,1,2,0:0:0:0:
256,192,35082,1,2,0:0:0:0:
256,192,35373,1,0,0:0:0:0:
256,192,36340,1,0,0:0:0:0:
256,192,36631,1,2,0:0:0:0:
256,192,36921,1,0,0:0:0:0:
256,192,37114,1,2,0:0:0:0:
256,192,37405,1,2,0:0:0:0:
256,192,37695,1,0,0:0:0:0:
256,192,37889,1,0,0:0:0:0:
256,192,38179,1,0,0:0:0:0:
256,192,38469,1,2,0:0:0:0:
256,192,39437,1,0,0:0:0:0:
256,192,39534,1,0,0:0:0:0:
256,192,39631,1,0,0:0:0:0:
256,192,39824,1,2,0:0:0:0:
256,192,40211,1,2,0:0:0:0:
256,192,40598,1,0,0:0:0:0:
256,192,40792,1,0,0:0:0:0:
256,192,40985,1,2,0:0:0:0:
256,192,41276,1,2,0:0:0:0:
256,192,41566,1,0,0:0:0:0:
256,192,42534,1,0,0:0:0:0:
256,192,42631,1,0,0:0:0:0:
256,192,42727,1,0,0:0:0:0:
256,192,42921,1,2,0:0:0:0:
256,192,43308,1,0,0:0:0:0:
256,192,43695,1,2,0:0:0:0:
256,192,43889,1,2,0:0:0:0:
256,192,44082,1,0,0:0:0:0:
256,192,44373,1,2,0:0:0:0:
256,192,44663,1,2,0:0:0:0:
256,192,45631,1,2,0:0:0:0:
256,192,45921,1,0,0:0:0:0:
256,192,46211,1,2,0:0:0:0:
256,192,46598,1,2,0:0:0:0:
256,192,46792,1,0,0:0:0:0:
256,192,46985,1,0,0:0:0:0:
256,192,47179,1,2,0:0:0:0:
256,192,47469,1,0,0:0:0:0:
256,192,47760,1,2,0:0:0:0:
256,192,48147,1,2,0:0:0:0:
256,192,48340,1,2,0:0:0:0:
256,192,48727,1,0,0:0:0:0:
256,192,49018,1,2,0:0:0:0:
256,192,49308,1,0,0:0:0:0:
256,192,49502,1,2,0:0:0:0:
256,192,49792,1,0,0:0:0:0:
256,192,50082,1,2,0:0:0:0:
256,192,50276,1,0,0:0:0:0:
256,192,50566,1,0,0:0:0:0:
256,192,50856,1,2,0:0:0:0:
256,192,51050,1,0,0:0:0:0:
256,192,51437,1,2,0:0:0:0:
256,192,51824,1,2,0:0:0:0:
256,192,52114,1,0,0:0:0:0:
256,192,52405,1,0,0:0:0:0:
256,192,52598,1,2,0:0:0:0:
256,192,52985,1,0,0:0:0:0:
256,192,53373,1,2,0:0:0:0:
256,192,53663,1,2,0:0:0:0:
256,192,53953,1,0,0:0:0:0:
256,192,54147,1,2,0:0:0:0:
256,192,54340,1,0,0:0:0:0:
256,192,54534,1,0,0:0:0:0:
256,192,54921,1,2,0:0:0:0:
256,192,55211,1,0,0:0:0:0:
256,192,55502,1,0,0:0:0:0:
256,192,55695,1,2,0:0:0:0:
256,192,56082,1,2,0:0:0:0:
256,192,56469,1,2,0:0:0:0:
256,192,56760,1,0,0:0:0:0:
256,192,57050,1,0,0:0:0:0:
256,192,57631,1,0,0:0:0:0:
256,192,57824,1,0,0:0:0:0:
256,192,58018,1,2,0:0:0:0:
256,192,58308,1,0,0:0:0:0:
256,192,58598,1,0,0:0:0:0:
256,192,58792,1,2,0:0:0:0:
256,192,58985,1,0,0:0:0:0:
256,192,59179,1,0,0:0:0:0:
256,192,59566,1,2,0:0:0:0:
256,192,59856,1,0,0:0:0:0:
256,192,60147,1,0,0:0:0:0:
256,192,60340,1,2,0:0:0:0:
256,192,60534,1,0,0:0:0:0:
256,192,60921,1,0,0:0:0:0:
256,192,61114,1,2,0:0:0:0:
256,192,61308,1,2,0:0:0:0:
256,192,61405,1,0,0:0:0:0:
256,192,61695,1,0,0:0:0:0:
256,192,61889,1,0,0:0:0:0:
256,192,62276,1,2,0:0:0:0:
256,192,62469,1,2,0:0:0:0:
256,192,62663,1,0,0:0:0:0:
256,192,62953,1,0,0:0:0:0:
256,192,63437,1,2,0:0:0:0:
256,192,63824,1,2,0:0:0:0:
256,192,64018,1,0,0:0:0:0:
256,192,64211,1,2,0:0:0:0:
256,192,64308,1,2,0:0:0:0:
256,192,64405,1,0,0:0:0:0:
256,192,64598,1,0,0:0:0:0:
256,192,64792,1,2,0:0:0:0:
256,192,64985,1,2,0:0:0:0:
256,192,65373,1,0,0:0:0:0:
256,192,65566,1,2,0:0:0:0:
256,192,65760,1,2,0:0:0:0:
256,192,66050,1,0,0:0:0:0:
256,192,66340,1,2,0:0:0:0:
256,192,66727,1,2,0:0:0:0:
256,192,66921,1,0,0:0:0:0:
256,192,67308,1,2,0:0:0:0:
256,192,67405,1,0,0:0:0:0:
256,192,67502,1,0,0:0:0:0:
256,192,67695,1,0,0:0:0:0:
256,192,67889,1,2,0:0:0:0:
256,192,68082,1,2,0:0:0:0:
256,192,68373,1,0,0:0:0:0:
256,192,68663,1,2,0:0:0:0:
256,192,69050,1,0,0:0:0:0:
256,192,69244,1,2,0:0:0:0:
256,192,69437,1,0,0:0:0:0:
256,192,69631,1,0,0:0:0:0:
256,192,69727,1,0,0:0:0:0:
256,192,69824,1,2,0:0:0:0:
256,192,70018,1,2,0:0:0:0:
256,192,70405,1,2,0:0:0:0:
256,192,70502,1,2,0:0:0:0:
256,192,70598,1,0,0:0:0:0:
256,192,70792,1,0,0:0:0:0:
256,192,70985,1,2,0:0:0:0:
256,192,71179,1,2,0:0:0:0:
256,192,71566,1,0,0:0:0:0:
256,192,71760,1,2,0:0:0:0:
256,192,71953,1,2,0:0:0:0:
256,192,72244,1,0,0:0:0:0:
256,192,72534,1,2,0:0:0:0:
256,192,72727,1,0,0:0:0:0:
256,192,73114,1,2,0:0:0:0:
256,192,73308,1,0,0:0:0:0:
256,192,73502,1,2,0:0:0:0:
256,192,73631,1,0,0:0:0:0:
256,192,73760,1,2,0:0:0:0:
256,192,73889,1,0,0:0:0:0:
256,192,74082,1,0,0:0:0:0:
256,192,74276,1,2,0:0:0:0:
256,192,74405,1,2,0:0:0:0:
256,192,74534,1,2,0:0:0:0:
256,192,74663,1,0,0:0:0:0:
256,192,75050,1,2,0:0:0:0:
256,192,75373,1,2,0:0:0:0:
256,192,75695,1,0,0:0:0:0:
256,192,76211,1,2,0:0:0:0:
256,192,76308,1,2,0:0:0:0:
256,192,76405,1,2,0:0:0:0:
256,192,76502,1,2,0:0:0:0:
256,192,76598,1,0,0:0:0:0:
256,192,76852,1,0,0:0:0:0:
256,192,77360,1,2,0:0:0:0:
256,192,77614,1,0,0:0:0:0:
256,192,77869,1,0,0:0:0:0:
256,192,78123,1,2,0:0:0:0:
256,192,78631,1,0,0:0:0:0:
256,192,78886,1,2,0:0:0:0:
256,192,79140,1,0,0:0:0:0:
256,192,79394,1,2,0:0:0:0:
256,192,79648,1,2,0:0:0:0:
256,192,80411,1,2,0:0:0:0:
256,192,80792,1,2,0:0:0:0:
256,192,80920,1,0,0:0:0:0:
256,192,81047,1,0,0:0:0:0:
256,192,81174,1,2,0:0:0:0:
256,192,81428,1,0,0:0:0:0:
256,192,81682,1,2,0:0:0:0:
256,192,81936,1,2,0:0:0:0:
256,192,82445,1,0,0:0:0:0:
256,192,82572,1,0,0:0:0:0:
256,192,82699,1,2,0:0:0:0:
256,192,82826,1,0,0:0:0:0:
256,192,82953,1,2,0:0:0:0:
256,192,83208,1,0,0:0:0:0:
256,192,83462,1,2,0:0:0:0:
256,192,83589,1,0,0:0:0:0:
256,192,83716,1,0,0:0:0:0:
256,192,83843,1,0,0:0:0:0:
256,192,83970,1,2,0:0:0:0:
256,192,84098,1,0,0:0:0:0:
256,192,84225,1,2,0:0:0:0:
256,192,84479,1,0,0:0:0:0:
256,192,84733,1,2,0:0:0:0:
256,192,84860,1,0,0:0:0:0:
256,192,84987,1,2,0:0:0:0:
256,192,85114,1,0,0:0:0:0:
256,192,85242,1,2,0:0:0:0:
256,192,85369,1,2,0:0:0:0:
256,192,85496,1,0,0:0:0:0:
256,192,85623,1,0,0:0:0:0:
256,192,85750,1,2,0:0:0:0:
256,192,86004,1,0,0:0:0:0:
256,192,86259,1,2,0:0:0:0:
256,192,86513,1,2,0:0:0:0:
256,192,86767,1,0,0:0:0:0:
256,192,87021,1,2,0:0:0:0:
256,192,87148,1,2,0:0:0:0:
256,192,87275,1,0,0:0:0:0:
256,192,87530,1,0,0:0:0:0:
256,192,87784,1,2,0:0:0:0:
256,192,88038,1,2,0:0:0:0:
256,192,88208,1,0,0:0:0:0:
256,192,88377,1,0,0:0:0:0:
256,192,88547,1,0,0:0:0:0:
256,192,88801,1,2,0:0:0:0:
256,192,89091,1,0,0:0:0:0:
256,192,89381,1,0,0:0:0:0:
256,192,89575,1,2,0:0:0:0:
256,192,89962,1,0,0:0:0:0:
256,192,90155,1,0,0:0:0:0:
256,192,90349,1,2,0:0:0:0:
256,192,90639,1,0,0:0:0:0:
256,192,90930,1,2,0:0:0:0:
256,192,91123,1,2,0:0:0:0:
256,192,91317,1,0,0:0:0:0:
256,192,91510,1,0,0:0:0:0:
256,192,91897,1,2,0:0:0:0:
256,192,92188,1,0,0:0:0:0:
256,192,92478,1,0,0:0:0:0:
256,192,92671,1,2,0:0:0:0:
256,192,93059,1,2,0:0:0:0:
256,192,93446,1,2,0:0:0:0:
256,192,93736,1,0,0:0:0:0:
256,192,94026,1,2,0:0:0:0:
256,192,94607,1,0,0:0:0:0:
256,192,94801,1,0,0:0:0:0:
256,192,94994,1,2,0:0:0:0:
256,192,95284,1,2,0:0:0:0:
256,192,95575,1,0,0:0:0:0:
256,192,95768,1,2,0:0:0:0:
256,192,96155,1,0,0:0:0:0:
256,192,96349,1,0,0:0:0:0:
256,192,96542,1,2,0:0:0:0:
256,192,96833,1,2,0:0:0:0:
256,192,97123,1,0,0:0:0:0:
256,192,97317,1,2,0:0:0:0:
256,192,97704,1,0,0:0:0:0:
256,192,97897,1,0,0:0:0:0:
256,192,98091,1,2,0:0:0:0:
256,192,98478,1,0,0:0:0:0:
256,192,98865,1,0,0:0:0:0:
256,192,99252,1,2,0:0:0:0:
256,192,99446,1,2,0:0:0:0:
256,192,99639,1,0,0:0:0:0:
256,192,99930,1,0,0:0:0:0:
256,192,100413,1,2,0:0:0:0:
256,192,100800,1,2,0:0:0:0:
256,192,100994,1,0,0:0:0:0:
256,192,101188,1,2,0:0:0:0:
256,192,101284,1,2,0:0:0:0:
256,192,101381,1,0,0:0:0:0:
256,192,101575,1,0,0:0:0:0:
256,192,101768,1,2,0:0:0:0:
256,192,101962,1,2,0:0:0:0:
256,192,102349,1,0,0:0:0:0:
256,192,102542,1,2,0:0:0:0:
256,192,102736,1,2,0:0:0:0:
256,192,103026,1,0,0:0:0:0:
256,192,103317,1,2,0:0:0:0:
256,192,103510,1,0,0:0:0:0:
256,192,103704,1,2,0:0:0:0:
256,192,103897,1,0,0:0:0:0:
256,192,104284,1,2,0:0:0:0:
256,192,104575,1,0,0:0:0:0:
256,192,104865,1,0,0:0:0:0:
256,192,105059,1,2,0:0:0:0:
256,192,105349,1,0,0:0:0:0:
256,192,105639,1,2,0:0:0:0:
256,192,105833,1,0,0:0:0:0:
256,192,106026,1,2,0:0:0:0:
256,192,106220,1,2,0:0:0:0:
256,192,106413,1,0,0:0:0:0:
256,192,106607,1,0,0:0:0:0:
256,192,106994,1,2,0:0:0:0:
256,192,107381,1,2,0:0:0:0:
256,192,107478,1,2,0:0:0:0:
256,192,107575,1,0,0:0:0:0:
256,192,107768,1,0,0:0:0:0:
256,192,107962,1,2,0:0:0:0:
256,192,108155,1,2,0:0:0:0:
256,192,108446,1,0,0:0:0:0:
256,192,108736,1,2,0:0:0:0:
256,192,108930,1,2,0:0:0:0:
256,192,109220,1,0,0:0:0:0:
256,192,109510,1,2,0:0:0:0:
256,192,109704,1,0,0:0:0:0:
256,192,109897,1,0,0:0:0:0:
256,192,110091,1,2,0:0:0:0:
256,192,110478,1,2,0:0:0:0:
256,192,110607,1,0,0:0:0:0:
256,192,110736,1,2,0:0:0:0:
256,192,110865,1,0,0:0:0:0:
256,192,111059,1,0,0:0:0:0:
256,192,111252,1,2,0:0:0:0:
256,192,111381,1,2,0:0:0:0:
256,192,111510,1,2,0:0:0:0:
256,192,111639,1,0,0:0:0:0:
256,192,112026,1,2,0:0:0:0:
256,192,112317,1,2,0:0:0:0:
256,192,112607,1,2,0:0:0:0:
256,192,112800,1,0,0:0:0:0:
256,192,113188,1,0,0:0:0:0:
256,192,113381,1,0,0:0:0:0:
256,192,113575,1,2,0:0:0:0:
256,192,113768,1,0,0:0:0:0:
256,192,113865,1,0,0:0:0:0:
256,192,113962,1,2,0:0:0:0:
256,192,114155,1,0,0:0:0:0:
256,192,114349,1,2,0:0:0:0:
256,192,114736,1,0,0:0:0:0:
256,192,114930,1,2,0:0:0:0:
256,192,115123,1,2,0:0:0:0:
256,192,115317,1,0,0:0:0:0:
256,192,115413,1,0,0:0:0:0:
256,192,115510,1,2,0:0:0:0:
256,192,115704,1,2,0:0:0:0:
256,192,115897,1,0,0:0:0:0:
256,192,116091,1,2,0:0:0:0:
256,192,116284,1,0,0:0:0:0:
256,192,116671,1,2,0:0:0:0:
256,192,116865,1,2,0:0:0:0:
256,192,116962,1,2,0:0:0:0:
256,192,117059,1,2,0:0:0:0:
256,192,117252,1,0,0:0:0:0:
256,192,117446,1,2,0:0:0:0:
256,192,117736,1,2,0:0:0:0:
256,192,118026,1,0,0:0:0:0:
256,192,118220,1,2,0:0:0:0:
256,192,118800,1,2,0:0:0:0:
256,192,118994,1,2,0:0:0:0:
256,192,119091,1,2,0:0:0:0:
256,192,119188,1,0,0:0:0:0:
256,192,119284,1,0,0:0:0:0:
256,192,119381,1,2,0:0:0:0:
256,192,119478,1,2,0:0:0:0:
256,192,119575,1,0,0:0:0:0:
256,192,119671,1,0,0:0:0:0:
256,192,119768,1,2,0:0:0:0:
256,192,120155,1,0,0:0:0:0:
256,192,120349,1,2,0:0:0:0:
256,192,120542,1,2,0:0:0:0:
256,192,120639,1,2,0:0:0:0:
256,192,120736,1,0,0:0:0:0:
256,192,120930,1,0,0:0:0:0:
256,192,121123,1,2,0:0:0:0:
256,192,121317,1,2,0:0:0:0:
256,192,121607,1,2,0:0:0:0:
256,192,121897,1,0,0:0:0:0:
256,192,121994,1,0,0:0:0:0:
256,192,122091,1,2,0:0:0:0:
256,192,122478,1,0,0:0:0:0:
256,192,122865,1,2,0:0:0:0:
256,192,122994,1,0,0:0:0:0:
256,192,123123,1,2,0:0:0:0:
256,192,123252,1,2,0:0:0:0:
256,192,123446,1,0,0:0:0:0:
256,192,123639,1,2,0:0:0:0:
256,192,123768,1,2,0:0:0:0:
256,192,123897,1,2,0:0:0:0:
256,192,124026,1,0,0:0:0:0:
256,320,124413,2,0,P|320:288|96:160,1,545.999975006105
256,192,126155,1,2,0:0:0:0:
256,192,126475,1,2,0:0:0:0:
256,192,126813,1,0,0:0:0:0:
256,192,126983,1,0,0:0:0:0:
256,192,127152,1,0,0:0:0:0:
256,192,127500,1,2,0:0:0:0:
256,192,127849,1,0,0:0:0:0:
256,192,128198,1,2,0:0:0:0:
256,192,128547,1,2,0:0:0:0:
256,192,129245,1,2,0:0:0:0:
256,192,129593,1,2,0:0:0:0:
256,192,129942,1,2,0:0:0:0:
256,192,130117,1,0,0:0:0:0:
256,192,130465,1,0,0:0:0:0:
256,192,130620,1,2,0:0:0:0:
256,192,130999,1,2,0:0:0:0:
256,192,131379,1,2,0:0:0:0:
256,192,131593,1,0,0:0:0:0:
256,192,131807,1,2,0:0:0:0:
256,192,132320,1,2,0:0:0:0:
256,192,132961,1,2,0:0:0:0:
256,192,133567,1,2,0:0:0:0:
256,192,134216,1,0,0:0:0:0:
256,192,134943,1,0,0:0:0:0:
256,192,135743,12,0,137343,0:0:0:0:
