osu file format v14

[General]
AudioFilename: audio.mp3
AudioLeadIn: 0
PreviewTime: 76483
Countdown: 0
SampleSet: Normal
StackLeniency: 0.7
Mode: 1
LetterboxInBreaks: 0
WidescreenStoryboard: 0

[Editor]
DistanceSpacing: 1.3
BeatDivisor: 4
GridSize: 32
TimelineZoom: 1.799999

[Metadata]
Title:Knight of Firmament
TitleUnicode:Knight of Firmament
Artist:EYE XY feat. Yoneko
ArtistUnicode:EYE XY feat. Yoneko
Creator:[_Chichinya_]
Version:Vulkin's Oni
Source:Cytus
Tags:EYE_XY Holy Knight Deemo Knight Iris Collection Chevalier Rayark Inc. Chapter K Holy Medieval Xiao Yan Vulkin Saturnalize Idealism Nardoxyribonucleic
BeatmapID:1721401
BeatmapSetID:812640

[Difficulty]
HPDrainRate:5.5
CircleSize:7
OverallDifficulty:5.5
ApproachRate:10
SliderMultiplier:1.4
SliderTickRate:1

[Events]
//Background and Video events
0,0,"7.png",0,0
//Break Periods
//Storyboard Layer 0 (Background)
//Storyboard Layer 1 (Fail)
//Storyboard Layer 2 (Pass)
//Storyboard Layer 3 (Foreground)
//Storyboard Sound Samples

[TimingPoints]
2161,387.096774193548,4,1,0,70,1,0
26935,-100,4,1,0,50,0,0
39322,-100,4,1,0,70,0,0
64096,-100,4,1,0,70,0,1
76483,254.345061466723,3,1,0,70,1,0
76483,-153.846153846154,3,1,0,70,0,0
88691,387.096774193548,4,1,0,70,1,0
88691,-102.040816326531,4,1,0,70,0,0
101078,-100,4,1,0,70,0,1
113078,-100,4,1,0,70,0,0
113465,-100,4,1,0,70,0,1
125073,461.538461538462,3,1,0,70,1,9
125073,-84.0336134453781,3,1,0,70,0,9
125996,375,3,1,0,70,1,9
125996,-103.092783505155,3,1,0,70,0,9
126371,344.827586206897,3,1,0,70,1,0
126371,-112.359550561798,3,1,0,70,0,0
130508,363.636363636364,3,1,0,70,1,0
130508,-106.382978723404,3,1,0,70,0,0
131235,387.096774193548,3,1,0,70,1,8
131428,487.80487804878,3,1,0,70,1,8
131428,-79.3650793650794,3,1,0,70,0,8
131671,495.867768595041,3,1,0,70,1,0
131671,-78.125,3,1,0,70,0,0
132166,638.297872340426,3,1,0,70,1,8
132166,-60.6060606060606,3,1,0,70,0,8
132804,638.297872340426,3,1,0,70,1,8
132804,-60.6060606060606,3,1,0,70,0,8
133442,638.297872340426,3,1,0,70,1,0
133442,-60.6060606060606,3,1,0,70,0,0
134080,727.272727272727,3,1,0,70,1,8
134080,-53.1914893617021,3,1,0,70,0,8
134807,810.810810810811,3,1,0,70,1,8
134807,-47.8468899521531,3,1,0,70,0,0
135617,810.810810810811,3,1,0,70,1,0
135617,-47.8468899521531,3,1,0,70,0,0

[HitObjects]
256,192,2160,5,0,0:0:0:0:
256,192,2257,1,8,0:0:0:0:
256,192,2354,1,8,0:0:0:0:
256,192,2548,1,0,0:0:0:0:
256,192,2644,1,8,0:0:0:0:
256,192,2741,1,8,0:0:0:0:
256,192,3709,1,0,0:0:0:0:
256,192,3806,1,0,0:0:0:0:
256,192,3902,1,8,0:0:0:0:
256,192,4096,1,0,0:0:0:0:
256,192,4193,1,0,0:0:0:0:
256,192,4290,1,8,0:0:0:0:
256,192,5257,1,8,0:0:0:0:
256,192,5354,1,0,0:0:0:0:
256,192,5451,1,0,0:0:0:0:
256,192,5644,1,8,0:0:0:0:
256,192,5741,1,0,0:0:0:0:
256,192,5838,1,0,0:0:0:0:
256,192,6031,1,0,0:0:0:0:
256,192,6225,1,0,0:0:0:0:
256,192,6322,1,0,0:0:0:0:
256,192,6419,1,8,0:0:0:0:
256,192,6612,1,0,0:0:0:0:
256,192,6806,1,8,0:0:0:0:
256,192,6902,1,8,0:0:0:0:
256,192,6999,1,0,0:0:0:0:
256,192,7193,1,8,0:0:0:0:
256,192,7290,1,8,0:0:0:0:
256,192,7386,1,0,0:0:0:0:
256,192,7580,1,8,0:0:0:0:
256,192,7773,1,8,0:0:0:0:
256,192,7870,1,0,0:0:0:0:
256,192,7967,1,8,0:0:0:0:
256,192,8160,1,0,0:0:0:0:
256,192,8354,1,12,0:0:0:0:
256,192,8935,1,8,0:0:0:0:
256,192,9128,1,0,0:0:0:0:
256,192,9515,1,8,0:0:0:0:
256,192,9709,1,0,0:0:0:0:
256,192,9806,1,0,0:0:0:0:
256,192,9902,1,8,0:0:0:0:
256,192,10096,1,0,0:0:0:0:
256,192,10290,1,0,0:0:0:0:
256,192,10483,1,8,0:0:0:0:
256,192,10677,1,0,0:0:0:0:
256,192,11064,1,8,0:0:0:0:
256,192,11257,1,0,0:0:0:0:
256,192,11451,1,8,0:0:0:0:
256,192,11644,1,0,0:0:0:0:
256,192,12031,1,8,0:0:0:0:
256,192,12225,1,0,0:0:0:0:
256,192,12612,1,8,0:0:0:0:
256,192,12806,1,0,0:0:0:0:
256,192,12902,1,0,0:0:0:0:
256,192,12999,1,8,0:0:0:0:
256,192,13193,1,0,0:0:0:0:
256,192,13386,1,0,0:0:0:0:
256,192,13580,1,8,0:0:0:0:
256,192,13773,1,0,0:0:0:0:
256,192,13870,1,0,0:0:0:0:
256,192,13967,1,0,0:0:0:0:
256,192,14064,1,0,0:0:0:0:
256,192,14160,1,8,0:0:0:0:
256,192,14354,1,0,0:0:0:0:
256,192,14548,1,8,0:0:0:0:
256,192,14741,1,8,0:0:0:0:
256,192,14838,1,8,0:0:0:0:
256,192,14935,1,0,0:0:0:0:
256,192,15128,1,0,0:0:0:0:
256,192,15322,1,8,0:0:0:0:
256,192,15419,1,8,0:0:0:0:
256,192,15515,1,0,0:0:0:0:
256,192,15612,1,0,0:0:0:0:
256,192,15709,1,8,0:0:0:0:
256,192,16096,1,8,0:0:0:0:
256,192,16290,1,0,0:0:0:0:
256,192,16386,1,8,0:0:0:0:
256,192,16483,1,0,0:0:0:0:
256,192,16677,1,0,0:0:0:0:
256,192,16870,1,8,0:0:0:0:
256,192,16967,1,0,0:0:0:0:
256,192,17064,1,0,0:0:0:0:
256,192,17160,1,0,0:0:0:0:
256,192,17257,1,8,0:0:0:0:
256,192,17644,1,0,0:0:0:0:
256,192,17838,1,0,0:0:0:0:
256,192,17935,1,0,0:0:0:0:
256,192,18031,1,8,0:0:0:0:
256,192,18225,1,0,0:0:0:0:
256,192,18419,1,0,0:0:0:0:
256,192,18515,1,0,0:0:0:0:
256,192,18612,1,0,0:0:0:0:
256,192,18709,1,0,0:0:0:0:
256,192,18806,1,8,0:0:0:0:
256,192,18999,1,0,0:0:0:0:
256,192,19193,1,8,0:0:0:0:
256,192,19290,1,8,0:0:0:0:
256,192,19386,1,8,0:0:0:0:
256,192,19483,1,8,0:0:0:0:
256,192,19580,1,0,0:0:0:0:
256,192,19773,1,8,0:0:0:0:
256,192,19967,1,0,0:0:0:0:
256,192,20160,1,0,0:0:0:0:
256,192,20257,1,0,0:0:0:0:
256,192,20354,1,8,0:0:0:0:
256,192,20548,1,0,0:0:0:0:
256,192,20741,1,8,0:0:0:0:
256,192,20838,1,8,0:0:0:0:
256,192,20935,1,0,0:0:0:0:
256,192,21031,1,0,0:0:0:0:
256,192,21128,1,8,0:0:0:0:
256,192,21515,1,0,0:0:0:0:
256,192,21709,1,0,0:0:0:0:
256,192,21806,1,0,0:0:0:0:
256,192,21902,1,8,0:0:0:0:
256,192,22096,1,0,0:0:0:0:
256,192,22290,1,8,0:0:0:0:
256,192,22386,1,8,0:0:0:0:
256,192,22483,1,8,0:0:0:0:
256,192,22677,1,0,0:0:0:0:
256,192,22773,1,0,0:0:0:0:
256,192,22870,1,0,0:0:0:0:
256,192,23064,1,0,0:0:0:0:
256,192,23160,1,0,0:0:0:0:
256,192,23257,1,0,0:0:0:0:
256,192,23354,1,0,0:0:0:0:
256,192,23451,1,8,0:0:0:0:
256,192,23644,1,0,0:0:0:0:
256,192,23838,1,8,0:0:0:0:
256,192,23935,1,8,0:0:0:0:
256,192,24031,1,8,0:0:0:0:
256,192,24419,1,8,0:0:0:0:
256,192,24612,1,8,0:0:0:0:
256,192,24709,1,8,0:0:0:0:
256,192,24806,1,8,0:0:0:0:
256,192,25193,1,0,0:0:0:0:
256,192,25386,1,12,0:0:0:0:
256,192,26935,1,0,0:0:0:0:
256,192,27225,1,8,0:0:0:0:
256,192,27709,1,8,0:0:0:0:
256,192,27999,1,8,0:0:0:0:
256,192,28290,1,0,0:0:0:0:
256,192,28483,1,8,0:0:0:0:
256,192,28773,1,8,0:0:0:0:
256,192,29064,1,0,0:0:0:0:
256,192,30031,1,0,0:0:0:0:
256,192,30322,1,8,0:0:0:0:
256,192,30806,1,8,0:0:0:0:
256,192,31096,1,0,0:0:0:0:
256,192,31580,1,8,0:0:0:0:
256,192,31870,1,0,0:0:0:0:
256,192,32160,1,8,0:0:0:0:
256,192,32548,1,8,0:0:0:0:
256,192,32741,1,0,0:0:0:0:
256,192,33128,1,0,0:0:0:0:
256,192,33322,1,0,0:0:0:0:
256,192,33419,1,0,0:0:0:0:
256,192,33515,1,8,0:0:0:0:
256,192,33709,1,0,0:0:0:0:
256,192,33902,1,8,0:0:0:0:
256,192,34096,1,8,0:0:0:0:
256,192,34193,1,8,0:0:0:0:
256,192,34290,1,0,0:0:0:0:
256,192,34483,1,8,0:0:0:0:
256,192,34677,1,0,0:0:0:0:
256,192,34870,1,8,0:0:0:0:
256,192,34967,1,0,0:0:0:0:
256,192,35064,1,8,0:0:0:0:
256,192,35160,1,8,0:0:0:0:
256,192,35257,1,0,0:0:0:0:
256,192,35451,1,0,0:0:0:0:
256,192,36225,1,0,0:0:0:0:
256,192,36322,1,0,0:0:0:0:
256,192,36515,1,8,0:0:0:0:
256,192,36806,1,0,0:0:0:0:
256,192,36999,1,8,0:0:0:0:
256,192,37096,1,0,0:0:0:0:
256,192,37290,1,8,0:0:0:0:
256,192,37580,1,0,0:0:0:0:
256,192,37773,1,8,0:0:0:0:
256,192,37870,1,8,0:0:0:0:
256,192,37967,1,0,0:0:0:0:
256,192,38064,1,0,0:0:0:0:
256,192,38160,1,8,0:0:0:0:
256,192,38354,1,0,0:0:0:0:
256,192,38548,1,8,0:0:0:0:
256,192,39322,1,4,0:0:0:0:
256,192,39515,1,8,0:0:0:0:
256,192,39612,1,8,0:0:0:0:
256,192,39709,1,0,0:0:0:0:
256,192,39902,1,8,0:0:0:0:
256,192,40096,1,0,0:0:0:0:
256,192,40290,1,8,0:0:0:0:
256,192,40386,1,0,0:0:0:0:
256,192,40483,1,8,0:0:0:0:
256,192,40677,1,0,0:0:0:0:
256,192,40870,1,8,0:0:0:0:
256,192,41160,1,0,0:0:0:0:
256,192,41451,1,8,0:0:0:0:
256,192,42419,1,0,0:0:0:0:
256,192,42612,1,8,0:0:0:0:
256,192,42709,1,0,0:0:0:0:
256,192,42806,1,8,0:0:0:0:
256,192,42999,1,0,0:0:0:0:
256,192,43193,1,8,0:0:0:0:
256,192,43386,1,8,0:0:0:0:
256,192,43483,1,8,0:0:0:0:
256,192,43580,1,0,0:0:0:0:
256,192,43773,1,0,0:0:0:0:
256,192,43967,1,8,0:0:0:0:
256,192,44257,1,8,0:0:0:0:
256,192,44548,1,0,0:0:0:0:
256,192,45322,1,8,0:0:0:0:
256,192,45515,1,0,0:0:0:0:
256,192,45709,1,0,0:0:0:0:
256,192,45806,1,0,0:0:0:0:
256,192,45902,1,8,0:0:0:0:
256,192,46096,1,0,0:0:0:0:
256,192,46290,1,8,0:0:0:0:
256,192,46483,1,8,0:0:0:0:
256,192,46580,1,8,0:0:0:0:
256,192,46677,1,0,0:0:0:0:
256,192,46870,1,8,0:0:0:0:
256,192,47064,1,0,0:0:0:0:
256,192,47257,1,0,0:0:0:0:
256,192,47354,1,0,0:0:0:0:
256,192,47451,1,8,0:0:0:0:
256,192,47644,1,8,0:0:0:0:
256,192,47838,1,0,0:0:0:0:
256,192,48031,1,8,0:0:0:0:
256,192,48225,1,8,0:0:0:0:
256,192,48612,1,0,0:0:0:0:
256,192,48709,1,8,0:0:0:0:
256,192,48902,1,0,0:0:0:0:
256,192,49096,1,0,0:0:0:0:
256,192,49193,1,8,0:0:0:0:
256,192,49386,1,8,0:0:0:0:
256,192,49483,1,0,0:0:0:0:
256,192,49677,1,8,0:0:0:0:
256,192,49870,1,0,0:0:0:0:
256,192,49967,1,0,0:0:0:0:
256,192,50064,1,0,0:0:0:0:
256,192,50160,1,8,0:0:0:0:
256,192,50451,1,0,0:0:0:0:
256,192,50741,1,8,0:0:0:0:
256,192,51709,1,4,0:0:0:0:
256,192,52096,1,8,0:0:0:0:
256,192,52193,1,0,0:0:0:0:
256,192,52290,1,0,0:0:0:0:
256,192,52483,1,0,0:0:0:0:
256,192,52677,1,0,0:0:0:0:
256,192,52870,1,8,0:0:0:0:
256,192,53064,1,8,0:0:0:0:
256,192,53257,1,0,0:0:0:0:
256,192,53548,1,8,0:0:0:0:
256,192,53838,1,8,0:0:0:0:
256,192,54031,1,0,0:0:0:0:
256,192,54225,1,0,0:0:0:0:
256,192,54419,1,8,0:0:0:0:
256,192,54515,1,0,0:0:0:0:
256,192,54612,1,8,0:0:0:0:
256,192,54709,1,8,0:0:0:0:
256,192,54806,1,0,0:0:0:0:
256,192,54999,1,0,0:0:0:0:
256,192,55096,1,8,0:0:0:0:
256,192,55386,1,0,0:0:0:0:
256,192,55580,1,8,0:0:0:0:
256,192,55773,1,8,0:0:0:0:
256,192,55870,1,8,0:0:0:0:
256,192,56064,1,0,0:0:0:0:
256,192,56160,1,0,0:0:0:0:
256,192,56257,1,0,0:0:0:0:
256,192,56354,1,8,0:0:0:0:
256,192,56548,1,8,0:0:0:0:
256,192,56644,1,0,0:0:0:0:
256,192,56838,1,0,0:0:0:0:
256,192,56935,1,8,0:0:0:0:
256,192,57515,1,0,0:0:0:0:
256,192,57612,1,0,0:0:0:0:
256,192,57709,1,0,0:0:0:0:
256,192,57806,1,0,0:0:0:0:
256,192,57902,1,8,0:0:0:0:
256,192,58290,1,8,0:0:0:0:
256,192,58483,1,0,0:0:0:0:
256,192,58677,1,8,0:0:0:0:
256,192,58967,1,8,0:0:0:0:
256,192,59064,1,0,0:0:0:0:
256,192,59257,1,8,0:0:0:0:
256,192,59451,1,0,0:0:0:0:
256,192,59741,1,0,0:0:0:0:
256,192,60031,1,0,0:0:0:0:
256,192,60128,1,0,0:0:0:0:
256,192,60225,1,8,0:0:0:0:
256,192,60419,1,0,0:0:0:0:
256,192,60612,1,8,0:0:0:0:
256,192,60806,1,0,0:0:0:0:
256,192,60999,1,0,0:0:0:0:
256,192,61386,1,8,0:0:0:0:
256,192,61580,1,0,0:0:0:0:
256,192,61773,1,8,0:0:0:0:
256,192,62064,1,0,0:0:0:0:
256,192,62354,1,0,0:0:0:0:
256,192,62548,1,12,0:0:0:0:
256,192,62838,1,0,0:0:0:0:
256,192,63128,1,8,0:0:0:0:
256,192,63322,1,0,0:0:0:0:
256,192,63515,1,0,0:0:0:0:
256,192,63612,1,0,0:0:0:0:
256,192,63709,1,8,0:0:0:0:
256,192,63806,1,0,0:0:0:0:
256,192,63902,1,0,0:0:0:0:
256,192,64096,1,12,0:0:0:0:
256,192,64386,1,8,0:0:0:0:
256,192,64483,1,0,0:0:0:0:
256,192,64677,1,8,0:0:0:0:
256,192,64870,1,0,0:0:0:0:
256,192,65160,1,0,0:0:0:0:
256,192,65257,1,8,0:0:0:0:
256,192,65451,1,0,0:0:0:0:
256,192,65644,1,8,0:0:0:0:
256,192,65741,1,0,0:0:0:0:
256,192,65838,1,0,0:0:0:0:
256,192,65935,1,8,0:0:0:0:
256,192,66128,1,0,0:0:0:0:
256,192,66225,1,8,0:0:0:0:
256,192,66419,1,8,0:0:0:0:
256,192,66515,1,0,0:0:0:0:
256,192,66612,1,0,0:0:0:0:
256,192,66709,1,0,0:0:0:0:
256,192,66806,1,8,0:0:0:0:
256,192,66999,1,8,0:0:0:0:
256,192,67193,1,0,0:0:0:0:
256,192,67483,1,8,0:0:0:0:
256,192,67580,1,0,0:0:0:0:
256,192,67773,1,8,0:0:0:0:
256,192,67967,1,0,0:0:0:0:
256,192,68160,1,0,0:0:0:0:
256,192,68257,1,8,0:0:0:0:
256,192,68451,1,0,0:0:0:0:
256,192,68548,1,8,0:0:0:0:
256,192,68741,1,8,0:0:0:0:
256,192,68935,1,0,0:0:0:0:
256,192,69031,1,0,0:0:0:0:
256,192,69128,1,8,0:0:0:0:
256,192,69225,1,0,0:0:0:0:
256,192,69322,1,8,0:0:0:0:
256,192,69515,1,0,0:0:0:0:
256,192,69709,1,8,0:0:0:0:
256,192,69902,1,8,0:0:0:0:
256,192,69999,1,8,0:0:0:0:
256,192,70096,1,8,0:0:0:0:
256,192,70193,1,8,0:0:0:0:
256,192,70290,1,0,0:0:0:0:
256,192,70580,1,8,0:0:0:0:
256,192,70677,1,0,0:0:0:0:
256,192,70870,1,8,0:0:0:0:
256,192,71064,1,0,0:0:0:0:
256,192,71354,1,0,0:0:0:0:
256,192,71451,1,8,0:0:0:0:
256,192,71644,1,0,0:0:0:0:
256,192,71838,1,8,0:0:0:0:
256,192,71935,1,0,0:0:0:0:
256,192,72031,1,0,0:0:0:0:
256,192,72128,1,8,0:0:0:0:
256,192,72322,1,0,0:0:0:0:
256,192,72419,1,8,0:0:0:0:
256,192,72612,1,0,0:0:0:0:
256,192,72806,1,8,0:0:0:0:
256,192,72902,1,8,0:0:0:0:
256,192,72999,1,0,0:0:0:0:
256,192,73193,1,8,0:0:0:0:
256,192,73386,1,0,0:0:0:0:
256,192,73515,1,8,0:0:0:0:
256,192,73644,1,8,0:0:0:0:
256,192,73773,1,0,0:0:0:0:
256,192,73967,1,8,0:0:0:0:
256,192,74160,1,0,0:0:0:0:
256,192,74290,1,0,0:0:0:0:
256,192,74419,1,0,0:0:0:0:
256,192,74548,1,8,0:0:0:0:
256,192,74741,1,0,0:0:0:0:
256,192,74935,1,8,0:0:0:0:
256,192,75225,1,8,0:0:0:0:
256,192,75515,1,0,0:0:0:0:
256,192,76096,1,8,0:0:0:0:
256,192,76193,1,8,0:0:0:0:
256,192,76290,1,8,0:0:0:0:
256,192,76386,1,8,0:0:0:0:
256,192,76483,1,8,0:0:0:0:
256,192,76737,1,0,0:0:0:0:
256,192,77246,1,8,0:0:0:0:
256,192,77500,1,0,0:0:0:0:
256,192,77754,1,0,0:0:0:0:
256,192,77881,1,8,0:0:0:0:
256,192,78009,1,8,0:0:0:0:
256,192,78263,1,8,0:0:0:0:
256,192,78517,1,0,0:0:0:0:
256,192,78772,1,8,0:0:0:0:
256,192,79026,1,0,0:0:0:0:
256,192,79280,1,0,0:0:0:0:
256,192,79407,1,0,0:0:0:0:
256,192,79535,1,8,0:0:0:0:
256,192,79789,1,0,0:0:0:0:
256,192,80298,1,8,0:0:0:0:
256,192,80679,1,0,0:0:0:0:
256,192,80806,1,0,0:0:0:0:
256,192,80934,1,0,0:0:0:0:
256,192,81061,1,8,0:0:0:0:
256,192,81315,1,8,0:0:0:0:
256,192,81569,1,0,0:0:0:0:
256,192,81824,1,8,0:0:0:0:
256,192,82078,1,0,0:0:0:0:
256,192,82332,1,0,0:0:0:0:
256,192,82460,1,0,0:0:0:0:
256,192,82587,1,8,0:0:0:0:
256,192,82841,1,0,0:0:0:0:
256,192,82968,1,0,0:0:0:0:
256,192,83095,1,8,0:0:0:0:
256,192,83223,1,0,0:0:0:0:
256,192,83350,1,8,0:0:0:0:
256,192,83604,1,8,0:0:0:0:
256,192,83731,1,8,0:0:0:0:
256,192,83859,1,0,0:0:0:0:
256,192,83986,1,0,0:0:0:0:
256,192,84113,1,8,0:0:0:0:
256,192,84367,1,8,0:0:0:0:
256,192,84622,1,0,0:0:0:0:
256,192,84749,1,0,0:0:0:0:
256,192,84876,1,8,0:0:0:0:
256,192,85130,1,0,0:0:0:0:
256,192,85257,1,8,0:0:0:0:
256,192,85385,1,0,0:0:0:0:
256,192,85512,1,0,0:0:0:0:
256,192,85639,1,8,0:0:0:0:
256,192,85893,1,8,0:0:0:0:
256,192,86148,1,0,0:0:0:0:
256,192,86402,1,8,0:0:0:0:
256,192,86656,1,0,0:0:0:0:
256,192,86911,1,0,0:0:0:0:
256,192,87038,1,8,0:0:0:0:
256,192,87165,1,8,0:0:0:0:
256,192,87419,1,8,0:0:0:0:
256,192,87674,1,0,0:0:0:0:
256,192,87928,1,12,0:0:0:0:
256,192,88691,1,12,0:0:0:0:
256,192,88981,1,0,0:0:0:0:
256,192,89078,1,8,0:0:0:0:
256,192,89271,1,0,0:0:0:0:
256,192,89465,1,8,0:0:0:0:
256,192,89852,1,8,0:0:0:0:
256,192,90045,1,8,0:0:0:0:
256,192,90239,1,0,0:0:0:0:
256,192,90529,1,0,0:0:0:0:
256,192,90820,1,0,0:0:0:0:
256,192,91013,1,8,0:0:0:0:
256,192,91207,1,0,0:0:0:0:
256,192,91400,1,8,0:0:0:0:
256,192,91594,1,0,0:0:0:0:
256,192,91691,1,0,0:0:0:0:
256,192,91787,1,0,0:0:0:0:
256,192,92078,1,8,0:0:0:0:
256,192,92368,1,0,0:0:0:0:
256,192,92561,1,8,0:0:0:0:
256,192,92755,1,0,0:0:0:0:
256,192,92949,1,8,0:0:0:0:
256,192,93045,1,8,0:0:0:0:
256,192,93142,1,0,0:0:0:0:
256,192,93239,1,0,0:0:0:0:
256,192,93336,1,8,0:0:0:0:
256,192,93529,1,0,0:0:0:0:
256,192,93626,1,8,0:0:0:0:
256,192,93820,1,8,0:0:0:0:
256,192,93916,1,0,0:0:0:0:
256,192,94110,1,8,0:0:0:0:
256,192,94497,1,0,0:0:0:0:
256,192,94594,1,0,0:0:0:0:
256,192,94691,1,0,0:0:0:0:
256,192,94787,1,0,0:0:0:0:
256,192,94884,1,8,0:0:0:0:
256,192,95174,1,0,0:0:0:0:
256,192,95271,1,8,0:0:0:0:
256,192,95465,1,0,0:0:0:0:
256,192,95658,1,8,0:0:0:0:
256,192,96045,1,0,0:0:0:0:
256,192,96239,1,8,0:0:0:0:
256,192,96432,1,0,0:0:0:0:
256,192,96723,1,8,0:0:0:0:
256,192,96820,1,0,0:0:0:0:
256,192,97013,1,0,0:0:0:0:
256,192,97110,1,0,0:0:0:0:
256,192,97207,1,8,0:0:0:0:
256,192,97400,1,0,0:0:0:0:
256,192,97594,1,8,0:0:0:0:
256,192,97787,1,0,0:0:0:0:
256,192,97981,1,0,0:0:0:0:
256,192,98368,1,8,0:0:0:0:
256,192,98561,1,0,0:0:0:0:
256,192,98755,1,8,0:0:0:0:
256,192,99045,1,8,0:0:0:0:
256,192,99142,1,0,0:0:0:0:
256,192,99336,1,8,0:0:0:0:
256,192,99529,1,0,0:0:0:0:
256,192,99820,1,0,0:0:0:0:
256,192,100110,1,8,0:0:0:0:
256,192,100303,1,0,0:0:0:0:
256,192,100497,1,0,0:0:0:0:
256,192,100594,1,0,0:0:0:0:
256,192,100690,1,8,0:0:0:0:
256,192,100787,1,0,0:0:0:0:
256,192,100884,1,0,0:0:0:0:
256,192,101078,1,12,0:0:0:0:
256,192,101368,1,8,0:0:0:0:
256,192,101465,1,0,0:0:0:0:
256,192,101658,1,8,0:0:0:0:
256,192,101852,1,0,0:0:0:0:
256,192,102142,1,0,0:0:0:0:
256,192,102239,1,8,0:0:0:0:
256,192,102432,1,0,0:0:0:0:
256,192,102626,1,8,0:0:0:0:
256,192,102723,1,0,0:0:0:0:
256,192,102820,1,0,0:0:0:0:
256,192,102916,1,8,0:0:0:0:
256,192,103110,1,0,0:0:0:0:
256,192,103207,1,8,0:0:0:0:
256,192,103400,1,8,0:0:0:0:
256,192,103497,1,0,0:0:0:0:
256,192,103594,1,0,0:0:0:0:
256,192,103690,1,0,0:0:0:0:
256,192,103787,1,8,0:0:0:0:
256,192,103981,1,8,0:0:0:0:
256,192,104174,1,0,0:0:0:0:
256,192,104465,1,8,0:0:0:0:
256,192,104561,1,0,0:0:0:0:
256,192,104755,1,8,0:0:0:0:
256,192,104949,1,0,0:0:0:0:
256,192,105142,1,0,0:0:0:0:
256,192,105239,1,8,0:0:0:0:
256,192,105432,1,0,0:0:0:0:
256,192,105529,1,8,0:0:0:0:
256,192,105723,1,8,0:0:0:0:
256,192,105916,1,0,0:0:0:0:
256,192,106013,1,0,0:0:0:0:
256,192,106110,1,8,0:0:0:0:
256,192,106207,1,0,0:0:0:0:
256,192,106303,1,8,0:0:0:0:
256,192,106497,1,0,0:0:0:0:
256,192,106690,1,8,0:0:0:0:
256,192,106884,1,8,0:0:0:0:
256,192,106981,1,8,0:0:0:0:
256,192,107078,1,8,0:0:0:0:
256,192,107174,1,8,0:0:0:0:
256,192,107271,1,0,0:0:0:0:
256,192,107561,1,8,0:0:0:0:
256,192,107658,1,0,0:0:0:0:
256,192,107852,1,8,0:0:0:0:
256,192,108045,1,0,0:0:0:0:
256,192,108336,1,0,0:0:0:0:
256,192,108432,1,8,0:0:0:0:
256,192,108626,1,0,0:0:0:0:
256,192,108820,1,8,0:0:0:0:
256,192,108916,1,0,0:0:0:0:
256,192,109013,1,0,0:0:0:0:
256,192,109110,1,8,0:0:0:0:
256,192,109303,1,0,0:0:0:0:
256,192,109400,1,8,0:0:0:0:
256,192,109594,1,0,0:0:0:0:
256,192,109787,1,8,0:0:0:0:
256,192,109884,1,8,0:0:0:0:
256,192,109981,1,0,0:0:0:0:
256,192,110174,1,8,0:0:0:0:
256,192,110368,1,0,0:0:0:0:
256,192,110497,1,8,0:0:0:0:
256,192,110626,1,8,0:0:0:0:
256,192,110755,1,0,0:0:0:0:
256,192,110949,1,8,0:0:0:0:
256,192,111142,1,0,0:0:0:0:
256,192,111271,1,0,0:0:0:0:
256,192,111400,1,0,0:0:0:0:
256,192,111529,1,8,0:0:0:0:
256,192,111723,1,0,0:0:0:0:
256,192,111916,1,8,0:0:0:0:
256,192,112207,1,8,0:0:0:0:
256,192,112497,1,0,0:0:0:0:
256,192,113078,1,8,0:0:0:0:
256,192,113174,1,8,0:0:0:0:
256,192,113271,1,0,0:0:0:0:
256,192,113465,1,12,0:0:0:0:
256,192,113755,1,8,0:0:0:0:
256,192,113852,1,0,0:0:0:0:
256,192,114045,1,8,0:0:0:0:
256,192,114239,1,0,0:0:0:0:
256,192,114529,1,0,0:0:0:0:
256,192,114626,1,8,0:0:0:0:
256,192,114820,1,0,0:0:0:0:
256,192,115013,1,8,0:0:0:0:
256,192,115110,1,8,0:0:0:0:
256,192,115207,1,0,0:0:0:0:
256,192,115303,1,8,0:0:0:0:
256,192,115497,1,0,0:0:0:0:
256,192,115594,1,8,0:0:0:0:
256,192,115787,1,0,0:0:0:0:
256,192,115981,1,8,0:0:0:0:
256,192,116078,1,0,0:0:0:0:
256,192,116174,1,8,0:0:0:0:
256,192,116271,1,8,0:0:0:0:
256,192,116368,1,0,0:0:0:0:
256,192,116561,1,8,0:0:0:0:
256,192,116852,1,8,0:0:0:0:
256,192,116949,1,0,0:0:0:0:
256,192,117142,1,8,0:0:0:0:
256,192,117336,1,0,0:0:0:0:
256,192,117626,1,0,0:0:0:0:
256,192,117723,1,8,0:0:0:0:
256,192,117916,1,0,0:0:0:0:
256,192,118110,1,12,0:0:0:0:
256,192,118497,1,0,0:0:0:0:
256,192,118690,1,0,0:0:0:0:
256,192,118787,1,0,0:0:0:0:
256,192,118884,1,8,0:0:0:0:
256,192,119078,1,0,0:0:0:0:
256,192,119271,1,8,0:0:0:0:
256,192,119368,1,8,0:0:0:0:
256,192,119465,1,8,0:0:0:0:
256,192,119658,1,4,0:0:0:0:
256,192,119949,1,8,0:0:0:0:
256,192,120045,1,0,0:0:0:0:
256,192,120239,1,8,0:0:0:0:
256,192,120432,1,0,0:0:0:0:
256,192,120723,1,0,0:0:0:0:
256,192,120820,1,8,0:0:0:0:
256,192,121013,1,0,0:0:0:0:
256,192,121207,1,8,0:0:0:0:
256,192,121400,1,0,0:0:0:0:
256,192,121497,1,8,0:0:0:0:
256,192,121690,1,8,0:0:0:0:
256,192,121787,1,0,0:0:0:0:
256,192,121981,1,8,0:0:0:0:
256,192,122078,1,0,0:0:0:0:
256,192,122174,1,8,0:0:0:0:
256,192,122271,1,8,0:0:0:0:
256,192,122368,1,0,0:0:0:0:
256,192,122561,1,8,0:0:0:0:
256,192,122755,1,0,0:0:0:0:
256,192,122884,1,8,0:0:0:0:
256,192,123013,1,8,0:0:0:0:
256,192,123142,1,0,0:0:0:0:
256,192,123336,1,0,0:0:0:0:
256,192,123529,1,8,0:0:0:0:
256,192,123658,1,0,0:0:0:0:
256,192,123787,1,0,0:0:0:0:
256,192,123916,1,8,0:0:0:0:
256,192,124110,1,0,0:0:0:0:
256,192,124303,1,8,0:0:0:0:
256,192,125073,1,4,0:0:0:0:
256,192,125996,1,8,0:0:0:0:
256,192,126371,1,8,0:0:0:0:
256,192,127060,1,0,0:0:0:0:
256,192,127405,1,8,0:0:0:0:
256,192,128095,1,8,0:0:0:0:
256,192,128439,1,0,0:0:0:0:
256,192,128784,1,0,0:0:0:0:
256,192,129129,1,8,0:0:0:0:
256,192,129474,1,8,0:0:0:0:
256,192,129819,1,0,0:0:0:0:
256,192,129991,1,8,0:0:0:0:
256,192,130336,1,8,0:0:0:0:
256,192,130508,1,8,0:0:0:0:
256,192,130871,1,0,0:0:0:0:
256,192,131235,1,8,0:0:0:0:
256,192,131428,1,0,0:0:0:0:
256,192,131671,1,8,0:0:0:0:
256,192,132166,1,8,0:0:0:0:
256,192,132804,1,0,0:0:0:0:
256,192,133442,1,8,0:0:0:0:
256,192,134080,1,8,0:0:0:0:
256,192,134807,1,0,0:0:0:0:
256,192,135617,1,12,0:0:0:0:
