osu file format v14

[General]
AudioFilename: audio.mp3
AudioLeadIn: 0
PreviewTime: 76483
Countdown: 0
SampleSet: Normal
StackLeniency: 0.7
Mode: 1
LetterboxInBreaks: 0
WidescreenStoryboard: 0

[Editor]
DistanceSpacing: 1.3
BeatDivisor: 3
GridSize: 32
TimelineZoom: 1.799999

[Metadata]
Title:Knight of Firmament
TitleUnicode:Knight of Firmament
Artist:EYE XY feat. Yoneko
ArtistUnicode:EYE XY feat. Yoneko
Creator:[_Chichinya_]
Version:Saturn's Muzukashii
Source:Cytus
Tags:EYE_XY Holy Knight Deemo Knight Iris Collection Chevalier Rayark Inc. Chapter K Holy Medieval Xiao Yan Vulkin Saturnalize Idealism Nardoxyribonucleic
BeatmapID:1705092
BeatmapSetID:812640

[Difficulty]
HPDrainRate:5
CircleSize:4
OverallDifficulty:5
ApproachRate:5
SliderMultiplier:1.4
SliderTickRate:1

[Events]
//Background and Video events
0,0,"7.png",0,0
//Break Periods
//Storyboard Layer 0 (Background)
//Storyboard Layer 1 (Fail)
//Storyboard Layer 2 (Pass)
//Storyboard Layer 3 (Foreground)
//Storyboard Sound Samples

[TimingPoints]
2161,387.096774193548,4,1,0,70,1,0
26935,-100,4,1,0,50,0,0
39322,-100,4,1,0,70,0,0
64096,-100,4,1,0,70,0,1
76483,254.345061466723,3,1,0,70,1,0
76483,-153.846153846154,3,1,0,70,0,0
88691,387.096774193548,4,1,0,70,1,0
88691,-102.040816326531,4,1,0,70,0,0
101078,-100,4,1,0,70,0,1
113078,-100,4,1,0,70,0,0
113465,-100,4,1,0,70,0,1
125073,461.538461538462,4,1,0,70,1,9
125073,-84.0336134453781,4,1,0,70,0,9
125996,375,4,1,0,70,1,9
125996,-103.092783505155,4,1,0,70,0,9
126371,344.827586206897,3,1,0,70,1,0
126371,-112.359550561798,3,1,0,70,0,0
130508,363.636363636364,4,1,0,70,1,0
130508,-106.382978723404,4,1,0,70,0,0
131235,387.096774193548,4,1,0,70,1,8
131428,487.80487804878,4,1,0,70,1,8
131428,-79.3650793650794,4,1,0,70,0,8
131671,495.867768595041,4,1,0,70,1,0
131671,-78.125,4,1,0,70,0,0
132166,638.297872340426,4,1,0,70,1,8
132166,-60.6060606060606,4,1,0,70,0,8
132804,638.297872340426,4,1,0,70,1,8
132804,-60.6060606060606,4,1,0,70,0,8
133442,638.297872340426,4,1,0,70,1,0
133442,-60.6060606060606,4,1,0,70,0,0
134080,727.272727272727,4,1,0,70,1,8
134080,-53.1914893617021,4,1,0,70,0,8
134807,810.810810810811,4,1,0,70,1,8
134807,-47.8468899521531,4,1,0,70,0,0
135617,810.810810810811,4,1,0,70,1,0
135617,-47.8468899521531,4,1,0,70,0,0

[HitObjects]
192,128,2160,5,0,0:0:0:0:
192,128,2548,1,0,0:0:0:0:
192,128,2644,1,0,0:0:0:0:
192,128,2741,1,0,0:0:0:0:
192,128,3709,1,0,0:0:0:0:
192,128,4096,1,0,0:0:0:0:
192,128,4193,1,0,0:0:0:0:
192,128,4290,1,0,0:0:0:0:
192,128,5257,1,0,0:0:0:0:
192,128,5644,1,0,0:0:0:0:
192,128,5741,1,0,0:0:0:0:
192,128,5838,1,0,0:0:0:0:
192,128,6031,1,0,0:0:0:0:
320,128,6419,1,2,0:0:0:0:
320,128,6806,1,2,0:0:0:0:
320,128,7193,1,2,0:0:0:0:
320,128,7290,1,2,0:0:0:0:
320,128,7386,1,2,0:0:0:0:
192,128,7580,1,0,0:0:0:0:
320,128,7967,1,2,0:0:0:0:
192,256,8354,1,4,0:0:0:0:
192,128,8935,1,0,0:0:0:0:
192,128,9322,1,0,0:0:0:0:
320,128,9515,1,2,0:0:0:0:
192,128,9709,1,0,0:0:0:0:
192,128,9806,1,0,0:0:0:0:
192,128,9902,1,0,0:0:0:0:
192,128,10290,1,0,0:0:0:0:
320,128,10483,1,2,0:0:0:0:
320,128,11064,1,2,0:0:0:0:
192,128,11257,1,0,0:0:0:0:
192,128,11451,1,0,0:0:0:0:
192,128,11548,1,0,0:0:0:0:
192,128,11644,1,0,0:0:0:0:
192,128,11838,1,0,0:0:0:0:
320,128,12031,1,2,0:0:0:0:
192,128,12419,1,0,0:0:0:0:
320,128,12612,1,2,0:0:0:0:
320,128,12806,1,2,0:0:0:0:
192,128,12999,1,0,0:0:0:0:
192,128,13096,1,0,0:0:0:0:
192,128,13193,1,0,0:0:0:0:
320,128,13386,1,2,0:0:0:0:
320,128,13483,1,2,0:0:0:0:
320,128,13580,1,2,0:0:0:0:
320,128,14160,1,2,0:0:0:0:
192,128,14548,1,0,0:0:0:0:
192,128,14741,1,0,0:0:0:0:
192,128,14838,1,0,0:0:0:0:
192,128,14935,1,0,0:0:0:0:
320,128,15322,1,2,0:0:0:0:
192,128,15515,1,0,0:0:0:0:
320,128,15709,1,2,0:0:0:0:
320,128,15902,1,2,0:0:0:0:
192,128,16096,1,0,0:0:0:0:
192,128,16677,1,0,0:0:0:0:
320,128,16870,1,2,0:0:0:0:
192,128,17064,1,0,0:0:0:0:
320,128,17257,1,2,0:0:0:0:
320,128,17451,1,2,0:0:0:0:
192,128,17644,1,0,0:0:0:0:
192,128,17838,1,0,0:0:0:0:
192,128,17935,1,0,0:0:0:0:
192,128,18031,1,0,0:0:0:0:
320,128,18419,1,2,0:0:0:0:
192,128,18612,1,0,0:0:0:0:
320,128,18806,1,2,0:0:0:0:
320,128,18999,1,0,0:0:0:0:
320,128,19193,1,2,0:0:0:0:
320,128,19386,1,2,0:0:0:0:
192,128,19580,1,0,0:0:0:0:
192,128,19773,1,0,0:0:0:0:
320,128,19967,1,2,0:0:0:0:
320,128,20160,1,2,0:0:0:0:
192,128,20354,1,0,0:0:0:0:
192,128,20741,1,0,0:0:0:0:
192,128,20935,1,0,0:0:0:0:
192,128,21031,1,0,0:0:0:0:
192,128,21128,1,0,0:0:0:0:
320,128,21322,1,2,0:0:0:0:
320,128,21419,1,2,0:0:0:0:
320,128,21515,1,2,0:0:0:0:
192,128,21709,1,0,0:0:0:0:
192,128,21806,1,0,0:0:0:0:
192,128,21902,1,0,0:0:0:0:
320,128,22290,1,2,0:0:0:0:
320,128,22483,1,2,0:0:0:0:
320,128,22580,1,2,0:0:0:0:
320,128,22677,1,2,0:0:0:0:
192,128,22870,1,0,0:0:0:0:
192,128,22967,1,0,0:0:0:0:
192,128,23064,1,0,0:0:0:0:
320,128,23257,1,2,0:0:0:0:
320,128,23354,1,2,0:0:0:0:
320,128,23451,1,2,0:0:0:0:
192,128,23838,1,0,0:0:0:0:
192,128,23935,1,0,0:0:0:0:
192,128,24031,1,0,0:0:0:0:
192,128,24419,1,0,0:0:0:0:
192,128,24612,1,0,0:0:0:0:
192,128,24709,1,0,0:0:0:0:
192,128,24806,1,0,0:0:0:0:
192,128,25193,1,0,0:0:0:0:
192,256,25386,1,4,0:0:0:0:
192,128,26935,1,0,0:0:0:0:
320,128,27225,1,2,0:0:0:0:
192,128,27709,1,0,0:0:0:0:
320,128,27999,1,2,0:0:0:0:
320,128,28483,1,2,0:0:0:0:
320,128,28773,1,2,0:0:0:0:
192,128,29064,1,0,0:0:0:0:
192,128,30031,1,0,0:0:0:0:
320,128,30322,1,2,0:0:0:0:
192,128,30806,1,0,0:0:0:0:
320,128,31096,1,2,0:0:0:0:
320,128,31580,1,0,0:0:0:0:
192,128,31870,1,2,0:0:0:0:
320,128,32160,1,0,0:0:0:0:
320,128,33128,1,2,0:0:0:0:
320,128,33419,1,2,0:0:0:0:
192,128,33709,1,0,0:0:0:0:
320,128,34096,1,2,0:0:0:0:
192,128,34290,1,0,0:0:0:0:
320,128,34483,1,2,0:0:0:0:
320,128,34677,1,2,0:0:0:0:
192,128,34967,1,0,0:0:0:0:
320,128,35257,1,2,0:0:0:0:
192,128,36225,1,0,0:0:0:0:
320,128,36515,1,2,0:0:0:0:
192,128,36999,1,0,0:0:0:0:
320,128,37290,1,2,0:0:0:0:
192,128,37773,1,0,0:0:0:0:
192,128,38064,1,0,0:0:0:0:
192,128,38354,1,0,0:0:0:0:
192,128,39128,1,0,0:0:0:0:
192,128,39322,1,4,0:0:0:0:
320,128,39612,1,2,0:0:0:0:
192,128,39902,1,0,0:0:0:0:
192,128,40096,1,0,0:0:0:0:
320,128,40386,1,2,0:0:0:0:
192,128,40677,1,0,0:0:0:0:
192,128,40773,1,0,0:0:0:0:
192,128,40870,1,0,0:0:0:0:
192,128,41160,1,0,0:0:0:0:
192,128,41451,1,0,0:0:0:0:
320,128,41838,1,2,0:0:0:0:
192,128,42031,1,0,0:0:0:0:
320,128,42225,1,2,0:0:0:0:
320,128,42419,1,2,0:0:0:0:
192,128,42709,1,0,0:0:0:0:
320,128,42999,1,2,0:0:0:0:
320,128,43193,1,2,0:0:0:0:
192,128,43483,1,0,0:0:0:0:
320,128,43773,1,2,0:0:0:0:
320,128,43870,1,2,0:0:0:0:
320,128,43967,1,2,0:0:0:0:
320,128,44257,1,2,0:0:0:0:
320,128,44548,1,2,0:0:0:0:
320,128,44935,1,2,0:0:0:0:
192,128,45128,1,0,0:0:0:0:
320,128,45322,1,2,0:0:0:0:
320,128,45515,1,2,0:0:0:0:
192,128,45806,1,0,0:0:0:0:
192,128,46096,1,0,0:0:0:0:
320,128,46483,1,2,0:0:0:0:
192,128,46677,1,0,0:0:0:0:
320,128,46870,1,2,0:0:0:0:
320,128,47064,1,2,0:0:0:0:
192,128,47354,1,0,0:0:0:0:
192,128,47644,1,0,0:0:0:0:
192,128,48031,1,0,0:0:0:0:
192,128,48225,1,0,0:0:0:0:
320,128,48419,1,2,0:0:0:0:
320,128,48612,1,2,0:0:0:0:
192,128,48902,1,0,0:0:0:0:
320,128,49193,1,2,0:0:0:0:
320,128,49386,1,2,0:0:0:0:
192,128,49677,1,0,0:0:0:0:
320,128,49967,1,2,0:0:0:0:
192,128,50160,1,0,0:0:0:0:
192,128,50451,1,0,0:0:0:0:
192,128,50741,1,0,0:0:0:0:
32,32,50935,2,0,L|256:32,1,210
192,256,51709,1,4,0:0:0:0:
192,128,52290,1,0,0:0:0:0:
320,128,52483,1,2,0:0:0:0:
192,128,53064,1,0,0:0:0:0:
192,128,53257,1,0,0:0:0:0:
192,128,53548,1,0,0:0:0:0:
192,128,53838,1,0,0:0:0:0:
320,128,54031,1,2,0:0:0:0:
320,128,54419,1,2,0:0:0:0:
192,128,54612,1,0,0:0:0:0:
192,128,54709,1,0,0:0:0:0:
192,128,54806,1,0,0:0:0:0:
192,128,55096,1,0,0:0:0:0:
192,128,55386,1,0,0:0:0:0:
320,128,55580,1,2,0:0:0:0:
192,128,56160,1,0,0:0:0:0:
320,128,56354,1,2,0:0:0:0:
320,128,56644,1,2,0:0:0:0:
192,128,56935,1,0,0:0:0:0:
320,128,57322,1,2,0:0:0:0:
192,128,57709,1,0,0:0:0:0:
192,128,57806,1,0,0:0:0:0:
192,128,57902,1,0,0:0:0:0:
192,128,58483,1,0,0:0:0:0:
320,128,58677,1,2,0:0:0:0:
192,128,59257,1,0,0:0:0:0:
192,128,59451,1,0,0:0:0:0:
192,128,59741,1,0,0:0:0:0:
192,128,60031,1,0,0:0:0:0:
320,128,60225,1,2,0:0:0:0:
320,128,60612,1,2,0:0:0:0:
192,128,60806,1,0,0:0:0:0:
192,128,60902,1,0,0:0:0:0:
192,128,60999,1,0,0:0:0:0:
192,128,61290,1,0,0:0:0:0:
192,128,61580,1,0,0:0:0:0:
320,128,61773,1,2,0:0:0:0:
192,128,62160,1,0,0:0:0:0:
192,128,62548,1,4,0:0:0:0:
192,128,62838,1,0,0:0:0:0:
192,128,63128,1,6,0:0:0:0:
192,128,63709,1,0,0:0:0:0:
320,128,63902,1,2,0:0:0:0:
192,256,64096,1,4,0:0:0:0:
320,128,64483,1,2,0:0:0:0:
192,128,64677,1,0,0:0:0:0:
192,128,64773,1,0,0:0:0:0:
192,128,64870,1,0,0:0:0:0:
320,128,65257,1,2,0:0:0:0:
192,128,65451,1,0,0:0:0:0:
192,128,65644,1,0,0:0:0:0:
192,128,65935,1,0,0:0:0:0:
320,128,66225,1,2,0:0:0:0:
320,128,66612,1,2,0:0:0:0:
192,128,66806,1,0,0:0:0:0:
320,128,66999,1,2,0:0:0:0:
320,128,67096,1,2,0:0:0:0:
320,128,67193,1,2,0:0:0:0:
192,128,67483,1,0,0:0:0:0:
192,128,67773,1,0,0:0:0:0:
320,128,67967,1,2,0:0:0:0:
320,128,68257,1,2,0:0:0:0:
320,128,68548,1,2,0:0:0:0:
192,128,68741,1,0,0:0:0:0:
320,128,68935,1,2,0:0:0:0:
320,128,69128,1,2,0:0:0:0:
320,128,69322,1,2,0:0:0:0:
192,256,69515,1,4,0:0:0:0:
320,256,69902,1,6,0:0:0:0:
192,256,70290,1,4,0:0:0:0:
320,128,70677,1,2,0:0:0:0:
192,128,70870,1,0,0:0:0:0:
192,128,70967,1,0,0:0:0:0:
192,128,71064,1,0,0:0:0:0:
320,128,71451,1,2,0:0:0:0:
192,128,71644,1,0,0:0:0:0:
192,128,71838,1,0,0:0:0:0:
192,128,72128,1,0,0:0:0:0:
320,128,72419,1,2,0:0:0:0:
192,128,72806,1,0,0:0:0:0:
320,128,72999,1,2,0:0:0:0:
320,128,73193,1,2,0:0:0:0:
192,128,73386,1,0,0:0:0:0:
320,128,73677,1,2,0:0:0:0:
192,128,73967,1,0,0:0:0:0:
320,128,74160,1,2,0:0:0:0:
192,128,74451,1,0,0:0:0:0:
320,128,74741,1,2,0:0:0:0:
192,128,74935,1,0,0:0:0:0:
192,128,75225,1,0,0:0:0:0:
192,128,75515,1,0,0:0:0:0:
256,192,75709,8,0,76483,0:0:0:0:
320,128,77246,5,2,0:0:0:0:
320,128,77500,1,2,0:0:0:0:
320,128,77754,1,2,0:0:0:0:
192,128,78009,1,0,0:0:0:0:
192,128,78772,1,0,0:0:0:0:
192,128,79026,1,0,0:0:0:0:
192,128,79280,1,0,0:0:0:0:
320,128,79535,1,2,0:0:0:0:
320,128,80298,1,2,0:0:0:0:
192,128,81061,1,0,0:0:0:0:
192,128,81315,1,0,0:0:0:0:
192,128,81569,1,2,0:0:0:0:
320,128,81824,1,2,0:0:0:0:
320,256,82587,1,6,0:0:0:0:
192,128,82841,1,0,0:0:0:0:
192,128,83095,1,0,0:0:0:0:
320,128,83350,1,2,0:0:0:0:
192,128,83731,1,0,0:0:0:0:
192,128,83859,1,0,0:0:0:0:
320,128,83986,1,2,0:0:0:0:
320,128,84113,1,2,0:0:0:0:
192,128,84367,1,0,0:0:0:0:
320,128,84622,1,2,0:0:0:0:
192,128,84876,1,0,0:0:0:0:
192,128,85257,1,0,0:0:0:0:
320,128,85385,1,2,0:0:0:0:
320,128,85512,1,2,0:0:0:0:
192,128,85639,1,0,0:0:0:0:
192,128,85893,1,0,0:0:0:0:
192,128,86148,1,0,0:0:0:0:
320,128,86402,1,2,0:0:0:0:
320,128,86656,1,2,0:0:0:0:
320,128,86911,1,2,0:0:0:0:
192,128,87165,1,0,0:0:0:0:
192,128,87419,1,0,0:0:0:0:
320,128,87674,1,2,0:0:0:0:
320,128,87928,1,6,0:0:0:0:
192,256,88691,1,4,0:0:0:0:
192,128,89271,1,0,0:0:0:0:
320,128,89465,1,2,0:0:0:0:
192,128,90045,1,0,0:0:0:0:
192,128,90239,1,0,0:0:0:0:
192,128,90529,1,0,0:0:0:0:
192,128,90820,1,0,0:0:0:0:
320,128,91013,1,2,0:0:0:0:
320,128,91400,1,2,0:0:0:0:
192,128,91594,1,0,0:0:0:0:
192,128,91691,1,0,0:0:0:0:
192,128,91787,1,0,0:0:0:0:
192,128,92078,1,0,0:0:0:0:
192,128,92368,1,0,0:0:0:0:
320,128,92561,1,2,0:0:0:0:
192,128,93142,1,0,0:0:0:0:
192,128,93336,1,2,0:0:0:0:
192,128,93626,1,2,0:0:0:0:
192,128,93916,1,0,0:0:0:0:
320,128,94497,1,2,0:0:0:0:
192,128,94691,1,0,0:0:0:0:
192,128,94787,1,0,0:0:0:0:
192,128,94884,1,0,0:0:0:0:
192,128,95465,1,0,0:0:0:0:
320,128,95658,1,2,0:0:0:0:
192,128,96239,1,0,0:0:0:0:
192,128,96432,1,0,0:0:0:0:
192,128,96723,1,0,0:0:0:0:
192,128,97013,1,0,0:0:0:0:
320,128,97207,1,2,0:0:0:0:
320,128,97594,1,2,0:0:0:0:
192,128,97787,1,0,0:0:0:0:
192,128,97884,1,0,0:0:0:0:
192,128,97981,1,0,0:0:0:0:
192,128,98271,1,0,0:0:0:0:
192,128,98561,1,0,0:0:0:0:
320,128,98755,1,2,0:0:0:0:
192,128,99142,1,0,0:0:0:0:
192,128,99529,1,4,0:0:0:0:
192,128,99820,1,0,0:0:0:0:
192,128,100110,1,6,0:0:0:0:
192,128,100690,1,0,0:0:0:0:
320,128,100884,1,2,0:0:0:0:
192,256,101078,1,4,0:0:0:0:
320,128,101465,1,2,0:0:0:0:
192,128,101658,1,0,0:0:0:0:
192,128,101755,1,0,0:0:0:0:
192,128,101852,1,0,0:0:0:0:
320,128,102239,1,2,0:0:0:0:
192,128,102432,1,0,0:0:0:0:
192,128,102626,1,0,0:0:0:0:
192,128,102916,1,0,0:0:0:0:
320,128,103207,1,2,0:0:0:0:
320,128,103594,1,2,0:0:0:0:
192,128,103787,1,0,0:0:0:0:
320,128,103981,1,2,0:0:0:0:
320,128,104078,1,2,0:0:0:0:
320,128,104174,1,2,0:0:0:0:
192,128,104465,1,0,0:0:0:0:
192,128,104755,1,0,0:0:0:0:
320,128,104949,1,2,0:0:0:0:
320,128,105239,1,2,0:0:0:0:
320,128,105529,1,2,0:0:0:0:
192,128,105723,1,0,0:0:0:0:
320,128,105916,1,2,0:0:0:0:
320,128,106110,1,2,0:0:0:0:
320,128,106303,1,2,0:0:0:0:
192,256,106497,1,4,0:0:0:0:
320,256,106884,1,6,0:0:0:0:
192,256,107271,1,4,0:0:0:0:
320,128,107658,1,2,0:0:0:0:
192,128,107852,1,0,0:0:0:0:
192,128,107949,1,0,0:0:0:0:
192,128,108045,1,0,0:0:0:0:
320,128,108432,1,2,0:0:0:0:
192,128,108626,1,0,0:0:0:0:
192,128,108820,1,0,0:0:0:0:
192,128,109110,1,0,0:0:0:0:
320,128,109400,1,2,0:0:0:0:
192,128,109787,1,0,0:0:0:0:
320,128,109981,1,2,0:0:0:0:
320,128,110174,1,2,0:0:0:0:
192,128,110368,1,0,0:0:0:0:
320,128,110658,1,2,0:0:0:0:
192,128,110949,1,0,0:0:0:0:
320,128,111142,1,2,0:0:0:0:
192,128,111432,1,0,0:0:0:0:
320,128,111723,1,2,0:0:0:0:
192,128,111916,1,0,0:0:0:0:
192,128,112207,1,0,0:0:0:0:
192,128,112497,1,0,0:0:0:0:
320,128,112981,1,2,0:0:0:0:
320,128,113271,1,2,0:0:0:0:
192,256,113465,1,4,0:0:0:0:
320,128,113755,1,2,0:0:0:0:
192,128,114045,1,0,0:0:0:0:
192,128,114142,1,0,0:0:0:0:
192,128,114239,1,0,0:0:0:0:
320,128,114529,1,2,0:0:0:0:
192,128,114820,1,0,0:0:0:0:
192,128,115013,1,0,0:0:0:0:
320,128,115207,1,2,0:0:0:0:
320,128,115400,1,0,0:0:0:0:
320,128,115787,1,2,0:0:0:0:
320,128,116078,1,2,0:0:0:0:
192,128,116368,1,0,0:0:0:0:
192,128,116561,1,0,0:0:0:0:
320,128,116852,1,2,0:0:0:0:
192,128,117142,1,0,0:0:0:0:
288,128,117336,1,2,0:0:0:0:
288,128,117626,1,2,0:0:0:0:
192,128,117916,1,0,0:0:0:0:
320,256,118110,1,6,0:0:0:0:
320,128,118884,1,2,0:0:0:0:
320,128,119271,1,2,0:0:0:0:
192,128,119465,1,0,0:0:0:0:
192,256,119658,1,4,0:0:0:0:
320,128,120045,1,2,0:0:0:0:
192,128,120239,1,0,0:0:0:0:
192,128,120336,1,0,0:0:0:0:
192,128,120432,1,0,0:0:0:0:
320,128,120820,1,2,0:0:0:0:
192,128,121013,1,0,0:0:0:0:
192,128,121207,1,0,0:0:0:0:
192,128,121497,1,0,0:0:0:0:
320,128,121787,1,2,0:0:0:0:
192,128,121981,1,0,0:0:0:0:
192,128,122174,1,0,0:0:0:0:
320,128,122368,1,2,0:0:0:0:
192,128,122755,1,0,0:0:0:0:
320,128,123045,1,2,0:0:0:0:
192,128,123336,1,0,0:0:0:0:
320,128,123529,1,2,0:0:0:0:
192,128,123820,1,0,0:0:0:0:
320,128,124110,1,2,0:0:0:0:
192,128,124303,1,0,0:0:0:0:
192,128,124642,1,0,0:0:0:0:
192,128,124949,1,0,0:0:0:0:
320,128,125996,1,2,0:0:0:0:
192,128,126371,1,0,0:0:0:0:
192,128,127060,1,0,0:0:0:0:
320,128,127405,1,2,0:0:0:0:
320,128,128095,1,2,0:0:0:0:
192,128,128439,1,0,0:0:0:0:
192,128,129129,1,0,0:0:0:0:
320,128,129474,1,2,0:0:0:0:
320,128,129819,1,2,0:0:0:0:
320,128,129991,1,2,0:0:0:0:
192,128,130336,1,0,0:0:0:0:
192,128,130508,1,0,0:0:0:0:
320,128,130871,1,2,0:0:0:0:
320,128,131235,1,2,0:0:0:0:
192,128,131428,1,0,0:0:0:0:
192,128,131671,1,2,0:0:0:0:
320,128,132166,1,2,0:0:0:0:
192,128,132804,1,0,0:0:0:0:
192,128,133442,1,0,0:0:0:0:
320,128,134080,1,2,0:0:0:0:
192,128,134807,1,0,0:0:0:0:
192,128,135617,1,4,0:0:0:0:
