osu file format v14

[General]
AudioFilename: audio.mp3
AudioLeadIn: 0
PreviewTime: 50935
Countdown: 0
SampleSet: Soft
StackLeniency: 0.5
Mode: 0
LetterboxInBreaks: 0
WidescreenStoryboard: 0

[Editor]
Bookmarks: 1281,2167,9260,16354,23447,30541,37634,44728,51822,65713,66009,80196,87142
DistanceSpacing: 1.2
BeatDivisor: 4
GridSize: 32
TimelineZoom: 1.2

[Metadata]
Title:DiViNE (TV Size)
TitleUnicode:DiViNE (TV Size)
Artist:EXiNA
ArtistUnicode:EXiNA
Creator:eiri-
Version:REFLECTOR: HIORI
Source:BLUE REFLECTION RAY/澪
Tags:Ayyri honne BlastTheKidd fieryrage Alexsander browiec Esu Esutarosa Sarawatlism C O N N E R C_O_N_N_E_R [ Lost ] [_Lost_] Anime Japanese Rock J-Rock JRock Zero Mio ブルーリフレクション零/レイ Opening
BeatmapID:3077974
BeatmapSetID:1502283

[Difficulty]
HPDrainRate:5
CircleSize:3.7
OverallDifficulty:9.3
ApproachRate:9.3
SliderMultiplier:1.6
SliderTickRate:1

[Events]
//Background and Video events
0,0,"DiViNE.jpg",0,0
Video,-200,"DiViNE.mp4"
//Break Periods
//Storyboard Layer 0 (Background)
//Storyboard Layer 1 (Fail)
//Storyboard Layer 2 (Pass)
//Storyboard Layer 3 (Foreground)
//Storyboard Layer 4 (Overlay)
//Storyboard Sound Samples

[TimingPoints]
1281,295.566502463054,3,2,1,30,1,0
1281,-400,3,2,1,30,0,0
2167,295.566502463054,3,2,1,40,1,0
2167,-133.333333333333,3,2,1,40,0,0
9260,-133.333333333333,3,2,1,50,0,0
15467,-105.263157894737,3,2,1,60,0,0
15763,-86.9565217391304,3,2,1,60,0,0
16058,-74.0740740740741,3,2,1,60,0,0
16354,-80,3,2,1,70,0,0
23447,-133.333333333333,3,2,1,50,0,0
30541,-117.647058823529,3,2,1,55,0,0
36748,-105.263157894737,3,2,1,55,0,0
37634,-86.9565217391304,3,2,1,60,0,0
44728,-86.9565217391304,3,2,1,65,0,0
48275,-86.9565217391304,3,2,1,70,0,0
50048,-86.9565217391304,3,2,1,75,0,0
50935,-400,3,2,1,50,0,0
51822,-76.9230769230769,3,2,1,80,0,1
65713,-76.9230769230769,3,2,1,80,0,0
66009,-76.9230769230769,3,2,1,80,0,1
80196,-80,3,2,1,70,0,0

[Colours]
Combo1 : 136,172,238
Combo2 : 219,182,250
Combo3 : 163,120,241
Combo4 : 250,184,234

[HitObjects]
76,279,1281,6,0,P|64:259|66:236,2,40,2|2|2,0:1|0:1|0:1,0:0:0:0:
76,279,2167,6,0,P|140:273|218:271,1,120.000004577637,2|0,1:2|0:0,0:0:0:0:
299,185,2611,2,0,P|363:191|441:193,1,120.000004577637,2|0,0:0|0:0,0:0:0:0:
504,332,3054,1,2,0:0:0:0:
504,332,3349,2,0,P|478:272|471:210,1,120.000004577637,2|2,0:0|0:0,0:0:0:0:
288,0,3941,6,0,P|348:26|410:33,1,120.000004577637,2|0,1:2|0:0,0:0:0:0:
438,146,4384,2,0,P|378:172|316:179,1,120.000004577637,2|0,0:0|0:0,0:0:0:0:
473,65,4827,1,2,0:0:0:0:
473,65,5418,2,0,P|460:108|463:135,1,60.0000022888184,2|2,0:0|0:0,0:0:0:0:
505,241,5714,6,0,P|461:201|439:202,1,60.0000022888184,2|0,1:2|0:0,0:0:0:0:
387,238,6010,1,2,0:0:0:0:
430,343,6157,2,0,P|426:306|417:276,1,60.0000022888184,2|0,0:0|0:0,0:0:0:0:
273,193,6453,1,2,0:0:0:0:
230,298,6601,6,0,P|234:261|243:231,1,60.0000022888184,2|0,0:0|0:0,0:0:0:0:
139,208,6896,2,0,P|115:179|100:151,1,60.0000022888184,2|0,0:0|0:0,0:0:0:0:
222,67,7192,2,0,P|184:63|155:54,1,60.0000022888184,2|0,0:0|0:0,0:0:0:0:
273,193,7487,5,2,1:2:0:0:
273,193,8374,6,0,P|296:145|297:116,1,60.0000022888184,2|0,1:2|0:0,0:0:0:0:
382,81,8670,2,0,P|364:30|344:9,1,60.0000022888184,2|0,0:0|0:0,0:0:0:0:
481,172,8965,2,0,P|463:222|443:243,1,60.0000022888184,2|0,0:0|0:0,0:0:0:0:
327,342,9261,6,0,P|337:302|413:289,1,120.000004577637,2|0,1:2|0:0,0:0:0:0:
242,375,9704,2,0,P|185:370|162:318,1,120.000004577637,2|0,0:0|0:0,0:0:0:0:
39,193,10147,6,0,P|109:178|124:171,1,60.0000022888184,2|0,1:2|0:0,0:0:0:0:
186,146,10443,2,0,P|178:194|157:227,1,60.0000022888184,2|0,0:0|0:0,0:0:0:0:
40,302,10739,2,0,P|29:273|27:244,1,60.0000022888184,2|0,0:0|0:0,0:0:0:0:
115,65,11034,6,0,P|169:66|170:135,1,120.000004577637,2|0,1:2|0:0,0:0:0:0:
332,165,11478,2,0,P|386:164|387:95,1,120.000004577637,2|0,0:0|0:0,0:0:0:0:
218,276,11921,2,0,P|219:330|288:331,1,120.000004577637,2|0,1:2|0:0,0:0:0:0:
245,187,12512,1,2,0:0:0:0:
245,187,12808,6,0,P|292:180|323:182,1,60.0000022888184,2|0,1:2|0:0,0:0:0:0:
436,132,13103,2,0,P|466:168|423:236,1,120.000004577637,2|0,0:0|0:0,0:0:0:0:
343,79,13547,6,0,P|371:29|393:14,1,60.0000022888184,2|0,0:0|1:0,0:0:0:0:
228,156,13842,2,0,P|200:106|178:91,1,60.0000022888184,2|0,0:0|0:0,0:0:0:0:
124,52,14138,1,2,0:0:0:0:
327,186,14285,2,0,P|358:179|412:173,1,60.0000022888184,2|0,0:0|0:0,0:0:0:0:
512,239,14581,6,0,P|500:314|404:307,1,180.000006866455,2|0,1:2|0:0,0:0:0:0:
458,81,15172,1,2,0:0:0:0:
458,81,15468,6,0,P|470:133|472:164,1,75.9999979705811,2|0,1:1|0:0,0:0:0:0:
277,50,15763,6,0,P|265:102|262:145,1,92.0000017547608,2|0,0:1|0:0,0:0:0:0:
73,17,16059,6,0,P|85:69|89:128,1,108.000000411987,2|0,0:1|0:0,0:0:0:0:
484,334,16354,6,0,P|398:316|314:311,1,150,6|0,1:2|0:0,0:0:0:0:
287,338,16650,2,0,P|237:306|255:264,1,100,10|0,0:0|1:0,0:0:0:0:
447,129,16946,1,10,0:0:0:0:
243,47,17093,1,2,1:2:0:0:
426,212,17241,6,0,B|458:203|458:203|482:175|482:175|542:158,1,100,10|0,0:0|1:0,0:0:0:0:
236,72,17537,1,2,1:2:0:0:
174,238,17684,1,10,0:0:0:0:
470,146,17832,2,0,P|418:138|349:122,1,100,2|0,1:2|1:0,0:0:0:0:
210,37,18128,5,14,0:0:0:0:
272,323,18276,1,2,1:2:0:0:
35,84,18423,1,10,0:0:0:0:
392,163,18571,1,2,1:2:0:0:
63,287,18719,1,10,0:0:0:0:
337,37,18867,1,2,1:2:0:0:
222,256,19014,5,14,0:0:0:0:
181,0,19162,1,2,1:2:0:0:
147,171,19310,1,2,1:2:0:0:
420,184,19458,5,14,0:0:0:0:
75,207,19606,1,2,1:2:0:0:
338,103,19753,1,2,1:2:0:0:
219,356,19901,6,0,P|240:291|325:297,1,150,14|0,0:0|0:0,0:0:0:0:
357,317,20197,2,0,P|395:274|382:226,1,100,10|0,0:0|1:0,0:0:0:0:
157,192,20492,2,0,B|125:183|125:183|101:155|101:155|41:138,1,100,10|0,0:0|1:0,0:0:0:0:
369,86,20788,5,14,0:0:0:0:
301,335,20936,1,2,1:2:0:0:
269,11,21083,2,0,P|250:94|247:129,1,100,10|0,0:0|1:0,0:0:0:0:
432,375,21379,1,10,0:0:0:0:
80,293,21527,1,2,1:2:0:0:
334,52,21675,5,14,0:0:0:0:
368,374,21822,1,2,1:2:0:0:
161,61,21970,1,10,0:0:0:0:
488,210,22118,1,2,1:2:0:0:
89,259,22266,1,10,0:0:0:0:
487,119,22414,1,2,1:2:0:0:
189,2,22561,5,14,0:0:0:0:
239,260,22709,1,2,1:2:0:0:
34,2,23005,5,6,1:2:0:0:
3,289,23152,1,10,0:0:0:0:
31,38,23300,1,10,0:0:0:0:
93,218,23448,6,0,P|132:204|158:202,1,60.0000022888184,6|0,1:2|1:0,0:0:0:0:
224,142,23744,1,2,0:0:0:0:
224,142,23891,2,0,P|236:190|238:272,1,120.000004577637,2|0,1:2|1:0,0:0:0:0:
187,345,24335,6,0,P|155:327|124:319,1,60.0000022888184,10|0,0:0|0:0,0:0:0:0:
274,247,24630,2,0,P|306:229|337:221,1,60.0000022888184,2|0,0:0|0:0,0:0:0:0:
430,351,24926,2,0,P|462:369|493:377,1,60.0000022888184,2|0,0:0|0:0,0:0:0:0:
512,153,25221,6,0,P|494:191|491:215,2,60.0000022888184,2|0|2,1:2|1:0|0:0,0:0:0:0:
376,67,25665,2,0,P|358:29|355:5,2,60.0000022888184,2|0|2,1:2|0:0|1:2,0:0:0:0:
512,0,26108,1,10,0:0:0:0:
512,0,26699,2,0,P|496:40|478:66,1,60.0000022888184,2|0,0:0|0:0,0:0:0:0:
425,136,26995,5,2,1:2:0:0:
425,136,27143,2,0,P|461:133|497:135,1,60.0000022888184,2|0,1:2|0:0,0:0:0:0:
373,243,27438,2,0,P|341:225|308:211,1,60.0000022888184,2|0,1:2|0:0,0:0:0:0:
499,171,27734,1,2,1:2:0:0:
448,352,27881,5,10,0:0:0:0:
448,352,28473,2,0,P|429:309|381:312,1,90.0000034332277,2|0,0:0|0:0,0:0:0:0:
343,334,28768,6,0,P|323:366|288:378,1,60.0000022888184,2|0,1:2|1:0,0:0:0:0:
150,310,29064,1,2,0:0:0:0:
248,282,29212,2,0,L|165:269,1,60.0000022888184,2|0,1:2|0:0,0:0:0:0:
58,155,29507,1,2,1:2:0:0:
156,183,29655,6,0,L|73:196,1,60.0000022888184,10|0,0:0|1:0,0:0:0:0:
288,88,29950,2,0,L|205:75,1,60.0000022888184,10|0,0:0|1:0,0:0:0:0:
384,240,30246,1,10,0:0:0:0:
424,14,30394,1,2,1:2:0:0:
407,113,30542,6,0,P|393:67|393:32,1,68.0000012969971,6|0,1:2|1:0,0:0:0:0:
480,160,30837,1,2,0:0:0:0:
307,200,30985,1,2,1:2:0:0:
479,75,31133,1,2,0:0:0:0:
430,252,31280,1,2,1:2:0:0:
308,107,31428,6,0,L|218:122,1,68.0000012969971,10|0,0:0|0:0,0:0:0:0:
143,247,31724,2,0,L|233:262,1,68.0000012969971,2|0,0:0|0:0,0:0:0:0:
145,64,32019,1,2,0:0:0:0:
145,64,32315,6,0,P|127:15|126:-11,1,68.0000012969971,2|0,1:2|1:0,0:0:0:0:
8,126,32611,2,0,P|29:79|47:60,1,68.0000012969971,2|0,0:0|1:0,0:0:0:0:
147,240,32906,2,0,P|109:204|98:181,1,68.0000012969971,2|0,0:0|1:0,0:0:0:0:
321,169,33202,6,0,L|310:335,2,136.000002593994,10|2|2,0:0|0:0|0:0,0:0:0:0:
434,25,34088,5,2,1:2:0:0:
434,25,34236,2,0,P|391:45|358:47,1,68.0000012969971,2|0,1:2|0:0,0:0:0:0:
255,20,34532,2,0,P|272:58|279:93,1,68.0000012969971,2|0,1:2|0:0,0:0:0:0:
401,197,34827,1,2,1:2:0:0:
401,197,34975,6,0,P|409:164|481:57,1,136.000002593994,10|0,0:0|0:0,0:0:0:0:
269,120,35418,2,0,P|236:112|129:40,1,136.000002593994,2|0,0:0|0:0,0:0:0:0:
273,278,35862,1,2,1:2:0:0:
273,278,36010,2,0,P|265:311|238:365,1,68.0000012969971,2|0,1:2|0:0,0:0:0:0:
130,277,36305,2,0,P|116:245|108:212,1,68.0000012969971,2|0,1:2|0:0,0:0:0:0:
269,120,36601,1,2,1:2:0:0:
225,234,36748,5,10,0:0:0:0:
152,35,36896,1,10,0:0:0:0:
301,154,37044,2,0,P|337:145|372:129,1,75.9999979705811,2|2,1:2|1:2,0:0:0:0:
484,59,37340,1,2,1:2:0:0:
380,312,37487,1,2,1:2:0:0:
397,57,37635,6,0,B|358:30|358:30|303:43|270:93,1,138.000002632141,6|0,1:2|0:0,0:0:0:0:
263,120,37931,2,0,P|281:170|319:208,1,92.0000017547608,10|0,0:0|1:0,0:0:0:0:
500,229,38226,1,10,0:0:0:0:
456,28,38374,1,2,1:2:0:0:
407,272,38522,6,0,P|396:197|386:159,1,92.0000017547608,2|8,1:2|0:0,0:0:0:0:
500,8,38817,2,0,P|490:53|485:98,1,92.0000017547608,2|0,1:2|1:0,0:0:0:0:
276,184,39113,1,10,0:0:0:0:
358,16,39261,1,2,1:2:0:0:
452,252,39409,6,0,L|466:161,1,92.0000017547608,10|0,0:0|1:0,0:0:0:0:
287,72,39704,2,0,L|301:162,1,92.0000017547608,10|0,0:0|1:0,0:0:0:0:
164,363,40000,2,0,L|178:272,1,92.0000017547608,10|0,0:0|1:0,0:0:0:0:
9,56,40295,2,0,L|23:146,1,92.0000017547608,10|0,0:0|1:0,0:0:0:0:
241,221,40591,5,2,1:2:0:0:
43,305,40739,1,10,0:0:0:0:
173,141,40886,1,2,1:2:0:0:
212,359,41034,1,2,1:2:0:0:
61,188,41182,2,0,P|133:173|182:173,1,92.0000017547608,10|0,0:0|1:0,0:0:0:0:
420,224,41478,5,10,0:0:0:0:
201,313,41625,1,2,1:2:0:0:
322,146,41773,2,0,P|314:84|301:44,2,92.0000017547608,14|0|0,0:0|1:0|1:0,0:0:0:0:
419,258,42216,1,10,0:0:0:0:
233,380,42364,6,0,P|185:365|111:358,1,92.0000017547608,2|0,1:2|1:0,0:0:0:0:
332,271,42660,1,10,0:0:0:0:
402,377,42808,1,2,1:2:0:0:
474,176,42955,2,0,L|456:45,1,92.0000017547608,10|0,0:0|1:0,0:0:0:0:
297,32,43251,1,10,0:0:0:0:
240,157,43399,2,0,P|203:110|196:67,1,92.0000017547608,2|8,1:2|0:0,0:0:0:0:
409,0,43694,1,2,1:2:0:0:
469,191,43842,6,0,P|506:144|513:101,1,92.0000017547608,10|0,0:0|1:0,0:0:0:0:
353,16,44138,1,10,0:0:0:0:
400,231,44285,1,2,1:2:0:0:
280,79,44433,1,10,0:0:0:0:
265,187,44581,1,2,1:2:0:0:
236,1,44729,6,0,P|303:32|301:121,1,138.000002632141,6|0,1:2|0:0,0:0:0:0:
308,137,45024,2,0,P|246:131|206:120,1,92.0000017547608,10|0,0:0|1:0,0:0:0:0:
313,320,45320,2,0,P|366:288|398:261,1,92.0000017547608,10|0,0:0|1:0,0:0:0:0:
149,382,45615,2,0,P|123:325|112:285,1,92.0000017547608,2|8,1:2|0:0,0:0:0:0:
145,73,45911,5,2,1:2:0:0:
176,239,46059,1,2,1:2:0:0:
191,5,46207,1,10,0:0:0:0:
90,264,46354,1,2,1:2:0:0:
46,0,46502,6,0,P|125:18|168:38,1,92.0000017547608,10|0,0:0|1:0,0:0:0:0:
320,112,46798,1,10,0:0:0:0:
417,1,46946,1,2,1:2:0:0:
470,237,47093,1,10,0:0:0:0:
347,36,47241,1,2,1:2:0:0:
299,310,47389,6,0,B|258:302|258:302|250:290|250:290|204:280,2,92.0000017547608,10|0|0,0:0|1:0|1:0,0:0:0:0:
512,256,47832,1,10,0:0:0:0:
370,170,47980,2,0,B|329:178|329:178|321:190|321:190|275:200,1,92.0000017547608,2|0,1:2|1:0,0:0:0:0:
10,265,48276,5,14,0:0:0:0:
260,97,48423,1,2,1:2:0:0:
109,348,48571,5,14,0:0:0:0:
168,46,48719,1,2,1:2:0:0:
241,358,48867,5,14,0:0:0:0:
57,67,49014,1,2,1:2:0:0:
335,272,49162,6,0,B|348:262|348:262|231:241,1,92.0000017547608,14|0,0:0|1:0,0:0:0:0:
11,352,49458,2,0,B|3:366|3:366|118:336,1,92.0000017547608,10|0,0:0|1:0,0:0:0:0:
356,246,49753,2,0,B|369:236|369:236|252:215,1,92.0000017547608,10|0,0:0|1:0,0:0:0:0:
2,384,50049,5,14,0:0:0:0:
49,96,50197,1,2,1:2:0:0:
265,238,50345,1,2,1:2:0:0:
0,203,50492,5,14,0:0:0:0:
270,2,50640,1,2,1:2:0:0:
354,374,50788,1,2,1:2:0:0:
162,166,50936,6,0,P|174:186|172:209,2,40,2|2|2,1:1|0:1|0:1,0:0:0:0:
0,0,51822,6,0,P|74:34|163:42,1,155.999992858887,6|0,1:2|0:0,0:0:0:0:
203,22,52118,1,10,0:0:0:0:
110,257,52266,2,0,P|88:189|64:147,1,103.999995239258,2|8,1:2|0:0,0:0:0:0:
298,13,52561,1,2,1:2:0:0:
268,312,52709,6,0,P|335:288|383:282,1,103.999995239258,14|0,0:0|1:0,0:0:0:0:
181,133,53005,2,0,P|248:156|296:162,1,103.999995239258,10|0,0:0|1:0,0:0:0:0:
452,0,53300,2,0,P|400:9|352:28,1,103.999995239258,10|0,0:0|1:0,0:0:0:0:
124,375,53596,6,0,L|150:231,1,103.999995239258,14|0,0:0|1:0,0:0:0:0:
102,50,53891,1,10,0:0:0:0:
416,192,54039,2,0,B|462:183|462:183|471:169|471:169|542:154,1,103.999995239258,2|8,1:2|0:0,0:0:0:0:
348,16,54335,1,2,1:2:0:0:
260,319,54482,6,0,B|214:310|214:310|205:296|205:296|134:281,1,103.999995239258,14|0,0:0|1:0,0:0:0:0:
3,337,54778,1,10,0:0:0:0:
138,174,54926,1,2,1:2:0:0:
156,368,55074,1,10,0:0:0:0:
77,100,55221,1,2,1:2:0:0:
327,184,55369,6,0,B|366:175|366:175|375:161|375:161|421:152,1,103.999995239258,14|0,0:0|1:0,0:0:0:0:
304,14,55665,1,10,0:0:0:0:
206,217,55813,2,0,P|194:144|181:96,1,103.999995239258,2|8,1:2|0:0,0:0:0:0:
447,48,56108,1,2,1:2:0:0:
366,312,56256,6,0,P|437:292|486:283,1,103.999995239258,14|0,0:0|1:0,0:0:0:0:
258,85,56551,2,0,P|329:104|378:113,1,103.999995239258,10|0,0:0|1:0,0:0:0:0:
151,384,56847,2,0,P|222:364|271:355,1,103.999995239258,10|0,0:0|1:0,0:0:0:0:
83,21,57143,5,14,0:0:0:0:
184,249,57290,1,2,1:2:0:0:
217,0,57438,5,10,0:0:0:0:
87,292,57586,1,2,1:2:0:0:
316,70,57734,5,10,0:0:0:0:
8,178,57881,1,2,1:2:0:0:
8,178,57955,1,2,1:2:0:0:
8,178,58029,6,0,L|21:242,3,51.999997619629,14|0|8|8,0:0|1:0|0:0|0:0,0:0:0:0:
165,337,58325,2,0,L|178:273,1,51.999997619629,2|2,1:2|1:2,0:0:0:0:
328,110,58473,2,0,L|341:174,1,51.999997619629,2|2,1:2|1:2,0:0:0:0:
502,309,58620,1,10,0:0:0:0:
491,303,58694,1,10,0:0:0:0:
480,297,58768,1,10,0:0:0:0:
469,291,58842,1,10,0:0:0:0:
458,285,58916,6,0,B|445:229|445:229|467:190|467:190|445:94,1,155.999992858887,6|0,1:2|0:0,0:0:0:0:
441,81,59212,1,10,0:0:0:0:
192,160,59359,2,0,P|133:144|70:131,1,103.999995239258,2|8,1:2|0:0,0:0:0:0:
0,15,59655,1,2,1:2:0:0:
272,3,59803,6,0,L|288:121,1,103.999995239258,14|0,0:0|1:0,0:0:0:0:
103,147,60098,2,0,L|87:265,1,103.999995239258,10|0,0:0|1:0,0:0:0:0:
363,281,60394,2,0,L|379:399,1,103.999995239258,10|0,0:0|1:0,0:0:0:0:
426,112,60689,5,14,0:0:0:0:
194,179,60837,1,0,1:0:0:0:
491,253,60985,1,8,0:0:0:0:
384,32,61133,5,6,1:2:0:0:
292,308,61280,1,8,0:0:0:0:
248,0,61428,1,0,1:0:0:0:
397,375,61576,6,0,B|401:328|401:328|414:317|414:317|421:245,1,103.999995239258,14|0,0:0|1:0,0:0:0:0:
237,30,61872,2,0,B|241:76|241:76|254:87|254:87|261:159,1,103.999995239258,10|0,0:0|1:0,0:0:0:0:
488,226,62167,1,10,0:0:0:0:
146,314,62315,1,2,1:2:0:0:
146,314,62389,1,2,1:2:0:0:
146,314,62463,6,0,P|216:328|267:344,1,103.999995239258,14|0,0:0|1:0,0:0:0:0:
384,160,62758,2,0,P|454:146|505:130,1,103.999995239258,10|0,0:0|1:0,0:0:0:0:
164,6,63054,1,10,0:0:0:0:
214,191,63202,1,2,1:2:0:0:
214,191,63276,1,2,1:2:0:0:
214,191,63349,6,0,B|175:182|175:182|166:168|166:168|120:159,1,103.999995239258,14|2,0:0|1:2,0:0:0:0:
352,64,63645,1,10,0:0:0:0:
290,365,63793,1,2,1:2:0:0:
229,105,63941,2,0,B|268:96|268:96|277:82|277:82|323:73,1,103.999995239258,10|0,0:0|1:0,0:0:0:0:
512,320,64236,6,0,B|473:311|473:311|464:297|464:297|418:288,1,103.999995239258,14|0,0:0|1:0,0:0:0:0:
157,344,64532,1,10,0:0:0:0:
297,32,64680,1,2,1:2:0:0:
382,367,64827,1,10,0:0:0:0:
128,127,64975,1,2,1:2:0:0:
467,179,65123,6,0,L|478:101,1,51.999997619629,14|10,0:0|0:0,0:0:0:0:
266,248,65271,2,0,L|285:326,1,51.999997619629,2|2,1:2|1:2,0:0:0:0:
403,52,65418,1,10,0:0:0:0:
94,165,65566,1,2,1:2:0:0:
505,242,65714,5,10,0:0:0:0:
505,242,65788,1,10,0:0:0:0:
505,242,65862,2,0,L|494:320,1,51.999997619629,10|10,0:0|0:0,0:0:0:0:
295,380,66010,6,0,P|219:351|245:274,1,155.999992858887,6|0,1:2|0:0,0:0:0:0:
266,248,66305,2,0,P|291:215|270:131,1,103.999995239258,10|0,0:0|1:0,0:0:0:0:
243,0,66601,1,10,0:0:0:0:
203,208,66748,1,2,1:2:0:0:
443,102,66896,6,0,B|404:93|404:93|395:79|395:79|349:70,1,103.999995239258,2|8,1:2|0:0,0:0:0:0:
155,329,67192,2,0,B|201:320|201:320|210:306|210:306|249:297,1,103.999995239258,2|2,1:2|1:2,0:0:0:0:
105,32,67487,2,0,B|66:23|66:23|57:9|57:9|11:0,1,103.999995239258,10|2,0:0|1:2,0:0:0:0:
104,242,67783,5,14,0:0:0:0:
233,109,67931,2,0,L|213:-8,1,103.999995239258,2|8,1:2|0:0,0:0:0:0:
115,225,68226,1,2,1:2:0:0:
360,272,68374,2,0,L|380:389,1,103.999995239258,10|0,0:0|1:0,0:0:0:0:
412,54,68670,5,14,0:0:0:0:
358,358,68817,1,2,1:2:0:0:
306,113,68965,1,2,1:2:0:0:
508,177,69113,5,14,0:0:0:0:
223,228,69261,1,2,1:2:0:0:
480,276,69409,1,2,1:2:0:0:
176,33,69556,6,0,B|215:24|215:24|224:10|224:10|270:1,1,103.999995239258,14|0,0:0|1:0,0:0:0:0:
153,266,69852,2,0,B|114:257|114:257|105:243|105:243|59:234,1,103.999995239258,10|0,0:0|1:0,0:0:0:0:
260,156,70147,1,10,0:0:0:0:
194,363,70295,1,2,1:2:0:0:
101,0,70443,6,0,P|109:66|111:117,1,103.999995239258,6|8,1:2|0:0,0:0:0:0:
229,377,70739,2,0,P|221:311|219:260,1,103.999995239258,2|0,1:2|1:0,0:0:0:0:
337,0,71034,2,0,P|329:66|327:117,1,103.999995239258,10|0,0:0|1:0,0:0:0:0:
445,377,71330,5,14,0:0:0:0:
480,81,71478,1,2,1:2:0:0:
512,339,71625,5,10,0:0:0:0:
385,58,71773,1,2,1:2:0:0:
354,381,71921,6,0,B|315:372|315:372|306:358|306:358|260:349,1,103.999995239258,10|0,0:0|1:2,0:0:0:0:
23,291,72216,5,14,0:0:0:0:
321,251,72364,1,10,0:0:0:0:
321,251,72438,1,10,0:0:0:0:
321,251,72512,2,0,L|402:237,3,51.999997619629,2|0|0|0,1:2|1:0|1:0|1:0,0:0:0:0:
133,157,72808,2,0,L|52:143,1,51.999997619629,10|10,0:0|0:0,0:0:0:0:
364,29,72955,2,0,L|445:15,1,51.999997619629,10|10,0:0|0:0,0:0:0:0:
28,352,73103,6,0,B|79:322|79:322|33:182,1,155.999992858887,6|0,1:2|0:0,0:0:0:0:
29,173,73399,1,10,0:0:0:0:
82,1,73547,2,0,P|170:24|210:59,1,103.999995239258,2|8,1:2|0:0,0:0:0:0:
290,164,73842,1,2,1:2:0:0:
0,219,73990,6,0,L|16:94,1,103.999995239258,2|8,1:2|0:0,0:0:0:0:
239,272,74285,2,0,L|255:397,1,103.999995239258,2|0,1:2|1:0,0:0:0:0:
489,112,74581,2,0,L|473:-13,1,103.999995239258,10|0,0:0|1:0,0:0:0:0:
364,342,74877,5,14,0:0:0:0:
358,16,75024,1,2,1:2:0:0:
486,278,75172,1,10,0:0:0:0:
290,164,75320,5,6,1:2:0:0:
509,97,75468,1,10,0:0:0:0:
223,268,75615,1,2,1:2:0:0:
277,32,75763,6,0,B|238:23|238:23|229:9|229:9|183:0,1,103.999995239258,14|0,0:0|1:0,0:0:0:0:
252,342,76059,1,2,1:2:0:0:
269,54,76207,1,10,0:0:0:0:
185,295,76354,1,2,1:2:0:0:
361,99,76502,1,2,1:2:0:0:
96,224,76650,6,0,B|57:233|57:233|48:247|48:247|2:256,1,103.999995239258,14|0,0:0|1:0,0:0:0:0:
281,76,76946,2,0,B|242:67|242:67|233:53|233:53|187:44,1,103.999995239258,10|0,0:0|1:0,0:0:0:0:
303,354,77241,1,10,0:0:0:0:
341,21,77389,1,0,1:0:0:0:
448,320,77537,5,6,1:2:0:0:
189,123,77684,2,0,L|203:12,1,103.999995239258,10|0,0:0|1:0,0:0:0:0:
504,176,77980,1,2,1:2:0:0:
137,293,78128,2,0,L|123:182,1,103.999995239258,10|0,0:0|1:0,0:0:0:0:
459,374,78423,5,14,0:0:0:0:
370,68,78571,1,2,1:2:0:0:
348,384,78719,5,10,0:0:0:0:
437,17,78867,1,2,1:2:0:0:
403,384,79014,6,0,B|397:344|397:344|384:334|384:334|379:287,1,103.999995239258,10|0,0:0|1:0,0:0:0:0:
358,102,79310,5,6,1:2:0:0:
365,96,79384,1,2,1:2:0:0:
373,89,79458,1,10,0:0:0:0:
380,82,79532,1,10,0:0:0:0:
389,75,79606,2,0,L|400:174,3,51.999997619629,2|0|0|0,1:2|1:0|1:0|1:0,0:0:0:0:
507,219,79901,2,0,L|518:120,1,51.999997619629,10|10,0:0|0:0,0:0:0:0:
290,257,80049,2,0,L|301:356,1,51.999997619629,10|10,0:0|0:0,0:0:0:0:
19,188,80197,6,0,P|105:170|189:165,1,150,6|0,1:2|0:0,0:0:0:0:
206,198,80492,2,0,L|193:323,1,100,10|0,0:0|1:0,0:0:0:0:
96,129,80788,1,10,0:0:0:0:
387,65,80936,1,2,1:2:0:0:
181,340,81083,6,0,B|149:331|149:331|125:303|125:303|65:286,1,100,10|0,0:0|1:0,0:0:0:0:
463,183,81379,1,2,1:2:0:0:
115,145,81527,1,10,0:0:0:0:
486,72,81675,2,0,P|483:122|477:172,1,100,2|0,1:2|1:0,0:0:0:0:
232,11,81970,5,14,0:0:0:0:
296,332,82118,1,2,1:2:0:0:
59,175,82266,1,10,0:0:0:0:
406,117,82414,1,2,1:2:0:0:
122,327,82561,1,10,0:0:0:0:
253,32,82709,1,2,1:2:0:0:
210,356,82857,5,14,0:0:0:0:
162,78,83005,1,2,1:2:0:0:
215,224,83152,1,2,1:2:0:0:
0,147,83300,5,14,0:0:0:0:
357,98,83448,1,2,1:2:0:0:
114,190,83596,1,2,1:2:0:0:
321,8,83744,6,0,P|387:16|392:87,1,150,14|0,0:0|0:0,0:0:0:0:
359,131,84039,2,0,P|298:113|238:106,1,100,10|0,0:0|1:0,0:0:0:0:
24,288,84335,2,0,B|56:279|56:279|80:251|80:251|140:234,1,100,10|0,0:0|1:0,0:0:0:0:
452,325,84630,5,14,0:0:0:0:
146,176,84778,1,2,1:2:0:0:
506,236,84926,2,0,L|383:258,1,100,10|0,0:0|1:0,0:0:0:0:
99,375,85221,1,10,0:0:0:0:
446,284,85369,1,2,1:2:0:0:
220,11,85517,5,14,0:0:0:0:
157,368,85665,1,2,1:2:0:0:
407,116,85813,1,10,0:0:0:0:
21,193,85960,1,2,1:2:0:0:
368,328,86108,1,10,0:0:0:0:
86,71,86256,1,2,1:2:0:0:
317,0,86404,5,14,0:0:0:0:
267,258,86551,1,2,1:2:0:0:
477,0,86847,5,6,1:2:0:0:
508,287,86995,1,10,0:0:0:0:
480,36,87143,1,10,0:0:0:0:
