osu file format v14

[General]
AudioFilename: audio.mp3
AudioLeadIn: 0
PreviewTime: 51926
Countdown: 0
SampleSet: Soft
StackLeniency: 0.4
Mode: 0
LetterboxInBreaks: 0
WidescreenStoryboard: 1

[Editor]
Bookmarks: 130,7630,37630,45130,52630,65520,67630,80520,82630,90130,97630,112630,120130,142630,159505,167005,174505,187395,189505,202630,204505,219270
DistanceSpacing: 0.2
BeatDivisor: 2
GridSize: 8
TimelineZoom: 1

[Metadata]
Title:Power
TitleUnicode:Power
Artist:EXO
ArtistUnicode:EXO
Creator:Syph
Version:pow wow
Source:
Tags:THE WAR Repackage LDN Noise 지니뮤직 SM엔터테인먼트 KT MUSIC S.M.Entertainment 시우민 XIUMIN 수호 SUHO 레이 LAY 백현 BAEKHYUN 첸 CHEN 찬열 CHANYEOL 디오 D.O. 카이 KAI 세훈 SEHUN K-pop Kpop Xiaolin Lilyanna Sekaii
BeatmapID:1410815
BeatmapSetID:666467

[Difficulty]
HPDrainRate:5.5
CircleSize:4
OverallDifficulty:7.8
ApproachRate:8.4
SliderMultiplier:1.8
SliderTickRate:1

[Events]
//Background and Video events
0,0,"x2.jpg",0,0
Video,0,"Power7.avi"
//Break Periods
2,37849,44380
2,112849,119380
2,144505,158755
//Storyboard Layer 0 (Background)
//Storyboard Layer 1 (Fail)
//Storyboard Layer 2 (Pass)
//Storyboard Layer 3 (Foreground)
//Storyboard Sound Samples

[TimingPoints]
149,468.75,4,2,0,60,1,0
10930,-80,4,2,0,60,0,0
11399,-100,4,2,0,60,0,0
18430,-80,4,2,0,60,0,0
18899,-100,4,2,0,60,0,0
25930,-80,4,2,0,60,0,0
26399,-100,4,2,0,60,0,0
45149,-100,4,2,0,65,0,0
52649,-86.9565217391304,4,2,0,70,0,1
54406,-86.9565217391304,4,2,0,5,0,1
54524,-86.9565217391304,4,2,0,70,0,1
57805,-133.333333333333,4,2,0,70,0,1
58274,-86.9565217391304,4,2,0,70,0,1
61906,-86.9565217391304,4,2,0,5,0,1
62024,-86.9565217391304,4,2,0,70,0,1
65539,-86.9565217391304,4,2,0,60,0,0
66008,-100,4,2,0,60,0,0
66477,-117.647058823529,4,2,0,60,0,0
66945,-166.666666666667,4,2,0,60,0,0
67649,-86.9565217391304,4,2,0,70,0,1
69055,-117.647058823529,4,2,0,70,0,1
69524,-86.9565217391304,4,2,0,70,0,1
73156,-86.9565217391304,4,2,0,5,0,1
73274,-86.9565217391304,4,2,0,70,0,1
76555,-117.647058823529,4,2,0,70,0,1
77024,-86.9565217391304,4,2,0,70,0,1
80539,-86.9565217391304,4,2,0,60,0,0
81008,-100,4,2,0,60,0,0
81477,-117.647058823529,4,2,0,60,0,0
81945,-166.666666666667,4,2,0,65,0,0
82883,-100,4,2,0,65,0,0
83586,-133.333333333333,4,2,0,45,0,0
84055,-133.333333333333,4,2,0,65,0,0
84289,-100,4,2,0,65,0,0
85930,-100,4,2,0,57,0,0
86867,-100,4,2,0,65,0,0
89680,-133.333333333333,4,2,0,65,0,0
90149,-100,4,2,0,65,0,0
90617,-80,4,2,0,65,0,0
91555,-100,4,2,0,65,0,0
92024,-80,4,2,0,65,0,0
94367,-100,4,2,0,65,0,0
94836,-80,4,2,0,65,0,0
95188,-80,4,2,0,5,0,0
95305,-80,4,2,0,60,0,0
96711,-100,4,2,0,60,0,0
100930,-80,4,2,0,60,0,0
101633,-100,4,2,0,60,0,0
120149,-100,4,2,0,65,0,0
127649,-86.9565217391304,4,2,0,70,0,1
129406,-86.9565217391304,4,2,0,5,0,1
129524,-86.9565217391304,4,2,0,70,0,1
132805,-133.333333333333,4,2,0,70,0,1
133274,-86.9565217391304,4,2,0,70,0,1
136906,-86.9565217391304,4,2,0,5,0,1
137024,-86.9565217391304,4,2,0,70,0,1
140539,-86.9565217391304,4,2,0,60,0,0
141008,-100,4,2,0,60,0,0
141477,-117.647058823529,4,2,0,60,0,0
141945,-166.666666666667,4,2,0,60,0,0
159524,-133.333333333333,4,2,0,55,0,0
165149,-133.333333333333,4,2,0,60,0,0
168899,-133.333333333333,4,2,0,65,0,0
174524,-80,4,2,0,80,0,1
177805,-74.0740740740741,4,2,0,80,0,1
178274,-80,4,2,0,80,0,1
179680,-117.647058823529,4,2,0,80,0,1
180149,-80,4,2,0,80,0,1
183430,-117.647058823529,4,2,0,80,0,1
183899,-80,4,2,0,80,0,1
187414,-80,4,2,0,65,0,0
187883,-100,4,2,0,65,0,0
188352,-133.333333333333,4,2,0,65,0,0
188820,-200,4,2,0,65,0,0
189524,-80,4,2,0,80,0,1
190930,-125,4,2,0,80,0,1
191399,-80,4,2,0,80,0,1
194680,-125,4,2,0,80,0,1
195031,-125,4,2,0,5,0,1
195149,-80,4,2,0,80,0,1
198430,-125,4,2,0,80,0,1
198899,-80,4,2,0,80,0,1
202649,-80,4,2,0,60,0,0
202883,-100,4,2,0,60,0,0
203352,-133.333333333333,4,2,0,60,0,0
203820,-200,4,2,0,60,0,0
204992,-133.333333333333,4,2,0,80,0,0
205461,-100,4,2,0,70,0,0
205930,-80,4,2,0,80,0,0
206399,-80,4,2,0,70,0,0
212024,-80,4,2,0,75,0,0
217649,-100,4,2,0,70,0,0
218117,-166.666666666667,4,2,0,55,0,0
218820,-166.666666666667,4,2,0,55,0,0

[Colours]
Combo1 : 137,150,239
Combo2 : 160,130,253
Combo3 : 136,189,255
Combo4 : 248,224,182

[HitObjects]
142,224,7649,5,8,3:0:0:0:
198,136,7883,1,0,0:0:0:0:
190,128,8000,1,0,0:0:0:0:
182,120,8117,2,0,L|189:70,2,45,8|0|0,1:2|0:0|0:0,0:0:0:0:
174,112,8469,1,0,0:0:0:0:
166,104,8586,2,0,L|176:13,1,90,8|0,3:0|0:0,0:0:0:0:
150,225,9055,1,8,1:2:0:0:
368,104,9524,5,8,3:0:0:0:
293,57,9758,1,0,0:0:0:0:
291,145,9992,1,8,1:2:0:0:
367,24,10227,1,0,0:0:0:0:
413,204,10461,1,8,3:0:0:0:
466,103,10695,1,0,0:0:0:0:
224,197,10930,2,0,B|204:142|204:142|230:86,1,112.5,10|8,1:2|3:0,0:0:0:0:
280,285,11399,5,8,3:0:0:0:
224,197,11633,1,0,0:0:0:0:
232,189,11750,1,0,0:0:0:0:
240,181,11867,2,0,L|233:131,2,45,8|0|0,1:2|0:0|0:0,0:0:0:0:
248,173,12219,1,0,0:0:0:0:
256,165,12336,2,0,L|246:74,1,90,8|2,3:0|0:0,0:0:0:0:
272,286,12805,1,8,1:2:0:0:
84,181,13274,5,8,3:0:0:0:
84,181,13508,1,2,0:0:0:0:
194,112,13742,5,8,1:2:0:0:
161,260,13977,1,2,0:0:0:0:
87,88,14211,5,8,3:0:0:0:
277,129,14445,1,2,0:0:0:0:
65,193,14680,5,8,1:2:0:0:
183,49,14914,1,0,0:0:0:0:
160,287,15149,5,8,3:0:0:0:
310,151,15383,1,0,0:0:0:0:
298,146,15500,1,0,0:0:0:0:
286,141,15617,1,8,1:2:0:0:
316,275,15852,1,2,0:0:0:0:
210,113,16086,2,0,P|243:72|311:63,1,90,8|0,3:0|0:0,0:0:0:0:
440,166,16555,1,8,1:2:0:0:
192,277,17024,5,8,3:0:0:0:
192,277,17258,1,2,0:0:0:0:
371,192,17492,1,8,1:2:0:0:
232,156,17727,1,2,0:0:0:0:
292,324,17961,1,8,3:0:0:0:
336,116,18195,1,2,0:0:0:0:
154,220,18430,2,0,L|278:213,1,112.5,8|0,1:2|0:0,0:0:0:0:
273,219,18781,1,2,0:0:0:0:
279,225,18899,6,0,L|403:218,1,90,8|0,3:0|0:0,0:0:0:0:
242,109,19367,1,8,1:2:0:0:
366,44,19602,2,0,L|357:137,1,90,2|8,0:0|3:0,0:0:0:0:
357,133,20070,1,2,0:0:0:0:
233,198,20305,2,0,L|242:105,1,90,8|0,1:2|0:0,0:0:0:0:
319,291,20774,5,8,3:0:0:0:
319,291,21008,1,2,0:0:0:0:
426,101,21242,5,10,1:2:0:0:
206,110,21477,1,2,0:0:0:0:
319,291,21711,5,8,3:0:0:0:
371,30,21945,1,2,0:0:0:0:
119,116,22180,5,8,0:0:0:0:
251,235,22414,1,8,0:0:0:0:
289,62,22649,6,0,L|270:159,1,90,8|0,3:0|0:0,0:0:0:0:
116,234,23117,1,8,1:2:0:0:
116,234,23352,2,0,P|162:211|223:233,1,90,2|8,0:0|3:0,0:0:0:0:
328,287,23820,2,0,L|341:232,2,45,2|0|10,0:0|0:0|1:2,0:0:0:0:
228,347,24289,1,0,0:0:0:0:
266,162,24524,5,8,3:0:0:0:
266,162,24758,1,2,0:0:0:0:
407,287,24992,1,8,1:2:0:0:
228,347,25227,2,0,P|215:303|236:249,1,90,2|8,0:0|3:0,0:0:0:0:
336,125,25695,1,0,0:0:0:0:
473,244,25930,2,0,B|422:268|422:268|361:253,1,112.5,8|8,1:2|3:0,0:0:0:0:
190,192,26399,5,8,3:0:0:0:
338,101,26633,1,0,0:0:0:0:
337,113,26750,1,0,0:0:0:0:
336,125,26867,1,8,1:2:0:0:
276,285,27102,2,0,L|224:300,2,45,0|0|8,0:0|0:0|3:0,0:0:0:0:
459,236,27570,2,0,L|446:339,1,90,2|8,0:0|1:2,0:0:0:0:
303,190,28039,1,0,0:0:0:0:
422,68,28274,6,0,L|409:171,1,90,8|0,3:0|0:0,0:0:0:0:
276,332,28742,5,10,1:2:0:0:
285,112,28977,1,2,0:0:0:0:
466,225,29211,5,8,3:0:0:0:
205,277,29445,1,2,0:0:0:0:
291,25,29680,5,8,1:2:0:0:
410,157,29914,1,2,0:0:0:0:
237,195,30149,6,0,L|334:176,1,90,8|0,3:0|0:0,0:0:0:0:
432,265,30617,1,8,1:2:0:0:
432,265,30852,2,0,P|446:223|436:177,1,90,2|8,0:0|3:0,0:0:0:0:
324,52,31320,2,0,L|314:103,2,45,2|0|2,0:0|0:0|1:2,0:0:0:0:
366,218,31789,1,0,0:0:0:0:
168,149,32024,5,8,3:0:0:0:
315,96,32258,1,2,0:0:0:0:
232,291,32492,1,8,1:2:0:0:
232,291,32727,2,0,P|194:305|136:289,1,90,2|8,0:0|3:0,0:0:0:0:
56,102,33195,1,2,0:0:0:0:
145,315,33430,1,8,1:2:0:0:
193,55,33664,1,2,0:0:0:0:
203,46,33781,1,0,3:0:0:0:
213,37,33899,6,0,L|316:33,1,90,8|0,3:0|0:0,0:0:0:0:
421,155,34367,1,8,1:2:0:0:
421,155,34484,1,0,0:0:0:0:
421,155,34602,1,2,0:0:0:0:
206,231,34836,5,8,3:0:0:0:
317,111,35070,2,0,L|309:216,1,90,2|8,0:0|1:2,0:0:0:0:
222,313,35539,5,0,0:0:0:0:
111,193,35773,2,0,L|119:298,1,90,8|0,3:0|0:0,0:0:0:0:
231,91,36242,5,8,1:2:0:0:
89,205,36477,1,2,0:0:0:0:
253,72,36711,1,8,3:0:0:0:
222,271,36945,1,2,0:0:0:0:
136,114,37180,1,8,1:2:0:0:
232,293,37414,1,8,0:0:0:0:
301,179,37649,5,6,0:0:0:0:
194,198,45149,6,0,L|311:191,1,90,8|0,1:2|0:0,0:0:0:0:
451,243,45617,1,8,1:2:0:0:
340,305,45852,1,0,1:0:0:0:
395,159,46086,1,10,1:2:0:0:
434,345,46320,1,0,1:0:0:0:
243,286,46555,2,0,L|360:279,1,90,8|0,1:2|0:0,0:0:0:0:
414,139,47024,5,10,1:2:0:0:
255,89,47258,1,0,1:0:0:0:
326,261,47492,1,8,1:2:0:0:
380,25,47727,1,2,1:2:0:0:
178,141,47961,1,8,1:2:0:0:
344,237,48195,1,2,1:2:0:0:
344,237,48313,1,0,0:0:0:0:
344,237,48430,1,8,1:2:0:0:
154,128,48664,1,0,1:0:0:0:
155,348,48899,5,6,1:2:0:0:
132,348,49016,1,0,3:0:0:0:
111,341,49133,1,2,1:2:0:0:
95,326,49250,1,0,3:0:0:0:
85,305,49367,1,2,1:2:0:0:
84,283,49484,1,0,3:0:0:0:
92,262,49602,1,2,1:2:0:0:
107,246,49719,1,0,3:0:0:0:
127,236,49836,6,0,P|156:229|181:229,1,45,6|0,1:2|3:0,0:0:0:0:
301,284,50070,1,2,1:2:0:0:
301,284,50188,1,0,3:0:0:0:
301,284,50305,2,0,P|272:291|247:291,1,45,0|0,1:0|3:0,0:0:0:0:
233,146,50539,1,2,1:2:0:0:
233,146,50656,1,0,3:0:0:0:
233,146,50774,5,6,0:0:0:0:
347,194,51008,1,2,0:0:0:0:
201,141,51242,1,2,0:0:0:0:
339,89,51477,1,2,0:0:0:0:
172,133,51711,1,2,0:0:0:0:
397,211,51945,5,2,0:0:0:0:
220,28,52180,1,0,0:0:0:0:
151,273,52414,1,0,0:0:0:0:
417,91,52649,6,0,B|370:73|370:73|287:95,1,103.500001974106,6|0,1:2|0:0,0:0:0:0:
118,200,53117,2,0,B|165:218|165:218|248:196,1,103.500001974106,8|0,3:0|0:0,0:0:0:0:
410,106,53586,1,0,1:0:0:0:
226,53,53820,1,2,0:0:0:0:
226,53,53938,1,0,0:0:0:0:
226,53,54055,2,0,B|198:87|198:87|210:214,1,155.250002961159,6|0,1:2|0:0,0:0:0:0:
219,278,54524,5,8,1:3:0:0:
291,148,54758,1,0,0:0:0:0:
121,207,54992,1,8,3:0:0:0:
316,141,55227,1,2,0:0:0:0:
219,355,55461,1,0,1:0:0:0:
150,128,55695,1,2,0:0:0:0:
150,128,55813,1,0,0:0:0:0:
150,128,55930,2,0,P|90:130|54:161,1,103.500001974106,6|8,1:2|3:0,0:0:0:0:
244,281,56399,5,8,1:3:0:0:
298,59,56633,1,2,0:0:0:0:
121,207,56867,1,8,3:0:0:0:
316,165,57102,1,2,0:0:0:0:
183,18,57336,1,0,1:0:0:0:
183,18,57453,1,0,0:0:0:0:
183,18,57570,1,2,0:0:0:0:
332,185,57805,2,0,L|407:175,1,67.5000025749208,4|0,3:0|0:0,0:0:0:0:
407,183,58156,1,0,0:0:0:0:
416,192,58274,6,0,L|424:131,1,51.7500009870529,2|0,1:2|0:0,0:0:0:0:
306,46,58508,1,2,0:0:0:0:
306,46,58625,1,0,0:0:0:0:
306,46,58742,2,0,L|298:107,1,51.7500009870529,2|0,1:2|0:0,0:0:0:0:
286,239,58977,1,2,0:0:0:0:
286,239,59094,1,0,0:0:0:0:
286,239,59211,2,0,L|225:231,1,51.7500009870529,2|0,1:2|0:0,0:0:0:0:
105,126,59445,1,2,0:0:0:0:
105,126,59562,1,0,0:0:0:0:
105,126,59679,2,0,L|166:134,1,51.7500009870529,2|0,1:2|0:0,0:0:0:0:
186,301,59914,1,2,0:0:0:0:
417,91,60149,6,0,B|370:73|370:73|287:95,1,103.500001974106,6|0,1:2|0:0,0:0:0:0:
118,200,60617,2,0,B|165:218|165:218|248:196,1,103.500001974106,8|0,3:0|0:0,0:0:0:0:
410,106,61086,1,0,1:2:0:0:
226,53,61320,1,2,0:0:0:0:
226,53,61438,1,0,0:0:0:0:
226,53,61555,2,0,B|198:87|198:87|210:214,1,155.250002961159,8|0,1:3|0:0,0:0:0:0:
219,278,62024,6,0,B|270:294|270:294|332:274,1,103.500001974106,8|0,1:3|0:0,0:0:0:0:
450,176,62492,1,8,3:0:0:0:
288,129,62727,1,2,0:0:0:0:
389,303,62961,1,0,1:2:0:0:
423,92,63195,1,2,0:0:0:0:
423,92,63313,1,0,0:0:0:0:
423,92,63430,1,0,1:2:0:0:
217,193,63664,1,8,3:0:0:0:
332,40,63899,6,0,L|318:152,1,103.500001974106,8|0,1:3|0:0,0:0:0:0:
144,237,64367,1,8,3:0:0:0:
215,93,64602,1,2,0:0:0:0:
258,292,64836,2,0,P|311:307|358:296,1,103.500001974106,2|0,1:2|0:0,0:0:0:0:
487,233,65305,1,8,3:0:0:0:
381,384,65539,6,0,L|386:265,1,103.500001974106
307,110,66008,6,0,L|302:229,1,90
214,319,66477,6,0,L|217:229,1,76.5000014591217
156,125,66945,6,0,L|152:202,1,53.9999983520508,0|8,0:0|1:1,0:0:0:0:
296,278,67414,1,8,0:0:0:0:
243,38,67649,6,0,L|238:157,1,103.500001974106,12|0,1:3|0:0,0:0:0:0:
372,227,68117,1,8,3:0:0:0:
453,120,68352,2,0,L|503:111,2,51.7500009870529,2|0|2,0:0|0:0|1:2,0:0:0:0:
321,52,68820,1,2,0:0:0:0:
321,52,68938,1,0,0:0:0:0:
321,52,69055,2,0,B|308:88|308:88|321:140,1,76.5000014591217,8|0,3:0|0:0,0:0:0:0:
457,308,69524,6,0,L|462:189,1,103.500001974106,8|0,1:3|0:0,0:0:0:0:
297,315,69992,1,8,3:0:0:0:
211,192,70227,2,0,L|223:133,2,51.7500009870529,2|0|2,0:0|0:0|1:2,0:0:0:0:
166,338,70695,1,2,0:0:0:0:
166,338,70813,1,0,0:0:0:0:
166,338,70930,1,8,1:3:0:0:
61,190,71164,1,8,3:0:0:0:
358,272,71399,6,0,B|311:290|311:290|228:268,1,103.500001974106,12|0,1:3|0:0,0:0:0:0:
59,163,71867,2,0,B|106:145|106:145|189:167,1,103.500001974106,8|2,3:3|0:0,0:0:0:0:
351,257,72336,1,0,1:2:0:0:
167,310,72570,1,2,0:0:0:0:
167,310,72805,2,0,B|139:276|139:276|151:149,1,155.250002961159,0|0,1:2|0:0,0:0:0:0:
193,109,73274,6,0,L|185:170,1,51.7500009870529,2|0,1:2|0:0,0:0:0:0:
303,255,73508,1,2,0:0:0:0:
303,255,73625,1,0,0:0:0:0:
303,255,73742,2,0,L|311:194,1,51.7500009870529,2|0,1:2|0:0,0:0:0:0:
323,62,73977,1,2,0:0:0:0:
323,62,74094,1,0,0:0:0:0:
323,62,74211,2,0,L|384:70,1,51.7500009870529,2|0,1:2|0:0,0:0:0:0:
504,175,74445,1,2,0:0:0:0:
504,175,74562,1,0,0:0:0:0:
504,175,74680,2,0,L|443:167,1,51.7500009870529,2|0,1:2|0:0,0:0:0:0:
251,153,74914,1,2,0:0:0:0:
307,300,75149,6,0,L|312:181,1,103.500001974106,8|0,1:3|0:0,0:0:0:0:
178,111,75617,1,8,3:0:0:0:
97,218,75852,2,0,L|47:227,2,51.7500009870529,2|0|2,0:0|0:0|1:2,0:0:0:0:
229,286,76320,1,2,0:0:0:0:
229,286,76438,1,0,0:0:0:0:
229,286,76555,2,0,B|242:250|242:250|229:198,1,76.5000014591217,4|0,3:0|0:0,0:0:0:0:
93,30,77024,6,0,L|88:149,1,103.500001974106,8|0,1:3|0:0,0:0:0:0:
253,23,77492,1,8,3:0:0:0:
339,146,77727,2,0,L|327:205,2,51.7500009870529,2|0|2,0:0|0:0|1:2,0:0:0:0:
384,0,78195,1,2,0:0:0:0:
384,0,78313,1,0,0:0:0:0:
384,0,78430,1,8,3:0:0:0:
489,148,78664,1,2,0:0:0:0:
371,287,78899,6,0,B|321:302|321:302|271:287,1,103.500001974106,8|0,1:3|0:0,0:0:0:0:
98,200,79367,1,8,3:0:0:0:
282,111,79602,1,2,0:0:0:0:
195,338,79836,2,0,L|204:219,1,103.500001974106,2|2,1:2|0:0,0:0:0:0:
216,26,80305,1,8,0:0:0:0:
99,230,80539,6,0,L|218:235,1,103.500001974106,2|8,0:0|3:0,0:0:0:0:
373,156,81008,6,0,L|254:151,1,90,0|0,0:0|1:0,0:0:0:0:
164,63,81477,6,0,L|254:66,1,76.5000014591217
358,5,81945,6,0,L|281:1,1,53.9999983520508
205,145,82414,1,0,0:0:0:0:
445,92,82649,5,4,3:0:0:0:
347,259,82883,2,0,L|353:209,1,45
363,134,83117,1,8,1:2:0:0:
195,181,83352,1,0,0:0:0:0:
283,84,83586,2,0,L|274:152,1,67.5000025749208
251,303,84055,1,8,1:2:0:0:
137,212,84289,2,0,L|187:218,1,45
262,228,84523,5,4,1:3:0:0:
110,315,84758,1,0,0:0:0:0:
110,315,84875,1,0,0:0:0:0:
110,315,84992,1,8,1:2:0:0:
110,139,85227,1,0,0:0:0:0:
262,228,85461,2,0,L|157:222,1,90,8|0,3:0|0:0,0:0:0:0:
58,223,85930,5,2,0:0:0:0:
193,139,86164,1,0,0:0:0:0:
190,311,86399,2,0,B|234:322|234:322|287:308,1,90
497,220,86867,5,6,1:2:0:0:
235,181,87102,1,0,1:0:0:0:
387,31,87336,2,0,B|398:75|398:75|384:128,1,90,8|2,1:3|0:0,0:0:0:0:
385,127,87688,1,0,0:0:0:0:
382,135,87805,1,2,0:0:0:0:
180,22,88039,1,0,0:0:0:0:
180,22,88156,1,0,0:0:0:0:
180,22,88274,5,8,1:3:0:0:
242,182,88508,2,0,L|251:121,1,45
262,57,88742,1,8,1:2:0:0:
229,263,88977,1,0,0:0:0:0:
68,145,89211,2,0,B|112:134|112:134|165:148,1,90,8|0,3:0|0:0,0:0:0:0:
294,264,89680,2,0,B|262:271|262:271|224:261,1,67.5000025749208,8|0,2:0|0:0,0:0:0:0:
96,342,90149,6,0,L|90:279,2,60,8|0|0,1:3|0:0|0:0,0:0:0:0:
154,227,90617,6,0,L|145:139,2,75,8|0|0,1:2|0:0|0:0,0:0:0:0:
172,378,91086,5,8,1:3:0:0:
67,209,91320,1,2,0:0:0:0:
67,209,91438,1,0,0:0:0:0:
67,209,91555,6,0,L|4:215,2,60,10|0|0,1:2|0:0|0:0,0:0:0:0:
236,165,92024,6,0,L|324:174,2,75,8|0|0,1:3|0:0|0:0,0:0:0:0:
132,50,92492,5,8,1:2:0:0:
139,57,92961,5,4,3:0:0:0:
139,57,93078,1,0,0:3:0:0:
139,57,93195,1,2,0:0:0:0:
227,227,93430,2,0,L|222:110,1,112.5,6|0,1:2|3:0,0:0:0:0:
218,26,93899,5,8,3:0:0:0:
345,126,94367,6,0,L|413:119,2,60,0|0|0,1:3|0:0|0:0,0:0:0:0:
457,177,94836,2,0,P|484:118|419:42,1,168.75,8|0,3:0|0:0,0:0:0:0:
404,119,95305,1,8,3:0:0:0:
124,55,95774,5,6,0:0:0:0:
232,16,96008,1,0,0:0:0:0:
211,129,96242,1,0,0:0:0:0:
124,55,96477,1,0,0:0:0:0:
275,173,96711,2,0,P|291:131|270:79,1,90
273,81,97063,1,0,0:0:0:0:
267,74,97180,1,8,0:0:0:0:
105,158,97414,1,8,0:0:0:0:
199,39,97649,6,0,L|211:137,1,90,8|0,3:0|3:0,3:0:0:0:
359,222,98117,1,0,1:0:0:0:
359,222,98352,2,0,P|314:195|252:213,1,90,2|8,0:0|3:0,0:0:0:0:
144,260,98820,2,0,L|134:204,2,45,2|0|2,0:0|0:0|1:2,0:0:0:0:
239,327,99289,1,0,0:0:0:0:
214,140,99524,5,8,3:0:0:0:
214,140,99758,1,2,0:0:0:0:
65,255,99992,1,0,1:0:0:0:
239,327,100227,2,0,P|255:284|237:228,1,90,2|8,0:0|3:0,0:0:0:0:
147,98,100695,1,2,0:0:0:0:
3,207,100930,2,0,B|52:234|52:234|114:223,1,112.5,2|8,1:2|3:0,0:0:0:0:
288,175,101399,5,8,3:0:0:0:
147,74,101633,1,0,0:0:0:0:
147,86,101750,1,0,0:0:0:0:
147,98,101867,1,0,1:0:0:0:
196,262,102102,2,0,L|246:280,2,45,2|0|8,0:0|0:0|3:0,0:0:0:0:
17,200,102570,2,0,L|22:303,1,90,0|0,0:0|1:0,0:0:0:0:
176,165,103039,1,0,0:0:0:0:
65,35,103274,6,0,L|70:138,1,90,8|2,3:0|0:0,0:0:0:0:
193,309,103742,5,0,1:0:0:0:
199,89,103977,1,2,0:0:0:0:
11,189,104211,5,8,3:0:0:0:
267,259,104445,1,2,0:0:0:0:
199,1,104680,5,0,1:0:0:0:
71,125,104914,1,2,0:0:0:0:
241,175,105149,6,0,L|145:149,1,90,8|0,3:0|0:0,0:0:0:0:
42,231,105617,1,0,1:0:0:0:
42,231,105852,2,0,P|30:188|44:142,1,90,2|8,0:0|3:0,0:0:0:0:
164,26,106320,2,0,L|170:77,2,45,2|0|2,0:0|0:0|1:2,0:0:0:0:
111,189,106789,1,0,0:0:0:0:
313,134,107024,5,8,3:0:0:0:
170,71,107258,1,2,0:0:0:0:
239,271,107492,1,0,1:0:0:0:
239,271,107727,2,0,P|275:287|334:275,1,90,2|8,0:0|3:0,0:0:0:0:
428,95,108195,1,0,0:0:0:0:
325,301,108430,1,2,1:2:0:0:
295,38,108664,1,2,0:0:0:0:
285,29,108781,1,0,0:0:0:0:
276,19,108899,6,0,L|173:7,1,90,8|2,3:0|0:0,0:0:0:0:
60,122,109367,1,0,1:0:0:0:
60,122,109484,1,0,0:0:0:0:
60,122,109602,1,2,0:0:0:0:
270,213,109836,5,8,3:0:0:0:
167,85,110070,2,0,L|167:190,1,90,2|8,0:0|3:0,0:0:0:0:
248,294,110539,5,0,0:0:0:0:
367,182,110773,2,0,L|351:286,1,90,8|2,3:0|0:0,0:0:0:0:
254,71,111242,5,0,1:0:0:0:
388,195,111477,1,2,0:0:0:0:
234,51,111711,1,8,3:0:0:0:
251,252,111945,1,2,0:0:0:0:
347,101,112180,1,8,1:2:0:0:
239,273,112414,1,8,0:0:0:0:
178,154,112649,5,6,0:0:0:0:
318,186,120149,6,0,L|201:193,1,90,10|0,1:2|0:0,0:0:0:0:
61,141,120617,1,8,1:2:0:0:
172,79,120852,1,0,1:0:0:0:
117,225,121086,1,8,1:2:0:0:
78,39,121320,1,2,1:2:0:0:
269,98,121555,2,0,L|152:105,1,90,8|0,1:0|0:0,0:0:0:0:
98,245,122024,5,10,1:2:0:0:
257,295,122258,1,0,1:0:0:0:
186,123,122492,1,2,1:2:0:0:
132,359,122727,1,0,1:0:0:0:
334,243,122961,1,8,1:2:0:0:
168,147,123195,1,2,1:2:0:0:
168,147,123313,1,0,0:0:0:0:
168,147,123430,1,10,1:2:0:0:
358,256,123664,1,2,0:0:0:0:
357,36,123899,5,6,1:2:0:0:
380,36,124016,1,0,3:0:0:0:
401,43,124133,1,2,1:2:0:0:
417,58,124250,1,0,3:0:0:0:
427,79,124367,1,2,1:2:0:0:
428,101,124484,1,0,3:0:0:0:
420,122,124602,1,2,1:2:0:0:
405,138,124719,1,0,3:0:0:0:
385,148,124836,6,0,P|356:155|331:155,1,45,6|0,1:2|3:0,0:0:0:0:
211,100,125070,1,2,0:0:0:0:
211,100,125188,1,0,3:0:0:0:
211,100,125305,2,0,P|240:93|265:93,1,45,2|0,1:2|3:0,0:0:0:0:
279,238,125539,1,0,1:2:0:0:
279,238,125656,1,0,3:0:0:0:
279,238,125774,5,2,0:0:0:0:
165,190,126008,1,2,0:0:0:0:
311,243,126242,1,2,0:0:0:0:
173,295,126477,1,2,0:0:0:0:
340,251,126711,1,2,0:0:0:0:
95,166,126945,5,2,0:0:0:0:
296,374,127180,1,0,0:0:0:0:
374,96,127414,1,0,0:0:0:0:
95,293,127649,6,0,B|142:311|142:311|225:289,1,103.500001974106,6|0,1:2|0:0,0:0:0:0:
394,184,128117,2,0,B|347:166|347:166|264:188,1,103.500001974106,8|0,3:0|0:0,0:0:0:0:
102,278,128586,1,0,1:0:0:0:
286,331,128820,1,2,0:0:0:0:
286,331,128938,1,0,0:0:0:0:
286,331,129055,2,0,B|314:297|314:297|302:170,1,155.250002961159,6|0,1:2|0:0,0:0:0:0:
293,106,129524,5,8,3:0:0:0:
221,236,129758,1,0,0:0:0:0:
391,177,129992,1,2,1:2:0:0:
196,243,130227,1,2,0:0:0:0:
293,29,130461,1,8,3:0:0:0:
362,256,130695,1,2,0:0:0:0:
362,256,130813,1,0,0:0:0:0:
362,256,130930,2,0,P|422:254|458:223,1,103.500001974106,2|8,1:2|3:0,0:0:0:0:
268,103,131399,5,8,3:0:0:0:
214,325,131633,1,0,0:0:0:0:
391,177,131867,1,2,1:2:0:0:
196,219,132102,1,2,0:0:0:0:
329,366,132336,1,8,3:0:0:0:
329,366,132453,1,0,0:0:0:0:
329,366,132570,1,2,0:0:0:0:
180,199,132805,2,0,L|105:209,1,67.5000025749208,4|0,3:0|0:0,0:0:0:0:
105,201,133156,1,0,0:0:0:0:
96,192,133274,6,0,L|88:253,1,51.7500009870529,2|0,1:2|0:0,0:0:0:0:
206,338,133508,1,2,0:0:0:0:
206,338,133625,1,0,0:0:0:0:
206,338,133742,2,0,L|214:277,1,51.7500009870529,2|0,1:2|0:0,0:0:0:0:
226,145,133977,1,2,0:0:0:0:
226,145,134094,1,0,0:0:0:0:
226,145,134211,2,0,L|287:153,1,51.7500009870529,2|0,1:2|0:0,0:0:0:0:
407,258,134445,1,2,0:0:0:0:
407,258,134562,1,0,0:0:0:0:
407,258,134679,2,0,L|346:250,1,51.7500009870529,2|0,1:2|0:0,0:0:0:0:
326,83,134914,1,2,0:0:0:0:
95,293,135149,6,0,B|142:311|142:311|225:289,1,103.500001974106,6|0,1:2|0:0,0:0:0:0:
394,184,135617,2,0,B|347:166|347:166|264:188,1,103.500001974106,8|0,3:0|0:0,0:0:0:0:
102,278,136086,1,0,1:0:0:0:
286,331,136320,1,2,0:0:0:0:
286,331,136438,1,0,0:0:0:0:
286,331,136555,2,0,B|314:297|314:297|302:170,1,155.250002961159,8|0,1:3|0:0,0:0:0:0:
293,106,137024,6,0,B|242:90|242:90|180:110,1,103.500001974106,8|0,1:3|0:0,0:0:0:0:
62,208,137492,1,2,1:2:0:0:
224,255,137727,1,0,0:0:0:0:
123,81,137961,1,8,3:0:0:0:
89,292,138195,1,2,0:0:0:0:
89,292,138313,1,0,0:0:0:0:
89,292,138430,1,2,1:2:0:0:
295,191,138664,1,0,0:0:0:0:
180,344,138899,6,0,L|194:232,1,103.500001974106,8|0,3:0|0:0,0:0:0:0:
368,147,139367,1,0,1:0:0:0:
297,291,139602,1,2,0:0:0:0:
254,92,139836,2,0,P|202:76|144:95,1,103.500001974106,8|0,3:0|0:0,0:0:0:0:
25,151,140305,1,4,1:3:0:0:
131,0,140539,6,0,L|126:119,1,103.500001974106
205,274,141008,6,0,L|210:155,1,90
298,65,141477,6,0,L|295:155,1,76.5000014591217
356,259,141945,6,0,L|360:182,1,53.9999983520508
216,106,142414,1,0,0:0:0:0:
461,66,142649,5,6,0:0:0:0:
28,29,159524,6,0,L|33:115,1,67.5000025749208,6|0,0:0|0:0,0:0:0:0:
38,173,159992,2,0,L|43:259,1,67.5000025749208,0|0,3:0|0:0,0:0:0:0:
48,317,160461,2,0,L|53:403,1,67.5000025749208,0|0,3:0|0:0,0:0:0:0:
122,269,160930,1,2,0:0:0:0:
137,263,161047,1,0,0:0:0:0:
154,260,161164,1,2,0:0:0:0:
171,262,161281,1,0,0:0:0:0:
187,266,161399,6,0,L|273:261,1,67.5000025749208,0|0,3:0|0:0,0:0:0:0:
331,256,161867,2,0,L|417:251,1,67.5000025749208,0|0,3:0|0:0,0:0:0:0:
211,187,162336,2,0,L|297:182,1,67.5000025749208,0|0,3:0|0:0,0:0:0:0:
355,177,162805,2,0,L|441:172,1,67.5000025749208,0|0,3:0|0:0,0:0:0:0:
484,29,163274,6,0,L|479:115,1,67.5000025749208,2|0,3:2|0:0,0:0:0:0:
474,173,163742,2,0,L|469:259,1,67.5000025749208,0|0,3:0|0:0,0:0:0:0:
464,317,164211,2,0,L|459:403,1,67.5000025749208,2|0,3:2|0:0,0:0:0:0:
445,384,164563,2,0,L|450:298,1,67.5000025749208,2|0,3:2|0:0,0:0:0:0:
357,260,164914,1,2,0:0:0:0:
340,262,165031,1,0,0:0:0:0:
325,266,165149,6,0,L|239:261,1,67.5000025749208,8|0,3:0|0:0,0:0:0:0:
181,256,165617,2,0,L|95:251,1,67.5000025749208,0|0,3:0|0:0,0:0:0:0:
301,187,166086,2,0,L|215:182,1,67.5000025749208,0|0,3:0|0:0,0:0:0:0:
157,177,166554,2,0,L|71:172,1,67.5000025749208,0|0,3:0|0:0,0:0:0:0:
204,110,167024,5,10,1:2:0:0:
187,252,167258,1,0,1:0:0:0:
209,84,167492,1,0,1:0:0:0:
76,162,167727,1,0,1:0:0:0:
278,212,167961,1,10,1:2:0:0:
120,63,168195,1,0,1:0:0:0:
155,346,168430,1,0,1:0:0:0:
288,184,168664,1,0,1:0:0:0:
83,259,168899,5,10,1:2:0:0:
270,359,169133,1,0,1:0:0:0:
283,85,169367,1,0,1:0:0:0:
136,188,169602,1,0,1:0:0:0:
410,275,169836,1,10,1:2:0:0:
167,300,170070,1,0,1:0:0:0:
388,123,170305,1,0,1:0:0:0:
333,384,170539,1,0,1:0:0:0:
286,86,170774,6,0,L|237:105,2,33.7500012874604,6|0|2,1:2|0:0|0:0,0:0:0:0:
440,187,171242,1,2,1:2:0:0:
459,164,171359,1,0,0:0:0:0:
468,135,171476,1,2,1:2:0:0:
466,105,171593,1,0,0:0:0:0:
452,78,171711,2,0,L|460:32,2,33.7500012874604,2|0|2,1:2|0:0|0:0,0:0:0:0:
331,185,172180,2,0,L|323:231,2,33.7500012874604,2|0|2,1:2|0:0|0:0,0:0:0:0:
136,128,172649,6,0,L|229:120,1,67.5000025749208,6|0,0:0|0:0,0:0:0:0:
325,218,173117,2,0,L|232:226,1,67.5000025749208
452,274,173820,5,0,0:0:0:0:
315,133,174055,1,0,0:0:0:0:
300,326,174289,1,0,0:0:0:0:
508,203,174524,6,0,B|451:186|451:186|383:209,1,112.5,6|0,1:2|0:0,0:0:0:0:
213,300,174992,2,0,B|270:317|270:317|338:294,1,112.5,8|0,3:0|0:0,0:0:0:0:
121,139,175461,2,0,B|105:190|105:190|122:247,1,112.5,0|0,1:0|0:0,0:0:0:0:
320,300,175930,2,0,B|336:249|336:249|319:192,1,112.5,4|0,1:3|0:0,0:0:0:0:
209,64,176399,5,12,3:0:0:0:
419,147,176633,1,2,0:0:0:0:
219,262,176867,1,2,1:2:0:0:
325,102,177102,1,0,0:0:0:0:
325,102,177219,1,0,0:0:0:0:
325,102,177336,1,8,3:0:0:0:
421,296,177570,2,0,L|485:285,1,56.25
304,234,177805,2,0,B|295:274|295:274|302:304|302:304|291:359,1,121.500000463486,0|8,1:3|3:0,0:0:0:0:
69,263,178274,6,0,B|123:243|123:243|184:258,1,112.5,12|0,3:0|0:0,0:0:0:0:
362,307,178742,1,2,1:2:0:0:
176,369,178977,1,2,0:0:0:0:
176,369,179094,1,0,0:0:0:0:
176,369,179211,1,8,3:0:0:0:
222,189,179445,1,2,0:0:0:0:
222,189,179563,1,0,0:0:0:0:
222,189,179680,2,0,L|235:293,1,76.5000014591217,4|0,1:3|0:0,0:0:0:0:
238,275,180031,1,0,0:0:0:0:
246,283,180149,6,0,L|317:270,1,56.25,2|0,1:2|0:0,0:0:0:0:
405,182,180383,1,2,0:0:0:0:
405,182,180500,1,0,0:0:0:0:
405,182,180617,2,0,L|334:169,1,56.25,2|0,1:2|0:0,0:0:0:0:
213,110,180852,1,2,0:0:0:0:
213,110,180969,1,0,0:0:0:0:
213,110,181086,2,0,L|200:181,1,56.25,2|0,1:2|0:0,0:0:0:0:
291,328,181320,1,2,0:0:0:0:
291,328,181437,1,0,0:0:0:0:
291,328,181555,2,0,L|304:257,1,56.25,2|0,1:2|0:0,0:0:0:0:
333,82,181789,1,2,0:0:0:0:
114,229,182024,6,0,B|167:254|167:254|236:242,1,112.5,6|0,1:2|0:0,0:0:0:0:
432,121,182492,2,0,B|379:96|379:96|310:108,1,112.5,8|0,3:0|0:0,0:0:0:0:
178,177,182961,1,0,1:0:0:0:
293,310,183195,1,2,0:0:0:0:
293,310,183313,1,0,0:0:0:0:
293,310,183430,2,0,L|301:211,1,76.5000014591217,8|0,1:3|0:0,0:0:0:0:
123,122,183899,6,0,L|113:258,1,112.5,8|0,3:0|0:0,0:0:0:0:
221,68,184367,1,2,1:2:0:0:
41,148,184602,1,2,0:0:0:0:
276,222,184836,1,8,3:0:0:0:
139,346,185070,1,0,0:0:0:0:
139,346,185188,1,0,0:0:0:0:
139,346,185305,2,0,L|129:227,1,112.5,8|0,1:3|3:0,0:0:0:0:
291,127,185774,6,0,B|350:113|350:113|409:133,1,112.5,8|0,3:0|0:0,0:0:0:0:
509,252,186242,1,0,1:0:0:0:
456,79,186477,1,2,0:0:0:0:
402,301,186711,1,8,1:3:0:0:
437,159,186945,1,2,0:0:0:0:
215,236,187180,1,0,1:0:0:0:
335,73,187414,6,0,L|322:200,1,112.5
206,326,187883,6,0,L|219:199,1,90
152,96,188352,6,0,L|143:182,1,67.5000025749208
59,272,188820,6,0,L|65:209,1,45,0|8,0:0|1:2,0:0:0:0:
79,98,189289,1,0,0:0:0:0:
150,355,189524,6,0,L|161:235,1,112.5,6|0,1:2|0:0,0:0:0:0:
333,138,189992,1,8,3:0:0:0:
254,318,190227,1,2,0:0:0:0:
254,318,190344,1,0,0:0:0:0:
254,318,190461,1,2,1:2:0:0:
142,162,190695,2,0,L|216:158,1,56.25,2|0,0:0|0:0,0:0:0:0:
353,130,190930,2,0,B|361:168|361:168|348:215,1,72,8|0,1:3|0:0,0:0:0:0:
235,336,191399,6,0,B|215:284|215:284|237:215,1,112.5,8|0,3:0|0:0,0:0:0:0:
371,127,191867,1,2,1:2:0:0:
206,78,192102,1,2,0:0:0:0:
206,78,192219,1,0,0:0:0:0:
206,78,192336,1,8,3:0:0:0:
298,232,192570,1,2,0:0:0:0:
354,20,192805,1,0,1:0:0:0:
130,106,193039,1,8,3:0:0:0:
374,203,193274,6,0,P|335:159|262:157,1,112.5,8|2,3:0|0:0,0:0:0:0:
119,214,193742,1,0,1:0:0:0:
298,232,193977,1,2,0:0:0:0:
298,232,194094,1,0,0:0:0:0:
298,232,194211,1,8,3:0:0:0:
167,134,194445,1,2,0:0:0:0:
237,332,194680,2,0,B|287:348|287:348|354:332,1,108,8|0,1:3|0:0,0:0:0:0:
422,245,195149,6,0,L|416:315,1,56.25,2|0,1:2|0:0,0:0:0:0:
338,154,195383,1,2,0:0:0:0:
338,154,195500,1,0,0:0:0:0:
338,154,195617,2,0,L|332:224,1,56.25,2|0,1:2|0:0,0:0:0:0:
254,63,195852,1,2,0:0:0:0:
254,63,195969,1,0,0:0:0:0:
254,63,196086,2,0,L|248:133,1,56.25,2|0,1:2|0:0,0:0:0:0:
235,284,196320,1,2,0:0:0:0:
235,284,196437,1,0,0:0:0:0:
235,284,196554,2,0,L|241:214,1,56.25,2|0,1:2|0:0,0:0:0:0:
81,155,196789,1,2,0:0:0:0:
157,334,197024,6,0,L|167:217,1,112.5,6|0,1:2|0:0,0:0:0:0:
330,41,197492,2,0,L|320:158,1,112.5,8|2,1:3|0:0,0:0:0:0:
320,164,197844,1,0,0:0:0:0:
320,175,197961,2,0,B|376:196|376:196|440:183,1,112.5,8|0,3:0|0:0,0:0:0:0:
201,74,198430,2,0,B|167:61|167:61|130:69,1,72,4|0,1:3|0:0,0:0:0:0:
220,281,198899,6,0,L|229:150,1,112.5,8|0,3:0|0:0,0:0:0:0:
106,268,199367,1,2,1:2:0:0:
51,104,199602,1,2,0:0:0:0:
51,104,199719,1,0,0:0:0:0:
51,104,199836,1,8,3:0:0:0:
111,293,200070,1,2,0:0:0:0:
172,52,200305,1,2,1:2:0:0:
9,177,200539,1,0,0:0:0:0:
183,336,200774,6,0,P|195:280|153:226,1,112.5,8|0,3:0|0:0,0:0:0:0:
9,177,201242,1,0,1:2:0:0:
206,111,201477,1,2,0:0:0:0:
111,293,201711,1,8,3:0:0:0:
111,293,201828,1,0,0:0:0:0:
111,293,201945,1,2,0:0:0:0:
0,159,202180,1,8,1:3:0:0:
116,367,202414,6,0,L|129:240,1,112.5,0|8,0:0|3:0,0:0:0:0:
245,114,202883,6,0,L|232:241,1,90,0|8,0:0|0:0,0:0:0:0:
299,344,203352,6,0,L|308:258,1,67.5000025749208
395,168,203820,6,0,L|389:231,1,45
375,342,204289,1,0,0:0:0:0:
257,248,204524,6,0,P|281:244|303:248,1,45,4|0,3:0|0:0,0:0:0:0:
278,384,204992,2,0,L|281:308,1,67.5000025749208,4|0,1:2|0:0,0:0:0:0:
212,170,205461,6,0,P|174:145|126:148,1,90,12|0,3:0|0:0,0:0:0:0:
148,332,205930,2,0,L|154:215,1,112.5,6|0,1:2|0:0,0:0:0:0:
271,80,206399,5,12,1:3:0:0:
105,132,206633,1,2,0:0:0:0:
231,253,206867,1,2,1:2:0:0:
281,57,207102,1,2,0:0:0:0:
222,283,207336,5,8,1:3:0:0:
222,9,207570,1,2,0:0:0:0:
61,230,207805,1,6,1:2:0:0:
321,146,208039,1,8,3:0:0:0:
61,62,208274,5,12,1:3:0:0:
221,102,208508,1,2,0:0:0:0:
69,162,208742,1,2,1:2:0:0:
156,24,208977,1,0,0:0:0:0:
168,188,209211,5,8,1:3:0:0:
305,96,209445,1,2,0:0:0:0:
147,203,209680,1,4,1:3:0:0:
278,273,209914,1,2,0:0:0:0:
150,358,210149,6,0,L|156:299,1,56.25,2|0,1:2|0:0,0:0:0:0:
283,217,210383,1,2,0:0:0:0:
283,217,210500,1,0,0:0:0:0:
283,217,210617,2,0,L|277:276,1,56.25,2|0,1:2|0:0,0:0:0:0:
170,195,210852,1,2,0:0:0:0:
170,195,210969,1,0,0:0:0:0:
170,195,211086,2,0,L|176:136,1,56.25,2|0,1:2|0:0,0:0:0:0:
298,65,211320,1,2,0:0:0:0:
298,65,211437,1,0,0:0:0:0:
298,65,211554,2,0,L|292:124,1,56.25,2|0,1:2|0:0,0:0:0:0:
277,272,211789,1,2,0:0:0:0:
483,179,212024,6,0,B|431:159|431:159|366:173,1,112.5,6|0,1:2|0:0,0:0:0:0:
200,247,212492,1,8,1:3:0:0:
359,342,212727,1,0,0:0:0:0:
292,120,212961,2,0,B|272:172|272:172|286:237,1,112.5,8|0,3:0|0:0,0:0:0:0:
126,346,213430,2,0,B|146:294|146:294|132:229,1,112.5,12|0,1:3|0:0,0:0:0:0:
61,61,213899,5,6,1:2:0:0:
22,259,214133,1,2,0:0:0:0:
211,112,214367,1,8,1:3:0:0:
30,156,214602,1,2,0:0:0:0:
199,289,214836,1,2,1:2:0:0:
261,40,215070,1,2,0:0:0:0:
6,167,215305,1,6,1:2:0:0:
225,216,215539,1,8,3:0:0:0:
109,81,215774,5,2,1:2:0:0:
128,303,216008,1,2,0:0:0:0:
260,139,216242,1,8,1:3:0:0:
118,319,216477,1,2,0:0:0:0:
341,262,216711,1,2,1:2:0:0:
157,198,216945,1,2,0:0:0:0:
226,354,217180,1,8,1:3:0:0:
275,127,217414,1,0,0:0:0:0:
108,222,217649,6,0,L|200:215,1,90,12|0,1:3|0:0,0:0:0:0:
337,279,218117,2,0,L|259:275,1,53.9999983520508,0|0,1:0|0:0,0:0:0:0:
283,276,218820,5,0,0:0:0:0:
310,198,219055,1,0,0:0:0:0:
229,212,219289,1,0,0:0:0:0:
