osu file format v14

[General]
AudioFilename: audio.mp3
AudioLeadIn: 0
PreviewTime: 58057
Countdown: 0
SampleSet: Soft
StackLeniency: 0.7
Mode: 0
LetterboxInBreaks: 0
WidescreenStoryboard: 1

[Editor]
DistanceSpacing: 2.3
BeatDivisor: 4
GridSize: 4
TimelineZoom: 1

[Metadata]
Title:Ko Ko Bop
TitleUnicode:Ko Ko Bop
Artist:EXO
ArtistUnicode:엑소
Creator:Simuzax
Version:Insane
Source:
Tags:
BeatmapID:1532892
BeatmapSetID:726012

[Difficulty]
HPDrainRate:5
CircleSize:4
OverallDifficulty:8
ApproachRate:9
SliderMultiplier:1.5
SliderTickRate:1

[Events]
//Background and Video events
0,0,"exokkb.jpg",0,0
//Break Periods
//Storyboard Layer 0 (Background)
//Storyboard Layer 1 (Fail)
//Storyboard Layer 2 (Pass)
//Storyboard Layer 3 (Foreground)
//Storyboard Sound Samples

[TimingPoints]
1140,410.958904109589,4,2,0,60,1,0
13366,-100,4,2,0,5,0,0
13468,-100,4,2,0,60,0,0
15934,-125,4,2,0,60,0,0
16242,-125,4,2,0,5,0,0
16345,-125,4,2,0,60,0,0
16653,-125,4,2,0,5,0,0
16756,-100,4,2,0,60,0,0
17886,-100,4,2,0,5,0,0
17989,-100,4,2,0,60,0,0
19222,-125,4,2,0,60,0,0
19530,-125,4,2,0,5,0,0
19633,-125,4,2,0,60,0,0
19941,-125,4,2,0,5,0,0
20044,-100,4,2,0,60,0,0
28263,-125,4,2,0,60,0,0
28571,-125,4,2,0,5,0,0
28674,-125,4,2,0,60,0,0
28982,-125,4,2,0,5,0,0
29085,-100,4,2,0,60,0,0
31550,-125,4,2,0,60,0,0
31859,-125,4,2,0,5,0,0
31961,-125,4,2,0,60,0,0
32270,-125,4,2,0,5,0,0
32372,-100,4,2,0,60,0,0
42646,-55.5555555555556,4,2,0,60,0,0
43057,-100,4,2,0,60,0,0
47475,-100,4,2,0,5,0,0
47578,-100,4,2,0,60,0,0
50763,-100,4,2,0,5,0,0
50866,-100,4,2,0,60,0,0
52920,-83.3333333333333,4,2,0,60,0,0
54153,-125,4,2,0,60,0,0
55592,-100,4,2,0,60,0,0
56208,-83.3333333333333,4,2,0,60,0,0
57441,-125,4,2,0,60,0,0
58057,-100,4,2,0,60,0,0
59085,-66.6666666666667,4,2,0,60,0,0
59496,-66.6666666666667,4,2,0,70,0,1
65660,-200,4,2,0,60,0,0
65968,-200,4,2,0,5,0,0
66071,-66.6666666666667,4,2,0,70,0,1
71824,-100,4,2,0,70,0,1
72235,-100,4,2,0,70,0,1
72544,-100,4,2,0,5,0,1
72646,-100,4,2,0,60,0,0
75112,-125,4,2,0,60,0,0
75420,-125,4,2,0,5,0,0
75523,-125,4,2,0,60,0,0
76140,-100,4,2,0,60,0,0
77064,-100,4,2,0,5,0,0
77167,-100,4,2,0,60,0,0
78400,-125,4,2,0,60,0,0
78708,-125,4,2,0,5,0,0
78811,-125,4,2,0,60,0,0
79119,-125,4,2,0,5,0,0
79222,-100,4,2,0,60,0,0
80249,-76.9230769230769,4,2,0,60,0,0
81687,-125,4,2,0,60,0,0
82098,-100,4,2,0,60,0,0
87441,-125,4,2,0,60,0,0
87749,-125,4,2,0,5,0,0
87852,-125,4,2,0,60,0,0
88160,-125,4,2,0,5,0,0
88263,-100,4,2,0,60,0,0
90729,-125,4,2,0,60,0,0
91037,-125,4,2,0,5,0,0
91139,-125,4,2,0,60,0,0
91448,-125,4,2,0,5,0,0
91550,-100,4,2,0,60,0,0
101824,-55.5555555555556,4,2,0,60,0,0
102235,-76.9230769230769,4,2,0,60,0,0
103057,-66.6666666666667,4,2,0,60,0,0
103879,-100,4,2,0,60,0,0
106653,-100,4,2,0,5,0,0
106756,-100,4,2,0,60,0,0
109941,-100,4,2,0,5,0,0
110044,-100,4,2,0,60,0,0
112098,-83.3333333333333,4,2,0,60,0,0
113331,-125,4,2,0,60,0,0
114770,-100,4,2,0,60,0,0
115386,-83.3333333333333,4,2,0,60,0,0
116619,-125,4,2,0,60,0,0
117235,-100,4,2,0,60,0,0
118263,-66.6666666666667,4,2,0,60,0,0
118674,-66.6666666666667,4,2,0,60,0,1
124838,-200,4,2,0,60,0,0
125146,-200,4,2,0,5,0,0
125249,-66.6666666666667,4,2,0,60,0,1
130181,-142.857142857143,4,2,0,60,0,0
130386,-125,4,2,0,60,0,0
130592,-111.111111111111,4,2,0,60,0,0
130797,-100,4,2,0,60,0,0
131003,-90.9090909090909,4,2,0,60,0,0
131208,-83.3333333333333,4,2,0,60,0,0
131413,-76.9230769230769,4,2,0,60,0,0
131619,-71.4285714285714,4,2,0,60,0,0
131824,-66.6666666666667,4,2,0,60,0,1
137989,-200,4,2,0,60,0,0
138297,-200,4,2,0,5,0,0
138400,-66.6666666666667,4,2,0,60,0,1
143331,-100,4,2,0,60,0,0
144872,-100,4,2,0,5,0,0
144975,-125,4,2,0,60,0,0
145900,-125,4,2,0,5,0,0
146003,-125,4,2,0,60,0,0
151550,-100,4,2,0,60,0,0
152475,-100,4,2,0,5,0,0
152578,-100,4,2,0,60,0,0
157715,-200,4,2,0,60,0,0
158023,-200,4,2,0,5,0,0
158126,-100,4,2,0,60,0,0
158948,-66.6666666666667,4,2,0,60,0,0
159359,-55.5555555555556,4,2,0,60,0,0
159770,-66.6666666666667,4,2,0,60,0,1
166345,-55.5555555555556,4,2,0,60,0,1
167578,-83.3333333333333,4,2,0,60,0,1
168811,-66.6666666666667,4,2,0,60,0,1
170866,-83.3333333333333,4,2,0,60,0,1
171276,-66.6666666666667,4,2,0,60,0,0
172509,-55.5555555555556,4,2,0,60,0,0
172920,-66.6666666666667,4,2,0,60,0,1
174050,-66.6666666666667,4,2,0,5,0,1
174153,-66.6666666666667,4,2,0,60,0,1
179496,-55.5555555555556,4,2,0,60,0,1
180729,-83.3333333333333,4,2,0,60,0,1
181961,-66.6666666666667,4,2,0,60,0,1
182783,-55.5555555555556,4,2,0,60,0,1
184016,-83.3333333333333,4,2,0,60,0,1
184427,-66.6666666666667,4,2,0,60,0,0
185660,-55.5555555555556,4,2,0,60,0,0
186071,-100,4,2,0,60,0,0

[HitObjects]
116,204,12646,6,0,L|168:192,2,50
40,264,13057,2,0,P|16:216|36:152,1,112.5
44,132,13468,6,0,P|88:128|120:112,1,75
196,60,13879,2,0,P|232:54|269:62,1,75
388,108,14290,1,0,0:0:0:0:
280,176,14496,1,0,0:0:0:0:
404,200,14701,2,0,P|464:160|476:84,1,150
404,20,15318,5,0,0:0:0:0:
324,72,15523,1,0,0:0:0:0:
228,72,15729,1,0,0:0:0:0:
140,36,15934,6,0,P|96:48|56:88,1,90
52,112,16345,2,0,L|40:216,1,90
36,248,16756,6,0,L|120:256,1,75
232,212,17167,1,0,0:0:0:0:
172,324,17372,1,0,0:0:0:0:
288,272,17578,6,0,P|312:232|300:168,1,112.5
228,116,17989,2,0,P|288:80|368:112,1,150
428,172,18605,5,0,0:0:0:0:
412,268,18811,1,0,0:0:0:0:
344,340,19016,1,0,0:0:0:0:
248,340,19222,6,0,P|224:304|224:244,1,90
225,218,19633,2,0,L|305:166,1,90
340,140,20044,5,0,0:0:0:0:
396,252,20249,1,0,0:0:0:0:
412,124,20455,1,0,0:0:0:0:
336,224,20660,1,0,0:0:0:0:
284,108,20866,2,0,P|256:80|204:72,1,75
100,100,21276,5,0,0:0:0:0:
208,168,21482,1,0,0:0:0:0:
84,192,21687,2,0,P|65:228|63:269,1,75
124,376,22098,1,0,0:0:0:0:
164,256,22304,1,0,0:0:0:0:
256,344,22509,2,0,P|340:356|372:240,1,225
272,160,23331,5,0,0:0:0:0:
308,284,23537,1,0,0:0:0:0:
356,168,23742,1,0,0:0:0:0:
244,232,23948,1,0,0:0:0:0:
372,240,24153,2,0,P|412:216|428:172,1,75
428,64,24564,5,0,0:0:0:0:
356,168,24770,1,0,0:0:0:0:
268,76,24975,2,0,P|218:58|180:60,1,75
84,120,25386,1,0,0:0:0:0:
212,140,25592,1,0,0:0:0:0:
204,168,25660,1,0,0:0:0:0:
188,196,25729,1,0,0:0:0:0:
172,220,25797,5,0,0:0:0:0:
72,300,26003,1,0,0:0:0:0:
116,180,26208,1,0,0:0:0:0:
164,312,26413,1,0,0:0:0:0:
284,208,26619,2,0,B|344:152|376:236|444:256|500:216|504:132|432:104,1,300
316,116,27646,5,0,0:0:0:0:
384,8,27852,1,0,0:0:0:0:
260,36,28057,1,0,0:0:0:0:
380,80,28263,6,0,P|388:128|364:172,1,90
348,192,28674,2,0,P|340:240|364:284,1,90
376,316,29085,2,0,P|348:345|309:352,1,75
188,352,29496,5,0,0:0:0:0:
172,328,29564,1,0,0:0:0:0:
168,296,29633,1,0,0:0:0:0:
176,268,29701,1,0,0:0:0:0:
228,152,29907,2,0,B|250:133|260:112|262:84|262:84|235:54|218:40|193:30|168:24|140:23|116:29|93:39|74:48|59:62|45:79,1,300
8,176,30934,5,0,0:0:0:0:
8,220,31037,1,0,0:0:0:0:
28,260,31140,1,0,0:0:0:0:
140,320,31345,1,0,0:0:0:0:
104,196,31550,6,0,P|148:192|188:212,1,90
216,236,31961,2,0,P|259:243|301:227,1,90
332,192,32372,2,0,P|371:209|394:245,1,75
464,340,32783,5,0,0:0:0:0:
480,316,32852,1,0,0:0:0:0:
484,288,32920,1,0,0:0:0:0:
480,256,32989,1,0,0:0:0:0:
444,136,33194,5,0,0:0:0:0:
332,192,33400,1,0,0:0:0:0:
316,64,33605,2,0,P|274:61|243:75,1,75
132,136,34016,5,0,0:0:0:0:
256,172,34222,1,0,0:0:0:0:
152,248,34427,1,0,0:0:0:0:
200,128,34633,1,0,0:0:0:0:
236,248,34838,2,0,P|276:248|320:216,1,75
424,128,35249,6,0,L|408:208,1,75
380,356,35660,2,0,L|365:282,1,75
340,156,36071,5,0,0:0:0:0:
326,126,36140,1,0,0:0:0:0:
307,104,36208,1,0,0:0:0:0:
282,90,36276,1,0,0:0:0:0:
156,96,36482,5,0,0:0:0:0:
252,176,36687,1,0,0:0:0:0:
124,176,36893,2,0,P|117:215|127:255,1,75
208,348,37304,5,0,0:0:0:0:
84,324,37509,1,0,0:0:0:0:
200,268,37715,1,0,0:0:0:0:
136,380,37920,1,0,0:0:0:0:
124,249,38126,2,0,P|148:212|192:188,1,75
312,120,38537,6,0,L|328:204,1,75
364,348,38948,2,0,L|378:274,1,75
400,148,39359,5,0,0:0:0:0:
400,120,39427,1,0,0:0:0:0:
396,92,39496,1,0,0:0:0:0:
384,64,39564,1,0,0:0:0:0:
272,0,39770,5,0,0:0:0:0:
312,120,39975,1,0,0:0:0:0:
192,72,40181,2,0,L|180:156,1,75
164,304,40592,5,0,0:0:0:0:
248,208,40797,1,0,0:0:0:0:
284,332,41003,2,0,P|324:332|364:312,1,75
492,240,41413,5,0,0:0:0:0:
364,220,41619,1,0,0:0:0:0:
440,120,41824,2,0,L|432:208,1,75
416,352,42235,5,0,0:0:0:0:
312,280,42441,1,0,0:0:0:0:
496,274,42646,2,0,P|542:251|491:239,1,134.999995880127,0|0,0:3|0:3,0:3:0:0:
356,324,43057,5,0,0:0:0:0:
296,212,43263,1,0,0:0:0:0:
212,308,43468,2,0,L|194:228,1,75
160,80,43879,5,0,0:0:0:0:
284,104,44085,1,0,0:0:0:0:
108,164,44290,2,0,L|76:176,8,18.75
260,24,45318,5,0,0:0:0:0:
260,52,45386,1,0,0:0:0:0:
268,80,45455,1,0,0:0:0:0:
284,104,45523,1,0,0:0:0:0:
400,156,45729,5,0,0:0:0:0:
276,184,45934,2,0,P|232:184|196:200,1,75
76,288,46345,6,0,L|92:208,1,75
124,60,46756,2,0,L|138:133,1,75
172,288,47167,6,0,P|216:268|276:284,1,112.5
312,312,47578,2,0,P|388:316|420:248,1,150
404,132,48194,5,0,0:0:0:0:
348,248,48400,1,0,0:0:0:0:
312,124,48605,1,0,0:0:0:0:
456,192,48811,5,0,0:0:0:0:
300,196,49016,1,0,0:0:0:0:
364,52,49222,2,0,P|324:36|280:40,1,75
152,108,49633,6,0,L|248:136,1,75
372,175,50044,2,0,L|276:203,1,75
148,232,50455,6,0,L|76:136,1,112.5
48,108,50866,2,0,L|24:264,1,150
8,384,51482,5,0,0:0:0:0:
124,336,51687,1,0,0:0:0:0:
25,256,51893,1,0,0:0:0:0:
144,156,52098,5,0,0:0:0:0:
200,304,52304,1,0,0:0:0:0:
304,184,52509,2,0,P|340:200|368:232,1,75
440,372,52920,6,0,L|464:280,1,89.9999972534181
496,140,53331,1,0,0:0:0:0:
364,225,53537,2,0,L|340:133,1,89.9999972534181
300,0,53948,1,0,0:0:0:0:
228,140,54153,2,0,P|68:156|144:28,1,360
244,0,55592,5,0,0:0:0:0:
144,116,55797,2,0,P|128:156|128:200,1,75
116,344,56208,6,0,P|152:320|200:312,1,89.9999972534181
360,336,56619,1,0,0:0:0:0:
512,264,56824,2,0,P|476:240|428:232,1,89.9999972534181
268,256,57235,1,0,0:0:0:0:
300,104,57441,2,0,L|372:216,1,120
444,308,58057,5,0,0:0:0:0:
412,152,58263,2,0,P|376:136|324:148,1,75
156,180,58674,5,0,0:0:0:0:
308,68,58879,1,0,0:0:0:0:
268,256,59085,2,0,L|228:144,1,112.500004291535
172,8,59496,6,0,P|148:16|120:36,1,56.2500021457673
4,76,59701,2,0,P|28:84|56:104,1,56.2500021457673
156,180,59907,1,0,0:0:0:0:
308,68,60112,6,0,L|296:136,1,56.2500021457673
268,252,60318,2,0,L|324:196,1,56.2500021457673
396,120,60523,1,0,0:0:0:0:
464,304,60729,6,0,P|432:304|392:312,1,56.2500021457673
284,348,60934,2,0,P|252:348|212:340,1,56.2500021457673
100,316,61139,6,0,P|68:280|76:208,1,112.500004291535
136,36,61550,2,0,P|160:102|320:102,1,225.000008583069
484,40,62167,6,0,L|464:100,1,56.2500021457673
416,212,62372,2,0,L|398:158,1,56.2500021457673
356,36,62578,1,0,0:0:0:0:
188,124,62783,6,0,P|152:124|124:136,1,56.2500021457673
16,192,62989,2,0,P|52:192|80:204,1,56.2500021457673
196,232,63194,1,0,0:0:0:0:
332,376,63400,6,0,L|272:360,1,56.2500021457673
156,320,63605,2,0,L|216:304,1,56.2500021457673
336,264,63811,1,0,0:0:0:0:
492,144,64016,6,0,P|464:128|432:124,1,56.2500021457673
312,144,64222,2,0,P|280:148|244:144,1,56.2500021457673
127,106,64427,6,0,P|87:146|71:218,1,112.500004291535
124,380,64838,2,0,P|192:300|308:316,1,225.000008583069
484,372,65455,5,0,0:0:0:0:
456,144,65660,2,0,L|432:200,1,56.25
416,224,66071,6,0,L|400:168,1,56.2500021457673
364,44,66276,2,0,L|348:98,1,56.2500021457673
312,224,66482,1,0,0:0:0:0:
280,40,66687,6,0,P|251:39|221:49,1,56.2500021457673
108,104,66893,2,0,P|136:103|166:113,1,56.2500021457673
288,148,67098,1,0,0:0:0:0:
212,324,67304,6,0,L|152:308,1,56.2500021457673
36,264,67509,2,0,L|90:249,1,56.2500021457673
216,216,67715,6,0,P|268:216|320:248,1,112.500004291535
456,376,68126,2,0,P|500:292|476:168,1,225.000008583069
280,40,68742,6,0,P|307:38|335:45,1,56.2500021457673
460,88,68948,2,0,P|432:86|404:93,1,56.2500021457673
288,148,69153,1,0,0:0:0:0:
193,311,69359,6,0,L|261:295,1,56.2500021457673
373,259,69564,2,0,L|305:243,1,56.2500021457673
189,215,69770,1,0,0:0:0:0:
28,96,69975,6,0,P|60:96|86:106,1,56.2500021457673
208,140,70181,2,0,P|175:140|149:150,1,56.2500021457673
36,208,70386,1,0,0:0:0:0:
148,52,70592,6,0,L|216:64,1,56.2500021457673
332,80,70797,2,0,L|384:124,1,56.2500021457673
472,204,71003,6,0,P|408:200|364:220,1,112.500004291535
220,344,71413,2,0,P|152:336|200:288,1,168.750006437302
328,308,71824,6,0,L|392:336,2,50
268,228,72235,2,0,P|224:200|160:208,1,112.5
132,220,72646,6,0,L|56:200,1,75
0,132,73057,2,0,L|76:112,1,75
196,80,73468,1,0,0:0:0:0:
165,205,73674,1,0,0:0:0:0:
276,144,73879,2,0,P|340:188|344:264,1,150
320,340,74496,5,0,0:0:0:0:
408,316,74701,1,0,0:0:0:0:
436,232,74907,1,0,0:0:0:0:
424,144,75112,2,0,P|416:104|384:68,1,90
352,52,75523,2,0,L|272:148,1,120
216,216,76140,5,0,0:0:0:0:
156,104,76345,2,0,L|116:76,2,37.5
275,144,76756,6,0,P|308:192|296:260,1,112.5
376,316,77167,2,0,P|312:344|232:316,1,150,0|0,0:3|0:3,0:3:0:0:
172,260,77783,5,0,0:0:0:0:
152,172,77989,1,0,0:0:0:0:
180,88,78194,1,0,0:0:0:0:
244,24,78400,6,0,P|268:72|268:112,1,90
264,144,78811,2,0,L|240:236,1,90
228,276,79222,6,0,L|308:244,1,75
412,196,79633,2,0,L|416:144,3,37.5
404,272,80044,1,0,0:0:0:0:
340,120,80249,2,0,L|336:64,5,48.7499977684022
344,196,80866,5,0,0:0:0:0:
404,92,81071,1,0,0:0:0:0:
484,180,81276,1,0,0:0:0:0:
488,60,81482,1,0,0:0:0:0:
412,196,81687,2,0,L|400:324,1,120
84,300,82509,6,0,L|20:288,2,50
204,256,82920,2,0,L|268:244,2,50
88,204,83331,2,0,L|24:192,2,50
208,160,83742,2,0,L|272:148,2,50
92,52,84153,6,0,L|96:108,1,50
292,0,84564,6,0,L|288:56,1,50
388,88,84838,5,0,0:0:0:0:
392,116,84907,1,0,0:0:0:0:
388,144,84975,5,0,0:0:0:0:
257,150,85181,1,0,0:0:0:0:
364,216,85386,1,0,0:0:0:0:
236,220,85592,1,0,0:0:0:0:
363,307,85797,2,0,B|363:251|419:215|419:215|363:127|251:151,1,300
144,212,86824,5,0,0:0:0:0:
84,100,87030,1,0,0:0:0:0:
48,220,87235,1,0,0:0:0:0:
144,140,87441,6,0,P|200:168|216:208,1,90
216,224,87852,2,0,P|244:256|296:264,1,90
332,248,88263,2,0,P|359:205|394:185,1,75
484,116,88674,5,0,0:0:0:0:
463,91,88742,1,0,0:0:0:0:
437,74,88811,1,0,0:0:0:0:
411,66,88879,1,0,0:0:0:0:
284,56,89085,2,0,B|252:124|136:-16|0:32|44:136,1,300
152,168,90112,5,0,0:0:0:0:
36,220,90318,1,0,0:0:0:0:
152,272,90523,1,0,0:0:0:0:
32,307,90729,6,0,P|24:263|36:219,1,90
56,188,91139,2,0,P|104:192|148:172,1,90
180,152,91550,2,0,P|216:154|259:182,1,75
328,272,91961,5,0,0:0:0:0:
360,276,92030,1,0,0:0:0:0:
388,268,92098,1,0,0:0:0:0:
412,252,92167,1,0,0:0:0:0:
472,140,92372,5,0,0:0:0:0:
352,180,92578,1,0,0:0:0:0:
476,212,92783,2,0,P|488:256|476:296,1,75
396,380,93194,5,0,0:0:0:0:
412,252,93400,1,0,0:0:0:0:
320,336,93605,1,0,0:0:0:0:
448,320,93811,1,0,0:0:0:0:
336,260,94016,2,0,P|288:264|252:300,1,75
140,372,94427,6,0,L|124:288,1,75
96,144,94838,2,0,L|81:217,1,75
56,344,95249,5,0,0:0:0:0:
48,316,95318,1,0,0:0:0:0:
48,288,95386,1,0,0:0:0:0:
56,260,95455,1,0,0:0:0:0:
164,192,95660,5,0,0:0:0:0:
204,312,95866,1,0,0:0:0:0:
260,196,96071,2,0,P|248:140|224:112,1,75
132,56,96482,5,0,0:0:0:0:
252,16,96687,1,0,0:0:0:0:
168,116,96893,1,0,0:0:0:0:
288,76,97098,1,0,0:0:0:0:
260,196,97304,2,0,P|304:196|340:188,1,75
468,104,97715,6,0,L|456:184,1,75
424,332,98126,2,0,L|412:257,1,75
392,132,98537,5,0,0:0:0:0:
384,104,98605,1,0,0:0:0:0:
368,80,98674,1,0,0:0:0:0:
352,60,98742,1,0,0:0:0:0:
232,16,98948,5,0,0:0:0:0:
192,136,99153,1,0,0:0:0:0:
320,132,99359,2,0,L|300:208,1,75
260,356,99770,5,0,0:0:0:0:
220,236,99975,1,0,0:0:0:0:
136,332,100181,2,0,P|120:296|120:248,1,75
128,104,100592,5,0,0:0:0:0:
56,208,100797,1,0,0:0:0:0:
180,172,101003,2,0,P|216:164|272:180,1,75
404,220,101413,5,0,0:0:0:0:
292,284,101619,1,0,0:0:0:0:
356,108,101824,2,0,P|359:56|323:94,1,134.999995880127,0|0,0:3|0:3,0:3:0:0:
348,252,102235,6,0,P|400:284|468:228,2,129.999994049073
216,88,103057,6,0,P|166:35|78:43,2,150.000005722046
256,336,103879,5,0,0:0:0:0:
132,112,104496,5,0,0:0:0:0:
116,136,104564,1,0,0:0:0:0:
108,164,104633,1,0,0:0:0:0:
104,192,104701,1,0,0:0:0:0:
116,320,104907,5,0,0:0:0:0:
228,256,105112,2,0,P|272:252|312:272,1,75
444,328,105523,6,0,L|428:252,1,75
384,104,105934,2,0,L|368:177,1,75
336,332,106345,6,0,P|280:296|264:256,1,112.5
260,212,106756,2,0,P|220:168|136:176,1,150
60,280,107372,5,0,0:0:0:0:
184,244,107578,1,0,0:0:0:0:
64,200,107783,1,0,0:0:0:0:
176,88,107989,5,0,0:0:0:0:
184,244,108194,1,0,0:0:0:0:
300,136,108400,2,0,P|344:136|384:168,1,75
476,268,108811,6,0,L|396:256,1,75
248,220,109222,2,0,L|322:208,1,75
480,184,109633,6,0,L|436:72,1,112.5
416,40,110044,2,0,L|388:192,1,150
364,312,110660,5,0,0:0:0:0:
476,252,110866,1,0,0:0:0:0:
444,376,111071,1,0,0:0:0:0:
392,228,111276,5,0,0:0:0:0:
316,368,111482,1,0,0:0:0:0:
248,220,111687,2,0,P|208:224|176:248,1,75
88,374,112098,6,0,L|76:274,1,89.9999972534181
60,128,112509,1,0,0:0:0:0:
180,243,112715,2,0,L|192:143,1,89.9999972534181
208,0,113126,1,0,0:0:0:0:
272,144,113331,2,0,P|432:145|345:25,1,360
244,0,114770,5,0,0:0:0:0:
351,112,114975,2,0,P|363:153|359:197,1,75
300,328,115386,6,0,P|285:285|251:251,1,89.9999972534181
152,372,115797,1,0,0:0:0:0:
44,256,116003,2,0,P|58:213|92:179,1,89.9999972534181
192,300,116414,1,0,0:0:0:0:
204,160,116619,2,0,L|124:252,1,120
40,344,117235,5,0,0:0:0:0:
192,300,117441,2,0,P|228:292|268:296,1,75
444,360,117852,5,0,0:0:0:0:
412,176,118057,1,0,0:0:0:0:
265,295,118263,2,0,L|245:183,1,112.500004291535
216,28,118674,6,0,P|192:32|208:48,1,56.2500021457673
332,76,118879,2,0,P|356:80|340:96,1,56.2500021457673
245,184,119085,1,0,0:0:0:0:
60,208,119290,6,0,B|32:196|32:196|64:184,1,56.2500021457673
176,132,119496,2,0,B|200:122|200:122|172:110,1,56.2500021457673
44,96,119701,1,0,0:0:0:0:
164,244,119907,6,0,P|186:254|166:265,1,56.2500021457673
44,308,120112,2,0,P|25:321|47:329,1,56.2500021457673
176,340,120318,6,0,L|288:352,1,112.500004291535
480,372,120729,2,0,L|388:164,1,225.000008583069
304,0,121345,6,0,B|276:12|276:12|308:20,1,56.2500021457673
428,52,121550,2,0,B|456:64|456:64|424:72,1,56.2500021457673
308,116,121756,1,0,0:0:0:0:
360,300,121961,6,0,P|351:322|338:304,1,56.2500021457673
268,196,122167,2,0,P|252:178|246:201,1,56.2500021457673
232,328,122372,1,0,0:0:0:0:
44,316,122578,6,0,B|16:308|16:308|40:292,1,56.2500021457673
164,256,122783,2,0,B|192:248|192:248|168:232,1,56.2500021457673
44,196,122989,1,0,0:0:0:0:
96,12,123194,6,0,P|110:-7|118:15,1,56.2500021457673
160,140,123400,2,0,P|169:161|183:141,1,56.2500021457673
228,20,123605,6,0,L|340:56,1,112.500004291535
512,120,124016,2,0,L|320:256,1,225.000008583069
168,364,124633,5,0,0:0:0:0:
183,142,124838,2,0,P|212:176|216:200,1,56.25
224,220,125249,6,0,B|252:232|252:232|224:240,1,56.2500021457673
100,264,125455,2,0,B|72:276|72:276|100:284,1,56.2500021457673
224,312,125660,1,0,0:0:0:0:
352,168,125866,6,0,P|366:149|374:171,1,56.2500021457673
388,300,126071,2,0,P|396:321|410:302,1,56.2500021457673
480,196,126276,1,0,0:0:0:0:
368,40,126482,6,0,B|340:52|340:52|368:60,1,56.2500021457673
490,98,126687,2,0,B|518:110|518:110|490:118,1,56.2500021457673
374,170,126893,6,0,L|272:112,1,112.500004291535
120,16,127304,2,0,L|220:228,1,225.000008583069
296,384,127920,6,0,P|318:374|298:363,1,56.2500021457673
172,332,128126,2,0,P|150:322|170:311,1,56.2500021457673
292,272,128331,1,0,0:0:0:0:
436,136,128537,6,0,B|464:144|464:144|438:153,1,56.2500021457673
312,184,128742,2,0,B|284:192|284:192|309:201,1,56.2500021457673
436,232,128948,1,0,0:0:0:0:
296,100,129153,6,0,P|283:79|273:101,1,56.2500021457673
220,220,129359,2,0,P|209:240|197:220,1,56.2500021457673
148,100,129564,1,0,0:0:0:0:
20,240,129770,6,0,B|-8:248|-8:248|17:257,1,56.2500021457673
144,280,129975,2,0,B|172:288|172:288|146:297,1,56.2500021457673
36,352,130181,6,0,L|48:324,1,26.2499991989136
100,372,130386,2,0,L|104:328,1,30
176,376,130592,2,0,L|168:332,1,33.7499989700318
256,352,130797,2,0,L|228:312,1,37.5
332,316,131003,2,0,L|296:292,1,41.2500012588501
400,268,131208,2,0,L|356:252,1,44.999998626709
460,208,131413,2,0,L|413:201,1,44.999998626709
284,188,131619,1,0,0:0:0:0:
320,4,131824,6,0,L|388:20,1,56.2500021457673
500,52,132030,2,0,L|432:68,1,56.2500021457673
320,100,132235,1,0,0:0:0:0:
164,0,132441,6,0,P|127:0|98:14,1,56.2500021457673
0,76,132646,2,0,P|36:76|65:90,1,56.2500021457673
176,136,132852,2,0,P|140:136|111:150,1,56.2500021457673
8,208,133057,6,0,L|28:272,1,56.2500021457673
68,384,133263,2,0,L|84:330,1,56.2500021457673
124,208,133468,6,0,P|184:204|232:240,1,112.500004291535
364,364,133879,2,0,P|460:292|472:180,1,225.000008583069
428,12,134496,6,0,P|400:9|373:18,1,56.2500021457673
252,60,134701,2,0,P|279:57|306:66,1,56.2500021457673
432,100,134907,1,0,0:0:0:0:
268,176,135112,6,0,L|252:232,1,56.2500021457673
220,356,135318,2,0,L|204:301,1,56.2500021457673
164,180,135523,1,0,0:0:0:0:
8,56,135729,6,0,P|44:56|72:68,1,56.2500021457673
184,104,135934,2,0,P|148:104|120:116,1,56.2500021457673
12,168,136140,2,0,P|48:168|76:180,1,56.2500021457673
176,244,136345,6,0,L|120:260,1,56.2500021457673
0,304,136550,2,0,L|54:319,1,56.2500021457673
180,352,136756,6,0,P|228:328|288:332,1,112.500004291535
472,384,137167,2,0,P|492:324|470:267,1,112.500004291535
344,144,137578,5,0,0:0:0:0:
412,184,137681,1,0,0:0:0:0:
344,224,137783,1,0,0:0:0:0:
276,184,137886,1,0,0:0:0:0:
276,104,137989,2,0,P|292:84|320:68,1,56.25
344,56,138400,6,0,P|372:56|400:64,1,56.2500021457673
512,128,138605,2,0,P|484:128|456:136,1,56.2500021457673
332,180,138811,1,0,0:0:0:0:
196,48,139016,6,0,L|140:60,1,56.2500021457673
12,88,139222,2,0,L|68:100,1,56.2500021457673
192,128,139427,2,0,L|136:140,1,56.2500021457673
16,184,139633,6,0,P|56:188|88:204,1,56.2500021457673
188,244,139838,2,0,P|148:248|116:264,1,56.2500021457673
24,324,140044,6,0,L|140:340,1,112.500004291535
328,368,140455,6,0,L|400:348,1,56.2500021457673
504,304,140660,2,0,L|432:284,1,56.2500021457673
324,252,140866,1,0,0:0:0:0:
480,128,141071,6,0,P|448:124|420:132,1,56.2500021457673
300,172,141276,2,0,P|332:168|360:176,1,56.2500021457673
480,216,141482,1,0,0:0:0:0:
380,44,141687,6,0,L|360:96,1,56.2500021457673
320,224,141893,2,0,L|300:172,1,56.2500021457673
252,52,142098,1,0,0:0:0:0:
64,88,142304,6,0,P|100:88|129:102,1,56.2500021457673
240,140,142509,2,0,P|203:140|174:154,1,56.2500021457673
60,188,142715,2,0,P|96:188|125:202,1,56.2500021457673
236,240,142920,6,0,L|180:252,1,56.2500021457673
56,288,143126,2,0,L|112:300,1,56.2500021457673
408,24,143948,5,0,0:0:0:0:
420,52,144016,1,0,0:0:0:0:
424,80,144085,1,0,0:0:0:0:
424,108,144153,6,0,L|484:116,2,50
332,100,144564,2,0,P|289:102|244:165,1,112.5
244,192,144975,6,0,L|312:204,1,60
404,220,145386,1,0,0:0:0:0:
340,300,145592,2,0,P|301:281|241:289,1,90
224,300,146003,2,0,P|170:303|116:265,1,120
64,180,146619,5,0,0:0:0:0:
56,108,146824,1,0,0:0:0:0:
96,48,147030,1,0,0:0:0:0:
164,28,147235,1,0,0:0:0:0:
232,44,147441,2,0,P|264:52|300:52,1,60
364,48,147852,5,0,0:0:0:0:
436,60,148057,1,0,0:0:0:0:
488,112,148263,1,0,0:0:0:0:
492,184,148468,1,0,0:0:0:0:
464,252,148674,2,0,P|436:284|408:300,1,60
332,344,149085,5,0,0:0:0:0:
140,308,149290,5,0,0:0:0:0:
328,252,149496,1,0,0:0:0:0:
256,236,149701,5,0,0:0:0:0:
184,248,149907,1,0,0:0:0:0:
140,308,150112,1,0,0:0:0:0:
68,320,150318,1,0,0:0:0:0:
12,276,150523,1,0,0:0:0:0:
4,172,150729,5,0,0:0:0:0:
140,308,150934,5,0,0:0:0:0:
164,124,151140,1,0,0:0:0:0:
268,324,151550,5,0,0:0:0:0:
320,208,151756,1,0,0:0:0:0:
356,332,151961,1,0,0:0:0:0:
260,248,152167,2,0,P|216:216|160:216,1,112.5
120,236,152578,2,0,P|104:196|116:148,1,75
136,40,152989,1,0,0:0:0:0:
216,140,153194,5,0,0:0:0:0:
272,24,153400,1,0,0:0:0:0:
312,144,153605,1,0,0:0:0:0:
208,68,153811,1,0,0:0:0:0:
364,72,154016,2,0,P|400:128|368:212,1,150
300,304,154633,5,0,0:0:0:0:
216,336,154838,1,0,0:0:0:0:
124,332,155044,1,0,0:0:0:0:
44,288,155249,2,0,P|20:248|20:200,1,75
28,92,155660,2,0,P|88:132|168:116,1,150
272,56,156276,5,0,0:0:0:0:
216,172,156482,1,0,0:0:0:0:
192,48,156687,1,0,0:0:0:0:
284,136,156893,2,0,P|320:148|356:144,1,75
512,116,157304,1,0,0:0:0:0:
456,264,157509,5,0,0:0:0:0:
440,72,157715,2,0,L|429:132,1,56.25
420,172,158126,5,0,0:0:0:0:
384,324,158331,1,0,0:0:0:0:
316,180,158537,1,0,0:0:0:0:
256,324,158742,1,0,0:0:0:0:
64,288,158948,6,0,L|120:276,1,56.2500021457673
248,252,159153,2,0,L|192:240,1,56.2500021457673
40,204,159359,2,0,P|-8:182|41:166,1,134.999995880127
236,180,159770,6,0,P|237:119|197:72,1,112.500004291535
32,4,160181,2,0,P|30:64|70:111,1,112.500004291535
236,180,160592,6,0,L|296:160,1,56.2500021457673
420,156,160797,2,0,L|366:173,1,56.2500021457673
268,260,161003,2,0,L|328:240,1,56.2500021457673
452,240,161208,2,0,L|398:257,1,56.2500021457673
300,340,161413,1,0,0:0:0:0:
492,332,161619,5,0,0:0:0:0:
420,156,161824,1,0,0:0:0:0:
384,344,162030,1,0,0:0:0:0:
176,264,162235,5,0,0:0:0:0:
398,257,162441,1,0,0:0:0:0:
288,68,162646,2,0,B|264:124|312:124|288:180,1,112.500004291535
300,368,163057,6,0,P|292:312|316:252,1,112.500004291535
481,188,163468,2,0,P|447:233|387:258,1,112.500004291535
220,200,163879,6,0,P|188:188|152:188,1,56.2500021457673
40,152,164085,2,0,P|72:140|108:140,1,56.2500021457673
220,104,164290,2,0,P|188:92|152:92,1,56.2500021457673
40,56,164496,2,0,P|72:44|108:44,1,56.2500021457673
220,12,164701,1,0,0:0:0:0:
220,200,164907,5,0,0:0:0:0:
40,152,165112,1,0,0:0:0:0:
220,104,165318,1,0,0:0:0:0:
60,260,165523,5,0,0:0:0:0:
93,42,165729,1,0,0:0:0:0:
280,156,165934,2,0,P|324:164|388:136,1,112.500004291535
512,0,166345,6,0,L|488:144,1,134.999995880127
448,316,166756,1,0,0:0:0:0:
385,138,166961,2,0,L|272:244,1,134.999995880127
152,360,167372,1,0,0:0:0:0:
204,176,167578,2,0,P|52:52|128:236,1,539.999983520508,0|0,2:0|2:0,2:0:0:0:
286,230,169016,5,0,0:0:0:0:
112,136,169222,2,0,P|156:88|224:76,1,112.500004291535
392,76,169633,6,0,P|408:124|392:184,1,112.500004291535
296,16,170044,1,0,0:0:0:0:
204,176,170249,2,0,P|187:229|203:282,1,112.500004291535
296,112,170660,1,0,0:0:0:0:
450,236,170866,2,0,L|264:228,1,179.999994506836
0,216,171687,6,0,P|28:168|80:136,1,112.500004291535
264,136,172098,5,0,0:0:0:0:
104,240,172304,1,0,0:0:0:0:
140,52,172509,2,0,L|184:184,1,134.999995880127
244,352,172920,6,0,P|304:360|372:328,1,112.500004291535
488,208,173331,2,0,P|428:200|360:232,1,112.500004291535
244,352,173742,6,0,P|248:284|328:220,1,168.750006437302
379,216,174153,2,0,P|460:152|408:60,1,225.000008583069
216,48,174770,5,0,0:0:0:0:
384,136,174975,1,0,0:0:0:0:
208,216,175181,1,0,0:0:0:0:
296,8,175386,5,0,0:0:0:0:
379,216,175592,1,0,0:0:0:0:
172,132,175797,2,0,P|112:136|64:184,1,112.500004291535
0,348,176208,6,0,P|36:304|92:284,1,112.500004291535
268,348,176619,2,0,P|211:353|157:328,1,112.500004291535
72,168,177030,6,0,L|16:184,1,56.2500021457673
108,92,177235,2,0,L|75:43,1,56.2500021457673
192,104,177441,2,0,L|227:58,1,56.2500021457673
204,188,177646,2,0,L|258:207,1,56.2500021457673
128,228,177852,1,0,0:0:0:0:
160,32,178057,5,0,0:0:0:0:
324,132,178263,1,0,0:0:0:0:
140,156,178468,1,0,0:0:0:0:
300,0,178674,5,0,0:0:0:0:
340,224,178879,1,0,0:0:0:0:
476,48,179085,2,0,P|496:100|484:168,1,112.500004291535
456,344,179496,6,0,L|424:200,1,134.999995880127
388,28,179907,1,0,0:0:0:0:
340,224,180112,2,0,L|236:120,1,134.999995880127
112,0,180523,1,0,0:0:0:0:
180,176,180729,2,0,P|64:336|90:140,1,539.999983520508,0|0,2:0|2:0,2:0:0:0:
244,128,182167,5,0,0:0:0:0:
102,242,182372,2,0,P|156:224|216:232,1,112.500004291535
388,304,182783,6,0,P|396:236|440:184,1,134.999995880127
460,376,183194,1,0,0:0:0:0:
304,260,183400,2,0,P|296:192|252:140,1,134.999995880127
236,336,183811,1,0,0:0:0:0:
48,308,184016,2,0,L|217:226,1,179.999994506836
460,92,184838,6,0,P|412:56|352:52,1,112.500004291535
184,116,185249,5,0,0:0:0:0:
372,168,185455,1,0,0:0:0:0:
268,8,185660,2,0,L|276:144,1,134.999995880127
288,364,186071,5,0,0:0:0:0:
