osu file format v14

[General]
AudioFilename: audio.mp3
AudioLeadIn: 0
PreviewTime: 118353
Countdown: 0
SampleSet: Soft
StackLeniency: 0.5
Mode: 0
LetterboxInBreaks: 0
WidescreenStoryboard: 1

[Editor]
DistanceSpacing: 4
BeatDivisor: 4
GridSize: 4
TimelineZoom: 2.3

[Metadata]
Title:UP & DOWN
TitleUnicode:위아래
Artist:EXID
ArtistUnicode:이엑스아이디
Creator:cosmiccc
Version:Insane
Source:
Tags:EXID Exceed In Dreaming 솔지 엘리 하니 혜린 정화 Solji LE Hani Hyerin Junghwa Yedang Entertainment Hyelin Jeonghwa Firetruck Irreversible Bakari Handsome kpop Up and Down Up&Down 예당엔터테인먼트 Ah Yeah
BeatmapID:1287456
BeatmapSetID:606698

[Difficulty]
HPDrainRate:6.5
CircleSize:4.2
OverallDifficulty:7.2
ApproachRate:8.7
SliderMultiplier:1.8
SliderTickRate:2

[Events]
//Background and Video events
Video,0,"UP&DOWN.mp4"
0,0,"kms.png",0,0
//Break Periods
//Storyboard Layer 0 (Background)
//Storyboard Layer 1 (Fail)
//Storyboard Layer 2 (Pass)
//Storyboard Layer 3 (Foreground)
//Storyboard Sound Samples

[TimingPoints]
496,535.714285714286,4,1,2,40,1,0
9067,-100,4,2,2,60,0,0
15496,-100,4,1,2,60,0,0
15897,-83.3333333333333,4,1,2,60,0,0
16299,-71.4285714285714,4,1,2,60,0,0
16701,-62.5,4,1,2,60,0,0
17103,-58.8235294117647,4,1,2,60,0,0
17371,-55.5555555555556,4,1,2,60,0,0
17638,-100,4,2,2,60,0,0
24067,-90.9090909090909,4,2,2,60,0,0
24469,-111.111111111111,4,2,2,60,0,0
24871,-125,4,2,2,60,0,0
26210,-100,4,2,2,60,0,0
29960,-76.9230769230769,4,2,2,60,0,0
30496,-100,4,2,2,60,0,0
32103,-52.6315789473684,4,2,2,60,0,0
32371,-125,4,2,2,60,0,0
32638,-100,4,1,2,60,0,0
32906,-83.3333333333333,4,1,2,60,0,0
34246,-125,4,2,2,60,0,0
36522,-125,4,2,2,5,0,0
36656,-125,4,2,2,60,0,0
36924,-100,4,2,2,60,0,0
37192,-71.4285714285714,4,2,2,60,0,0
37728,-125,4,2,2,60,0,0
38263,-62.5,4,2,2,60,0,0
38799,-125,4,2,2,60,0,0
40942,-52.6315789473684,4,2,2,60,0,0
41210,-83.3333333333333,4,2,2,60,0,0
43353,-100,4,2,2,60,0,0
49781,-83.3333333333333,4,2,2,60,0,0
60496,-76.9230769230769,4,2,2,60,0,1
68799,-76.9230769230769,4,1,2,60,0,1
69067,-76.9230769230769,4,2,2,60,0,1
76567,-76.9230769230769,4,1,2,60,0,1
77638,-100,4,2,2,60,0,0
84469,-83.3333333333333,4,2,2,60,0,0
84871,-71.4285714285714,4,2,2,60,0,0
85138,-62.5,4,2,2,60,0,0
85674,-166.666666666667,4,2,2,60,0,0
86207,-117.647058823529,4,2,2,60,0,0
87281,-100,4,2,2,60,0,0
87817,-125,4,2,2,60,0,0
92371,-62.5,4,2,2,60,0,0
92638,-100,4,2,2,60,0,0
94781,-125,4,2,2,60,0,0
95317,-62.5,4,2,2,60,0,0
95853,-125,4,2,2,60,0,0
96388,-62.5,4,2,2,60,0,0
96924,-125,4,2,2,60,0,0
97996,-100,4,2,2,60,0,0
98799,-125,4,2,2,60,0,0
99067,-100,4,2,2,60,0,0
101210,-83.3333333333333,4,2,2,60,0,0
104960,-100,4,2,2,60,0,0
109781,-83.3333333333333,4,2,2,60,0,0
114268,-83.3333333333333,4,2,2,5,0,0
114335,-83.3333333333333,4,2,2,60,0,0
114804,-83.3333333333333,4,2,2,5,0,0
114871,-83.3333333333333,4,2,2,60,0,0
115071,-83.3333333333333,4,2,2,5,0,0
115138,-83.3333333333333,4,2,2,60,0,0
120496,-76.9230769230769,4,2,2,60,0,1
137371,-166.666666666667,4,2,2,60,0,1
137638,-100,4,2,2,60,0,0
139781,-200,4,2,2,60,0,0
140049,-83.3333333333333,4,2,2,60,0,0
140853,-62.5,4,2,2,60,0,0
142460,-83.3333333333333,4,2,2,60,0,0
144469,-71.4285714285714,4,2,2,60,0,0
144871,-62.5,4,2,2,60,0,0
146210,-100,4,2,2,60,0,0
146746,-100,4,2,2,60,0,0
152638,-83.3333333333333,4,2,2,60,0,0
153710,-166.666666666667,4,2,2,60,0,0
153978,-125,4,2,2,60,0,0
154781,-166.666666666667,4,2,2,60,0,0
155317,-76.9230769230769,4,2,2,60,0,1
171924,-100,4,2,2,60,0,0
178754,-83.3333333333333,4,2,2,60,0,0
179156,-71.4285714285714,4,2,2,60,0,0
179558,-62.5,4,2,2,60,0,0
179960,-58.8235294117647,4,2,2,60,0,0
180228,-55.5555555555556,4,2,2,60,0,0
180496,-100,4,2,2,60,0,0
188263,-125,4,2,2,60,0,0

[Colours]
Combo1 : 17,254,176
Combo2 : 173,255,95
Combo3 : 255,88,100
Combo4 : 255,94,55

[HitObjects]
20,220,496,6,0,L|72:228,3,30
140,184,1031,5,8,0:0:0:0:
208,296,1299,5,0,0:0:0:0:
324,188,1567,5,0,0:0:0:0:
208,296,1835,5,0,0:0:0:0:
84,316,2103,6,8,L|184:328,1,90,8|0,0:0|0:0,0:0:0:0:
110,179,2638,6,0,L|162:187,3,30
230,143,3173,5,8,0:0:0:0:
298,255,3441,5,0,0:0:0:0:
414,147,3709,5,0,0:0:0:0:
298,255,3977,5,0,0:0:0:0:
174,275,4245,6,0,L|274:287,1,90,8|0,0:0|0:0,0:0:0:0:
200,138,4781,6,0,L|252:146,3,30
320,102,5316,5,8,0:0:0:0:
388,214,5584,5,0,0:0:0:0:
504,106,5852,5,0,0:0:0:0:
388,214,6120,5,0,0:0:0:0:
264,234,6388,6,0,L|364:246,1,90,8|0,0:0|0:0,0:0:0:0:
256,192,6924,12,0,8531,2:0:0:0:
336,272,9067,5,4,0:0:0:0:
350,237,9201,1,0,0:0:0:0:
364,200,9335,2,0,L|383:142,1,45,0|2,0:0|0:0,0:0:0:0:
496,84,9603,2,0,P|470:84|448:76,1,45,8|0,0:0|0:0,0:0:0:0:
324,36,9871,2,0,P|350:36|372:44,1,45,2|0,0:0|0:0,0:0:0:0:
488,120,10138,2,0,L|477:209,2,90,0|2|8,0:0|0:0|0:0,0:0:0:0:
378,157,10942,1,0,0:0:0:0:
363,265,11210,5,2,0:0:0:0:
324,250,11344,1,0,0:0:0:0:
288,236,11478,2,0,L|230:217,1,45,0|2,0:0|0:0,0:0:0:0:
172,104,11746,2,0,P|172:130|164:152,1,45,8|0,0:0|0:0,0:0:0:0:
124,276,12014,2,0,P|124:250|132:228,1,45,2|0,0:0|0:0,0:0:0:0:
208,108,12281,2,0,L|297:118,2,90,0|2|8,0:0|0:0|0:0,0:0:0:0:
245,222,13085,1,0,0:0:0:0:
164,325,13353,5,2,0:0:0:0:
149,287,13487,1,0,0:0:0:0:
136,248,13621,2,0,L|117:190,1,45,0|2,0:0|0:0,0:0:0:0:
4,132,13889,2,0,P|30:132|52:124,1,45,8|0,0:0|0:0,0:0:0:0:
176,84,14157,2,0,P|150:84|128:92,1,45,2|0,0:0|0:0,0:0:0:0:
8,164,14424,2,0,L|18:253,2,90,0|2|8,0:0|0:0|0:0,0:0:0:0:
122,205,15228,1,0,0:0:0:0:
122,205,15496,6,0,P|138:153|184:144,1,90,0|0,0:0|0:0,0:0:0:0:
104,192,15897,6,0,P|120:140|168:104,1,107.999996704102,0|0,0:0|0:0,0:0:0:0:
80,168,16299,6,0,P|96:116|160:76,1,125.999996154785,0|0,0:0|0:0,0:0:0:0:
72,36,16701,6,0,L|224:24,1,144,0|0,0:0|0:0,0:0:0:0:
296,128,17103,6,0,P|344:112|368:84,1,76.5000014591217,0|0,0:0|0:0,0:0:0:0:
384,8,17371,6,0,P|432:40|444:76,1,80.9999975280763,0|0,0:0|0:0,0:0:0:0:
462,150,17638,5,4,0:0:0:0:
425,166,17772,1,0,0:0:0:0:
408,200,17906,2,0,P|408:232|420:260,1,45,0|2,0:0|0:0,0:0:0:0:
484,336,18174,2,0,L|428:328,1,45,8|0,0:0|0:0,0:0:0:0:
336,280,18442,2,0,L|291:271,1,45,2|0,0:0|0:0,0:0:0:0:
160,344,18710,2,0,L|249:339,2,90,0|2|8,0:0|0:0|0:0,0:0:0:0:
208,244,19513,1,0,0:0:0:0:
92,291,19781,5,2,0:0:0:0:
118,262,19915,1,0,0:0:0:0:
122,225,20049,2,0,P|110:195|89:173,1,45,0|2,0:0|0:0,0:0:0:0:
3,125,20317,2,0,L|58:112,1,45,8|0,0:0|0:0,0:0:0:0:
128,40,20585,2,0,L|173:32,1,45,2|0,0:0|0:0,0:0:0:0:
280,96,20853,2,0,P|228:100|192:128,2,90,0|2|8,0:0|0:0|0:0,0:0:0:0:
260,180,21656,1,0,0:0:0:0:
326,358,21924,5,2,0:0:0:0:
288,340,22058,1,0,0:0:0:0:
268,312,22192,2,0,P|268:280|280:252,1,45,0|2,0:0|0:0,0:0:0:0:
344,176,22460,2,0,L|288:184,1,45,8|0,0:0|0:0,0:0:0:0:
196,232,22728,2,0,L|151:241,1,45,2|0,0:0|0:0,0:0:0:0:
20,168,22996,2,0,L|109:173,2,90,0|2|8,0:0|0:0|0:0,0:0:0:0:
68,268,23799,1,0,0:0:0:0:
132,96,24067,6,0,P|168:64|228:60,1,99.0000030212403,4|0,0:0|0:0,0:0:0:0:
204,132,24469,6,0,P|252:128|276:104,1,80.9999975280763,2|0,0:0|0:0,0:0:0:0:
336,164,24871,6,0,L|312:80,1,72,2|0,0:0|0:0,0:0:0:0:
372,32,25272,1,0,0:0:0:0:
380,52,25406,1,0,0:0:0:0:
432,144,25674,5,8,2:0:0:0:
120,328,25942,2,0,P|148:320|172:304,1,36
232,280,26210,6,0,L|212:228,1,45,4|0,0:0|0:0,0:0:0:0:
104,172,26478,2,0,L|156:180,1,45,0|0,1:0|0:0,0:0:0:0:
252,116,26746,2,0,L|228:160,1,45,8|0,0:0|0:0,0:0:0:0:
288,332,27013,2,0,L|316:256,1,67.5,0|0,1:0|0:0,0:0:0:0:
320,260,27281,6,0,L|304:208,1,45,0|0,0:0|0:0,0:0:0:0:
352,108,27549,2,0,L|372:160,1,45,0|0,1:0|0:0,0:0:0:0:
416,288,27817,1,8,0:0:0:0:
100,148,28085,1,0,1:0:0:0:
92,144,28353,1,0,0:0:0:0:
304,56,28621,5,0,0:0:0:0:
304,56,28754,1,0,0:0:0:0:
376,128,28888,1,2,0:0:0:0:
380,136,29022,1,0,0:0:0:0:
308,192,29156,1,0,1:0:0:0:
312,208,29290,1,0,0:0:0:0:
236,256,29424,1,0,0:0:0:0:
248,280,29558,1,0,0:0:0:0:
336,376,29692,2,0,L|272:368,1,45,0|0,1:0|0:0,0:0:0:0:
156,368,29960,6,0,P|176:336|180:308,1,58.4999973220826,8|0,0:0|0:0,0:0:0:0:
132,180,30228,2,0,P|108:216|104:256,1,58.4999973220826,0|0,0:0|0:0,0:0:0:0:
36,336,30496,1,2,0:0:0:0:
36,336,30763,6,0,L|28:276,1,45,0|0,1:0|0:0,0:0:0:0:
4,72,31031,2,0,L|12:132,1,45,8|0,0:0|0:0,0:0:0:0:
88,72,31299,1,0,1:0:0:0:
88,72,31433,1,0,0:0:0:0:
88,72,31567,2,0,P|124:40|176:36,1,90,0|0,0:0|1:0,0:0:0:0:
416,80,32103,6,0,L|456:-36,1,85.4999977169037,8|0,0:0|0:0,0:0:0:0:
496,112,32371,6,0,L|484:148,1,36,0|0,1:0|0:0,0:0:0:0:
340,136,32638,5,0,0:0:0:0:
332,168,32772,1,0,0:0:0:0:
308,152,32906,2,0,L|264:116,1,53.9999983520508,0|0,0:0|0:0,0:0:0:0:
164,56,33174,5,8,0:0:0:0:
200,56,33308,1,0,0:0:0:0:
192,84,33442,2,0,L|168:152,1,53.9999983520508,0|0,0:0|0:0,0:0:0:0:
212,224,33710,6,0,L|276:236,1,53.9999983520508,0|0,0:0|0:0,0:0:0:0:
312,344,33978,2,0,L|240:328,1,53.9999983520508,0|0,0:0|0:0,0:0:0:0:
136,384,34246,1,8,0:0:0:0:
103,306,34379,1,0,0:0:0:0:
72,228,34513,1,0,0:0:0:0:
220,76,34781,6,0,P|256:80|296:72,1,72,4|0,0:0|1:0,0:0:0:0:
396,172,35317,2,0,P|372:168|344:172,2,36,8|0|0,0:0|0:0|1:0,0:0:0:0:
464,220,35719,1,0,0:0:0:0:
464,220,35853,2,0,P|476:184|468:136,2,72,0|0|0,0:0|1:0|0:0,0:0:0:0:
292,352,36656,1,0,1:0:0:0:
292,352,36924,6,0,L|292:288,1,45,0|0,0:0|0:0,0:0:0:0:
328,216,37192,6,0,L|244:228,1,62.9999980773926,0|0,1:0|0:0,0:0:0:0:
256,148,37460,2,0,L|168:140,1,62.9999980773926,8|0,0:0|0:0,0:0:0:0:
232,64,37728,6,0,L|156:48,1,72,0|0,1:0|0:0,0:0:0:0:
161,49,38263,6,0,P|120:72|104:108,1,72,0|0,1:0|0:0,0:0:0:0:
32,220,38531,2,0,P|73:197|89:161,1,72,0|0,1:0|0:0,0:0:0:0:
208,268,38799,6,0,L|136:272,1,72,2|0,0:0|0:0,0:0:0:0:
44,372,39335,2,0,L|124:368,1,72,0|8,1:0|0:0,0:0:0:0:
264,336,39871,2,0,B|252:304|252:304|260:260,1,72,0|0,1:0|0:0,0:0:0:0:
316,64,40406,2,0,B|328:96|328:96|320:140,1,72,0|8,1:0|0:0,0:0:0:0:
196,120,40942,6,0,B|244:112|244:112|232:152,1,85.4999977169037,0|0,1:0|0:0,0:0:0:0:
400,24,41210,6,0,L|452:120,1,107.999996704102,4|0,0:0|0:0,0:0:0:0:
476,208,41612,1,2,3:0:0:0:
420,296,41746,2,0,P|396:260|388:228,1,53.9999983520508,8|0,0:0|0:0,0:0:0:0:
340,180,42013,2,0,P|316:212|308:280,1,107.999996704102,2|0,3:0|0:0,0:0:0:0:
216,348,42415,1,2,3:0:0:0:
216,348,42549,5,0,0:0:0:0:
208,88,42817,1,8,0:0:0:0:
84,244,43085,1,0,0:0:0:0:
268,16,43353,6,0,P|297:69|292:120,1,90,6|0,0:0|0:0,0:0:0:0:
408,100,43754,2,0,P|396:160|360:196,1,90,2|0,0:0|0:0,0:0:0:0:
220,317,44156,1,2,0:0:0:0:
208,241,44290,1,0,0:0:0:0:
196,165,44424,1,0,0:0:0:0:
40,44,44692,1,2,0:0:0:0:
40,44,44826,1,0,0:0:0:0:
40,44,44960,1,8,0:0:0:0:
220,317,45228,1,0,0:0:0:0:
140,344,45496,6,0,P|184:344|224:312,1,90,2|0,0:0|0:0,0:0:0:0:
248,296,45897,1,2,0:0:0:0:
192,200,46031,2,0,L|252:192,1,45,8|0,0:0|0:0,0:0:0:0:
372,112,46299,2,0,L|316:120,1,45,2|0,0:0|0:0,0:0:0:0:
332,272,46567,2,0,P|380:276|416:240,1,90,0|2,0:0|0:0,0:0:0:0:
220,0,47103,1,8,0:0:0:0:
484,88,47371,1,0,0:0:0:0:
410,352,47638,6,0,B|392:356|456:344|456:344|480:308,1,90,6|0,0:0|0:0,0:0:0:0:
424,316,48040,2,0,B|443:313|379:325|379:325|355:361,1,90,2|0,0:0|0:0,0:0:0:0:
396,240,48442,2,0,L|340:252,1,45,2|0,0:0|0:0,0:0:0:0:
284,216,48710,1,0,0:0:0:0:
200,60,48978,1,2,0:0:0:0:
200,60,49112,1,0,0:0:0:0:
140,124,49246,2,0,P|180:136|196:152,1,45,8|0,0:0|0:0,0:0:0:0:
196,244,49513,2,0,P|156:232|140:216,1,45,0|0,0:0|0:0,0:0:0:0:
104,364,49781,6,0,L|64:248,1,107.999996704102,2|0,3:0|0:0,0:0:0:0:
0,136,50183,1,2,3:0:0:0:
0,136,50317,2,0,B|56:120|56:120|84:80,1,107.999996704102,8|2,3:0|3:0,0:0:0:0:
252,224,51121,6,0,L|236:164,1,53.9999983520508,2|0,0:0|0:0,0:0:0:0:
284,284,51388,2,0,L|268:216,1,53.9999983520508,8|0,0:0|0:0,0:0:0:0:
324,340,51656,2,0,L|304:264,1,53.9999983520508,0|0,0:0|0:0,0:0:0:0:
116,312,51924,5,2,0:0:0:0:
256,72,52192,1,0,0:0:0:0:
408,312,52460,1,8,0:0:0:0:
408,312,52728,1,2,0:0:0:0:
108,196,52996,5,0,0:0:0:0:
108,196,53263,1,2,0:0:0:0:
108,196,53531,1,8,0:0:0:0:
220,364,53799,1,0,0:0:0:0:
220,280,53933,1,0,0:0:0:0:
220,188,54067,6,0,P|256:196|276:216,1,53.9999983520508,2|0,0:0|0:0,0:0:0:0:
172,144,54335,2,0,P|208:152|228:172,1,53.9999983520508,0|2,0:0|0:0,0:0:0:0:
116,104,54603,2,0,P|152:112|172:132,1,53.9999983520508,8|0,0:0|0:0,0:0:0:0:
72,200,54871,2,0,P|36:192|16:172,1,53.9999983520508,2|0,0:0|0:0,0:0:0:0:
116,104,55138,2,0,P|164:76|72:52,1,215.999993408203,0|8,0:0|0:0,0:0:0:0:
248,104,55942,1,0,0:0:0:0:
256,192,56210,12,0,57817,0:0:0:0:
256,192,58353,5,0,0:0:0:0:
352,88,58621,1,0,0:0:0:0:
128,344,58888,1,0,0:0:0:0:
128,344,59022,1,0,0:0:0:0:
328,288,59424,1,0,0:0:0:0:
328,288,59692,5,0,0:0:0:0:
140,104,59960,1,8,0:0:0:0:
324,52,60228,1,0,0:0:0:0:
96,256,60496,6,0,P|144:276|188:216,1,116.999994644165,14|0,0:0|0:0,0:0:0:0:
0,108,61031,1,8,0:0:0:0:
200,4,61299,1,2,0:0:0:0:
292,244,61567,5,0,0:0:0:0:
324,164,61701,1,0,0:0:0:0:
356,84,61835,1,2,0:0:0:0:
440,336,62103,2,0,L|360:320,1,58.4999973220826,8|0,0:0|0:0,0:0:0:0:
234,234,62371,2,0,L|306:246,1,58.4999973220826,0|0,0:0|0:0,0:0:0:0:
100,292,62638,6,0,L|215:310,1,116.999994644165,2|0,0:0|0:0,0:0:0:0:
336,172,63174,2,0,L|220:152,1,116.999994644165,8|0,0:0|0:0,0:0:0:0:
56,212,63710,5,0,0:0:0:0:
300,44,63978,1,0,0:0:0:0:
308,348,64246,1,8,0:0:0:0:
308,348,64513,5,0,0:0:0:0:
264,280,64647,1,0,0:0:0:0:
224,212,64781,1,2,0:0:0:0:
68,120,65049,5,0,0:0:0:0:
76,128,65183,1,0,0:0:0:0:
76,128,65317,2,0,L|200:136,2,116.999994644165,8|2|0,0:0|0:0|0:0,0:0:0:0:
144,348,66121,1,2,0:0:0:0:
144,348,66388,5,8,0:0:0:0:
224,352,66522,1,0,0:0:0:0:
304,360,66656,1,0,0:0:0:0:
400,221,66924,6,0,P|365:179|310:225,1,116.999994644165,2|0,3:0|0:0,0:0:0:0:
400,221,67326,1,0,0:0:0:0:
328,260,67460,2,0,L|312:180,1,58.4999973220826,8|0,0:0|0:0,0:0:0:0:
212,92,67728,2,0,L|220:160,1,58.4999973220826,0|0,0:0|0:0,0:0:0:0:
224,192,67996,5,2,0:0:0:0:
144,352,68263,1,2,0:0:0:0:
0,232,68531,1,8,0:0:0:0:
88,20,68799,1,2,3:0:0:0:
112,96,68933,1,2,3:0:0:0:
140,172,69067,5,6,0:0:0:0:
268,304,69335,1,0,0:0:0:0:
400,104,69603,1,8,0:0:0:0:
448,336,69871,1,0,0:0:0:0:
272,184,70138,1,0,0:0:0:0:
488,220,70406,1,2,0:0:0:0:
324,300,70674,6,0,P|296:292|268:300,1,58.4999973220826,8|0,0:0|0:0,0:0:0:0:
152,228,70942,2,0,P|184:236|216:228,1,58.4999973220826,0|0,0:0|0:0,0:0:0:0:
324,300,71210,2,0,L|324:160,1,116.999994644165,2|0,0:0|0:0,0:0:0:0:
152,228,71746,2,0,L|152:345,1,116.999994644165,8|2,0:0|0:0,0:0:0:0:
300,244,72281,5,0,0:0:0:0:
484,372,72549,1,2,0:0:0:0:
432,128,72817,1,8,0:0:0:0:
256,28,73085,5,2,3:0:0:0:
256,108,73219,1,2,3:0:0:0:
256,188,73353,1,2,0:0:0:0:
384,304,73621,5,0,0:0:0:0:
384,304,73754,1,0,0:0:0:0:
384,304,73888,2,0,P|335:312|276:275,2,116.999994644165,8|2|0,0:0|0:0|0:0,0:0:0:0:
88,352,74692,5,2,0:0:0:0:
88,352,74960,1,8,0:0:0:0:
139,176,75228,1,0,0:0:0:0:
28,32,75496,6,0,B|60:160,1,116.999994644165,2|0,0:0|0:0,0:0:0:0:
102,218,75897,1,2,3:0:0:0:
102,218,76031,2,0,P|138:182|142:162,1,58.4999973220826,8|0,0:0|0:0,0:0:0:0:
232,128,76299,2,0,P|200:96|176:92,1,58.4999973220826,2|0,3:0|0:0,0:0:0:0:
139,175,76567,2,0,L|208:270,1,116.999994644165,0|0,0:0|0:0,0:0:0:0:
400,332,77103,2,0,L|326:240,1,116.999994644165,8|0,0:0|0:0,0:0:0:0:
57,85,77638,5,6,0:0:0:0:
96,97,77772,1,0,0:0:0:0:
138,98,77906,2,0,P|164:98|198:90,1,45,0|2,0:0|0:0,0:0:0:0:
240,8,78174,2,0,P|214:8|180:16,1,45,8|0,0:0|0:0,0:0:0:0:
304,80,78442,1,2,0:0:0:0:
168,172,78710,2,0,B|222:165|222:165|255:145,2,90,0|2|8,0:0|0:0|0:0,0:0:0:0:
96,97,79513,1,0,0:0:0:0:
32,232,79781,5,2,0:0:0:0:
70,233,79915,1,0,0:0:0:0:
107,243,80049,2,0,P|130:253|158:274,1,45,0|2,0:0|0:0,0:0:0:0:
148,360,80317,2,0,P|124:349|96:328,1,45,8|0,0:0|0:0,0:0:0:0:
228,292,80585,1,2,0:0:0:0:
332,268,80852,2,0,B|316:320|316:320|321:358,2,90,0|2|8,0:0|0:0|0:0,0:0:0:0:
296,184,81656,1,0,0:0:0:0:
371,21,81924,5,6,0:0:0:0:
382,59,82058,1,0,0:0:0:0:
385,96,82192,2,0,P|385:122|377:156,1,45,0|2,0:0|0:0,0:0:0:0:
296,184,82460,2,0,P|296:158|304:124,1,45,8|0,0:0|0:0,0:0:0:0:
335,274,82728,1,2,0:0:0:0:
440,256,82995,2,0,B|433:310|433:310|413:343,2,90,0|2|8,0:0|0:0|0:0,0:0:0:0:
472,164,83799,1,0,0:0:0:0:
304,80,84067,6,0,B|352:80|352:80|396:96,1,90,0|0,0:0|0:0,0:0:0:0:
284,104,84469,6,0,B|332:104|332:104|388:128,1,107.999996704102
256,136,84871,6,0,B|304:136|304:136|340:152,1,62.9999980773926
392,204,85138,1,0,0:0:0:0:
392,204,85272,6,0,P|416:249|340:264,1,144
262,84,85674,6,0,P|254:132|258:144,1,53.9999983520508
208,220,86076,1,0,0:0:0:0:
200,224,86210,6,0,L|112:212,1,76.5000014591217,6|0,0:0|1:0,0:0:0:0:
135,138,86746,2,0,L|123:218,1,76.5000014591217,8|0,0:0|1:0,0:0:0:0:
36,296,87147,1,0,0:0:0:0:
36,296,87281,6,0,P|64:312|80:316,1,45,0|0,0:0|0:0,0:0:0:0:
52,364,87549,2,0,P|84:344|92:332,1,45,0|0,1:0|0:0,0:0:0:0:
164,340,87817,6,0,P|138:320|94:320,1,72,8|0,0:0|1:0,0:0:0:0:
144,228,88286,5,0,0:0:0:0:
144,228,88353,2,0,L|188:240,1,36,2|0,0:0|0:0,0:0:0:0:
336,268,88621,2,0,L|292:256,1,36,0|2,1:0|0:0,0:0:0:0:
232,136,88888,2,0,L|260:160,1,36,8|0,0:0|0:0,0:0:0:0:
368,140,89156,2,0,L|332:104,1,36,0|0,1:0|0:0,0:0:0:0:
232,48,89424,6,0,P|260:36|276:36,1,36,0|0,0:0|0:0,0:0:0:0:
232,136,89692,2,0,P|204:136|188:132,1,36,0|0,1:0|0:0,0:0:0:0:
108,48,89960,2,0,P|80:56|68:64,1,36,8|0,0:0|0:0,0:0:0:0:
88,184,90228,2,0,P|120:172|132:160,1,36,0|0,0:0|0:0,0:0:0:0:
312,64,90496,5,2,0:0:0:0:
300,96,90629,1,0,0:0:0:0:
324,128,90763,1,0,1:0:0:0:
324,128,91031,2,0,L|324:200,1,72,8|0,0:0|1:0,0:0:0:0:
384,344,91433,5,0,0:0:0:0:
384,344,91567,2,0,P|416:340|448:300,2,72,0|0|8,0:0|1:0|0:0,0:0:0:0:
300,188,92371,6,0,P|256:180|276:208,1,72,0|0,1:0|0:0,0:0:0:0:
192,312,92638,6,0,L|156:212,1,90,2|0,3:0|1:0,0:0:0:0:
80,160,93040,1,2,3:0:0:0:
80,160,93174,2,0,L|92:203,1,45,0|0,0:0|0:0,0:0:0:0:
161,227,93442,2,0,P|125:223|84:268,1,90,0|0,1:0|0:0,0:0:0:0:
304,96,93978,1,0,1:0:0:0:
304,96,94246,5,8,0:0:0:0:
332,60,94379,1,0,0:0:0:0:
376,52,94513,1,0,1:0:0:0:
420,68,94647,1,0,0:0:0:0:
440,104,94781,6,0,L|380:164,1,72,6|0,0:0|1:0,0:0:0:0:
424,352,95317,2,0,L|376:340,1,36,8|0,0:0|0:0,0:0:0:0:
88,112,95719,5,0,0:0:0:0:
88,112,95853,2,0,B|116:140|116:140|152:152,1,72,0|0,0:0|1:0,0:0:0:0:
60,248,96388,2,0,L|113:240,1,36,8|0,0:0|0:0,0:0:0:0:
272,40,96857,5,0,0:0:0:0:
272,40,96924,2,0,B|268:64|268:64|276:88,1,36,2|0,0:0|0:0,0:0:0:0:
356,148,97192,2,0,B|360:124|360:124|352:100,1,36,0|0,1:0|0:0,0:0:0:0:
272,96,97460,2,0,B|268:120|268:120|276:144,1,36,8|0,0:0|0:0,0:0:0:0:
356,204,97728,2,0,B|360:180|360:180|352:156,1,36,0|0,1:0|0:0,0:0:0:0:
220,244,97996,6,0,P|244:264|300:252,2,90,0|0|8,0:0|1:0|0:0,0:0:0:0:
336,348,98799,2,0,L|352:304,1,36,0|0,1:0|0:0,0:0:0:0:
440,292,99067,6,0,L|404:392,2,90,2|0|8,0:0|1:0|0:0,0:0:0:0:
496,56,100071,5,0,0:0:0:0:
496,56,100138,2,0,L|392:28,2,90,0|0|8,0:0|1:0|0:0,0:0:0:0:
312,28,101210,6,0,L|192:44,1,107.999996704102,6|0,0:0|0:0,0:0:0:0:
176,136,101612,1,2,3:0:0:0:
120,56,101746,2,0,P|96:88|88:116,1,53.9999983520508,8|0,0:0|0:0,0:0:0:0:
24,148,102013,2,0,P|80:188|136:172,1,107.999996704102,2|0,3:0|0:0,0:0:0:0:
172,284,102415,1,2,3:0:0:0:
172,284,102549,6,0,L|236:264,1,53.9999983520508,2|0,3:0|0:0,0:0:0:0:
272,352,102817,2,0,L|308:295,1,53.9999983520508,8|0,0:0|0:0,0:0:0:0:
380,320,103085,2,0,L|394:254,1,53.9999983520508,2|2,3:0|3:0,0:0:0:0:
56,144,103353,6,0,L|12:36,1,107.999996704102,6|0,0:0|0:0,0:0:0:0:
152,120,103754,2,0,L|116:224,1,107.999996704102,2|0,0:0|0:0,0:0:0:0:
240,52,104156,1,2,0:0:0:0:
252,128,104290,1,0,0:0:0:0:
264,204,104424,1,0,0:0:0:0:
348,84,104692,1,2,0:0:0:0:
348,84,104826,1,0,0:0:0:0:
348,84,104960,2,0,P|356:116|368:136,1,45,8|0,0:0|0:0,0:0:0:0:
384,204,105228,2,0,P|412:188|428:160,1,45,0|0,0:0|0:0,0:0:0:0:
496,48,105496,6,0,L|500:144,1,90,2|0,0:0|0:0,0:0:0:0:
504,180,105897,1,2,0:0:0:0:
479,299,106031,2,0,P|451:283|436:256,1,45,8|0,0:0|0:0,0:0:0:0:
336,296,106299,2,0,P|364:320|376:340,1,45,2|0,0:0|0:0,0:0:0:0:
443,273,106567,2,0,L|473:174,1,90,0|2,0:0|0:0,0:0:0:0:
356,56,107103,1,8,0:0:0:0:
356,56,107371,1,0,0:0:0:0:
152,108,107638,6,0,P|180:144|236:152,1,90,2|0,0:0|0:0,0:0:0:0:
208,100,108040,2,0,P|168:56|124:48,1,90,2|0,0:0|0:0,0:0:0:0:
24,120,108442,2,0,L|72:92,1,45,2|0,0:0|0:0,0:0:0:0:
236,232,108710,1,0,0:0:0:0:
240,236,108978,5,2,0:0:0:0:
240,236,109112,1,0,0:0:0:0:
216,304,109246,1,8,0:0:0:0:
416,240,109513,1,0,0:0:0:0:
336,384,109781,6,0,L|360:260,1,107.999996704102,2|0,3:0|0:0,0:0:0:0:
440,324,110183,1,2,3:0:0:0:
448,192,110317,2,0,L|480:248,1,53.9999983520508,8|0,0:0|0:0,0:0:0:0:
512,144,110585,2,0,L|476:88,2,53.9999983520508,2|0|0,3:0|0:0|0:0,0:0:0:0:
260,256,111121,6,0,L|276:192,1,53.9999983520508,2|0,0:0|0:0,0:0:0:0:
328,40,111388,2,0,L|276:60,1,53.9999983520508,8|0,0:0|0:0,0:0:0:0:
152,100,111656,2,0,L|224:132,1,53.9999983520508,0|0,0:0|0:0,0:0:0:0:
408,212,111924,5,6,0:0:0:0:
408,212,112192,1,0,0:0:0:0:
408,212,112460,1,8,0:0:0:0:
176,344,112728,1,2,0:0:0:0:
60,192,112996,1,0,0:0:0:0:
176,76,113263,1,2,0:0:0:0:
112,300,113531,1,8,0:0:0:0:
112,300,113799,5,0,0:0:0:0:
184,344,113933,1,0,0:0:0:0:
264,384,114067,2,0,L|292:320,1,53.9999983520508,2|0,0:0|0:0,0:0:0:0:
352,292,114335,2,0,L|380:220,1,53.9999983520508,0|0,0:0|0:0,0:0:0:0:
316,184,114603,2,0,L|338:135,1,53.9999983520508,8|0,0:0|0:0,0:0:0:0:
288,52,114871,2,0,L|266:101,1,53.9999983520508,2|0,0:0|0:0,0:0:0:0:
176,204,115138,2,0,P|170:116|241:166,1,215.999993408203,0|8,0:0|0:0,0:0:0:0:
104,260,115942,1,2,3:0:0:0:
256,192,116210,12,0,117817,0:0:0:0:
8,48,118353,5,0,0:0:0:0:
100,264,118621,1,0,0:0:0:0:
216,112,118888,1,0,0:0:0:0:
216,112,119022,1,0,0:0:0:0:
272,248,119424,1,0,0:0:0:0:
272,248,119692,5,0,0:0:0:0:
362,69,119960,1,0,0:0:0:0:
348,344,120228,1,0,0:0:0:0:
256,40,120496,6,0,P|316:40|368:76,1,116.999994644165,6|0,0:0|0:0,0:0:0:0:
448,304,121031,1,8,0:0:0:0:
272,196,121299,1,2,0:0:0:0:
496,160,121567,1,0,0:0:0:0:
426,204,121701,1,0,0:0:0:0:
358,249,121835,1,2,0:0:0:0:
156,372,122103,2,0,P|144:332|148:292,1,58.4999973220826,8|0,0:0|0:0,0:0:0:0:
200,192,122371,2,0,P|212:232|208:272,1,58.4999973220826,0|0,0:0|0:0,0:0:0:0:
248,348,122638,6,0,B|300:312|300:312|328:236,1,116.999994644165,2|0,0:0|0:0,0:0:0:0:
264,36,123174,2,0,B|212:72|212:72|184:148,1,116.999994644165,8|2,0:0|0:0,0:0:0:0:
64,312,123710,5,0,0:0:0:0:
200,192,123978,1,2,0:0:0:0:
44,104,124246,1,8,0:0:0:0:
44,104,124513,5,2,3:0:0:0:
120,76,124647,1,2,3:0:0:0:
196,48,124781,1,2,0:0:0:0:
336,140,125049,5,0,0:0:0:0:
344,148,125183,1,0,0:0:0:0:
344,148,125317,2,0,L|464:164,2,116.999994644165,8|2|0,0:0|0:0|0:0,0:0:0:0:
448,272,126121,1,2,0:0:0:0:
448,272,126388,5,8,0:0:0:0:
368,280,126522,1,0,0:0:0:0:
288,288,126656,1,0,0:0:0:0:
56,360,126924,6,0,L|96:232,1,116.999994644165,2|0,3:0|0:0,0:0:0:0:
160,288,127326,1,0,3:0:0:0:
65,195,127460,2,0,L|101:271,1,58.4999973220826,2|0,3:0|0:0,0:0:0:0:
152,140,127728,2,0,L|124:80,1,58.4999973220826,2|0,3:0|0:0,0:0:0:0:
112,48,127996,5,6,0:0:0:0:
272,48,128263,1,2,0:0:0:0:
344,264,128531,1,8,0:0:0:0:
344,264,128799,1,2,3:0:0:0:
292,204,128933,1,2,3:0:0:0:
248,140,129067,5,6,0:0:0:0:
152,372,129335,1,0,0:0:0:0:
16,136,129603,1,8,0:0:0:0:
264,240,129871,1,2,0:0:0:0:
24,300,130138,1,8,0:0:0:0:
192,68,130406,1,2,0:0:0:0:
192,68,130674,6,0,L|272:56,1,58.4999973220826,8|0,0:0|0:0,0:0:0:0:
360,120,130942,2,0,L|288:132,1,58.4999973220826,0|0,0:0|0:0,0:0:0:0:
192,68,131210,2,0,L|212:192,1,116.999994644165,2|0,0:0|0:0,0:0:0:0:
320,244,131746,2,0,L|301:126,1,116.999994644165,8|2,0:0|0:0,0:0:0:0:
308,356,132281,5,0,0:0:0:0:
500,276,132549,1,2,0:0:0:0:
448,56,132817,1,8,0:0:0:0:
448,56,133085,5,2,3:0:0:0:
424,132,133219,1,2,3:0:0:0:
396,208,133353,1,2,0:0:0:0:
52,308,133621,5,0,0:0:0:0:
52,308,133754,1,0,0:0:0:0:
52,308,133888,2,0,L|176:320,2,116.999994644165,2|2|0,0:0|0:0|0:0,0:0:0:0:
172,180,134692,5,2,0:0:0:0:
312,300,134960,1,8,0:0:0:0:
240,80,135228,1,0,0:0:0:0:
0,20,135496,6,0,P|24:52|104:48,1,116.999994644165,2|0,3:0|0:0,0:0:0:0:
24,208,135897,1,2,3:0:0:0:
24,208,136031,2,0,P|80:200|96:188,1,58.4999973220826,2|0,3:0|0:0,0:0:0:0:
200,116,136299,2,0,P|160:116|128:128,1,58.4999973220826,2|0,3:0|0:0,0:0:0:0:
80,199,136567,2,0,L|92:331,1,116.999994644165,6|2,0:0|0:0,0:0:0:0:
240,228,137103,1,8,0:0:0:0:
244,232,137371,2,0,L|208:216,1,26.9999991760254,0|0,0:0|0:0,0:0:0:0:
120,160,137638,6,0,P|152:132|208:124,1,90,6|0,0:0|0:0,0:0:0:0:
284,160,138040,1,2,0:0:0:0:
376,164,138174,2,0,P|365:119|325:83,1,90,8|2,0:0|0:0,0:0:0:0:
488,164,138710,6,0,P|472:203|427:237,1,90,2|2,0:0|0:0,0:0:0:0:
348,268,139112,1,0,0:0:0:0:
292,332,139246,2,0,P|320:368|372:384,1,90,8|0,0:0|0:0,0:0:0:0:
112,320,139781,6,0,L|92:316,2,15,2|0|0,0:0|0:0|0:0,0:0:0:0:
184,360,140049,2,0,P|192:324|188:288,1,53.9999983520508,0|2,0:0|0:0,0:0:0:0:
232,204,140317,2,0,P|252:232|276:252,1,53.9999983520508,8|0,0:0|0:0,0:0:0:0:
124,192,140585,2,0,P|144:208|158:233,1,53.9999983520508,2|0,0:0|0:0,0:0:0:0:
124,192,140853,6,0,L|116:156,1,36,2|0,3:0|0:0,0:0:0:0:
200,60,141121,1,2,0:0:0:0:
176,32,141254,1,0,0:0:0:0:
140,24,141388,1,8,0:0:0:0:
280,152,141656,1,2,3:0:0:0:
392,52,141924,6,0,B|416:48|416:48|440:36,2,48
312,60,142192,1,0,0:0:0:0:
240,44,142326,1,0,0:0:0:0:
168,108,142460,2,0,L|228:120,1,53.9999983520508,8|0,0:0|0:0,0:0:0:0:
288,220,142728,2,0,L|220:208,1,53.9999983520508,2|0,0:0|0:0,0:0:0:0:
184,296,142996,5,2,3:0:0:0:
140,316,143129,1,2,3:0:0:0:
96,300,143263,1,2,0:0:0:0:
260,352,143531,5,8,0:0:0:0:
304,372,143665,1,2,3:0:0:0:
348,348,143799,1,2,3:0:0:0:
416,284,144067,6,0,L|368:176,1,107.999996704102,2|2,3:0|3:0,0:0:0:0:
72,156,144469,2,0,L|200:192,1,125.999996154785,2|0,0:0|0:0,0:0:0:0:
352,64,144871,2,0,P|328:48|224:96,1,144,2|0,0:0|0:0,0:0:0:0:
229,83,145406,5,2,0:0:0:0:
229,83,145540,1,0,0:0:0:0:
164,24,145674,1,8,0:0:0:0:
140,100,145808,1,0,0:0:0:0:
160,176,145942,1,0,0:0:0:0:
296,360,146210,6,0,P|340:368|392:332,1,90,6|0,0:0|0:0,0:0:0:0:
288,176,146746,2,0,P|268:215|276:259,1,90,8|2,0:0|0:0,0:0:0:0:
388,200,147281,2,0,P|408:161|400:117,1,90,0|2,0:0|0:0,0:0:0:0:
276,8,147817,1,8,0:0:0:0:
208,216,148085,1,0,0:0:0:0:
96,104,148353,1,6,0:0:0:0:
96,104,148621,2,0,L|80:96,1,11.25
32,228,148888,6,0,L|88:232,1,45,8|0,0:0|0:0,0:0:0:0:
140,300,149156,2,0,L|200:304,1,45,2|0,0:0|0:0,0:0:0:0:
324,272,149424,2,0,P|284:244|228:240,1,90,0|0,0:0|0:0,0:0:0:0:
384,204,149960,2,0,P|400:160|376:124,1,90,8|2,0:0|3:0,0:0:0:0:
208,44,150496,5,2,0:0:0:0:
400,280,151031,2,0,L|348:256,1,45,8|0,0:0|0:0,0:0:0:0:
208,44,151433,1,0,0:0:0:0:
208,44,151835,1,2,0:0:0:0:
120,224,152103,2,0,L|160:196,1,45,2|0,0:0|0:0,0:0:0:0:
248,80,152638,6,0,L|364:40,1,107.999996704102,2|0,3:0|0:0,0:0:0:0:
296,168,153040,1,2,3:0:0:0:
252,272,153174,2,0,P|200:276|188:228,1,107.999996704102,8|0,0:0|0:0,0:0:0:0:
76,120,153710,6,0,L|44:116,1,26.9999991760254,6|0,0:0|0:0,0:0:0:0:
12,192,153978,6,0,L|52:196,1,36,2|0,0:0|0:0,0:0:0:0:
100,200,154246,5,8,0:0:0:0:
180,364,154513,1,2,3:0:0:0:
360,232,154781,6,0,B|372:176|336:176|356:120,1,107.999996704102,0|6,0:0|0:0,0:0:0:0:
196,40,155585,1,2,0:0:0:0:
220,288,155853,5,0,0:0:0:0:
256,204,155987,1,0,0:0:0:0:
292,119,156121,1,2,0:0:0:0:
448,268,156388,2,0,L|474:204,1,58.4999973220826,8|0,0:0|0:0,0:0:0:0:
436,84,156656,2,0,L|409:147,1,58.4999973220826,0|0,0:0|0:0,0:0:0:0:
348,308,156924,2,0,P|372:336|452:356,2,116.999994644165,2|0|8,0:0|0:0|0:0,0:0:0:0:
272,232,157728,1,2,0:0:0:0:
364,32,157996,5,0,0:0:0:0:
272,232,158263,1,2,0:0:0:0:
116,116,158531,1,8,0:0:0:0:
116,116,158799,5,2,3:0:0:0:
188,88,158933,1,2,3:0:0:0:
260,60,159067,1,6,0:0:0:0:
416,172,159335,5,0,0:0:0:0:
424,180,159469,1,0,0:0:0:0:
424,180,159603,2,0,P|396:140|328:124,2,116.999994644165,8|2|0,0:0|0:0|0:0,0:0:0:0:
160,324,160406,1,2,0:0:0:0:
160,324,160674,5,8,0:0:0:0:
124,252,160808,1,0,0:0:0:0:
92,180,160942,1,0,0:0:0:0:
36,56,161210,6,0,P|92:68|140:28,1,116.999994644165,2|0,3:0|0:0,0:0:0:0:
211,77,161612,1,2,3:0:0:0:
211,77,161746,2,0,L|236:24,1,58.4999973220826,8|0,0:0|0:0,0:0:0:0:
135,42,162013,2,0,L|112:96,1,58.4999973220826,2|0,3:0|0:0,0:0:0:0:
100,128,162281,5,6,0:0:0:0:
264,244,162549,1,6,0:0:0:0:
224,24,162817,1,8,0:0:0:0:
224,24,163085,1,2,3:0:0:0:
300,48,163219,1,2,3:0:0:0:
376,72,163353,5,6,0:0:0:0:
312,200,163621,2,0,P|342:169|373:156,1,58.4999973220826
496,120,163888,2,0,P|484:164|456:188,1,58.4999973220826,8|0,0:0|0:0,0:0:0:0:
428,312,164156,2,0,P|400:303|376:286,1,58.4999973220826,2|0,0:0|0:0,0:0:0:0:
336,260,164424,1,2,3:0:0:0:
160,144,164692,1,2,0:0:0:0:
220,288,164960,1,8,0:0:0:0:
356,100,165228,1,0,0:0:0:0:
220,288,165496,6,0,L|148:192,1,116.999994644165,2|0,0:0|0:0,0:0:0:0:
4,172,166031,2,0,L|76:276,1,116.999994644165,8|2,0:0|0:0,0:0:0:0:
216,108,166567,5,0,0:0:0:0:
152,336,166835,1,2,0:0:0:0:
4,172,167103,1,8,0:0:0:0:
4,172,167371,5,2,3:0:0:0:
32,96,167504,1,2,3:0:0:0:
64,24,167638,1,2,0:0:0:0:
270,130,167906,5,0,0:0:0:0:
270,130,168040,1,0,0:0:0:0:
270,130,168174,2,0,P|226:107|158:125,2,116.999994644165,8|2|2,0:0|0:0|3:0,0:0:0:0:
232,284,168978,5,2,0:0:0:0:
448,20,169246,1,8,0:0:0:0:
508,228,169513,1,0,0:0:0:0:
272,80,169781,6,0,L|336:192,1,116.999994644165,2|0,3:0|0:0,0:0:0:0:
404,136,170183,1,2,3:0:0:0:
404,136,170317,2,0,P|412:192|408:212,1,58.4999973220826,8|0,0:0|0:0,0:0:0:0:
321,238,170585,2,0,P|324:195|340:163,1,58.4999973220826,2|0,3:0|0:0,0:0:0:0:
504,312,170853,2,0,L|389:288,1,116.999994644165,6|2,0:0|0:0,0:0:0:0:
224,336,171388,2,0,L|356:364,1,116.999994644165,8|2,0:0|0:0,0:0:0:0:
46,354,171924,6,0,B|71:337|71:337|84:318,1,45,6|0,0:0|0:0,0:0:0:0:
88,208,172192,2,0,B|62:225|62:225|50:243,1,45,0|2,0:0|0:0,0:0:0:0:
181,224,172460,1,8,0:0:0:0:
184,188,172594,1,0,0:0:0:0:
163,151,172728,2,0,P|152:136|124:124,1,45,2|0,0:0|0:0,0:0:0:0:
32,36,172996,2,0,L|140:44,2,90,0|2|8,0:0|0:0|0:0,0:0:0:0:
60,132,173799,1,0,0:0:0:0:
196,64,174067,6,0,B|226:63|226:63|247:71,1,45,2|0,0:0|0:0,0:0:0:0:
314,160,174335,2,0,B|283:160|283:160|262:152,1,45,0|2,0:0|0:0,0:0:0:0:
388,86,174603,1,8,0:0:0:0:
406,124,174737,1,0,0:0:0:0:
408,164,174871,2,0,P|407:182|391:208,1,45,2|0,0:0|0:0,0:0:0:0:
366,333,175139,2,0,L|449:264,2,90,0|2|8,0:0|0:0|0:0,0:0:0:0:
334,238,175942,1,0,0:0:0:0:
315,61,176210,6,0,B|320:90|320:90|316:113,1,45,2|0,0:0|0:0,0:0:0:0:
240,195,176478,2,0,B|234:165|234:165|238:142,1,45,0|2,0:0|0:0,0:0:0:0:
329,262,176746,1,8,0:0:0:0:
292,286,176880,1,0,0:0:0:0:
253,288,177014,2,0,P|234:290|206:279,1,45,2|0,0:0|0:0,0:0:0:0:
79,277,177282,2,0,L|161:347,2,90,0|2|8,0:0|0:0|0:0,0:0:0:0:
168,244,178085,1,0,0:0:0:0:
168,141,178353,6,0,P|204:161|244:137,1,90,6|0,3:0|0:0,0:0:0:0:
224,121,178754,6,0,P|176:93|140:125,1,107.999996704102,2|0,3:0|0:0,0:0:0:0:
52,240,179156,6,0,P|24:200|68:128,1,125.999996154785,2|0,3:0|0:0,0:0:0:0:
52,240,179558,6,0,P|100:200|124:276,1,144,0|0,0:0|0:0,0:0:0:0:
176,344,179960,6,0,L|272:328,1,76.5000014591217,8|0,0:0|0:0,0:0:0:0:
228,256,180228,6,0,L|336:240,1,80.9999975280763,8|0,0:0|0:0,0:0:0:0:
368,156,180496,6,0,B|366:123|394:98,1,45,2|0,0:0|0:0,0:0:0:0:
427,218,180763,2,0,B|428:250|400:275,1,45,0|2,0:0|0:0,0:0:0:0:
241,136,181032,1,8,0:0:0:0:
283,141,181166,1,0,0:0:0:0:
324,146,181300,2,0,P|355:153|382:155,1,45,2|0,0:0|0:0,0:0:0:0:
440,20,181568,2,0,B|440:68|440:68|461:117,2,90,0|2|8,0:0|0:0|0:0,0:0:0:0:
328,40,182371,1,0,0:0:0:0:
281,144,182638,6,0,B|279:176|307:201,1,45,2|0,0:0|0:0,0:0:0:0:
340,82,182905,2,0,B|341:49|313:24,1,45,0|2,0:0|0:0,0:0:0:0:
154,164,183174,1,8,0:0:0:0:
196,159,183308,1,0,0:0:0:0:
237,154,183442,2,0,P|268:146|295:144,1,45,2|0,0:0|0:0,0:0:0:0:
353,280,183710,2,0,B|353:232|353:232|374:182,2,90,0|2|8,0:0|0:0|0:0,0:0:0:0:
224,324,184513,1,0,0:0:0:0:
162,265,184781,6,0,B|129:263|104:291,1,45,2|0,0:0|0:0,0:0:0:0:
224,324,185048,2,0,B|256:325|281:297,1,45,0|2,0:0|0:0,0:0:0:0:
142,138,185317,1,8,0:0:0:0:
147,180,185451,1,0,0:0:0:0:
152,221,185585,2,0,P|159:252|161:279,1,45,2|0,0:0|0:0,0:0:0:0:
26,337,185853,2,0,B|74:337|74:337|123:358,2,90,0|2|8,0:0|0:0|0:0,0:0:0:0:
268,212,186656,1,0,0:0:0:0:
388,272,186924,5,2,3:0:0:0:
316,76,187192,1,2,3:0:0:0:
367,200,187460,6,0,L|412:200,1,45,2|2,0:0|0:0,0:0:0:0:
240,44,187996,5,2,0:0:0:0:
116,168,188263,2,0,P|158:152|204:160,1,72,2|0,0:0|0:0,0:0:0:0:
172,264,188665,2,0,L|164:220,1,36,2|0,3:0|0:0,0:0:0:0:
