osu file format v14

[General]
AudioFilename: audio.mp3
AudioLeadIn: 0
PreviewTime: 118353
Countdown: 0
SampleSet: Soft
StackLeniency: 0.5
Mode: 0
LetterboxInBreaks: 0
WidescreenStoryboard: 0

[Editor]
Bookmarks: 77638,86210,103353
DistanceSpacing: 0.8
BeatDivisor: 2
GridSize: 4
TimelineZoom: 2.3

[Metadata]
Title:UP & DOWN
TitleUnicode:위아래
Artist:EXID
ArtistUnicode:이엑스아이디
Creator:cosmiccc
Version:Easy
Source:
Tags:EXID Exceed In Dreaming 솔지 엘리 하니 혜린 정화 Solji LE Hani Hyerin Junghwa Yedang Entertainment Hyelin Jeonghwa Firetruck Irreversible Bakari Handsome kpop Up and Down Up&Down 예당엔터테인먼트 Ah Yeah
BeatmapID:1291729
BeatmapSetID:606698

[Difficulty]
HPDrainRate:1
CircleSize:2.6
OverallDifficulty:1
ApproachRate:1.8
SliderMultiplier:1.1
SliderTickRate:1

[Events]
//Background and Video events
Video,0,"UP&DOWN.mp4"
0,0,"kms.png",0,0
//Break Periods
2,15160,16054
2,23731,24626
2,40873,41769
2,77838,82483
2,92302,93197
2,100873,101769
2,137838,142483
2,178017,178912
//Storyboard Layer 0 (Background)
//Storyboard Layer 1 (Fail)
//Storyboard Layer 2 (Pass)
//Storyboard Layer 3 (Foreground)
//Storyboard Sound Samples

[TimingPoints]
496,535.714285714286,4,2,2,60,1,0
6924,-133.333333333333,4,1,2,60,0,0
9067,-100,4,2,2,60,0,0
60496,-100,4,2,2,60,0,1
77638,-100,4,2,2,60,0,0
120496,-100,4,2,2,60,0,1
137638,-100,4,2,2,60,0,0
155317,-100,4,2,2,60,0,1
171924,-100,4,2,2,60,0,0

[Colours]
Combo1 : 17,254,176
Combo2 : 173,255,95
Combo3 : 255,88,100
Combo4 : 255,94,55

[HitObjects]
152,360,6924,6,0,B|116:332|52:336|52:336|8:264|56:204,1,247.500009441376,4|0,0:0|2:0,0:0:0:0:
104,128,9067,6,0,B|160:120|160:120|208:152|292:124,2,165,4|2|8,0:0|0:0|0:0,0:0:0:0:
48,60,11210,6,0,P|16:132|60:204,2,165,2|2|8,0:0|0:0|0:0,0:0:0:0:
136,44,13353,6,0,B|192:36|192:36|240:68|324:40,2,165,2|2|8,0:0|0:0|0:0,0:0:0:0:
408,256,17638,6,0,B|352:264|352:264|304:232|220:260,2,165,4|2|8,0:0|0:0|0:0,0:0:0:0:
464,324,19781,6,0,P|496:252|452:180,2,165,2|2|8,0:0|0:0|0:0,0:0:0:0:
376,340,21924,6,0,B|320:348|320:348|272:316|188:344,2,165,2|2|8,0:0|0:0|0:0,0:0:0:0:
352,28,26210,6,0,B|412:28|412:28|480:60,1,110,4|8,0:0|0:0,0:0:0:0:
456,136,27281,2,0,B|396:136|396:136|328:104,1,110,0|8,0:0|0:0,0:0:0:0:
280,60,28353,5,0,0:0:0:0:
240,136,28888,2,0,B|228:212|152:240|152:240|240:260,1,220,2|8,0:0|0:0,0:0:0:0:
312,280,30496,5,2,0:0:0:0:
384,332,31031,2,0,B|360:360|332:376|292:376|268:360|240:344|204:344|176:360,1,220,8|8,0:0|0:0,0:0:0:0:
92,352,32638,6,0,B|116:284|76:204|76:204|148:232|208:188|208:188|168:132|180:56|236:36,1,440,0|4,0:0|0:0,0:0:0:0:
272,116,35317,5,8,0:0:0:0:
328,184,35853,2,0,P|378:200|436:184,1,110
384,112,36924,5,0,0:0:0:0:
392,24,37460,2,0,P|448:52|472:108,2,110,8|0|8,0:0|0:0|0:0,0:0:0:0:
308,48,39067,6,0,B|264:80|264:80|200:80,1,110,0|8,0:0|0:0,0:0:0:0:
216,168,40138,6,0,B|160:168|160:168|116:200,1,110,0|8,0:0|0:0,0:0:0:0:
372,100,43353,6,0,B|418:163|486:191|486:191|409:222,1,220,6|0,0:0|0:0,0:0:0:0:
340,252,44960,1,8,0:0:0:0:
304,336,45496,6,0,B|264:312|232:280|244:208|272:192|296:192|280:160|280:132,1,220,2|0,0:0|0:0,0:0:0:0:
140,284,47638,6,0,B|94:221|26:193|26:193|103:162,1,220,6|0,0:0|0:0,0:0:0:0:
172,128,49245,1,8,0:0:0:0:
208,48,49781,6,0,B|248:72|280:104|268:176|240:192|216:192|232:224|232:252,1,220,2|0,0:0|0:0,0:0:0:0:
468,316,51924,5,2,0:0:0:0:
424,240,52460,1,8,0:0:0:0:
496,188,52996,2,0,P|440:152|376:160,1,110,0|8,0:0|0:0,0:0:0:0:
324,200,54067,5,2,0:0:0:0:
264,264,54603,1,8,0:0:0:0:
204,328,55138,2,0,P|288:348|316:336,1,110,0|8,0:0|0:0,0:0:0:0:
256,192,56210,12,0,58353,0:0:0:0:
4,296,60496,6,0,L|40:180,1,110,14|8,0:0|0:0,0:0:0:0:
116,232,61567,2,0,L|152:116,1,110,0|8,0:0|0:0,0:0:0:0:
216,72,62638,6,0,B|180:36|132:44|132:44|116:4,1,110,2|8,0:0|0:0,0:0:0:0:
40,56,63710,5,0,0:0:0:0:
48,144,64246,1,8,0:0:0:0:
64,232,64781,6,0,B|124:224|172:264,1,110,2|8,0:0|0:0,0:0:0:0:
100,320,65853,2,0,B|143:356|203:348,1,110,2|8,0:0|0:0,0:0:0:0:
268,292,66924,5,2,3:0:0:0:
336,236,67460,1,8,0:0:0:0:
376,316,67996,2,0,B|416:368|416:368|468:368,1,110,2|8,0:0|0:0,0:0:0:0:
504,292,69067,6,0,L|468:176,1,110,14|8,0:0|0:0,0:0:0:0:
396,232,70138,2,0,L|360:116,1,110,0|8,0:0|0:0,0:0:0:0:
296,72,71210,6,0,B|332:36|380:44|380:44|396:4,1,110,2|8,0:0|0:0,0:0:0:0:
472,56,72281,5,0,0:0:0:0:
464,144,72817,1,8,0:0:0:0:
448,232,73352,6,0,B|388:224|340:264,1,110,2|8,0:0|0:0,0:0:0:0:
412,320,74424,2,0,B|368:356|308:348,1,110,2|8,0:0|0:0,0:0:0:0:
256,192,75496,12,6,77638,0:0:0:0:
492,24,84067,6,0,B|436:20|404:60|404:60|308:44,2,165,0|0|0,0:0|0:0|0:0,0:0:0:0:
476,112,86210,6,0,P|464:176|392:192,1,110,6|8,0:0|0:0,0:0:0:0:
348,228,87281,2,0,P|304:258|300:312,1,110,0|8,0:0|0:0,0:0:0:0:
216,344,88353,5,2,0:0:0:0:
132,324,88888,1,8,0:0:0:0:
68,264,89424,2,0,P|64:200|100:148,1,110,0|8,0:0|0:0,0:0:0:0:
148,224,90496,6,0,L|260:224,1,110
312,156,91567,2,0,L|428:156,1,110
168,344,94781,6,0,B|188:292|188:292|164:236,1,110,6|8,0:0|0:0,0:0:0:0:
148,156,95853,2,0,B|96:176|96:176|40:152,1,110,0|8,0:0|0:0,0:0:0:0:
96,80,96924,6,0,B|135:61|135:61|171:77|211:61|211:61|247:85,2,165,2|0|8,0:0|1:0|0:0,0:0:0:0:
20,124,99067,6,0,P|76:164|148:148,1,110,2|8,0:0|0:0,0:0:0:0:
112,252,100138,2,0,P|58:256|16:291,1,110,0|8,0:0|0:0,0:0:0:0:
180,96,103353,6,0,B|244:124|308:92|308:92|260:176,1,220,6|0,0:0|0:0,0:0:0:0:
216,240,104960,1,8,0:0:0:0:
144,292,105496,2,0,P|192:324|272:312,2,110,2|8|0,0:0|0:0|0:0,0:0:0:0:
332,96,107638,6,0,B|268:124|204:92|204:92|252:176,1,220,6|0,0:0|0:0,0:0:0:0:
296,240,109245,1,8,0:0:0:0:
368,292,109781,2,0,P|320:324|240:312,2,110,2|8|0,0:0|0:0|0:0,0:0:0:0:
412,136,111924,5,6,0:0:0:0:
452,56,112460,1,8,0:0:0:0:
380,4,112996,2,0,L|328:112,1,110,0|8,0:0|0:0,0:0:0:0:
244,92,114067,5,2,0:0:0:0:
208,172,114603,1,8,0:0:0:0:
124,144,115138,2,0,L|176:44,1,110,0|8,0:0|0:0,0:0:0:0:
256,192,116210,12,0,117817,0:0:0:0:
84,356,120496,6,0,P|41:321|21:271,1,110,6|8,0:0|0:0,0:0:0:0:
52,188,121567,2,0,P|94:222|114:272,1,110,0|8,0:0|0:0,0:0:0:0:
188,320,122638,6,0,B|204:296|208:268|208:268|240:280|272:268,1,110,2|8,0:0|0:0,0:0:0:0:
332,324,123710,5,0,0:0:0:0:
416,292,124246,1,8,0:0:0:0:
436,208,124781,6,0,B|411:200|374:216|374:216|327:216,1,110,2|8,0:0|0:0,0:0:0:0:
276,144,125853,2,0,B|230:144|230:144|192:160|167:152,1,110,0|8,0:0|0:0,0:0:0:0:
88,116,126924,5,2,3:0:0:0:
140,44,127460,1,2,3:0:0:0:
228,40,127996,2,0,P|300:48|340:32,1,110,6|8,0:0|0:0,0:0:0:0:
420,52,129067,6,0,P|463:87|483:137,1,110,6|8,0:0|0:0,0:0:0:0:
452,220,130138,2,0,P|410:186|390:136,1,110,0|8,0:0|0:0,0:0:0:0:
316,88,131210,6,0,B|300:112|296:140|296:140|264:128|232:140,1,110,2|8,0:0|0:0,0:0:0:0:
172,84,132281,5,0,0:0:0:0:
88,116,132817,1,8,0:0:0:0:
68,200,133352,6,0,B|93:208|130:192|130:192|177:192,1,110,2|8,0:0|0:0,0:0:0:0:
228,264,134424,6,0,B|274:264|274:264|312:248|337:256,1,110,0|8,0:0|0:0,0:0:0:0:
256,192,135496,12,6,137638,0:0:0:0:
116,248,144067,6,0,B|72:208|72:208|132:216|200:176,2,165,2|2|8,3:0|0:0|0:0,0:0:0:0:
200,272,146210,6,0,L|316:244,1,110,6|8,0:0|0:0,0:0:0:0:
320,160,147281,2,0,L|212:184,1,110,0|8,0:0|0:0,0:0:0:0:
124,200,148353,5,6,0:0:0:0:
140,112,148888,1,8,0:0:0:0:
212,64,149424,1,0,0:0:0:0:
296,96,149960,6,0,P|348:111|402:104,1,110,8|2,0:0|0:0,0:0:0:0:
484,136,151031,1,8,0:0:0:0:
448,216,151567,6,0,B|440:240|440:240|424:252|424:252|420:272|420:272|404:284|404:284|396:304|396:304|380:320|380:320,1,110,0|2,0:0|0:0,0:0:0:0:
308,300,152638,6,0,P|254:287|201:298,1,110,2|8,3:0|0:0,0:0:0:0:
40,352,154781,6,0,B|32:296|32:296|44:196,1,110,0|6,0:0|0:0,0:0:0:0:
48,156,155852,2,0,B|56:100|56:100|44:0,1,110,0|8,0:0|0:0,0:0:0:0:
136,40,156924,2,0,B|168:36|192:52|192:52|220:36|248:40,1,110
328,40,157996,5,0,0:0:0:0:
308,124,158531,1,8,0:0:0:0:
236,176,159067,6,0,L|140:232,1,110
164,316,160138,2,0,L|284:244,1,110
336,220,161210,5,2,3:0:0:0:
384,296,161746,1,8,0:0:0:0:
300,320,162281,2,0,P|332:368|384:384,1,110,6|8,0:0|0:0,0:0:0:0:
464,356,163353,6,0,B|472:300|472:300|460:200,1,110,0|6,0:0|0:0,0:0:0:0:
456,160,164424,2,0,B|448:104|448:104|460:4,1,110,0|8,0:0|0:0,0:0:0:0:
368,44,165496,2,0,B|336:40|312:56|312:56|284:40|256:44,1,110
176,44,166568,5,0,0:0:0:0:
196,128,167103,1,8,0:0:0:0:
268,180,167639,6,0,L|364:236,1,110
340,320,168710,6,0,L|220:248,1,110
176,208,169782,5,2,3:0:0:0:
116,272,170318,1,8,0:0:0:0:
120,360,170853,2,0,P|170:341|199:295,1,110,6|8,0:0|0:0,0:0:0:0:
176,208,171924,6,0,B|136:184|136:184|80:180|80:180|12:152,2,165,6|2|8,0:0|0:0|0:0,0:0:0:0:
236,140,174067,6,0,P|216:60|280:-4,2,165
300,80,176210,6,0,B|340:104|340:104|396:108|396:108|464:136,2,165,6|2|8,0:0|0:0|0:0,0:0:0:0:
316,340,180496,6,0,B|356:316|356:316|412:312|412:312|480:284,2,165,6|2|8,0:0|0:0|0:0,0:0:0:0:
256,276,182639,6,0,P|276:196|212:132,2,165
192,216,184782,6,0,B|152:240|152:240|96:244|96:244|28:272,2,165,6|2|8,0:0|0:0|0:0,0:0:0:0:
256,192,186924,12,0,188799,0:0:0:0:
