osu file format v14

[General]
AudioFilename: audio.mp3
AudioLeadIn: 0
PreviewTime: 148308
Countdown: 0
SampleSet: Soft
StackLeniency: 0.4
Mode: 0
LetterboxInBreaks: 0
WidescreenStoryboard: 0

[Editor]
Bookmarks: 341,2583,4826,22770,40714,58658,76602,94546,112490,130434,137163,148378,166322,177537,187490
DistanceSpacing: 1.7
BeatDivisor: 4
GridSize: 4
TimelineZoom: 1.2

[Metadata]
Title:LADY
TitleUnicode:내일해
Artist:EXID
ArtistUnicode:EXID
Creator:Syph
Version:EXTRA
Source:
Tags:exceed in dreaming 솔지 엘리 하니 혜린 정화 solji le hani hyerin hyelin junghwa jeonghwa new jack swing kpop k-pop bakari natsu -Laura- Akitoshi
BeatmapID:1634034
BeatmapSetID:777894

[Difficulty]
HPDrainRate:6
CircleSize:4
OverallDifficulty:9
ApproachRate:9
SliderMultiplier:3.4
SliderTickRate:1

[Events]
//Background and Video events
0,0,"wawawa.jpg",0,0
//Break Periods
2,130670,136459
//Storyboard Layer 0 (Background)
//Storyboard Layer 1 (Fail)
//Storyboard Layer 2 (Pass)
//Storyboard Layer 3 (Foreground)
//Storyboard Sound Samples

[TimingPoints]
377,560.747663551402,4,2,0,60,1,0
517,-200,4,2,0,55,0,0
2619,-100,4,2,0,70,0,0
3741,-100,4,2,0,60,0,0
4862,-100,4,2,0,75,0,1
5003,-100,4,2,0,75,0,0
6825,-200,4,2,0,65,0,0
7105,-100,4,2,0,75,0,0
8788,-80,4,2,0,75,0,0
9348,-100,4,2,0,75,0,0
11311,-200,4,2,0,65,0,0
11591,-100,4,2,0,75,0,0
13274,-80,4,2,0,75,0,0
13834,-100,4,2,0,75,0,0
15797,-200,4,2,0,65,0,0
16077,-200,4,2,0,75,0,0
16638,-133.333333333333,4,2,0,65,0,0
17199,-133.333333333333,4,2,0,75,0,0
20283,-200,4,2,0,65,0,0
20563,-100,4,2,0,75,0,0
22246,-200,4,2,0,55,0,0
22806,-133.333333333333,4,2,0,60,0,0
26732,-200,4,2,0,55,0,0
27292,-133.333333333333,4,2,0,60,0,0
38227,-200,4,2,0,55,0,0
38507,-80,4,2,0,75,0,0
39629,-200,4,2,0,65,0,0
40750,-200,4,2,0,60,0,0
47479,-100,4,2,0,80,0,0
48601,-80,4,2,0,65,0,0
49162,-200,4,2,0,55,0,0
49722,-200,4,2,0,65,0,0
51965,-133.333333333333,4,2,0,75,0,0
54208,-133.333333333333,4,2,0,65,0,0
56451,-66.6666666666667,4,2,0,80,0,0
57573,-200,4,2,0,65,0,0
58694,-100,4,2,0,80,0,1
58764,-100,4,2,0,20,0,1
58834,-100,4,2,0,80,0,1
58905,-100,4,2,0,20,0,1
58975,-100,4,2,0,80,0,1
59045,-100,4,2,0,20,0,1
59115,-100,4,2,0,80,0,1
59185,-100,4,2,0,20,0,1
59255,-80,4,2,0,80,0,1
60657,-200,4,2,0,65,0,1
60937,-80,4,2,0,80,0,1
62059,-200,4,2,0,65,0,1
62619,-200,4,2,0,70,0,1
63180,-100,4,2,0,80,0,1
63250,-100,4,2,0,20,0,1
63320,-100,4,2,0,80,0,1
63391,-100,4,2,0,20,0,1
63461,-100,4,2,0,80,0,1
63531,-100,4,2,0,20,0,1
63601,-100,4,2,0,80,0,1
63671,-100,4,2,0,20,0,1
63741,-100,4,2,0,80,0,1
64862,-200,4,2,0,65,0,1
65423,-80,4,2,0,80,0,1
66545,-133.333333333333,4,2,0,80,0,1
67666,-66.6666666666667,4,2,0,85,0,1
67947,-200,4,2,0,75,0,1
68227,-66.6666666666667,4,2,0,85,0,1
68508,-200,4,2,0,75,0,1
68788,-66.6666666666667,4,2,0,85,0,1
69069,-200,4,2,0,75,0,1
69348,-200,4,2,0,65,0,1
69909,-200,4,2,0,80,0,1
70190,-200,4,2,0,60,0,1
70470,-133.333333333333,4,2,0,65,0,1
70750,-100,4,2,0,70,0,1
71031,-80,4,2,0,75,0,1
71311,-80,4,2,0,60,0,1
71872,-133.333333333333,4,2,0,65,0,1
72152,-100,4,2,0,80,0,1
72222,-100,4,2,0,20,0,1
72292,-100,4,2,0,80,0,1
72363,-100,4,2,0,20,0,1
72433,-100,4,2,0,80,0,1
72503,-100,4,2,0,20,0,1
72573,-100,4,2,0,80,0,1
72643,-100,4,2,0,20,0,1
72713,-80,4,2,0,80,0,1
74115,-200,4,2,0,65,0,1
74395,-80,4,2,0,80,0,1
75797,-100,4,2,0,75,0,1
76077,-200,4,2,0,70,0,1
76218,-200,4,2,0,65,0,1
76358,-200,4,2,0,60,0,1
76498,-200,4,2,0,55,0,1
76638,-200,4,2,0,65,0,0
77199,-200,4,2,0,55,0,0
81124,-200,4,2,0,70,0,0
81405,-200,4,2,0,60,0,0
82246,-200,4,2,0,70,0,0
82527,-200,4,2,0,60,0,0
83367,-200,4,2,0,70,0,0
83648,-200,4,2,0,60,0,0
84489,-200,4,2,0,70,0,0
84629,-200,4,2,0,60,0,0
85049,-200,4,2,0,70,0,0
85610,-200,4,2,0,75,0,0
86451,-200,4,2,0,60,0,0
87292,-200,4,2,0,70,0,0
87573,-200,4,2,0,60,0,0
87853,-200,4,2,0,70,0,0
88975,-200,4,2,0,70,0,0
89255,-200,4,2,0,60,0,0
90096,-200,4,2,0,75,0,0
90377,-200,4,2,0,60,0,0
90657,-200,4,2,0,70,0,0
90937,-200,4,2,0,60,0,0
91218,-200,4,2,0,70,0,0
91498,-200,4,2,0,60,0,0
91778,-200,4,2,0,70,0,0
92339,-100,4,2,0,75,0,0
93461,-133.333333333333,4,2,0,65,0,0
94021,-200,4,2,0,55,0,0
94582,-200,4,2,0,60,0,0
101311,-100,4,2,0,80,0,0
102433,-80,4,2,0,65,0,0
102993,-200,4,2,0,55,0,0
103554,-200,4,2,0,65,0,0
105797,-200,4,2,0,75,0,0
106919,-100,4,2,0,75,0,0
107479,-200,4,2,0,75,0,0
108040,-100,4,2,0,65,0,0
108320,-200,4,2,0,65,0,0
109162,-100,4,2,0,65,0,0
109442,-200,4,2,0,65,0,0
110283,-66.6666666666667,4,2,0,80,0,0
111405,-200,4,2,0,65,0,0
112526,-100,4,2,0,80,0,1
112596,-100,4,2,0,20,0,1
112666,-100,4,2,0,80,0,1
112737,-100,4,2,0,20,0,1
112807,-100,4,2,0,80,0,1
112877,-100,4,2,0,20,0,1
112947,-100,4,2,0,80,0,1
113017,-100,4,2,0,20,0,1
113087,-80,4,2,0,80,0,1
114489,-200,4,2,0,65,0,1
114769,-80,4,2,0,80,0,1
115891,-200,4,2,0,65,0,1
116451,-200,4,2,0,70,0,1
117012,-100,4,2,0,80,0,1
117082,-100,4,2,0,20,0,1
117152,-100,4,2,0,80,0,1
117223,-100,4,2,0,20,0,1
117293,-100,4,2,0,80,0,1
117363,-100,4,2,0,20,0,1
117433,-100,4,2,0,80,0,1
117503,-100,4,2,0,20,0,1
117573,-80,4,2,0,80,0,1
118134,-200,4,2,0,80,0,1
118694,-200,4,2,0,65,0,1
119255,-80,4,2,0,80,0,1
120377,-80,4,2,0,80,0,1
120937,-200,4,2,0,80,0,1
121498,-66.6666666666667,4,2,0,85,0,1
121778,-200,4,2,0,75,0,1
122059,-66.6666666666667,4,2,0,85,0,1
122339,-200,4,2,0,75,0,1
122619,-66.6666666666667,4,2,0,85,0,1
122900,-200,4,2,0,75,0,1
123180,-200,4,2,0,65,0,1
123741,-200,4,2,0,80,0,1
124022,-200,4,2,0,60,0,1
124302,-133.333333333333,4,2,0,65,0,1
124582,-100,4,2,0,70,0,1
124862,-80,4,2,0,75,0,1
125143,-80,4,2,0,60,0,1
125704,-133.333333333333,4,2,0,65,0,1
125984,-100,4,2,0,80,0,1
126054,-100,4,2,0,20,0,1
126124,-100,4,2,0,80,0,1
126195,-100,4,2,0,20,0,1
126265,-100,4,2,0,80,0,1
126335,-100,4,2,0,20,0,1
126405,-100,4,2,0,80,0,1
126475,-100,4,2,0,20,0,1
126545,-80,4,2,0,80,0,1
127947,-133.333333333333,4,2,0,65,0,1
128227,-66.6666666666667,4,2,0,80,0,1
129348,-80,4,2,0,80,0,1
129629,-133.333333333333,4,2,0,75,0,1
129909,-200,4,2,0,70,0,1
130050,-200,4,2,0,65,0,1
130190,-200,4,2,0,60,0,1
130330,-200,4,2,0,55,0,1
130470,-200,4,2,0,70,0,0
137059,-200,4,2,0,60,0,0
137199,-80,4,2,0,75,0,0
137760,-66.6666666666667,4,2,0,85,0,0
138320,-80,4,2,0,75,0,0
138881,-133.333333333333,4,2,0,60,0,0
139442,-200,4,2,0,65,0,0
141685,-200,4,2,0,70,0,0
142526,-200,4,2,0,65,0,0
142806,-133.333333333333,4,2,0,65,0,0
143928,-133.333333333333,4,2,0,75,0,0
144489,-200,4,2,0,65,0,0
145049,-133.333333333333,4,2,0,65,0,0
145891,-200,4,2,0,65,0,0
146171,-66.6666666666667,4,2,0,85,0,0
147292,-133.333333333333,4,2,0,70,0,0
147853,-399.999999999997,4,2,0,55,0,0
148414,-80,4,2,0,80,0,1
149535,-133.333333333333,4,2,0,65,0,1
150657,-133.333333333333,4,2,0,80,0,1
152339,-200,4,2,0,65,0,1
152900,-80,4,2,0,80,0,1
154021,-133.333333333333,4,2,0,65,0,1
155143,-133.333333333333,4,2,0,80,0,1
157386,-80,4,2,0,85,0,1
158507,-133.333333333333,4,2,0,65,0,1
158788,-80,4,2,0,85,0,1
159348,-200,4,2,0,65,0,1
159629,-200,4,2,0,85,0,1
160190,-133.333333333333,4,2,0,85,0,1
161311,-200,4,2,0,65,0,1
161872,-80,4,2,0,85,0,1
163554,-133.333333333333,4,2,0,65,0,1
163834,-200,4,2,0,65,0,1
164115,-66.6666666666667,4,2,0,85,0,1
165236,-66.6666666666667,4,2,0,70,0,1
165797,-200,4,2,0,60,0,1
166358,-66.6666666666667,4,2,0,90,0,0
168040,-200,4,2,0,65,0,0
168601,-200,4,2,0,85,0,1
168741,-200,4,2,0,65,0,0
170844,-200,4,2,0,75,0,0
171124,-200,4,2,0,65,0,0
172246,-200,4,2,0,60,0,0
172526,-200,4,2,0,65,0,0
172806,-200,4,2,0,70,0,0
173087,-200,4,2,0,85,0,0
173227,-200,4,2,0,60,0,0
174208,-200,4,2,0,70,0,0
174769,-200,4,2,0,85,0,0
176451,-100,4,2,0,65,0,0
177012,-200,4,2,0,65,0,0
177573,-57.1428571428571,4,2,0,90,0,0
177853,-200,4,2,0,70,0,0
178134,-57.1428571428571,4,2,0,90,0,0
178414,-200,4,2,0,70,0,0
178694,-57.1428571428571,4,2,0,90,0,0
178975,-200,4,2,0,70,0,0
179816,-200,4,2,0,80,0,0
180096,-200,4,2,0,65,0,0
180377,-133.333333333333,4,2,0,70,0,0
180657,-100,4,2,0,75,0,0
180937,-80,4,2,0,75,0,0
181218,-80,4,2,0,65,0,0
182059,-57.1428571428571,4,2,0,90,0,0
182339,-200,4,2,0,70,0,0
182619,-57.1428571428571,4,2,0,90,0,0
182899,-200,4,2,0,70,0,0
183180,-57.1428571428571,4,2,0,90,0,0
183460,-200,4,2,0,70,0,0
184302,-66.6666666666667,4,2,0,80,0,0
185423,-80,4,2,0,85,0,0
185984,-200,4,2,0,65,0,0

[Colours]
Combo1 : 250,253,134
Combo2 : 128,128,255
Combo3 : 11,225,199
Combo4 : 254,133,175
SliderTrackOverride : 0,0,10
SliderBorder : 255,255,250

[HitObjects]
240,118,377,5,2,0:0:0:0:
240,118,517,2,0,L|232:199,2,42.5,0|0|0,0:0|3:0|0:0,0:0:0:0:
250,33,937,1,2,0:0:0:0:
254,37,1218,1,0,0:0:0:0:
254,37,1358,1,2,0:0:0:0:
174,109,2619,6,0,L|351:95,1,170,6|2,1:2|3:0,0:0:0:0:
343,95,3040,1,12,3:0:0:0:
135,196,3180,6,0,L|312:182,1,170,6|2,1:2|3:0,0:0:0:0:
304,182,3601,1,4,3:0:0:0:
96,283,3741,6,0,L|190:276,1,85,6|0,0:0|0:0,0:0:0:0:
349,262,4021,2,0,L|265:269,1,85,8|0,3:0|0:0,0:0:0:0:
43,370,4302,6,0,L|127:363,1,85,8|0,1:2|0:0,0:0:0:0:
127,362,4582,1,4,3:0:0:0:
96,283,4722,1,0,0:0:0:0:
126,132,4862,6,0,B|83:173|83:173|98:310,1,170,6|0,1:2|0:0,0:0:0:0:
231,360,5283,1,0,0:0:0:0:
293,278,5423,2,0,P|238:253|182:271,1,85,8|0,1:3|0:0,0:0:0:0:
96,283,5704,1,2,0:0:0:0:
231,360,5844,1,4,3:0:0:0:
235,172,5984,6,0,L|209:276,1,85,12|0,3:0|0:0,0:0:0:0:
170,72,6264,1,2,1:2:0:0:
214,254,6405,1,2,0:0:0:0:
396,167,6545,2,0,P|355:149|306:155,1,85,8|0,1:2|0:0,0:0:0:0:
214,254,6825,6,0,P|186:257|166:249,1,42.5,4|0,3:0|0:0,0:0:0:0:
78,65,7105,6,0,L|56:174,1,85,6|0,1:2|0:0,0:0:0:0:
253,63,7386,1,2,0:0:0:0:
61,148,7526,1,0,0:0:0:0:
253,63,7666,6,0,L|231:172,1,85,2|0,1:2|0:0,0:0:0:0:
428,61,7947,1,2,0:0:0:0:
236,146,8087,1,8,3:0:0:0:
428,61,8227,6,0,L|406:170,1,85,4|0,3:0|0:0,0:0:0:0:
394,227,8507,2,0,L|416:118,1,85,4|0,3:0|0:0,0:0:0:0:
465,311,8788,2,0,P|408:258|256:304,1,212.5,2|0,1:2|0:0,0:0:0:0:
158,359,9208,1,0,0:0:0:0:
24,212,9348,6,0,B|94:203|94:203|131:217|131:217|198:211,1,170,6|0,1:2|0:0,0:0:0:0:
376,361,9769,1,2,0:0:0:0:
488,212,9909,2,0,B|418:203|418:203|381:217|381:217|314:211,1,170,2|0,1:2|0:0,0:0:0:0:
190,211,10330,1,4,3:0:0:0:
269,17,10470,6,0,L|258:116,2,85,12|0|2,3:0|0:0|1:2,0:0:0:0:
190,211,10891,1,4,3:0:0:0:
31,100,11031,2,0,P|85:91|131:107,1,85,10|0,1:2|0:0,0:0:0:0:
231,207,11311,6,0,P|199:213|184:209,1,42.5,2|0,0:0|0:0,0:0:0:0:
349,110,11591,6,0,L|336:282,1,170,6|4,1:2|3:0,0:0:0:0:
336,279,12012,1,2,0:0:0:0:
443,79,12152,6,0,L|430:251,1,170,2|2,1:2|0:0,0:0:0:0:
430,248,12573,1,4,3:0:0:0:
354,25,12713,6,0,L|347:121,1,85,2|0,1:2|0:0,0:0:0:0:
336,279,12993,2,0,L|343:183,1,85,4|0,3:0|0:0,0:0:0:0:
157,347,13274,6,0,P|298:287|431:366,1,318.75,10|0,1:2|0:0,0:0:0:0:
265,110,13834,6,0,L|258:194,2,85,6|2|2,1:2|0:0|0:0,0:0:0:0:
265,110,14255,1,0,0:0:0:0:
134,258,14395,2,0,P|90:268|48:257,1,85,8|0,1:2|0:0,0:0:0:0:
258,194,14676,1,2,0:0:0:0:
134,258,14816,1,4,3:0:0:0:
257,194,14956,6,0,P|298:183|340:193,1,85,12|0,3:0|0:0,0:0:0:0:
494,240,15236,2,0,P|450:250|408:239,1,85,2|0,0:0|0:0,0:0:0:0:
181,146,15517,1,10,1:2:0:0:
181,146,15797,6,0,L|174:210,1,42.5,0|0,0:0|0:0,0:0:0:0:
106,82,16077,5,6,1:2:0:0:
106,82,16358,6,0,L|99:146,1,42.5,0|0,0:0|0:0,0:0:0:0:
259,62,16638,6,0,P|217:48|173:59,1,63.7500024318696,10|0,1:2|0:0,0:0:0:0:
20,131,16919,1,2,0:0:0:0:
198,49,17059,1,4,3:0:0:0:
118,267,17199,6,0,L|125:186,1,63.7500024318696,6|0,1:2|0:0,0:0:0:0:
129,140,17479,2,0,L|122:221,1,63.7500024318696,8|0,3:0|0:0,0:0:0:0:
194,340,17760,2,0,L|201:259,1,63.7500024318696,10|0,1:2|3:0,0:0:0:0:
208,177,18040,1,0,3:0:0:0:
208,177,18320,5,6,1:2:0:0:
290,138,18461,1,2,0:0:0:0:
344,197,18601,1,2,0:0:0:0:
379,167,18741,1,0,0:0:0:0:
499,232,18881,2,0,P|506:261|498:299,1,63.7500024318696,8|0,1:2|0:0,0:0:0:0:
408,363,19162,1,2,0:0:0:0:
393,250,19302,1,4,3:0:0:0:
500,293,19442,5,12,3:0:0:0:
393,250,19582,1,2,0:0:0:0:
286,293,19722,1,2,0:0:0:0:
195,243,19862,1,0,0:0:0:0:
289,106,20003,2,0,P|296:135|288:173,1,63.7500024318696,10|0,1:2|0:0,0:0:0:0:
196,284,20283,6,0,P|192:259|195:241,1,42.5,2|0,0:0|0:0,0:0:0:0:
380,97,20563,6,0,L|265:84,1,85,6|0,1:2|0:0,0:0:0:0:
295,87,20844,1,2,0:0:0:0:
459,211,20984,1,4,3:0:0:0:
329,357,21124,6,0,L|342:242,1,85,6|0,1:2|0:0,0:0:0:0:
338,272,21405,1,2,0:0:0:0:
459,211,21545,1,4,3:0:0:0:
380,97,21685,6,0,L|367:212,1,85,6|0,1:2|0:0,0:0:0:0:
329,357,21965,2,0,L|342:242,1,85,6|0,1:2|0:0,0:0:0:0:
236,203,22246,6,0,P|259:200|284:204,2,42.5,2|0|8,3:0|3:0|3:0,0:0:0:0:
145,239,22666,1,2,0:0:0:0:
153,175,22806,6,0,L|140:267,1,63.7500024318696,6|0,1:2|0:0,0:0:0:0:
132,342,23087,1,0,0:0:0:0:
132,342,23227,1,0,0:0:0:0:
2,280,23367,2,0,P|32:273|67:281,1,63.7500024318696,8|0,0:0|0:0,0:0:0:0:
132,342,23648,2,0,P|162:349|197:341,1,63.7500024318696,2|0,0:0|0:0,0:0:0:0:
0,268,23928,6,0,P|30:261|65:269,1,63.7500024318696,4|0,3:0|0:0,0:0:0:0:
133,356,24209,2,0,P|163:363|198:355,1,63.7500024318696,8|0,3:0|0:0,0:0:0:0:
294,317,24489,1,0,1:0:0:0:
298,321,24769,1,2,0:0:0:0:
298,321,24909,1,0,0:0:0:0:
420,246,25049,6,0,P|384:233|340:238,1,63.7500024318696,4|0,3:0|0:0,0:0:0:0:
297,220,25330,2,0,P|333:233|377:228,1,63.7500024318696,2|0,0:0|0:0,0:0:0:0:
448,166,25610,2,0,P|464:127|452:39,1,127.500004863739,0|0,1:0|0:0,0:0:0:0:
454,43,26031,1,8,3:0:0:0:
330,115,26171,6,0,L|263:105,1,63.7500024318696,4|0,3:0|0:0,0:0:0:0:
203,115,26451,2,0,L|270:105,1,63.7500024318696,0|0,0:0|0:0,0:0:0:0:
280,221,26732,2,0,L|287:169,2,42.5,2|0|0,1:2|0:0|0:0,0:0:0:0:
280,221,27292,6,0,P|250:225|212:217,1,63.7500024318696,6|0,1:2|0:0,0:0:0:0:
81,145,27573,1,2,0:0:0:0:
81,145,27713,1,0,0:0:0:0:
207,17,27853,2,0,P|211:47|203:85,1,63.7500024318696,0|0,1:0|0:0,0:0:0:0:
202,142,28134,2,0,P|198:112|206:74,1,63.7500024318696,8|0,3:0|0:0,0:0:0:0:
308,29,28414,1,2,0:0:0:0:
308,29,28554,1,0,0:0:0:0:
308,29,28694,2,0,P|338:25|376:33,1,63.7500024318696,8|0,3:0|0:0,0:0:0:0:
432,83,28975,5,2,1:2:0:0:
476,145,29115,1,2,0:0:0:0:
432,207,29255,1,2,0:0:0:0:
359,183,29395,1,2,0:0:0:0:
359,106,29535,5,4,3:0:0:0:
476,145,29676,1,0,0:0:0:0:
359,106,29816,2,0,P|316:117|301:131,1,63.7500024318696,2|0,0:0|0:0,0:0:0:0:
193,228,30096,2,0,P|236:217|251:203,1,63.7500024318696,0|0,1:0|0:0,0:0:0:0:
186,64,30377,2,0,P|190:96|209:121,1,63.7500024318696,0|0,0:0|0:0,0:0:0:0:
340,217,30657,1,4,3:0:0:0:
340,217,30797,1,0,0:0:0:0:
340,217,30937,2,0,P|329:260|315:275,1,63.7500024318696
191,298,31218,5,2,0:0:0:0:
257,220,31358,1,2,0:0:0:0:
113,230,31498,1,2,0:0:0:0:
180,153,31638,1,2,0:0:0:0:
96,318,31778,6,0,P|57:303|39:279,1,63.7500024318696,6|0,1:2|0:0,0:0:0:0:
60,198,32059,2,0,P|99:213|117:237,1,63.7500024318696,0|0,0:0|0:0,0:0:0:0:
247,309,32339,6,0,L|255:229,1,63.7500024318696,2|0,1:2|0:0,0:0:0:0:
332,346,32619,2,0,L|340:266,1,63.7500024318696,2|0,0:0|0:0,0:0:0:0:
417,383,32900,2,0,L|425:303,1,63.7500024318696,2|0,0:0|0:0,0:0:0:0:
432,221,33180,1,8,3:0:0:0:
359,121,33461,5,2,1:2:0:0:
315,183,33601,1,2,0:0:0:0:
359,245,33741,1,2,0:0:0:0:
432,221,33881,1,2,0:0:0:0:
432,144,34021,6,0,P|469:153|493:175,1,63.7500024318696,4|0,3:0|0:0,0:0:0:0:
298,257,34302,2,0,P|330:258|359:245,1,63.7500024318696,2|0,0:0|0:0,0:0:0:0:
221,97,34582,6,0,L|213:177,1,63.7500024318696,2|0,1:2|0:0,0:0:0:0:
136,60,34862,2,0,L|128:140,1,63.7500024318696,2|0,0:0|0:0,0:0:0:0:
51,23,35143,2,0,L|43:103,1,63.7500024318696,2|0,0:0|0:0,0:0:0:0:
36,185,35423,1,0,3:0:0:0:
129,123,35563,5,2,0:0:0:0:
205,190,35704,1,2,1:2:0:0:
278,153,35844,1,2,0:0:0:0:
311,175,35984,1,2,0:0:0:0:
328,165,36124,1,2,0:0:0:0:
445,65,36264,6,0,P|411:52|375:54,1,63.7500024318696,6|0,1:2|0:0,0:0:0:0:
278,153,36545,1,2,0:0:0:0:
278,153,36685,1,0,0:0:0:0:
211,96,36825,5,0,1:0:0:0:
139,144,36965,1,0,0:0:0:0:
15,90,37105,2,0,P|43:83|82:91,1,63.7500024318696,8|0,3:0|0:0,0:0:0:0:
139,144,37386,1,2,0:0:0:0:
91,223,37526,1,0,0:0:0:0:
128,358,37666,2,0,P|140:316|135:282,1,63.7500024318696,4|0,3:0|0:0,0:0:0:0:
139,144,37947,2,0,P|127:186|132:220,1,63.7500024318696,0|0,1:0|0:0,0:0:0:0:
257,257,38227,6,0,P|225:247|213:247,1,42.5,4|0,3:0|0:0,0:0:0:0:
432,347,38507,6,0,B|451:299|451:299|436:233,1,106.25,6|0,1:2|0:0,0:0:0:0:
331,62,38788,1,2,0:0:0:0:
438,245,38928,1,4,3:0:0:0:
512,127,39068,6,0,B|464:108|464:108|398:123,1,106.25,6|0,1:2|0:0,0:0:0:0:
207,185,39348,1,2,0:0:0:0:
410,120,39489,1,8,3:0:0:0:
306,308,39629,6,0,L|310:257,1,42.5,8|0,1:2|0:0,0:0:0:0:
315,188,39909,2,0,L|319:137,1,42.5,8|0,0:0|0:0,0:0:0:0:
324,68,40190,2,0,L|328:17,2,42.5,2|0|4,3:0|3:0|3:0,0:0:0:0:
324,68,40750,6,0,B|227:48|261:138|141:109,1,170,6|2,1:2|0:0,0:0:0:0:
168,113,41591,1,2,0:0:0:0:
168,113,41872,6,0,P|150:146|148:157,1,42.5,0|0,0:0|0:0,0:0:0:0:
134,232,42152,2,0,P|134:269|138:280,1,42.5,0|0,0:0|0:0,0:0:0:0:
183,340,42433,1,0,1:0:0:0:
183,340,42573,1,0,0:0:0:0:
248,291,42713,2,0,P|273:286|295:288,1,42.5,0|0,0:0|0:0,0:0:0:0:
404,333,42993,5,4,3:0:0:0:
404,333,43274,2,0,L|417:217,2,85,0|2|2,0:0|0:0|0:0,0:0:0:0:
404,333,44115,1,0,0:0:0:0:
404,333,44395,1,0,0:0:0:0:
285,214,44676,1,0,1:0:0:0:
285,214,44956,2,0,P|283:183|285:166,1,42.5,0|0,0:0|0:0,0:0:0:0:
200,72,45236,6,0,P|162:59|110:70,2,85,4|0|2,3:0|0:0|0:0,0:0:0:0:
200,72,46077,1,2,0:0:0:0:
284,171,46358,2,0,P|322:184|374:173,2,85,4|0|0,3:0|0:0|0:0,0:0:0:0:
288,175,47199,1,0,0:0:0:0:
288,175,47339,1,0,0:0:0:0:
65,125,47479,6,0,P|119:102|297:191,1,255,6|0,1:2|0:0,0:0:0:0:
510,223,48040,2,0,P|456:246|278:157,1,255,6|0,1:2|0:0,0:0:0:0:
291,72,48601,6,0,P|303:120|281:181,1,106.25,2|0,1:2|0:0,0:0:0:0:
231,356,48881,2,0,P|219:308|241:247,1,106.25,2|0,1:2|0:0,0:0:0:0:
286,173,49162,6,0,P|299:220|298:227,1,42.5,0|0,3:0|0:0,0:0:0:0:
312,252,49442,2,0,P|299:205|300:198,1,42.5,0|0,3:0|0:0,0:0:0:0:
242,73,49722,6,0,P|175:44|79:82,2,170,6|0|2,1:2|1:0|0:0,0:0:0:0:
319,135,50984,1,0,0:0:0:0:
319,135,51124,2,0,P|354:142|370:140,1,42.5,8|0,3:0|0:0,0:0:0:0:
474,96,51405,2,0,P|439:89|423:91,1,42.5,0|0,1:0|0:0,0:0:0:0:
323,216,51685,1,2,0:0:0:0:
323,216,51825,1,0,0:0:0:0:
64,151,51965,6,0,L|326:134,3,255.000009727478,6|0|2|0,1:2|1:0|0:0|1:0,0:0:0:0:
318,134,54208,5,6,1:2:0:0:
253,174,54348,1,0,0:0:0:0:
179,152,54489,2,0,P|175:112|182:84,1,63.7500024318696,0|0,0:0|0:0,0:0:0:0:
224,27,54769,1,0,1:0:0:0:
253,174,55330,5,2,1:2:0:0:
318,214,55470,1,0,0:0:0:0:
392,192,55611,2,0,P|396:152|389:124,1,63.7500024318696,0|0,0:0|0:0,0:0:0:0:
347,67,55891,1,8,0:0:0:0:
347,67,56031,1,2,1:3:0:0:
345,4,56171,6,0,P|341:44|348:72,1,63.7500024318696,0|0,0:0|0:0,0:0:0:0:
466,177,56451,6,0,P|397:117|175:185,1,255.000009727478,6|0,1:2|3:0,0:0:0:0:
166,193,56872,1,4,3:0:0:0:
473,151,57012,6,0,P|404:91|182:159,1,255.000009727478,6|0,1:2|0:0,0:0:0:0:
166,193,57433,1,4,3:0:0:0:
287,324,57573,6,0,L|294:254,1,42.5,0|0,1:0|0:0,0:0:0:0:
170,150,57853,2,0,L|163:220,1,42.5,8|0,1:2|0:0,0:0:0:0:
346,227,58134,6,0,P|285:205|225:241,1,127.5,0|0,0:0|0:0,0:0:0:0:
232,231,58694,6,0,L|185:225,1,42.5,6|0,1:2|0:0,0:0:0:0:
127,155,58834,2,0,L|174:148,1,42.5,2|0,0:0|0:0,0:0:0:0:
251,86,58975,2,0,L|203:79,1,42.5,2|0,0:0|0:0,0:0:0:0:
145,9,59115,2,0,L|192:2,1,42.5,2|0,0:0|0:0,0:0:0:0:
356,101,59255,6,0,L|232:83,1,106.25,2|0,1:2|0:0,0:0:0:0:
63,164,59535,2,0,L|187:146,1,106.25,0|0,0:0|0:0,0:0:0:0:
449,81,59816,1,4,3:0:0:0:
376,195,59956,1,0,0:0:0:0:
356,101,60096,1,2,0:0:0:0:
469,175,60236,1,0,0:0:0:0:
287,50,60377,2,0,P|317:25|397:28,1,106.25,0|0,1:0|0:0,0:0:0:0:
209,143,60657,6,0,P|187:149|166:148,1,42.5,4|0,3:0|0:0,0:0:0:0:
381,21,60937,6,0,L|371:134,1,106.25,6|0,1:2|0:0,0:0:0:0:
352,328,61218,1,2,0:0:0:0:
352,328,61358,1,0,0:0:0:0:
505,240,61498,2,0,P|459:218|396:235,1,106.25,0|0,1:0|0:0,0:0:0:0:
148,292,61778,2,0,P|194:314|257:297,1,106.25,8|0,3:0|0:0,0:0:0:0:
344,149,62059,6,0,L|337:208,1,42.5,2|0,1:2|0:0,0:0:0:0:
323,312,62339,2,0,L|330:253,1,42.5,4|0,3:0|0:0,0:0:0:0:
358,68,62619,5,2,1:2:0:0:
280,96,62760,1,0,0:0:0:0:
344,149,62900,2,0,P|372:151|388:147,1,42.5,0|0,3:0|0:0,0:0:0:0:
280,96,63180,6,0,L|231:90,1,42.5,6|0,1:2|0:0,0:0:0:0:
200,158,63320,2,0,L|151:164,1,42.5,2|0,0:0|0:0,0:0:0:0:
103,111,63461,2,0,L|54:105,1,42.5,2|0,0:0|0:0,0:0:0:0:
42,179,63601,2,0,L|-7:185,1,42.5,2|0,0:0|0:0,0:0:0:0:
165,61,63741,5,2,1:2:0:0:
165,61,63881,1,0,0:0:0:0:
212,244,64021,1,2,0:0:0:0:
280,96,64162,1,0,0:0:0:0:
425,205,64302,2,0,P|391:216|334:203,1,85,0|0,1:0|0:0,0:0:0:0:
179,91,64582,1,4,3:0:0:0:
179,91,64722,1,0,0:0:0:0:
357,47,64862,6,0,P|317:14|243:13,1,127.5,0|0,1:0|0:0,0:0:0:0:
430,155,65423,6,0,P|475:172|537:162,1,106.25,2|0,1:2|0:0,0:0:0:0:
357,47,65704,1,8,3:0:0:0:
322,227,65844,1,0,0:0:0:0:
214,106,65984,2,0,P|169:89|107:99,1,106.25,0|0,1:0|0:0,0:0:0:0:
1,172,66264,1,2,0:0:0:0:
1,172,66405,1,0,0:0:0:0:
214,106,66545,6,0,L|205:172,1,63.7500024318696,2|0,1:2|0:0,0:0:0:0:
248,247,66825,1,2,0:0:0:0:
331,279,66965,1,2,0:0:0:0:
469,243,67105,6,0,P|439:232|408:234,1,63.7500024318696,0|0,1:0|0:0,0:0:0:0:
248,247,67386,2,0,P|277:257|309:256,1,63.7500024318696,2|0,0:0|0:0,0:0:0:0:
118,91,67666,6,0,B|89:139|89:139|99:217,1,127.500004863739,6|0,1:2|0:0,0:0:0:0:
341,41,67947,2,0,P|321:32|298:29,1,42.5,2|0,0:0|0:0,0:0:0:0:
101,82,68227,6,0,B|72:130|72:130|82:208,1,127.500004863739,2|0,1:2|0:0,0:0:0:0:
349,30,68508,2,0,P|329:21|306:18,1,42.5,2|0,0:0|0:0,0:0:0:0:
86,73,68788,6,0,B|57:121|57:121|67:199,1,127.500004863739,2|0,1:2|0:0,0:0:0:0:
353,22,69069,2,0,P|333:13|310:10,1,42.5,0|0,0:0|0:0,0:0:0:0:
180,27,69348,6,0,P|200:36|223:39,1,42.5,2|0,1:2|0:0,0:0:0:0:
358,13,69629,2,0,P|338:4|315:1,1,42.5,4|0,3:0|0:0,0:0:0:0:
86,73,69909,5,6,1:2:0:0:
86,73,70190,2,0,L|81:119,1,42.5,2|0,0:0|0:0,0:0:0:0:
149,234,70470,2,0,L|159:167,1,63.7500024318696,2|0,1:2|0:0,0:0:0:0:
242,27,70750,2,0,L|245:120,1,85,8|0,3:0|0:0,0:0:0:0:
328,293,71031,2,0,L|336:182,1,106.25,2|0,1:2|0:0,0:0:0:0:
343,77,71311,1,2,0:0:0:0:
347,81,71591,5,0,3:0:0:0:
347,81,71732,1,0,0:0:0:0:
410,89,71872,2,0,L|339:79,1,63.7500024318696,2|0,0:0|0:0,0:0:0:0:
343,77,72152,6,0,L|352:132,1,42.5,6|0,1:2|0:0,0:0:0:0:
430,188,72292,2,0,L|421:243,1,42.5,2|0,0:0|0:0,0:0:0:0:
317,274,72433,2,0,L|326:329,1,42.5,2|0,0:0|0:0,0:0:0:0:
437,343,72573,2,0,L|428:398,1,42.5,2|0,0:0|0:0,0:0:0:0:
317,274,72713,6,0,P|276:256|212:265,1,106.25,2|0,1:2|0:0,0:0:0:0:
42,322,72993,1,2,0:0:0:0:
180,175,73134,1,4,3:0:0:0:
126,381,73274,2,0,L|134:276,1,106.25,8|0,3:0|0:0,0:0:0:0:
45,104,73554,2,0,L|53:209,1,106.25,2|0,0:0|0:0,0:0:0:0:
141,13,73834,1,2,1:2:0:0:
141,13,74115,2,0,P|167:7|187:9,1,42.5,2|0,0:0|0:0,0:0:0:0:
417,91,74395,6,0,P|366:106|293:88,1,106.25,6|0,1:2|0:0,0:0:0:0:
141,13,74676,1,2,0:0:0:0:
314,98,74816,1,4,3:0:0:0:
166,277,74956,6,0,P|151:226|169:153,1,106.25,6|0,1:2|0:0,0:0:0:0:
314,98,75236,1,2,0:0:0:0:
232,352,75377,1,4,3:0:0:0:
55,181,75517,2,0,P|106:166|179:184,1,106.25,6|0,1:2|0:0,0:0:0:0:
339,241,75797,2,0,P|296:254|228:230,1,85,2|0,1:2|0:0,0:0:0:0:
266,86,76077,2,0,P|256:114|255:138,3,42.5,2|0|4|0,1:3|0:0|3:0|0:0,0:0:0:0:
231,344,76638,5,6,1:2:0:0:
231,344,77199,2,0,P|311:300|397:323,2,170,0|0|0,0:0|0:0|0:0,0:0:0:0:
231,344,78601,2,0,L|226:292,1,42.5,0|0,0:0|0:0,0:0:0:0:
173,212,78881,6,0,P|133:202|69:221,2,85,2|0|0,0:0|0:0|0:0,0:0:0:0:
173,212,79722,1,0,0:0:0:0:
266,137,80003,2,0,P|276:97|257:33,2,85,0|0|0,0:0|0:0|0:0,0:0:0:0:
266,137,80704,1,0,0:0:0:0:
339,200,80844,2,0,L|386:187,1,42.5,0|0,0:0|0:0,0:0:0:0:
270,141,81124,6,0,L|223:128,1,42.5,2|0,1:2|0:0,0:0:0:0:
168,199,81405,2,0,L|121:212,1,42.5,0|0,0:0|0:0,0:0:0:0:
45,165,81685,1,0,0:0:0:0:
33,137,81825,1,0,0:0:0:0:
35,107,81965,1,0,0:0:0:0:
49,81,82105,1,0,0:0:0:0:
270,141,82246,6,0,L|223:128,1,42.5,2|0,0:0|0:0,0:0:0:0:
127,210,82526,2,0,L|168:199,1,42.5,0|0,0:0|0:0,0:0:0:0:
254,287,82806,2,0,L|213:275,1,42.5,0|0,0:0|0:0,0:0:0:0:
131,214,83087,1,0,0:0:0:0:
131,214,83227,1,0,0:0:0:0:
278,99,83367,6,0,L|266:160,1,42.5,0|0,3:0|0:0,0:0:0:0:
368,246,83648,2,0,L|356:185,1,42.5,0|0,0:0|0:0,0:0:0:0:
267,93,83928,2,0,L|255:154,1,42.5,0|0,0:0|0:0,0:0:0:0:
378,250,84209,2,0,L|366:189,1,42.5,0|0,0:0|0:0,0:0:0:0:
424,96,84489,5,0,0:0:0:0:
356,132,84629,1,0,0:0:0:0:
369,208,84769,1,0,0:0:0:0:
446,219,84909,1,0,0:0:0:0:
478,150,85049,5,2,1:2:0:0:
369,208,85330,1,0,0:0:0:0:
103,146,85610,6,0,P|151:123|263:152,1,170,6|0,1:2|0:0,0:0:0:0:
256,306,86451,2,0,P|233:258|262:146,1,170,0|0,0:0|0:0,0:0:0:0:
259,149,87152,1,0,0:0:0:0:
353,97,87292,2,0,L|344:147,1,42.5,0|0,1:0|0:0,0:0:0:0:
446,44,87573,1,0,0:0:0:0:
446,44,87713,1,0,0:0:0:0:
345,138,87853,6,0,L|353:97,1,42.5,4|0,3:0|0:0,0:0:0:0:
267,156,88134,1,2,0:0:0:0:
267,156,88274,1,0,0:0:0:0:
188,173,88414,2,0,L|123:158,1,42.5,0|0,1:0|0:0,0:0:0:0:
90,221,88694,2,0,L|25:236,1,42.5,0|0,0:0|0:0,0:0:0:0:
165,343,88975,6,0,L|176:289,1,42.5,4|0,3:0|0:0,0:0:0:0:
90,221,89255,2,0,L|101:167,1,42.5,4|0,3:0|0:0,0:0:0:0:
215,88,89535,1,0,1:0:0:0:
231,4,89676,2,0,L|209:109,1,85,0|0,0:0|0:0,0:0:0:0:
173,301,90096,5,6,1:2:0:0:
177,305,90377,1,0,0:0:0:0:
177,305,90517,1,0,0:0:0:0:
242,239,90657,2,0,L|296:231,1,42.5,0|0,1:0|0:0,0:0:0:0:
349,166,90937,1,2,0:0:0:0:
349,166,91077,1,4,3:0:0:0:
456,239,91218,6,0,L|402:231,1,42.5,2|0,0:0|0:0,0:0:0:0:
349,166,91498,2,0,L|357:112,1,42.5,0|0,0:0|0:0,0:0:0:0:
419,39,91778,5,2,1:2:0:0:
450,33,91919,1,0,0:0:0:0:
481,42,92059,1,2,0:0:0:0:
507,60,92199,1,0,0:0:0:0:
456,239,92339,6,0,L|283:212,1,170,6|0,1:2|0:0,0:0:0:0:
288,212,92760,1,4,3:0:0:0:
51,156,92900,6,0,L|224:129,1,170,6|0,1:2|0:0,0:0:0:0:
218,129,93320,1,4,3:0:0:0:
279,276,93461,6,0,L|288:206,1,63.7500024318696,0|0,1:0|0:0,0:0:0:0:
227,66,93741,2,0,L|218:136,1,63.7500024318696,0|0,1:0|0:0,0:0:0:0:
370,109,94021,2,0,P|345:103|314:108,2,42.5,0|0|4,3:0|3:0|3:0,0:0:0:0:
370,109,94582,6,0,L|350:284,1,170,6|2,1:2|0:0,0:0:0:0:
350,277,95423,1,2,0:0:0:0:
261,207,95704,2,0,P|222:197|175:210,1,85,0|0,0:0|0:0,0:0:0:0:
179,207,96264,2,0,L|170:148,2,42.5,0|0|0,1:0|0:0|0:0,0:0:0:0:
179,207,96685,1,0,0:0:0:0:
91,133,96825,6,0,L|267:112,1,170,4|2,3:0|0:0,0:0:0:0:
259,112,97666,1,2,0:0:0:0:
259,112,97947,1,0,0:0:0:0:
361,73,98227,2,0,P|368:38|358:-12,2,85,0|0|0,0:0|1:0|0:0,0:0:0:0:
361,73,98928,1,0,0:0:0:0:
410,153,99068,6,0,P|369:116|230:129,1,170,4|2,3:0|0:0,0:0:0:0:
258,111,99909,1,2,0:0:0:0:
106,69,100190,2,0,P|147:106|286:93,1,170,4|0,3:0|0:0,0:0:0:0:
257,110,101031,2,0,L|245:174,1,42.5,0|0,0:0|0:0,0:0:0:0:
480,139,101311,6,0,P|374:99|232:171,1,255,6|0,1:2|0:0,0:0:0:0:
17,162,101872,2,0,P|123:202|265:130,1,255,6|0,1:2|0:0,0:0:0:0:
340,101,102433,6,0,P|290:119|247:150,1,106.25,2|0,1:2|0:0,0:0:0:0:
445,105,102713,2,0,P|392:95|340:100,1,106.25,2|0,1:2|0:0,0:0:0:0:
247,150,102993,6,0,P|239:178|240:195,1,42.5,0|0,3:0|0:0,0:0:0:0:
295,278,103274,2,0,P|303:250|302:233,1,42.5,0|0,3:0|0:0,0:0:0:0:
383,341,103554,6,0,P|348:316|215:330,2,170,6|0|2,1:2|1:0|0:0,0:0:0:0:
383,341,104816,1,0,0:0:0:0:
459,293,104956,2,0,L|464:237,1,42.5,8|0,3:0|0:0,0:0:0:0:
407,133,105236,2,0,L|402:189,1,42.5,0|0,1:0|0:0,0:0:0:0:
332,245,105517,1,2,0:0:0:0:
332,245,105657,1,0,0:0:0:0:
205,264,105797,6,0,L|337:244,1,127.5,6|0,1:2|0:0,0:0:0:0:
133,179,106358,2,0,L|7:157,1,127.5,0|0,1:0|0:0,0:0:0:0:
246,65,106919,2,0,L|233:148,1,85,2|0,0:0|0:0,0:0:0:0:
133,179,107199,2,0,L|146:262,1,85,0|0,0:0|0:0,0:0:0:0:
213,343,107479,2,0,B|289:321|271:386|358:357,1,127.5,0|0,1:0|0:0,0:0:0:0:
431,305,108040,6,0,L|439:217,1,85,6|0,1:2|0:0,0:0:0:0:
359,115,108320,2,0,L|353:173,1,42.5,0|0,0:0|0:0,0:0:0:0:
334,363,108601,1,0,1:0:0:0:
81,305,109162,6,0,L|73:217,1,85,2|0,1:2|0:0,0:0:0:0:
153,115,109442,2,0,L|158:173,1,42.5
179,369,109722,1,8,0:0:0:0:
179,369,109862,1,2,1:3:0:0:
179,369,110003,2,0,L|176:327,1,42.5
333,292,110283,6,0,P|258:308|57:155,1,255.000009727478,6|0,1:2|0:0,0:0:0:0:
250,137,110704,1,4,3:0:0:0:
332,318,110844,6,0,P|257:334|56:181,1,255.000009727478,6|0,1:2|0:0,0:0:0:0:
259,116,111264,1,4,3:0:0:0:
103,21,111405,6,0,L|94:87,1,42.5,0|0,1:0|0:0,0:0:0:0:
253,158,111685,2,0,L|262:92,1,42.5,8|0,1:2|0:0,0:0:0:0:
27,105,111965,6,0,P|78:142|149:125,1,127.5,0|0,0:0|0:0,0:0:0:0:
138,132,112526,6,0,P|170:124|182:124,1,42.5,6|0,1:2|0:0,0:0:0:0:
252,157,112666,2,0,P|273:155|294:149,1,42.5,2|0,0:0|0:0,0:0:0:0:
131,121,112806,2,0,P|150:114|172:112,1,42.5,2|0,0:0|0:0,0:0:0:0:
258,168,112947,2,0,P|279:166|300:160,1,42.5,2|0,0:0|0:0,0:0:0:0:
447,49,113087,6,0,L|428:198,1,106.25,2|0,1:2|0:0,0:0:0:0:
406,347,113367,1,0,0:0:0:0:
406,347,113507,1,0,0:0:0:0:
195,258,113648,2,0,P|252:241|307:250,1,106.25,4|0,3:0|0:0,0:0:0:0:
406,347,113928,1,2,0:0:0:0:
406,347,114068,1,0,0:0:0:0:
433,154,114208,1,0,1:0:0:0:
433,154,114489,6,0,L|426:206,1,42.5,4|0,3:0|0:0,0:0:0:0:
270,103,114769,6,0,P|258:49|274:-6,1,106.25,6|0,1:2|0:0,0:0:0:0:
270,0,115049,1,2,0:0:0:0:
328,200,115190,1,0,0:0:0:0:
485,84,115330,2,0,P|433:71|382:83,1,106.25,0|0,1:0|0:0,0:0:0:0:
119,192,115610,2,0,P|170:204|221:192,1,106.25,8|0,3:0|0:0,0:0:0:0:
383,84,115891,6,0,P|359:95|345:108,1,42.5,2|0,1:2|0:0,0:0:0:0:
221,192,116171,2,0,P|245:181|259:168,1,42.5,4|0,3:0|0:0,0:0:0:0:
319,33,116451,1,2,1:2:0:0:
270,93,116591,1,0,0:0:0:0:
347,105,116732,2,0,P|371:94|385:81,1,42.5,0|0,3:0|0:0,0:0:0:0:
382,83,117012,6,0,L|376:144,1,42.5,6|0,1:2|0:0,0:0:0:0:
332,209,117152,2,0,L|338:269,1,42.5,2|0,0:0|0:0,0:0:0:0:
393,76,117292,2,0,L|386:136,1,42.5,2|0,0:0|0:0,0:0:0:0:
323,205,117433,2,0,L|329:265,1,42.5,2|0,0:0|0:0,0:0:0:0:
137,319,117573,6,0,L|242:306,1,106.25,2|0,1:2|0:0,0:0:0:0:
341,371,117853,1,0,0:0:0:0:
341,371,117993,1,2,0:0:0:0:
387,262,118134,6,0,L|315:253,1,42.5,0|0,1:0|0:0,0:0:0:0:
247,310,118414,1,4,3:0:0:0:
247,310,118554,1,0,0:0:0:0:
222,88,118694,2,0,P|252:127|258:215,1,127.5,0|0,1:0|0:0,0:0:0:0:
160,219,119255,6,0,P|220:197|276:209,1,106.25,2|0,1:2|0:0,0:0:0:0:
428,275,119535,1,8,3:0:0:0:
260,202,119676,1,0,0:0:0:0:
367,11,119816,2,0,P|389:71|377:127,1,106.25,0|0,1:0|0:0,0:0:0:0:
300,311,120096,1,2,0:0:0:0:
300,311,120236,1,0,0:0:0:0:
470,191,120377,6,0,P|417:186|369:207,1,106.25,2|0,1:2|0:0,0:0:0:0:
300,311,120657,1,2,0:0:0:0:
300,311,120797,1,2,0:0:0:0:
160,148,120937,6,0,P|196:134|214:134,1,42.5,0|0,1:0|0:0,0:0:0:0:
246,199,121218,2,0,P|210:213|192:213,1,42.5,2|0,0:0|0:0,0:0:0:0:
65,42,121498,6,0,L|51:189,1,127.500004863739,6|0,1:2|0:0,0:0:0:0:
260,206,121778,2,0,P|224:220|206:220,1,42.5,2|0,0:0|0:0,0:0:0:0:
51,32,122059,6,0,L|37:179,1,127.500004863739,2|0,1:2|0:0,0:0:0:0:
270,212,122339,2,0,P|234:226|216:226,1,42.5,2|0,0:0|0:0,0:0:0:0:
38,23,122619,6,0,L|24:170,1,127.500004863739,2|0,1:2|0:0,0:0:0:0:
279,218,122900,2,0,P|243:232|225:232,1,42.5
107,256,123180,6,0,P|143:242|161:242,1,42.5,2|0,1:2|0:0,0:0:0:0:
289,225,123461,2,0,P|253:239|235:239,1,42.5,4|0,3:0|0:0,0:0:0:0:
25,149,123741,5,6,1:2:0:0:
25,149,124021,6,0,L|20:195,1,42.5,2|0,0:0|0:0,0:0:0:0:
88,310,124302,2,0,L|98:243,1,63.7500024318696,2|0,1:2|0:0,0:0:0:0:
181,103,124582,2,0,L|184:196,1,85,8|0,3:0|0:0,0:0:0:0:
267,369,124862,2,0,L|275:258,1,106.25,2|0,1:2|0:0,0:0:0:0:
282,153,125142,1,2,0:0:0:0:
286,157,125423,5,0,3:0:0:0:
286,157,125563,1,0,0:0:0:0:
222,163,125704,2,0,L|309:154,1,63.7500024318696,2|0,0:0|0:0,0:0:0:0:
282,153,125984,6,0,L|275:225,1,42.5,6|0,1:2|0:0,0:0:0:0:
203,302,126124,2,0,L|210:230,1,42.5,2|0,0:0|0:0,0:0:0:0:
293,153,126264,2,0,L|286:225,1,42.5,2|0,0:0|0:0,0:0:0:0:
193,306,126405,2,0,L|200:234,1,42.5,2|0,0:0|0:0,0:0:0:0:
374,111,126545,6,0,L|360:239,1,106.25,2|0,1:2|0:0,0:0:0:0:
269,384,126825,2,0,L|283:256,1,106.25,2|4,0:0|3:0,0:0:0:0:
196,136,127105,2,0,P|151:121|69:144,1,106.25,8|0,3:0|0:0,0:0:0:0:
280,278,127386,1,2,0:0:0:0:
329,56,127526,1,0,0:0:0:0:
508,187,127666,2,0,P|456:195|405:180,1,106.25,2|0,1:2|0:0,0:0:0:0:
196,136,127947,6,0,P|229:126|269:131,1,63.7500024318696,2|0,0:0|0:0,0:0:0:0:
399,302,128227,6,0,B|420:248|420:248|404:176,1,127.500004863739,6|0,1:2|0:0,0:0:0:0:
329,56,128507,1,2,0:0:0:0:
124,191,128648,1,4,3:0:0:0:
412,315,128788,6,0,B|433:261|433:261|417:189,1,127.500004863739,6|0,1:2|0:0,0:0:0:0:
321,45,129068,1,2,0:0:0:0:
116,180,129209,1,4,3:0:0:0:
314,35,129348,6,0,L|300:146,1,106.25,6|0,1:2|0:0,0:0:0:0:
205,312,129629,2,0,L|219:201,1,63.7500024318696,2|0,1:2|0:0,0:0:0:0:
73,181,129909,2,0,P|104:178|120:180,2,42.5,2|0|4,1:3|0:0|3:0,0:0:0:0:
73,181,130330,1,0,0:0:0:0:
116,364,130470,5,6,1:2:0:0:
352,256,137059,5,2,0:0:0:0:
352,256,137199,6,0,P|236:209|317:331,1,318.75,6|0,1:2|0:0,0:0:0:0:
393,175,137760,6,0,P|324:129|136:295,1,382.500014591218,6|0,1:2|0:0,0:0:0:0:
434,109,138320,6,0,P|352:59|142:93,1,318.75,6|0,1:2|0:0,0:0:0:0:
10,167,138881,6,0,P|25:125|25:101,1,63.7500024318696,2|0,0:0|0:0,0:0:0:0:
40,45,139162,2,0,P|25:87|25:111,1,63.7500024318696,0|0,0:0|0:0,0:0:0:0:
133,224,139442,6,0,L|266:205,1,127.5,6|0,1:2|0:0,0:0:0:0:
259,205,140003,1,0,1:0:0:0:
377,198,140283,6,0,P|344:206|332:217,1,42.5,0|0,0:0|0:0,0:0:0:0:
250,290,140563,2,0,P|282:281|294:270,1,42.5,2|0,0:0|0:0,0:0:0:0:
245,166,140844,2,0,P|253:198|264:210,1,42.5,2|0,0:0|0:0,0:0:0:0:
288,276,141124,5,2,0:0:0:0:
338,211,141264,1,0,1:0:0:0:
258,204,141405,2,0,P|237:217|223:233,1,42.5,2|0,3:0|0:0,0:0:0:0:
139,282,141685,6,0,P|163:259|295:285,1,170,6|0,1:2|1:0,0:0:0:0:
287,275,142526,2,0,P|325:285|331:285,1,42.5,2|0,0:0|0:0,0:0:0:0:
402,235,142806,6,0,P|412:201|406:160,1,63.7500024318696,2|0,0:0|0:0,0:0:0:0:
367,100,143087,2,0,P|333:90|292:96,1,63.7500024318696,2|0,0:0|0:0,0:0:0:0:
413,240,143367,6,0,P|423:206|417:165,1,63.7500024318696,0|0,1:0|0:0,0:0:0:0:
370,87,143648,2,0,P|336:77|295:83,1,63.7500024318696,2|0,0:0|0:0,0:0:0:0:
126,155,143928,6,0,L|194:149,1,63.7500024318696,4|0,3:0|0:0,0:0:0:0:
308,79,144208,2,0,L|240:73,1,63.7500024318696,8|0,3:0|0:0,0:0:0:0:
124,166,144489,2,0,L|172:163,1,42.5,0|0,1:0|0:0,0:0:0:0:
234,242,144769,5,2,0:0:0:0:
234,242,144909,1,4,3:0:0:0:
205,335,145049,6,0,L|273:329,1,63.7500024318696,2|0,0:0|0:0,0:0:0:0:
387,259,145329,2,0,L|319:253,1,63.7500024318696,2|0,0:0|0:0,0:0:0:0:
268,329,145610,1,2,0:0:0:0:
323,253,145750,1,0,1:0:0:0:
234,242,145891,2,0,P|211:252|193:273,1,42.5,2|0,3:0|0:0,0:0:0:0:
434,79,146171,6,0,L|397:340,1,255.000009727478,6|0,1:2|0:0,0:0:0:0:
398,331,146591,1,4,3:0:0:0:
353,0,146732,6,0,L|316:261,1,255.000009727478,6|0,1:2|0:0,0:0:0:0:
317,252,147152,1,4,3:0:0:0:
160,146,147292,6,0,P|192:139|224:146,1,63.7500024318696,0|0,1:0|0:0,0:0:0:0:
378,251,147573,2,0,P|346:258|314:251,1,63.7500024318696,0|0,1:0|0:0,0:0:0:0:
155,134,147853,6,0,P|184:126|219:130,1,63.75
316,251,148414,5,6,1:2:0:0:
217,129,148554,1,0,0:0:0:0:
316,7,148694,2,0,P|362:-2|425:11,1,106.25,2|0,0:0|0:0,0:0:0:0:
217,129,148975,2,0,B|165:140|165:140|108:125,1,106.25,0|0,1:0|0:0,0:0:0:0:
1,47,149255,1,2,0:0:0:0:
173,4,149395,1,4,3:0:0:0:
113,188,149535,6,0,P|107:159|115:120,1,63.7500024318696,12|0,3:0|0:0,0:0:0:0:
173,4,149816,2,0,P|179:33|171:72,1,63.7500024318696,2|0,0:0|0:0,0:0:0:0:
35,163,150096,6,0,L|-28:153,1,63.7500024318696,0|0,1:0|0:0,0:0:0:0:
176,178,150377,2,0,L|113:188,1,63.7500024318696,8|0,3:0|0:0,0:0:0:0:
254,135,150657,5,6,1:2:0:0:
65,85,150797,1,2,0:0:0:0:
254,135,150937,1,2,0:0:0:0:
113,187,151077,1,2,0:0:0:0:
324,92,151218,2,0,P|335:130|331:155,1,63.7500024318696,2|0,1:2|0:0,0:0:0:0:
280,309,151498,5,2,0:0:0:0:
331,153,151638,1,0,3:0:0:0:
368,353,151778,1,12,3:0:0:0:
346,231,151919,1,2,0:0:0:0:
501,273,152059,2,0,P|469:284|438:280,1,63.7500024318696,2|0,0:0|0:0,0:0:0:0:
225,206,152339,2,0,P|246:202|268:205,2,42.5,0|0|0,1:0|3:0|3:0,0:0:0:0:
225,206,152900,5,6,1:2:0:0:
173,382,153040,1,0,0:0:0:0:
20,272,153180,2,0,P|74:258|130:271,1,106.25,2|0,0:0|0:0,0:0:0:0:
306,249,153461,2,0,P|315:197|302:147,1,106.25,0|0,1:0|0:0,0:0:0:0:
236,55,153741,1,2,0:0:0:0:
306,249,153881,1,4,3:0:0:0:
450,148,154021,6,0,P|416:141|379:150,1,63.7500024318696,12|0,3:0|0:0,0:0:0:0:
243,247,154302,2,0,P|277:254|314:245,1,63.7500024318696,2|0,0:0|0:0,0:0:0:0:
454,138,154582,6,0,P|420:131|383:140,1,63.7500024318696,0|0,1:0|0:0,0:0:0:0:
241,259,154862,2,0,P|275:266|312:257,1,63.7500024318696,2|0,0:0|0:0,0:0:0:0:
454,138,155143,5,6,1:2:0:0:
303,260,155283,1,2,0:0:0:0:
454,138,155423,1,2,0:0:0:0:
272,180,155563,1,2,0:0:0:0:
396,346,155704,2,0,P|406:308|402:281,1,63.7500024318696,2|0,1:2|0:0,0:0:0:0:
308,106,155984,5,2,0:0:0:0:
402,284,156124,1,4,3:0:0:0:
441,47,156264,1,12,3:0:0:0:
416,207,156405,1,2,0:0:0:0:
255,44,156545,6,0,P|291:28|328:28,1,63.7500024318696,2|0,0:0|0:0,0:0:0:0:
494,110,156825,2,0,P|458:126|421:126,1,63.7500024318696,2|0,1:2|0:0,0:0:0:0:
247,35,157105,2,0,P|283:19|320:19,1,63.7500024318696,2|0,0:0|0:0,0:0:0:0:
164,295,157386,6,0,P|119:219|264:237,1,318.75,6|0,1:2|0:0,0:0:0:0:
56,287,157947,2,0,P|42:227|53:175,1,106.25,2|0,1:2|0:0,0:0:0:0:
141,79,158227,1,2,0:0:0:0:
105,360,158367,1,4,3:0:0:0:
264,230,158507,2,0,P|233:222|201:227,1,63.7500024318696,12|0,3:0|0:0,0:0:0:0:
363,326,158788,2,0,P|417:339|471:328,1,106.25,2|0,0:0|0:0,0:0:0:0:
201,227,159068,1,2,1:2:0:0:
197,184,159348,6,0,L|202:251,1,42.5,8|0,3:0|0:0,0:0:0:0:
307,53,159629,5,6,1:2:0:0:
201,227,159769,1,2,0:0:0:0:
111,112,159909,1,2,0:0:0:0:
201,227,160049,1,2,0:0:0:0:
380,157,160190,2,0,P|352:144|310:147,1,63.7500024318696,2|0,1:2|0:0,0:0:0:0:
135,278,160470,5,2,0:0:0:0:
319,144,160610,1,4,3:0:0:0:
249,376,160750,1,12,3:0:0:0:
295,222,160891,1,2,0:0:0:0:
135,278,161031,2,0,P|163:291|205:288,1,63.7500024318696,2|0,0:0|0:0,0:0:0:0:
335,229,161311,6,0,P|304:220|288:224,2,42.5,0|0|0,1:0|3:0|3:0,0:0:0:0:
335,229,161732,1,2,0:0:0:0:
374,83,161872,6,0,P|419:159|274:141,1,318.75,6|0,1:2|0:0,0:0:0:0:
482,91,162433,2,0,P|496:151|485:203,1,106.25,2|0,1:2|0:0,0:0:0:0:
435,292,162713,1,2,0:0:0:0:
431,20,162853,1,4,3:0:0:0:
198,160,162993,1,12,3:0:0:0:
431,20,163134,1,2,3:2:0:0:
294,326,163274,2,0,P|279:279|297:208,1,106.25,2|0,0:0|0:0,0:0:0:0:
364,65,163554,6,0,P|371:96|367:128,1,63.7500024318696,2|0,1:2|0:0,0:0:0:0:
288,223,163834,2,0,P|284:198|290:171,1,42.5,2|0,0:0|0:0,0:0:0:0:
428,336,164115,6,0,L|75:310,1,255.000009727478,6|0,1:2|0:0,0:0:0:0:
173,317,164535,1,4,3:0:0:0:
482,259,164676,6,0,L|129:233,1,255.000009727478,6|0,1:2|0:0,0:0:0:0:
227,240,165096,1,4,3:0:0:0:
477,180,165236,6,0,L|336:170,1,127.500004863739,14|0,1:2|0:0,0:0:0:0:
139,155,165517,2,0,L|280:165,1,127.500004863739,2|0,1:2|0:0,0:0:0:0:
398,97,165797,6,0,L|341:94,1,42.5,0|0,3:0|0:0,0:0:0:0:
227,88,166077,2,0,L|284:91,1,42.5,0|0,3:0|0:0,0:0:0:0:
74,305,166358,6,0,B|53:244|53:244|72:178,1,127.500004863739,4|0,0:0|0:0,0:0:0:0:
227,88,166638,1,2,0:0:0:0:
74,305,166778,1,4,3:0:0:0:
9,114,166919,6,0,B|70:93|70:93|136:112,1,127.500004863739,4|0,0:0|0:0,0:0:0:0:
324,216,167199,1,0,0:0:0:0:
9,114,167339,1,4,3:0:0:0:
253,13,167479,6,0,L|233:143,1,127.500004863739,0|0,1:0|0:0,0:0:0:0:
200,351,167760,2,0,L|220:225,1,127.500004863739,0|0,1:0|0:0,0:0:0:0:
240,97,168040,6,0,L|233:139,1,42.5,2|0,0:0|0:0,0:0:0:0:
213,267,168320,2,0,L|220:225,1,42.5,2|0,0:0|0:0,0:0:0:0:
388,175,168601,5,6,1:2:0:0:
370,178,168741,1,0,0:0:0:0:
353,181,168881,1,2,0:0:0:0:
336,184,169021,1,0,0:0:0:0:
318,186,169162,2,0,P|317:152|319:139,1,42.5,2|0,0:0|0:0,0:0:0:0:
318,101,169442,2,0,P|319:135|317:148,1,42.5,0|0,0:0|0:0,0:0:0:0:
276,301,169722,1,2,0:0:0:0:
276,301,170563,6,0,P|278:267|275:245,1,42.5,0|0,0:0|0:0,0:0:0:0:
118,196,170844,6,0,L|238:184,1,85,12|0,3:0|0:0,0:0:0:0:
202,187,171264,1,0,0:0:0:0:
281,124,171405,6,0,P|283:90|280:68,1,42.5,2|0,0:0|0:0,0:0:0:0:
283,39,171685,2,0,P|281:73|284:95,1,42.5,0|0,0:0|0:0,0:0:0:0:
371,239,171965,1,2,0:0:0:0:
371,239,172246,6,0,L|427:232,1,42.5,2|0,0:0|0:0,0:0:0:0:
487,166,172526,2,0,L|431:159,1,42.5,2|0,0:0|0:0,0:0:0:0:
358,98,172806,2,0,L|414:91,1,42.5,2|0,0:0|0:0,0:0:0:0:
301,152,173087,5,12,3:0:0:0:
234,124,173227,1,0,0:0:0:0:
166,148,173367,1,2,0:0:0:0:
119,203,173507,1,0,0:0:0:0:
12,225,173648,6,0,P|48:234|64:231,1,42.5,2|0,0:0|0:0,0:0:0:0:
123,207,173928,1,0,0:0:0:0:
123,207,174068,1,4,3:0:0:0:
105,325,174208,6,0,P|114:289|111:273,1,42.5,2|0,0:0|0:0,0:0:0:0:
119,203,174489,1,2,0:0:0:0:
119,203,174629,1,0,0:0:0:0:
48,39,174769,6,0,P|39:75|42:91,1,42.5,0|0,1:0|0:0,0:0:0:0:
119,203,175049,2,0,P|128:167|125:151,1,42.5,4|0,3:0|0:0,0:0:0:0:
323,86,175330,6,0,L|210:76,1,85,12|0,3:0|0:0,0:0:0:0:
238,78,175750,1,0,0:0:0:0:
383,167,175891,6,0,L|496:157,1,85,0|0,1:0|0:0,0:0:0:0:
467,159,176311,1,2,0:0:0:0:
267,326,176451,6,0,L|257:237,1,85,2|0,1:2|0:0,0:0:0:0:
238,78,176732,2,0,L|248:167,1,85,0|0,1:0|0:0,0:0:0:0:
139,207,177012,6,0,P|175:213|192:209,1,42.5,2|0,0:0|0:0,0:0:0:0:
289,167,177292,2,0,P|253:161|236:165,1,42.5,2|0,0:0|0:0,0:0:0:0:
411,316,177573,6,0,B|408:258|408:258|426:223|426:223|424:168,1,148.750001418591,6|0,1:2|0:0,0:0:0:0:
247,161,177853,2,0,P|283:167|300:163,1,42.5,2|0,0:0|0:0,0:0:0:0:
437,27,178134,6,0,B|440:85|440:85|422:120|422:120|424:175,1,148.750001418591,6|0,1:2|0:0,0:0:0:0:
285,281,178414,2,0,P|249:287|232:283,1,42.5,2|0,0:0|0:0,0:0:0:0:
101,68,178694,6,0,B|104:126|104:126|86:161|86:161|88:216,1,148.750001418591,6|0,1:2|0:0,0:0:0:0:
243,286,178975,2,0,P|264:286|285:281,1,42.5,2|0,0:0|0:0,0:0:0:0:
326,275,179255,6,0,P|304:274|284:280,1,42.5,2|0,1:2|0:0,0:0:0:0:
176,362,179535,2,0,P|197:362|217:356,1,42.5,8|0,3:0|0:0,0:0:0:0:
451,193,179816,5,6,1:2:0:0:
451,193,180096,6,0,L|388:178,1,42.5,2|0,0:0|0:0,0:0:0:0:
248,156,180377,2,0,L|311:141,1,63.7500024318696,2|0,1:2|0:0,0:0:0:0:
490,109,180657,2,0,L|390:85,1,85,2|0,0:0|0:0,0:0:0:0:
208,68,180937,2,0,L|316:42,1,106.25,12|0,3:0|0:0,0:0:0:0:
512,207,181218,2,0,L|403:181,1,106.25,2|0,0:0|0:0,0:0:0:0:
326,136,181498,5,2,1:2:0:0:
407,89,181638,1,0,0:0:0:0:
408,182,181778,1,2,3:2:0:0:
408,182,182059,6,0,B|429:251|429:251|408:330,1,148.750001418591,6|0,1:2|0:0,0:0:0:0:
176,229,182339,2,0,P|210:221|229:223,1,42.5,2|0,0:0|0:0,0:0:0:0:
428,180,182619,6,0,B|449:249|449:249|428:328,1,148.750001418591,6|0,1:2|0:0,0:0:0:0:
172,218,182900,2,0,P|206:210|225:212,1,42.5,2|0,2:0|0:0,0:0:0:0:
448,176,183180,6,0,B|469:245|469:245|448:324,1,148.750001418591,6|0,1:2|0:0,0:0:0:0:
169,208,183461,2,0,P|203:200|222:202,1,42.5,2|0,0:0|0:0,0:0:0:0:
251,192,183741,6,0,P|217:200|198:198,1,42.5,2|0,1:2|0:0,0:0:0:0:
68,133,184021,2,0,P|102:125|121:127,1,42.5,2|0,0:0|0:0,0:0:0:0:
265,361,184302,6,0,L|296:100,1,255.000009727478,6|0,1:2|0:0,0:0:0:0:
295,107,184722,1,4,3:0:0:0:
180,261,184862,6,0,L|211:8,1,255.000009727478,6|0,1:2|0:0,0:0:0:0:
180,261,185282,1,4,3:0:0:0:
400,121,185423,6,0,L|258:103,1,106.25,6|0,1:2|0:0,0:0:0:0:
74,274,185704,2,0,L|214:256,1,106.25,0|0,1:0|0:0,0:0:0:0:
21,143,185984,6,0,P|14:164|12:189,2,42.5,2|0|4,3:0|3:0|3:0,0:0:0:0:
21,143,186545,5,6,0:0:0:0:
97,102,186685,1,0,0:0:0:0:
170,139,186825,1,2,0:0:0:0:
205,125,186965,1,0,0:0:0:0:
313,172,187105,1,2,0:0:0:0:
317,176,187386,5,2,0:0:0:0:
317,176,187526,1,2,3:2:0:0:
