osu file format v14

[General]
AudioFilename: audio.mp3
AudioLeadIn: 0
PreviewTime: 169337
Countdown: 0
SampleSet: Normal
StackLeniency: 0.7
Mode: 0
LetterboxInBreaks: 0
WidescreenStoryboard: 1

[Editor]
Bookmarks: 7807,7841,8355,9427,10498,11570,12105,12641,13712,14784,16391,16927,24962,33534,37820,42105,46659,47195,47730,50677,57105,58177,59248,66748,76391,84962,92462,93534,103177,110677,115498,115766,117373,118445,119248,127820,135855,140677,143891,144962,152462,161570,162105,170677,178177,179248,186748,187820,195320,196391,203891,204962
DistanceSpacing: 0.8
BeatDivisor: 8
GridSize: 32
TimelineZoom: 2.2

[Metadata]
Title:I Love You
TitleUnicode:알러뷰
Artist:EXID
ArtistUnicode:EXID
Creator:Everything Dust
Version:Solji
Source:
Tags:Hyelin 5XID Jeonghwa Hani LE 솔지 엘리 하니 혜린 정화
BeatmapID:1859270
BeatmapSetID:889559

[Difficulty]
HPDrainRate:5
CircleSize:3.5
OverallDifficulty:6
ApproachRate:9.4
SliderMultiplier:3.49999990463257
SliderTickRate:2

[Events]
//Background and Video events
Video,0,"I Love IU.mp4"
0,0,"I Love You.png",0,0
//Break Periods
2,162706,178708
//Storyboard Layer 0 (Background)
//Storyboard Layer 1 (Fail)
//Storyboard Layer 2 (Pass)
//Storyboard Layer 3 (Foreground)
//Storyboard Sound Samples

[TimingPoints]
7820,535.714285714286,4,1,1,100,1,0
24962,-100,4,1,1,100,0,0
26034,-100,4,1,1,10,0,0
26168,-100,4,1,1,100,0,0
30320,-100,4,1,1,10,0,0
30453,-100,4,1,1,100,0,0
33534,-100,4,1,1,100,0,0
34605,-100,4,1,1,10,0,0
34739,-100,4,1,1,100,0,0
37820,-100,4,1,1,100,0,0
39293,-100,4,1,1,10,0,0
39427,-100,4,1,1,100,0,0
42105,-100,4,1,1,100,0,0
58177,-66.6666666666667,4,1,1,100,0,0
58378,-66.6666666666667,4,1,1,10,0,0
58445,-66.6666666666667,4,1,1,100,0,0
58646,-66.6666666666667,4,1,1,10,0,0
58713,-66.6666666666667,4,1,1,100,0,0
58914,-66.6666666666667,4,1,1,10,0,0
58981,-66.6666666666667,4,1,1,100,0,0
59182,-66.6666666666667,4,1,1,10,0,0
59248,-66.6666666666667,4,1,1,100,0,1
59449,-66.6666666666667,4,1,1,10,0,1
59516,-66.6666666666667,4,1,1,100,0,1
59717,-66.6666666666667,4,1,1,10,0,1
59784,-66.6666666666667,4,1,1,100,0,1
59985,-66.6666666666667,4,1,1,10,0,1
60052,-66.6666666666667,4,1,1,100,0,1
60521,-66.6666666666667,4,1,1,10,0,1
60588,-66.6666666666667,4,1,1,100,0,1
60789,-66.6666666666667,4,1,1,10,0,1
60856,-66.6666666666667,4,1,1,100,0,1
61057,-66.6666666666667,4,1,1,10,0,1
61123,-66.6666666666667,4,1,1,100,0,1
61592,-66.6666666666667,4,1,1,10,0,1
61659,-66.6666666666667,4,1,1,100,0,1
61860,-66.6666666666667,4,1,1,10,0,1
61927,-66.6666666666667,4,1,1,100,0,1
62128,-66.6666666666667,4,1,1,10,0,1
62195,-66.6666666666667,4,1,1,100,0,1
62664,-66.6666666666667,4,1,1,10,0,1
62731,-66.6666666666667,4,1,1,100,0,1
62932,-66.6666666666667,4,1,1,10,0,1
62998,-66.6666666666667,4,1,1,100,0,1
63199,-66.6666666666667,4,1,1,10,0,1
63266,-66.6666666666667,4,1,1,100,0,1
63936,-66.6666666666667,4,1,1,10,0,1
64070,-66.6666666666667,4,1,1,100,0,1
64338,-66.6666666666667,4,1,1,100,0,1
64539,-66.6666666666667,4,1,1,10,0,1
64606,-66.6666666666667,4,1,1,100,0,1
64807,-66.6666666666667,4,1,1,10,0,1
64873,-66.6666666666667,4,1,1,100,0,1
65074,-66.6666666666667,4,1,1,10,0,1
65141,-66.6666666666667,4,1,1,100,0,1
65342,-66.6666666666667,4,1,1,10,0,1
65409,-66.6666666666667,4,1,1,100,0,1
65878,-66.6666666666667,4,1,1,10,0,1
65945,-66.6666666666667,4,1,1,100,0,1
66146,-66.6666666666667,4,1,1,10,0,1
66213,-66.6666666666667,4,1,1,100,0,1
66681,-66.6666666666667,4,1,1,10,0,1
66748,-66.6666666666667,4,1,1,100,0,1
66949,-66.6666666666667,4,1,1,10,0,1
67016,-66.6666666666667,4,1,1,100,0,1
67217,-66.6666666666667,4,1,1,10,0,1
67284,-66.6666666666667,4,1,1,100,0,1
67485,-66.6666666666667,4,1,1,10,0,1
67552,-66.6666666666667,4,1,1,100,0,1
68021,-66.6666666666667,4,1,1,10,0,1
68088,-66.6666666666667,4,1,1,100,0,1
68289,-66.6666666666667,4,1,1,10,0,1
68356,-66.6666666666667,4,1,1,100,0,1
68557,-66.6666666666667,4,1,1,10,0,1
68623,-66.6666666666667,4,1,1,100,0,1
69092,-66.6666666666667,4,1,1,10,0,1
69159,-66.6666666666667,4,1,1,100,0,1
69360,-66.6666666666667,4,1,1,10,0,1
69427,-66.6666666666667,4,1,1,100,0,1
69628,-66.6666666666667,4,1,1,10,0,1
69695,-66.6666666666667,4,1,1,100,0,1
70164,-66.6666666666667,4,1,1,10,0,1
70231,-66.6666666666667,4,1,1,100,0,1
70432,-66.6666666666667,4,1,1,10,0,1
70498,-66.6666666666667,4,1,1,100,0,1
70699,-66.6666666666667,4,1,1,10,0,1
70766,-66.6666666666667,4,1,1,100,0,1
71235,-66.6666666666667,4,1,1,10,0,1
71302,-66.6666666666667,4,1,1,100,0,1
71503,-66.6666666666667,4,1,1,10,0,1
71570,-66.6666666666667,4,1,1,100,0,1
71771,-66.6666666666667,4,1,1,10,0,1
71838,-66.6666666666667,4,1,1,100,0,1
72306,-66.6666666666667,4,1,1,10,0,1
72373,-66.6666666666667,4,1,1,100,0,1
72909,-66.6666666666667,4,1,1,100,0,1
73110,-66.6666666666667,4,1,1,10,0,1
73177,-66.6666666666667,4,1,1,100,0,1
73378,-66.6666666666667,4,1,1,10,0,1
73445,-66.6666666666667,4,1,1,100,0,1
73646,-66.6666666666667,4,1,1,10,0,1
73713,-66.6666666666667,4,1,1,100,0,1
73914,-66.6666666666667,4,1,1,10,0,1
73981,-66.6666666666667,4,1,1,100,0,1
74450,-66.6666666666667,4,1,1,10,0,1
74516,-66.6666666666667,4,1,1,100,0,1
74985,-66.6666666666667,4,1,1,10,0,1
75052,-66.6666666666667,4,1,1,100,0,1
75521,-66.6666666666667,4,1,1,10,0,1
75588,-66.6666666666667,4,1,1,100,0,1
75789,-66.6666666666667,4,1,1,10,0,1
75856,-66.6666666666667,4,1,1,100,0,1
76057,-66.6666666666667,4,1,1,10,0,1
76123,-66.6666666666667,4,1,1,100,0,1
76324,-66.6666666666667,4,1,1,10,0,1
76391,-100,4,1,1,100,0,1
76525,-100,4,1,1,10,0,1
76659,-100,4,1,1,100,0,1
76793,-100,4,1,1,10,0,1
76927,-100,4,1,1,100,0,1
77462,-100,4,1,1,100,0,1
77596,-100,4,1,1,10,0,1
77730,-100,4,1,1,100,0,1
77864,-100,4,1,1,10,0,1
77998,-100,4,1,1,100,0,1
78534,-100,4,1,1,100,0,1
78668,-100,4,1,1,10,0,1
78802,-100,4,1,1,100,0,1
78936,-100,4,1,1,10,0,1
79070,-100,4,1,1,100,0,1
79605,-100,4,1,1,100,0,1
79739,-100,4,1,1,10,0,1
79873,-100,4,1,1,100,0,1
80007,-100,4,1,1,10,0,1
80141,-100,4,1,1,100,0,1
80677,-100,4,1,1,100,0,1
80811,-100,4,1,1,10,0,1
80945,-100,4,1,1,100,0,1
81079,-100,4,1,1,10,0,1
81213,-100,4,1,1,100,0,1
81748,-100,4,1,1,100,0,1
81882,-100,4,1,1,10,0,1
82016,-100,4,1,1,100,0,1
82150,-100,4,1,1,10,0,1
82284,-100,4,1,1,100,0,1
82820,-100,4,1,1,100,0,1
82954,-100,4,1,1,10,0,1
83088,-100,4,1,1,100,0,1
83222,-100,4,1,1,10,0,1
83356,-100,4,1,1,100,0,1
83623,-66.6666666666667,4,1,1,100,0,1
83891,-100,4,1,1,100,0,1
84025,-100,4,1,1,10,0,1
84159,-100,4,1,1,100,0,1
84293,-100,4,1,1,10,0,1
84427,-100,4,1,1,100,0,1
84962,-100,4,1,1,100,0,1
85096,-100,4,1,1,10,0,1
85230,-100,4,1,1,100,0,1
85364,-100,4,1,1,10,0,1
85498,-100,4,1,1,100,0,1
86033,-100,4,1,1,100,0,1
86167,-100,4,1,1,10,0,1
86301,-100,4,1,1,100,0,1
86435,-100,4,1,1,10,0,1
86569,-100,4,1,1,100,0,1
87105,-100,4,1,1,100,0,1
87239,-100,4,1,1,10,0,1
87373,-100,4,1,1,100,0,1
87507,-100,4,1,1,10,0,1
87641,-100,4,1,1,100,0,1
88176,-100,4,1,1,100,0,1
88310,-100,4,1,1,10,0,1
88444,-100,4,1,1,100,0,1
88578,-100,4,1,1,10,0,1
88712,-100,4,1,1,100,0,1
89248,-100,4,1,1,100,0,1
89382,-100,4,1,1,10,0,1
89516,-100,4,1,1,100,0,1
89650,-100,4,1,1,10,0,1
89784,-100,4,1,1,100,0,1
90319,-100,4,1,1,100,0,1
90453,-100,4,1,1,10,0,1
90587,-100,4,1,1,100,0,1
90721,-100,4,1,1,10,0,1
90855,-100,4,1,1,100,0,1
91391,-100,4,1,1,100,0,1
91525,-100,4,1,1,10,0,1
91659,-100,4,1,1,100,0,1
91793,-100,4,1,1,10,0,1
91927,-100,4,1,1,100,0,1
92061,-100,4,1,1,50,0,1
92195,-100,4,1,1,100,0,1
92328,-100,4,1,1,50,0,1
92462,-100,4,1,1,100,0,1
92730,-100,4,1,1,100,0,1
92998,-100,4,1,1,100,0,1
93534,-100,4,1,1,100,0,0
110677,-100,4,1,1,100,0,0
110945,-100,4,1,1,100,0,0
111078,-100,4,1,1,10,0,0
111212,-100,4,1,1,100,0,0
111346,-100,4,1,1,10,0,0
111480,-100,4,1,1,100,0,0
112016,-100,4,1,1,100,0,0
112150,-100,4,1,1,10,0,0
112284,-100,4,1,1,100,0,0
112686,-100,4,1,1,10,0,0
112820,-100,4,1,1,100,0,0
112953,-100,4,1,1,10,0,0
113087,-100,4,1,1,100,0,0
113221,-100,4,1,1,10,0,0
113355,-100,4,1,1,100,0,0
113489,-100,4,1,1,10,0,0
113623,-100,4,1,1,100,0,0
114159,-100,4,1,1,100,0,0
114293,-100,4,1,1,10,0,0
114427,-100,4,1,1,100,0,0
114561,-100,4,1,1,10,0,0
114695,-100,4,1,1,100,0,0
114828,-100,4,1,1,100,0,0
114962,-100,4,1,1,100,0,0
115096,-100,4,1,1,10,0,0
115230,-100,4,1,1,100,0,0
115498,-100,4,1,1,100,0,0
117105,-100,4,1,1,100,0,0
126614,-100,4,1,1,100,0,0
126748,-100,4,1,1,10,0,0
126882,-100,4,1,1,100,0,0
127016,-100,4,1,1,100,0,0
127150,-100,4,1,1,10,0,0
127284,-100,4,1,1,100,0,0
127820,-100,4,1,1,100,0,0
135855,-100,4,1,1,100,0,0
143891,-66.6666666666667,4,1,1,100,0,0
144092,-66.6666666666667,4,1,1,10,0,0
144159,-66.6666666666667,4,1,1,100,0,0
144360,-66.6666666666667,4,1,1,10,0,0
144427,-66.6666666666667,4,1,1,100,0,0
144628,-66.6666666666667,4,1,1,10,0,0
144695,-66.6666666666667,4,1,1,100,0,0
144896,-66.6666666666667,4,1,1,10,0,0
144962,-66.6666666666667,4,1,1,100,0,1
145163,-66.6666666666667,4,1,1,10,0,1
145230,-66.6666666666667,4,1,1,100,0,1
145431,-66.6666666666667,4,1,1,10,0,1
145498,-66.6666666666667,4,1,1,100,0,1
145699,-66.6666666666667,4,1,1,10,0,1
145766,-66.6666666666667,4,1,1,100,0,1
146235,-66.6666666666667,4,1,1,10,0,1
146302,-66.6666666666667,4,1,1,100,0,1
146503,-66.6666666666667,4,1,1,10,0,1
146570,-66.6666666666667,4,1,1,100,0,1
146771,-66.6666666666667,4,1,1,10,0,1
146837,-66.6666666666667,4,1,1,100,0,1
147306,-66.6666666666667,4,1,1,10,0,1
147373,-66.6666666666667,4,1,1,100,0,1
147574,-66.6666666666667,4,1,1,10,0,1
147641,-66.6666666666667,4,1,1,100,0,1
147842,-66.6666666666667,4,1,1,10,0,1
147909,-66.6666666666667,4,1,1,100,0,1
148378,-66.6666666666667,4,1,1,10,0,1
148445,-66.6666666666667,4,1,1,100,0,1
148646,-66.6666666666667,4,1,1,10,0,1
148712,-66.6666666666667,4,1,1,100,0,1
148913,-66.6666666666667,4,1,1,10,0,1
148980,-66.6666666666667,4,1,1,100,0,1
149650,-66.6666666666667,4,1,1,10,0,1
149784,-66.6666666666667,4,1,1,100,0,1
150052,-66.6666666666667,4,1,1,100,0,1
150253,-66.6666666666667,4,1,1,10,0,1
150320,-66.6666666666667,4,1,1,100,0,1
150521,-66.6666666666667,4,1,1,10,0,1
150587,-66.6666666666667,4,1,1,100,0,1
150788,-66.6666666666667,4,1,1,10,0,1
150855,-66.6666666666667,4,1,1,100,0,1
151056,-66.6666666666667,4,1,1,10,0,1
151123,-66.6666666666667,4,1,1,100,0,1
151592,-66.6666666666667,4,1,1,10,0,1
151659,-66.6666666666667,4,1,1,100,0,1
151860,-66.6666666666667,4,1,1,10,0,1
151927,-66.6666666666667,4,1,1,100,0,1
152395,-66.6666666666667,4,1,1,10,0,1
152462,-66.6666666666667,4,1,1,100,0,1
152663,-66.6666666666667,4,1,1,10,0,1
152730,-66.6666666666667,4,1,1,100,0,1
152931,-66.6666666666667,4,1,1,10,0,1
152998,-66.6666666666667,4,1,1,100,0,1
153199,-66.6666666666667,4,1,1,10,0,1
153266,-66.6666666666667,4,1,1,100,0,1
153735,-66.6666666666667,4,1,1,10,0,1
153802,-66.6666666666667,4,1,1,100,0,1
154003,-66.6666666666667,4,1,1,10,0,1
154070,-66.6666666666667,4,1,1,100,0,1
154271,-66.6666666666667,4,1,1,10,0,1
154337,-66.6666666666667,4,1,1,100,0,1
154806,-66.6666666666667,4,1,1,10,0,1
154873,-66.6666666666667,4,1,1,100,0,1
155074,-66.6666666666667,4,1,1,10,0,1
155141,-66.6666666666667,4,1,1,100,0,1
155342,-66.6666666666667,4,1,1,10,0,1
155409,-66.6666666666667,4,1,1,100,0,1
155878,-66.6666666666667,4,1,1,10,0,1
155945,-66.6666666666667,4,1,1,100,0,1
156146,-66.6666666666667,4,1,1,10,0,1
156212,-66.6666666666667,4,1,1,100,0,1
156413,-66.6666666666667,4,1,1,10,0,1
156480,-66.6666666666667,4,1,1,100,0,1
156949,-66.6666666666667,4,1,1,10,0,1
157016,-66.6666666666667,4,1,1,100,0,1
157217,-66.6666666666667,4,1,1,10,0,1
157284,-66.6666666666667,4,1,1,100,0,1
157485,-66.6666666666667,4,1,1,10,0,1
157552,-66.6666666666667,4,1,1,100,0,1
158020,-66.6666666666667,4,1,1,10,0,1
158087,-66.6666666666667,4,1,1,100,0,1
158623,-66.6666666666667,4,1,1,100,0,1
158824,-66.6666666666667,4,1,1,10,0,1
158891,-66.6666666666667,4,1,1,100,0,1
159092,-66.6666666666667,4,1,1,10,0,1
159159,-66.6666666666667,4,1,1,100,0,1
159360,-66.6666666666667,4,1,1,10,0,1
159427,-66.6666666666667,4,1,1,100,0,1
159628,-66.6666666666667,4,1,1,10,0,1
159695,-66.6666666666667,4,1,1,100,0,1
160164,-66.6666666666667,4,1,1,10,0,1
160230,-66.6666666666667,4,1,1,100,0,1
160699,-66.6666666666667,4,1,1,10,0,1
160766,-66.6666666666667,4,1,1,100,0,1
161235,-66.6666666666667,4,1,1,10,0,1
161302,-66.6666666666667,4,1,1,100,0,1
161503,-66.6666666666667,4,1,1,10,0,1
161570,-66.6666666666667,4,1,1,100,0,1
161771,-66.6666666666667,4,1,1,10,0,1
161837,-66.6666666666667,4,1,1,100,0,1
162038,-66.6666666666667,4,1,1,10,0,1
162105,-100,4,1,1,100,0,1
162239,-100,4,1,1,10,0,1
162373,-100,4,1,1,100,0,1
162507,-100,4,1,1,10,0,1
162641,-100,4,1,1,100,0,1
163176,-100,4,1,1,100,0,1
163310,-100,4,1,1,10,0,1
163444,-100,4,1,1,100,0,1
163578,-100,4,1,1,10,0,1
163712,-100,4,1,1,100,0,1
164248,-100,4,1,1,100,0,1
164382,-100,4,1,1,10,0,1
164516,-100,4,1,1,100,0,1
164650,-100,4,1,1,10,0,1
164784,-100,4,1,1,100,0,1
165319,-100,4,1,1,100,0,1
165453,-100,4,1,1,10,0,1
165587,-100,4,1,1,100,0,1
165721,-100,4,1,1,10,0,1
165855,-100,4,1,1,100,0,1
166391,-100,4,1,1,100,0,1
166525,-100,4,1,1,10,0,1
166659,-100,4,1,1,100,0,1
166793,-100,4,1,1,10,0,1
166927,-100,4,1,1,100,0,1
167462,-100,4,1,1,100,0,1
167596,-100,4,1,1,10,0,1
167730,-100,4,1,1,100,0,1
167864,-100,4,1,1,10,0,1
167998,-100,4,1,1,100,0,1
168534,-100,4,1,1,100,0,1
168668,-100,4,1,1,10,0,1
168802,-100,4,1,1,100,0,1
168936,-100,4,1,1,10,0,1
169070,-100,4,1,1,100,0,1
169337,-66.6666666666667,4,1,1,100,0,1
169605,-100,4,1,1,100,0,1
169739,-100,4,1,1,10,0,1
169873,-100,4,1,1,100,0,1
170007,-100,4,1,1,10,0,1
170141,-100,4,1,1,100,0,1
170676,-100,4,1,1,100,0,1
170810,-100,4,1,1,10,0,1
170944,-100,4,1,1,100,0,1
171078,-100,4,1,1,10,0,1
171212,-100,4,1,1,100,0,1
171747,-100,4,1,1,100,0,1
171881,-100,4,1,1,10,0,1
172015,-100,4,1,1,100,0,1
172149,-100,4,1,1,10,0,1
172283,-100,4,1,1,100,0,1
172819,-100,4,1,1,100,0,1
172953,-100,4,1,1,10,0,1
173087,-100,4,1,1,100,0,1
173221,-100,4,1,1,10,0,1
173355,-100,4,1,1,100,0,1
173890,-100,4,1,1,100,0,1
174024,-100,4,1,1,10,0,1
174158,-100,4,1,1,100,0,1
174292,-100,4,1,1,10,0,1
174426,-100,4,1,1,100,0,1
174962,-100,4,1,1,100,0,1
175096,-100,4,1,1,10,0,1
175230,-100,4,1,1,100,0,1
175364,-100,4,1,1,10,0,1
175498,-100,4,1,1,100,0,1
176033,-100,4,1,1,100,0,1
176167,-100,4,1,1,10,0,1
176301,-100,4,1,1,100,0,1
176435,-100,4,1,1,10,0,1
176569,-100,4,1,1,100,0,1
177105,-100,4,1,1,100,0,1
177239,-100,4,1,1,10,0,1
177373,-100,4,1,1,100,0,1
177507,-100,4,1,1,10,0,1
177641,-100,4,1,1,100,0,1
178176,-100,4,1,1,100,0,1
178444,-100,4,1,1,100,0,1
178712,-100,4,1,1,100,0,1
179248,-100,4,1,1,100,0,0

[Colours]
Combo1 : 81,244,57
Combo2 : 250,150,220
Combo3 : 0,101,253

[HitObjects]
352,192,7819,5,0,0:0:0:0:
352,192,7953,1,0,0:0:0:0:
352,192,8087,1,0,0:0:0:0:
160,192,8355,1,0,0:0:0:0:
416,136,8623,5,0,0:0:0:0:
448,128,8757,1,0,0:0:0:0:
448,128,9159,1,0,0:0:0:0:
96,192,9427,1,0,0:0:0:0:
416,248,9695,5,0,0:0:0:0:
430,251,9784,1,0,0:0:0:0:
444,255,9873,1,0,0:0:0:0:
458,258,9962,1,0,0:0:0:0:
458,258,10364,5,0,0:0:0:0:
96,192,10498,1,0,0:0:0:0:
304,96,10900,5,0,0:0:0:0:
32,192,11034,1,0,0:0:0:0:
344,261,11302,2,0,P|288:265|246:238,1,87.4999976158143
74,45,11570,6,0,P|126:58|158:103,1,87.4999976158143
267,81,11837,2,0,P|298:138|287:178,1,87.4999976158143
416,192,12105,5,0,0:0:0:0:
416,192,12239,1,0,0:0:0:0:
416,192,12373,1,0,0:0:0:0:
96,192,12641,1,0,0:0:0:0:
416,136,12909,5,0,0:0:0:0:
448,128,13043,1,0,0:0:0:0:
448,128,13445,1,0,0:0:0:0:
96,192,13713,1,0,0:0:0:0:
416,248,13981,5,0,0:0:0:0:
430,251,14070,1,0,0:0:0:0:
444,255,14159,1,0,0:0:0:0:
458,258,14248,1,0,0:0:0:0:
458,258,14650,5,0,0:0:0:0:
96,192,14784,1,0,0:0:0:0:
304,96,15186,5,0,0:0:0:0:
116,294,15320,2,0,P|151:330|204:334,1,87.4999976158143
328,51,15587,2,0,P|301:112|318:162,1,87.4999976158143
302,330,15855,5,0,0:0:0:0:
304,0,16123,1,0,0:0:0:0:
169,291,16391,5,0,0:0:0:0:
169,291,16525,1,0,0:0:0:0:
169,291,16659,1,0,0:0:0:0:
304,0,16927,1,0,0:0:0:0:
219,314,17195,5,0,0:0:0:0:
213,347,17329,1,0,0:0:0:0:
213,347,17731,1,0,0:0:0:0:
304,0,17999,1,0,0:0:0:0:
118,267,18267,5,0,0:0:0:0:
108,278,18356,1,0,0:0:0:0:
100,289,18445,1,0,0:0:0:0:
90,304,18534,2,0,P|130:330|184:327,1,87.4999976158143
54,140,18802,2,0,P|24:179|32:229,1,87.4999976158143
304,0,19070,1,0,0:0:0:0:
80,256,19472,5,0,0:0:0:0:
80,256,19605,1,0,0:0:0:0:
454,68,19873,2,0,P|404:71|367:111,1,87.4999976158143
126,309,20141,2,0,P|84:273|80:221,1,87.4999976158143
236,186,20543,5,0,0:0:0:0:
343,291,20677,5,0,0:0:0:0:
343,291,20811,1,0,0:0:0:0:
343,291,20945,1,0,0:0:0:0:
208,0,21213,1,0,0:0:0:0:
293,314,21481,5,0,0:0:0:0:
299,347,21615,1,0,0:0:0:0:
299,347,22017,1,0,0:0:0:0:
208,0,22285,1,0,0:0:0:0:
394,267,22553,5,0,0:0:0:0:
404,278,22642,1,0,0:0:0:0:
412,289,22731,1,0,0:0:0:0:
421,301,22820,1,0,0:0:0:0:
290,234,22953,6,0,P|302:283|347:313,1,87.4999976158143
421,301,23221,1,0,0:0:0:0:
208,0,23356,1,0,0:0:0:0:
421,301,23757,1,0,0:0:0:0:
292,42,23891,6,0,P|246:73|234:118,1,87.4999976158143
203,359,24159,2,0,P|157:378|102:362,1,87.4999976158143
0,50,24427,1,0,0:0:0:0:
373,345,24695,1,0,0:0:0:0:
75,196,24962,6,0,P|117:163|166:164,1,87.4999976158143
406,229,25230,2,0,P|422:175|408:131,1,87.4999976158143
215,255,25498,1,0,0:0:0:0:
189,269,25631,1,0,0:0:0:0:
164,284,25765,1,0,0:0:0:0:
137,298,25900,2,0,P|167:246|216:226,1,87.4999976158143
492,178,26168,2,0,P|504:120|434:17,1,174.999995231629
216,286,26570,6,0,P|158:265|147:228,1,87.4999976158143
379,113,26837,2,0,P|374:59|346:26,1,87.4999976158143
84,334,27105,5,0,0:0:0:0:
355,33,27373,2,0,P|311:17|240:42,1,87.4999976158143
84,334,27641,2,0,P|43:285|45:243,1,87.4999976158143
394,192,27909,2,0,P|411:132|396:88,1,87.4999976158143
64,220,28177,6,0,P|22:168|30:120,1,87.4999976158143
443,135,28445,2,0,P|467:99|470:55,1,87.4999976158143
256,352,28712,2,0,P|202:335|165:284,1,87.4999976158143
168,251,28980,1,0,0:0:0:0:
168,251,29114,1,0,0:0:0:0:
392,257,29248,6,0,P|393:202|355:159,1,87.4999976158143
194,333,29516,2,0,P|130:333|92:297,1,87.4999976158143
416,149,29784,1,0,0:0:0:0:
416,149,29918,1,0,0:0:0:0:
66,222,30186,2,0,P|51:161|68:126,1,87.4999976158143
379,264,30453,2,0,P|462:241|514:162,1,174.999995231629
254,272,30855,6,0,P|217:236|212:181,1,87.4999976158143
480,65,31123,2,0,P|451:32|409:21,1,87.4999976158143
253,338,31391,2,0,P|239:296|246:253,1,87.4999976158143
1,119,31659,2,0,P|13:77|46:50,1,87.4999976158143
407,215,31927,1,0,0:0:0:0:
175,61,32195,1,0,0:0:0:0:
175,61,32328,1,0,0:0:0:0:
206,317,32462,6,0,P|144:342|98:336,1,87.4999976158143
0,116,32730,1,0,0:0:0:0:
394,260,32998,2,0,P|421:203|421:155,1,87.4999976158143
102,264,33266,2,0,P|62:228|51:179,1,87.4999976158143
434,169,33534,6,0,P|447:127|442:84,1,87.4999976158143
77,229,33802,2,0,P|42:187|42:136,1,87.4999976158143
328,265,34070,1,0,0:0:0:0:
356,273,34203,1,0,0:0:0:0:
384,280,34337,1,0,0:0:0:0:
413,289,34472,2,0,P|355:304|306:284,1,87.4999976158143
43,101,34740,2,0,P|79:53|202:41,1,174.999995231629
421,151,35141,2,0,P|467:125|491:63,1,87.4999976158143
71,240,35409,2,0,P|56:184|67:144,1,87.4999976158143
424,321,35677,5,0,0:0:0:0:
104,123,35945,2,0,P|140:69|192:56,1,87.4999976158143
355,362,36212,1,0,0:0:0:0:
217,65,36480,1,0,0:0:0:0:
217,65,36614,1,0,0:0:0:0:
271,362,36748,6,0,P|225:342|197:293,1,87.4999976158143
406,88,37016,1,0,0:0:0:0:
38,138,37284,2,0,P|22:178|36:219,1,87.4999976158143
386,232,37552,2,0,P|347:186|303:173,1,87.4999976158143
142,343,37820,5,0,0:0:0:0:
360,284,37953,2,0,P|423:245|439:117,1,174.999995231629
181,225,38355,5,0,0:0:0:0:
400,166,38489,2,0,P|463:127|479:-1,1,174.999995231629
126,36,38891,2,0,P|63:71|55:270,1,262.499992847443
353,317,39427,5,0,0:0:0:0:
396,185,39560,2,0,P|360:120|234:97,1,174.999995231629
135,242,39962,5,0,0:0:0:0:
309,251,40141,1,0,0:0:0:0:
230,95,40320,1,0,0:0:0:0:
160,325,40498,5,0,0:0:0:0:
343,177,40677,1,0,0:0:0:0:
123,91,40856,1,0,0:0:0:0:
233,378,41034,5,0,0:0:0:0:
383,96,41302,1,0,0:0:0:0:
19,78,41570,1,0,0:0:0:0:
424,355,41837,1,0,0:0:0:0:
405,171,42105,5,0,0:0:0:0:
405,171,42239,1,0,0:0:0:0:
291,300,42373,6,0,P|239:297|191:254,1,87.4999976158143
481,111,42641,2,0,P|511:55|509:20,1,87.4999976158143
384,320,42909,1,0,0:0:0:0:
96,320,43043,2,0,P|66:269|103:141,1,174.999995231629
400,144,43445,6,0,P|404:201|362:243,1,87.4999976158143
136,233,43712,1,0,0:0:0:0:
111,131,43846,1,0,0:0:0:0:
146,32,43980,2,0,P|195:54|210:90,1,87.4999976158143
275,351,44248,2,0,P|332:367|366:349,1,87.4999976158143
503,108,44516,2,0,P|468:53|283:32,1,262.499992847443
241,343,45052,2,0,P|191:356|118:344,1,87.4999976158143
99,116,45320,6,0,P|131:165|116:226,1,87.4999976158143
320,364,45587,2,0,P|364:331|380:284,1,87.4999976158143
419,54,45855,1,0,0:0:0:0:
60,332,46123,1,0,0:0:0:0:
416,320,46391,5,0,0:0:0:0:
416,320,46525,1,0,0:0:0:0:
192,352,46659,6,0,P|160:288|192:192,1,174.999995231629
318,169,47061,1,0,0:0:0:0:
46,220,47195,2,0,P|35:137|171:16,1,262.499992847443
178,329,47730,6,0,P|230:359|269:357,1,87.4999976158143
390,101,47998,1,0,0:0:0:0:
390,101,48132,1,0,0:0:0:0:
416,320,48266,2,0,P|385:350|343:358,1,87.4999976158143
45,334,48534,6,0,P|34:288|49:241,1,87.4999976158143
337,262,48802,2,0,P|375:217|385:165,1,87.4999976158143
70,115,49070,6,0,P|44:149|43:192,1,87.4999976158143
226,369,49337,2,0,P|279:362|312:328,1,87.4999976158143
369,77,49605,6,0,P|321:113|316:162,1,87.4999976158143
123,334,49873,1,0,0:0:0:0:
463,273,50141,2,0,P|433:230|390:218,1,87.4999976158143
64,255,50409,2,0,P|47:208|64:161,1,87.4999976158143
250,49,50677,5,0,0:0:0:0:
250,49,50811,1,0,0:0:0:0:
152,236,50945,6,0,P|205:267|240:260,1,87.4999976158143
347,63,51212,2,0,P|291:88|268:125,1,87.4999976158143
197,353,51480,2,0,P|250:364|279:343,1,87.4999976158143
83,72,51748,1,0,0:0:0:0:
310,266,52016,5,0,0:0:0:0:
335,280,52150,1,0,0:0:0:0:
374,265,52284,1,0,0:0:0:0:
411,197,52418,1,0,0:0:0:0:
346,47,52552,2,0,P|297:83|284:131,1,87.4999976158143
173,359,52820,6,0,P|114:353|96:333,1,87.4999976158143
94,142,53087,1,0,0:0:0:0:
105,106,53221,1,0,0:0:0:0:
105,154,53355,1,0,0:0:0:0:
146,229,53489,1,0,0:0:0:0:
270,332,53623,2,0,P|297:291|293:232,1,87.4999976158143
68,123,53891,6,0,P|22:139|-7:197,1,87.4999976158143
369,97,54159,1,0,0:0:0:0:
161,349,54427,2,0,P|116:317|114:272,1,87.4999976158143
363,281,54695,2,0,P|402:253|427:203,1,87.4999976158143
182,314,54962,5,0,0:0:0:0:
74,176,55141,1,0,0:0:0:0:
247,151,55320,1,0,0:0:0:0:
99,341,55498,5,0,0:0:0:0:
115,106,55677,1,0,0:0:0:0:
312,237,55856,1,0,0:0:0:0:
6,276,56034,5,0,0:0:0:0:
216,57,56213,1,0,0:0:0:0:
302,350,56392,1,0,0:0:0:0:
113,232,56570,5,0,0:0:0:0:
87,213,56703,1,0,0:0:0:0:
74,202,56837,1,0,0:0:0:0:
65,195,56971,1,0,0:0:0:0:
224,288,57105,6,0,P|275:249|282:222,1,87.4999976158143
147,155,57373,1,0,0:0:0:0:
147,155,57507,1,0,0:0:0:0:
186,304,57641,6,0,P|248:290|266:268,1,87.4999976158143
47,62,57909,2,0,P|15:91|5:133,1,87.4999976158143
186,304,58177,6,0,P|280:279|350:179,1,196.875002145767
365,110,58445,2,0,B|310:29|227:179|317:250,1,196.875002145767
347,285,58712,2,0,P|382:243|365:109,1,196.875002145767
286,247,58981,2,0,B|271:406|568:303|356:53|198:37,1,459.375005006791
104,23,59516,6,0,P|60:79|77:217,1,196.875002145767
87,333,59784,2,0,P|150:361|285:346,1,196.875002145767
429,302,60052,2,0,B|587:320|497:22|239:216|214:375,1,459.375005006791
128,352,60587,6,0,P|64:288|64:160,1,196.875002145767
80,29,60855,2,0,P|179:39|262:121,1,196.875002145767
284,201,61123,2,0,B|300:360|0:262|208:8|367:-9,1,459.375005006791
422,11,61659,6,0,P|456:80|443:206,1,196.875002145767
368,329,61927,2,0,P|278:337|150:240,1,196.875002145767
111,172,62195,2,0,B|57:21|371:44|231:340|81:395,1,459.375005006791
30,230,62730,6,0,P|92:155|231:135,1,196.875002145767
351,48,62998,2,0,P|401:102|410:248,1,196.875002145767
303,305,63266,2,0,B|123:392|147:15|475:170|698:444|277:480|454:158,1,656.250007152558
458,110,64070,5,0,0:0:0:0:
464,93,64204,1,0,0:0:0:0:
488,225,64337,6,0,P|423:305|284:324,1,196.875002145767
155,290,64605,2,0,P|229:253|352:267,1,196.875002145767
394,340,64873,6,0,P|298:377|168:324,1,196.875002145767
73,230,65141,2,0,P|156:236|255:309,1,196.875002145767
34,348,65409,6,0,P|8:268|230:11,1,459.375005006791
293,199,65945,2,0,P|214:198|169:88,1,196.875002145767
357,21,66212,2,0,P|405:83|201:349,1,459.375005006791
116,304,66748,6,0,P|98:255|190:160,1,196.875002145767
241,193,67016,2,0,P|211:233|76:226,1,196.875002145767
68,146,67284,2,0,P|117:151|158:291,1,196.875002145767
36,287,67552,2,0,P|5:246|269:88,1,459.375005006791
362,98,68087,6,0,P|343:185|223:199,1,196.875002145767
201,165,68355,2,0,P|285:136|357:234,1,196.875002145767
358,323,68623,2,0,P|313:350|179:72,1,459.375005006791
234,0,69159,6,0,P|315:35|304:156,1,196.875002145767
261,172,69427,2,0,P|250:82|360:32,1,196.875002145767
456,119,69695,2,0,P|475:166|181:256,1,459.375005006791
116,185,70230,6,0,P|175:119|285:168,1,196.875002145767
286,210,70498,2,0,P|197:190|185:69,1,196.875002145767
287,0,70766,2,0,P|376:33|278:294,1,459.375005006791
201,184,71302,6,0,P|285:157|356:255,1,196.875002145767
334,290,71570,2,0,P|267:229|317:118,1,196.875002145767
428,180,71837,2,0,P|378:313|99:246,1,459.375005006791
79,159,72373,5,0,0:0:0:0:
57,309,72641,1,0,0:0:0:0:
53,336,72775,1,0,0:0:0:0:
79,159,72909,6,0,P|137:100|271:88,1,196.875002145767
418,113,73177,2,0,P|424:201|356:298,1,196.875002145767
84,349,73445,6,0,P|104:268|214:191,1,196.875002145767
322,111,73713,2,0,P|371:184|360:302,1,196.875002145767
165,384,73980,2,0,P|100:349|108:15,1,459.375005006791
320,223,74516,2,0,P|411:217|511:44,1,262.500002861023
312,191,75052,6,0,B|267:272|170:285|167:398|-95:402|-82:11|147:2|156:419|344:338,1,721.875007867814
392,225,75855,2,0,P|291:248|231:345,1,196.875002145767
349,328,76123,2,0,P|368:226|304:131,1,196.875002145767
99,343,76391,6,0,P|48:314|38:282,1,87.4999976158143
312,237,76659,2,0,P|319:182|305:142,1,87.4999976158143
135,272,76927,1,0,0:0:0:0:
135,272,77061,1,0,0:0:0:0:
446,203,77329,5,0,0:0:0:0:
120,198,77462,2,0,P|128:136|157:106,1,87.4999976158143
380,302,77730,2,0,P|427:269|445:223,1,87.4999976158143
195,240,77998,5,0,0:0:0:0:
182,234,78132,1,0,0:0:0:0:
181,222,78266,1,0,0:0:0:0:
191,226,78400,1,0,0:0:0:0:
390,349,78534,6,0,P|433:309|435:275,1,87.4999976158143
158,293,78802,2,0,P|138:240|143:198,1,87.4999976158143
338,287,79070,1,0,0:0:0:0:
338,287,79204,1,0,0:0:0:0:
157,125,79472,5,0,0:0:0:0:
392,154,79605,2,0,P|369:95|334:73,1,87.4999976158143
164,318,79873,2,0,P|110:297|82:257,1,87.4999976158143
358,132,80141,5,0,0:0:0:0:
362,119,80275,1,0,0:0:0:0:
352,110,80409,1,0,0:0:0:0:
349,121,80543,1,0,0:0:0:0:
287,359,80677,6,0,P|232:336|219:305,1,87.4999976158143
484,227,80945,2,0,P|483:170|464:132,1,87.4999976158143
313,283,81213,1,0,0:0:0:0:
313,283,81347,1,0,0:0:0:0:
388,113,81615,5,0,0:0:0:0:
117,313,81748,2,0,P|89:258|96:216,1,87.4999976158143
390,254,82016,2,0,P|411:200|401:152,1,87.4999976158143
129,185,82284,5,0,0:0:0:0:
119,175,82418,1,0,0:0:0:0:
123,163,82552,1,0,0:0:0:0:
131,170,82686,1,0,0:0:0:0:
285,368,82820,6,0,P|329:329|333:296,1,87.4999976158143
55,304,83088,2,0,P|37:251|43:209,1,87.4999976158143
236,305,83356,1,0,0:0:0:0:
236,305,83490,1,0,0:0:0:0:
109,113,83758,5,0,0:0:0:0:
263,376,83891,2,0,P|305:330|309:288,1,87.4999976158143
15,244,84159,2,0,P|10:186|32:143,1,87.4999976158143
270,249,84427,5,0,0:0:0:0:
283,248,84561,1,0,0:0:0:0:
288,235,84695,1,0,0:0:0:0:
277,236,84829,1,0,0:0:0:0:
99,343,84962,6,0,P|48:314|38:282,1,87.4999976158143
312,237,85230,2,0,P|319:182|305:142,1,87.4999976158143
135,272,85498,1,0,0:0:0:0:
135,272,85632,1,0,0:0:0:0:
424,207,85900,5,0,0:0:0:0:
78,162,86034,2,0,P|99:103|134:80,1,87.4999976158143
308,322,86302,2,0,P|361:300|389:259,1,87.4999976158143
113,208,86569,5,0,0:0:0:0:
100,201,86703,1,0,0:0:0:0:
98,190,86837,1,0,0:0:0:0:
108,193,86971,1,0,0:0:0:0:
321,285,87105,6,0,P|346:231|335:199,1,87.4999976158143
85,319,87373,2,0,P|47:277|36:237,1,87.4999976158143
245,312,87641,1,0,0:0:0:0:
245,312,87775,1,0,0:0:0:0:
139,76,88043,5,0,0:0:0:0:
296,382,88177,2,0,P|346:344|360:305,1,87.4999976158143
81,200,88444,2,0,P|87:141|120:105,1,87.4999976158143
381,201,88712,5,0,0:0:0:0:
390,190,88846,1,0,0:0:0:0:
384,178,88980,1,0,0:0:0:0:
377,186,89114,1,0,0:0:0:0:
254,369,89248,6,0,P|196:355|178:327,1,87.4999976158143
429,208,89516,2,0,P|420:153|396:118,1,87.4999976158143
269,290,89784,1,0,0:0:0:0:
269,290,89918,1,0,0:0:0:0:
464,215,90186,5,0,0:0:0:0:
112,343,90319,2,0,P|74:294|73:252,1,87.4999976158143
369,233,90587,2,0,P|379:176|360:131,1,87.4999976158143
101,131,90855,5,0,0:0:0:0:
89,125,90989,1,0,0:0:0:0:
89,112,91123,1,0,0:0:0:0:
99,117,91257,1,0,0:0:0:0:
196,345,91391,6,0,P|254:336|274:309,1,87.4999976158143
35,169,91659,2,0,P|48:115|75:82,1,87.4999976158143
346,317,91927,6,0,P|379:268|374:235,1,87.4999976158143
108,315,92195,2,0,P|77:268|72:226,1,87.4999976158143
512,261,92462,6,0,P|504:199|475:169,1,87.4999976158143
252,364,92730,2,0,P|204:330|186:285,1,87.4999976158143
442,113,92998,1,0,0:0:0:0:
444,99,93132,1,0,0:0:0:0:
433,92,93266,1,0,0:0:0:0:
432,104,93400,1,0,0:0:0:0:
352,192,93534,5,0,0:0:0:0:
352,192,93668,1,0,0:0:0:0:
352,192,93802,1,0,0:0:0:0:
160,192,94070,1,0,0:0:0:0:
416,136,94338,5,0,0:0:0:0:
448,128,94472,1,0,0:0:0:0:
448,128,94874,1,0,0:0:0:0:
96,192,95142,1,0,0:0:0:0:
416,248,95410,5,0,0:0:0:0:
430,251,95499,1,0,0:0:0:0:
444,255,95588,1,0,0:0:0:0:
458,258,95677,1,0,0:0:0:0:
458,258,96079,5,0,0:0:0:0:
96,192,96213,1,0,0:0:0:0:
304,96,96615,5,0,0:0:0:0:
32,192,96749,1,0,0:0:0:0:
344,261,97017,2,0,P|288:265|246:238,1,87.4999976158143
74,45,97285,6,0,P|126:58|158:103,1,87.4999976158143
267,81,97552,2,0,P|298:138|287:178,1,87.4999976158143
416,192,97820,5,0,0:0:0:0:
416,192,97954,1,0,0:0:0:0:
416,192,98088,1,0,0:0:0:0:
96,192,98356,1,0,0:0:0:0:
416,136,98624,5,0,0:0:0:0:
448,128,98758,1,0,0:0:0:0:
448,128,99160,1,0,0:0:0:0:
96,192,99428,1,0,0:0:0:0:
416,248,99696,5,0,0:0:0:0:
430,251,99785,1,0,0:0:0:0:
444,255,99874,1,0,0:0:0:0:
454,258,99962,2,0,B|440:299|431:310|361:328,1,87.4999976158143
257,9,100230,2,0,P|329:33|348:56,1,87.4999976158143
96,192,100499,1,0,0:0:0:0:
385,72,100900,5,0,0:0:0:0:
219,348,101034,2,0,P|160:343|136:318,1,87.4999976158143
454,218,101302,2,0,P|478:172|483:101,1,87.4999976158143
137,59,101570,1,0,0:0:0:0:
363,343,101837,2,0,P|404:300|399:239,1,87.4999976158143
172,145,102105,5,0,0:0:0:0:
172,145,102239,1,0,0:0:0:0:
172,145,102373,1,0,0:0:0:0:
339,238,102641,1,0,0:0:0:0:
88,163,102909,5,0,0:0:0:0:
57,154,103043,1,0,0:0:0:0:
57,154,103445,1,0,0:0:0:0:
395,269,103713,1,0,0:0:0:0:
143,65,103981,5,0,0:0:0:0:
132,56,104070,1,0,0:0:0:0:
122,45,104159,1,0,0:0:0:0:
111,36,104248,1,0,0:0:0:0:
111,36,104650,5,0,0:0:0:0:
395,269,104784,1,0,0:0:0:0:
395,115,105052,5,0,0:0:0:0:
111,348,105186,1,0,0:0:0:0:
429,264,105587,1,0,0:0:0:0:
115,170,105855,1,0,0:0:0:0:
326,167,105989,5,0,0:0:0:0:
280,175,106257,1,0,0:0:0:0:
172,238,106391,5,0,0:0:0:0:
172,238,106525,1,0,0:0:0:0:
172,238,106659,1,0,0:0:0:0:
339,145,106927,1,0,0:0:0:0:
88,220,107195,5,0,0:0:0:0:
57,229,107329,1,0,0:0:0:0:
57,229,107731,1,0,0:0:0:0:
395,114,107999,1,0,0:0:0:0:
143,318,108267,5,0,0:0:0:0:
132,327,108356,1,0,0:0:0:0:
122,338,108445,1,0,0:0:0:0:
111,347,108534,1,0,0:0:0:0:
111,347,108936,5,0,0:0:0:0:
395,114,109070,1,0,0:0:0:0:
204,246,109471,1,0,0:0:0:0:
222,243,109605,5,0,0:0:0:0:
223,243,109873,1,0,0:0:0:0:
225,243,110141,1,0,0:0:0:0:
349,332,110677,5,0,0:0:0:0:
412,306,110811,1,0,0:0:0:0:
429,249,110945,2,0,P|422:199|393:170,1,87.4999976158143
229,289,111212,2,0,P|179:249|174:187,1,87.4999976158143
299,227,111480,5,0,0:0:0:0:
342,231,111614,1,0,0:0:0:0:
393,182,111748,1,0,0:0:0:0:
403,109,111882,1,0,0:0:0:0:
339,18,112016,2,0,P|281:39|264:94,1,87.4999976158143
180,279,112284,2,0,P|91:315|160:229,1,262.499992847443
416,152,112820,6,0,P|342:136|293:193,1,87.4999976158143
269,355,113087,2,0,P|303:308|298:259,1,87.4999976158143
163,216,113355,2,0,P|119:174|116:126,1,87.4999976158143
255,270,113623,5,0,0:0:0:0:
288,281,113757,1,0,0:0:0:0:
338,256,113891,1,0,0:0:0:0:
362,183,114025,1,0,0:0:0:0:
343,74,114159,2,0,P|284:82|251:112,1,87.4999976158143
70,280,114427,2,0,P|31:248|31:188,1,87.4999976158143
273,351,114695,6,0,P|324:318|348:263,1,87.4999976158143
393,152,114962,2,0,P|400:95|364:64,1,87.4999976158143
289,68,115230,5,0,0:0:0:0:
256,192,115364,1,0,0:0:0:0:
218,331,115498,1,0,0:0:0:0:
289,68,115766,1,0,0:0:0:0:
293,331,116034,5,0,0:0:0:0:
256,192,116168,1,0,0:0:0:0:
222,68,116302,1,0,0:0:0:0:
218,331,116570,5,0,0:0:0:0:
289,68,116837,1,0,0:0:0:0:
293,331,117105,5,0,0:0:0:0:
222,68,117373,1,0,0:0:0:0:
218,331,117641,5,0,0:0:0:0:
256,192,117775,1,0,0:0:0:0:
289,68,117909,1,0,0:0:0:0:
252,197,118043,1,0,0:0:0:0:
218,331,118177,1,0,0:0:0:0:
108,114,118445,6,0,P|110:70|132:33,1,87.4999976158143
341,313,118712,1,0,0:0:0:0:
419,108,118980,6,0,P|402:36|357:28,1,87.4999976158143
186,355,119248,1,0,0:0:0:0:
67,42,119516,6,0,P|104:21|152:27,1,87.4999976158143
363,352,119784,1,0,0:0:0:0:
88,125,120052,2,0,B|7:56|-38:250|172:218,1,262.499992847443
327,215,120587,5,0,0:0:0:0:
369,172,120721,1,0,0:0:0:0:
361,94,120855,1,0,0:0:0:0:
292,56,120989,1,0,0:0:0:0:
153,120,121123,2,0,P|159:178|204:224,1,87.4999976158143
368,350,121391,6,0,P|413:319|421:284,1,87.4999976158143
304,16,121659,2,0,P|238:55|231:97,1,87.4999976158143
139,325,121927,5,0,0:0:0:0:
448,148,122195,2,0,B|535:88|360:-7|321:206,1,262.499992847443
192,307,122730,5,0,0:0:0:0:
160,317,122864,1,0,0:0:0:0:
119,303,122998,1,0,0:0:0:0:
94,241,123132,1,0,0:0:0:0:
140,133,123266,2,0,P|199:160|213:201,1,87.4999976158143,0|0,0:3|0:3,0:3:0:0:
316,345,123534,2,0,P|251:367|206:344,1,87.4999976158143
78,33,123802,2,0,P|104:73|85:142,1,87.4999976158143
73,350,124070,5,0,0:0:0:0:
325,71,124337,2,0,B|359:-28|496:115|300:208,1,262.499992847443
201,243,124873,5,0,0:0:0:0:
167,206,125007,1,0,0:0:0:0:
162,143,125141,1,0,0:0:0:0:
171,177,125275,1,0,0:0:0:0:
160,250,125409,1,0,0:0:0:0:
116,308,125543,1,0,0:0:0:0:
11,225,125677,6,0,P|69:175|111:201,1,87.4999976158143
315,332,125945,1,0,0:0:0:0:
217,17,126212,1,0,0:0:0:0:
147,321,126480,5,0,0:0:0:0:
136,334,126614,2,0,P|87:315|67:248,1,87.4999976158143
363,196,126882,1,0,0:0:0:0:
376,184,127016,2,0,P|395:138|389:89,1,87.4999976158143
53,222,127284,2,0,P|18:126|148:27,1,262.499992847443
393,286,127820,5,0,1:0:0:0:
404,286,127954,1,0,1:0:0:0:
404,275,128088,1,0,1:0:0:0:
394,275,128222,1,0,1:0:0:0:
494,173,128356,5,0,1:0:0:0:
496,157,128490,1,0,1:0:0:0:
479,154,128624,1,0,1:0:0:0:
178,333,128757,6,0,P|162:253|198:213,1,87.4999976158143
489,101,129025,2,0,P|398:29|287:65,1,174.999995231629
74,378,129427,6,0,P|18:297|51:256,1,87.4999976158143
407,293,129695,2,0,P|437:252|431:215,1,87.4999976158143
118,226,129962,5,0,1:0:0:0:
110,218,130096,1,0,1:0:0:0:
118,210,130230,1,0,1:0:0:0:
125,218,130364,1,0,1:0:0:0:
143,77,130498,5,0,1:0:0:0:
155,65,130632,1,0,1:0:0:0:
167,77,130766,1,0,1:0:0:0:
131,333,130900,6,0,P|61:353|16:313,1,87.4999976158143
340,142,131168,2,0,P|333:53|216:-7,1,174.999995231629
71,290,131570,6,0,P|27:229|29:179,1,87.4999976158143
423,127,131837,2,0,P|355:133|315:165,1,87.4999976158143
157,331,132105,5,0,0:0:0:0:
157,331,132239,1,0,0:0:0:0:
157,331,132373,1,0,0:0:0:0:
404,198,132641,5,0,0:0:0:0:
157,331,132775,1,0,0:0:0:0:
465,341,133043,6,0,P|486:291|469:245,1,87.4999976158143
43,271,133311,2,0,P|78:176|170:118,1,174.999995231629
343,328,133712,6,0,P|383:302|392:246,1,87.4999976158143
34,68,133980,1,0,0:0:0:0:
126,347,134248,2,0,P|246:336|291:249,1,174.999995231629
205,261,134650,1,0,0:0:0:0:
441,248,134784,2,0,P|442:156|394:120,1,87.4999976158143
134,37,135052,2,0,P|154:98|204:138,1,87.4999976158143
466,289,135320,2,0,P|407:209|225:236,1,262.499992847443
52,303,135855,6,0,P|142:307|166:272,1,87.4999976158143
178,282,136123,2,0,P|87:277|63:312,1,87.4999976158143
52,303,136391,6,0,P|142:307|166:272,1,87.4999976158143
178,282,136659,2,0,P|87:277|63:312,1,87.4999976158143
250,363,136927,2,0,P|292:270|264:170,1,174.999995231629
40,201,137328,2,0,P|3:114|69:5,1,174.999995231629
380,286,137730,5,0,0:0:0:0:
52,303,137998,6,0,P|142:307|166:272,1,87.4999976158143
178,282,138266,2,0,P|87:277|63:312,1,87.4999976158143
52,303,138534,6,0,P|142:307|166:272,1,87.4999976158143
178,282,138802,2,0,P|87:277|63:312,1,87.4999976158143
236,279,139070,1,0,0:0:0:0:
236,279,139203,1,0,0:0:0:0:
179,177,139471,1,0,0:0:0:0:
336,224,139605,2,0,P|360:173|359:139,1,87.4999976158143
192,170,139873,1,0,0:0:0:0:
186,167,140007,1,0,0:0:0:0:
186,167,140141,1,0,0:0:0:0:
143,221,140275,1,0,0:0:0:0:
186,167,140543,1,0,0:0:0:0:
193,225,140677,5,0,0:0:0:0:
196,223,140945,1,0,0:0:0:0:
196,223,141212,1,0,0:0:0:0:
196,223,141346,1,0,0:0:0:0:
196,223,141748,5,0,0:0:0:0:
196,223,141882,1,0,0:0:0:0:
196,223,142016,1,0,0:0:0:0:
196,223,142150,1,0,0:0:0:0:
196,223,142284,1,0,0:0:0:0:
196,223,142552,1,0,0:0:0:0:
196,223,142820,1,0,0:0:0:0:
198,279,143891,6,0,P|279:252|313:124,1,196.875002145767
251,129,144159,2,0,P|224:214|313:341,1,196.875002145767
389,344,144427,2,0,P|448:256|430:173,1,196.875002145767
359,47,144695,2,0,B|301:8|137:22|249:252|441:156|495:12,1,459.375005006791
413,11,145230,6,0,P|338:62|317:213,1,196.875002145767
433,151,145498,2,0,P|363:109|209:133,1,196.875002145767
113,158,145766,2,0,B|52:194|-3:348|251:343|245:129|137:19,1,459.375005006791
101,93,146302,6,0,P|114:182|242:265,1,196.875002145767
238,133,146569,2,0,P|170:178|125:328,1,196.875002145767
250,351,146837,2,0,B|303:395|468:399|380:158|179:234|111:371,1,459.375005006791
192,380,147373,6,0,P|271:337|308:189,1,196.875002145767
186,239,147641,2,0,P|251:288|406:280,1,196.875002145767
483,226,147909,2,0,B|525:170|522:5|285:101|367:299|507:363,1,459.375005006791
512,281,148444,6,0,P|465:202|316:170,1,196.875002145767
130,61,148712,2,0,P|91:143|151:283,1,196.875002145767
279,294,148980,2,0,B|472:345|376:-20|84:194|-82:505|337:460|102:178,1,656.250007152558
85,151,149784,5,0,0:0:0:0:
74,135,149918,1,0,0:0:0:0:
149,345,150052,6,0,P|239:320|296:234,1,196.875002145767
193,57,150320,2,0,P|169:147|215:239,1,196.875002145767
347,345,150587,6,0,P|412:278|418:175,1,196.875002145767
302,42,150855,2,0,P|237:108|230:211,1,196.875002145767
480,224,151123,6,0,P|462:131|118:110,1,459.375005006791
160,237,151659,2,0,P|240:210|274:91,1,196.875002145767
32,128,151927,2,0,P|32:221|368:302,1,459.375005006791
472,324,152462,6,0,P|493:241|420:130,1,196.875002145767
213,248,152730,2,0,P|298:261|401:179,1,196.875002145767
212,30,152998,2,0,P|149:85|147:218,1,196.875002145767
396,293,153266,2,0,B|491:251|526:100|395:42|209:93,1,459.375005006791
90,77,153802,6,0,P|100:163|206:242,1,196.875002145767
295,339,154070,2,0,P|357:283|359:150,1,196.875002145767
116,91,154338,2,0,B|20:132|-14:283|116:341|302:290,1,459.375005006791
421,293,154873,6,0,P|411:207|305:128,1,196.875002145767
215,53,155141,2,0,P|152:108|150:241,1,196.875002145767
396,293,155409,2,0,B|491:251|526:100|395:42|209:93,1,459.375005006791
90,77,155945,6,0,P|100:163|206:242,1,196.875002145767
295,339,156213,2,0,P|357:283|359:150,1,196.875002145767
96,52,156480,2,0,P|39:139|305:291,1,459.375005006791
422,307,157016,6,0,P|412:221|306:142,1,196.875002145767
217,45,157284,2,0,P|155:101|153:234,1,196.875002145767
466,318,157552,2,0,P|460:225|120:82,1,459.375005006791
95,87,158087,5,0,0:0:0:0:
295,23,158355,1,0,0:0:0:0:
314,17,158489,1,0,0:0:0:0:
68,69,158623,6,0,P|84:159|178:228,1,196.875002145767
376,106,158891,2,0,P|285:122|217:216,1,196.875002145767
385,351,159159,2,0,P|368:260|275:192,1,196.875002145767
143,269,159427,2,0,P|218:321|333:304,1,196.875002145767
424,80,159695,6,0,P|322:74|275:363,1,459.375005006791
455,237,160230,2,0,P|387:161|149:357,1,459.375005006791
373,312,160766,6,0,B|393:71|-25:48|-96:367|183:323|149:67,1,656.250007152558
9,75,161570,2,0,P|28:169|147:226,1,196.875002145767
294,134,161837,2,0,P|200:110|98:194,1,196.875002145767
183,338,162105,6,0,P|249:338|290:298,1,87.4999976158143
277,183,162373,2,0,P|277:249|317:290,1,87.4999976158143
352,192,179248,5,0,0:0:0:0:
352,192,179382,1,0,0:0:0:0:
352,192,179516,1,0,0:0:0:0:
160,192,179784,1,0,0:0:0:0:
416,136,180052,5,0,0:0:0:0:
448,128,180186,1,0,0:0:0:0:
448,128,180588,1,0,0:0:0:0:
96,192,180856,1,0,0:0:0:0:
416,248,181124,5,0,0:0:0:0:
430,251,181213,1,0,0:0:0:0:
444,255,181302,1,0,0:0:0:0:
458,258,181391,1,0,0:0:0:0:
458,258,181793,5,0,0:0:0:0:
96,192,181927,1,0,0:0:0:0:
304,96,182329,5,0,0:0:0:0:
32,192,182463,1,0,0:0:0:0:
344,261,182731,2,0,P|288:265|246:238,1,87.4999976158143
74,45,182999,6,0,P|126:58|158:103,1,87.4999976158143
267,81,183266,2,0,P|298:138|287:178,1,87.4999976158143
416,192,183534,5,0,0:0:0:0:
416,192,183668,1,0,0:0:0:0:
416,192,183802,1,0,0:0:0:0:
96,192,184070,1,0,0:0:0:0:
416,136,184338,5,0,0:0:0:0:
448,128,184472,1,0,0:0:0:0:
448,128,184874,1,0,0:0:0:0:
96,192,185142,1,0,0:0:0:0:
416,248,185410,5,0,0:0:0:0:
430,251,185499,1,0,0:0:0:0:
444,255,185588,1,0,0:0:0:0:
458,258,185677,1,0,0:0:0:0:
458,258,186079,5,0,0:0:0:0:
96,192,186213,1,0,0:0:0:0:
