osu file format v14

[General]
AudioFilename: audio.mp3
AudioLeadIn: 0
PreviewTime: 140676
Countdown: 0
SampleSet: None
StackLeniency: 0.7
Mode: 0
LetterboxInBreaks: 0
WidescreenStoryboard: 0

[Editor]
Bookmarks: 11704,65536,85723,105910,123854,161985,179929,197873
DistanceSpacing: 1.5
BeatDivisor: 4
GridSize: 4
TimelineZoom: 1.5

[Metadata]
Title:HOT PINK
TitleUnicode:핫핑크
Artist:EXID
ArtistUnicode:이엑스아이디
Creator:Bakari
Version:Challenging
Source:
Tags:Exceed In Dreaming 솔지 엘리 하니 혜린 정화 Solji LE Hani Hyerin Junghwa Street Album Yedang Entertainment Hyelin Jeonghwa TheMefisto kpop k-pop
BeatmapID:1234694
BeatmapSetID:553542

[Difficulty]
HPDrainRate:6
CircleSize:4
OverallDifficulty:7
ApproachRate:7.5
SliderMultiplier:2.3
SliderTickRate:2

[Events]
//Background and Video events
0,0,"EXID.jpg",0,0
Video,0,"La Gasolina Coreana.avi"
//Break Periods
2,9460,10318
//Storyboard Layer 0 (Background)
//Storyboard Layer 1 (Fail)
//Storyboard Layer 2 (Pass)
//Storyboard Layer 3 (Foreground)
//Storyboard Sound Samples

[TimingPoints]
489,560.747663551402,4,3,1,66,1,0
489,-133.333333333333,4,3,1,66,0,0
11143,-100,4,3,1,55,0,0
11703,-100,4,3,1,58,0,1
11844,-100,4,3,1,58,0,1
29367,-100,4,3,1,58,0,1
29647,-133.333333333333,4,1,1,58,0,0
32031,-100,4,1,1,15,0,0
32171,-133.333333333333,4,1,1,58,0,0
43105,-133.333333333333,4,1,1,58,0,0
43666,-133.333333333333,4,1,1,58,0,0
47031,-100,4,3,1,58,0,0
47591,-133.333333333333,4,3,1,58,0,0
52077,-133.333333333333,4,1,1,58,0,0
54881,-133.333333333333,4,1,1,58,0,0
55442,-133.333333333333,4,1,1,58,0,0
56563,-133.333333333333,4,3,1,58,0,0
61049,-133.333333333333,4,1,1,58,0,0
65535,-133.333333333333,4,3,1,58,0,0
68900,-133.333333333333,4,3,1,58,0,0
85722,-100,4,3,1,58,0,1
103666,-100,4,3,1,5,0,0
105909,-133.333333333333,4,2,1,55,0,0
123853,-133.333333333333,4,3,1,55,0,0
128339,-133.333333333333,4,1,1,55,0,0
131143,-100,4,1,1,55,0,0
131703,-133.333333333333,4,1,1,55,0,0
132825,-133.333333333333,4,3,1,55,0,0
137311,-133.333333333333,4,1,1,55,0,0
141797,-133.333333333333,4,3,1,55,0,0
158619,-133.333333333333,4,3,1,65,0,0
158900,-133.333333333333,4,3,1,75,0,0
159180,-133.333333333333,4,3,1,80,0,0
159320,-133.333333333333,4,3,1,85,0,0
159460,-133.333333333333,4,3,1,90,0,0
159601,-133.333333333333,4,3,1,55,0,0
161984,-100,4,3,1,55,0,1
179647,-100,4,3,1,55,0,0
179928,-100,4,3,1,55,0,1
191143,-100,4,3,1,55,0,1
191703,-100,4,3,1,55,0,1
197872,-80,4,3,1,55,0,0
198152,-80,4,3,1,5,0,0

[Colours]
Combo1 : 131,171,231
Combo2 : 255,105,180
Combo3 : 251,204,117
Combo4 : 205,63,235
Combo5 : 135,226,210

[HitObjects]
264,352,489,6,0,P|248:312|252:248,1,86.2500032901765,4|0,0:0|0:0,0:0:0:0:
308,188,1049,2,0,L|364:180,2,43.1250016450883,8|0|0,0:0|0:0|0:0,0:0:0:0:
268,152,1470,1,0,0:0:0:0:
276,100,1610,2,0,P|320:92|380:112,1,86.2500032901765,8|0,0:0|0:0,0:0:0:0:
194,132,2171,2,0,P|150:140|90:120,1,86.2500032901765,8|0,0:0|0:0,0:0:0:0:
253,215,2731,6,0,L|244:328,1,86.2500032901765,4|0,0:0|0:0,0:0:0:0:
246,300,3292,1,8,0:0:0:0:
160,76,3853,2,0,P|216:92|300:36,1,129.375004935265,8|0,0:0|0:0,0:0:0:0:
336,44,4414,2,0,L|440:56,1,86.2500032901765,8|0,0:0|0:0,0:0:0:0:
498,198,4974,5,4,0:0:0:0:
388,152,5255,2,0,L|296:160,2,86.2500032901765,0|8|0,0:0|0:0|0:0,0:0:0:0:
359,317,6096,2,0,P|308:292|228:324,1,129.375004935265,8|0,0:0|0:0,0:0:0:0:
200,356,6657,2,0,L|96:344,1,86.2500032901765,8|0,0:0|0:0,0:0:0:0:
109,342,7217,5,4,0:0:0:0:
56,236,7498,2,0,L|0:248,2,43.1250016450883,0|0|8,0:0|0:0|0:0,0:0:0:0:
140,148,8059,2,0,L|96:132,1,43.1250016450883,0|0,0:0|0:0,0:0:0:0:
76,80,8339,2,0,L|32:64,2,43.1250016450883,8|0|0,0:0|0:0|0:0,0:0:0:0:
196,60,8900,2,0,P|224:84|244:140,1,86.2500032901765,8|0,0:0|0:0,0:0:0:0:
188,244,11143,6,0,P|138:207|110:164,1,115,0|0,2:0|2:0,1:1:0:0:
277,261,11703,6,0,P|297:283|209:296,1,172.5,4|0,1:0|0:0,0:0:0:0:
188,244,12264,1,8,1:0:0:0:
371,310,12545,1,0,0:0:0:0:
280,136,12825,2,0,P|284:107|334:170,1,172.5,4|0,0:0|0:0,0:0:0:0:
308,212,13386,1,8,1:0:0:0:
220,76,13666,1,0,0:0:0:0:
367,14,13946,6,0,P|420:49|444:169,1,172.5,4|0,0:0|0:0,0:0:0:0:
411,221,14507,2,0,L|430:356,1,115,8|0,1:0|0:0,0:0:0:0:
276,276,15068,1,8,1:0:0:0:
312,119,15348,1,0,0:0:0:0:
166,188,15629,2,0,P|127:195|90:192,1,57.5,8|0,1:0|0:0,0:0:0:0:
47,142,15909,1,0,0:0:0:0:
260,136,16189,6,0,L|247:314,1,172.5,4|0,1:0|0:0,0:0:0:0:
187,362,16750,2,0,L|157:289,2,57.5,8|0|0,1:0|0:0|0:0,0:0:0:0:
346,339,17311,2,0,L|274:171,1,172.5,4|0,0:0|0:0,0:0:0:0:
269,99,17872,2,0,L|325:110,2,57.5,8|0|0,1:0|0:0|0:0,0:0:0:0:
201,142,18292,1,0,0:0:0:0:
131,182,18432,6,0,L|0:156,2,115,4|0|8,0:0|0:0|1:0,0:0:0:0:
247,294,19274,1,0,0:0:0:0:
377,200,19554,2,0,P|380:153|375:122,1,57.5,8|0,1:0|0:0,0:0:0:0:
322,86,19834,1,0,0:0:0:0:
301,246,20115,1,8,1:0:0:0:
454,199,20395,1,0,0:0:0:0:
248,168,20675,6,0,L|116:179,2,115,4|0|8,1:0|0:0|1:0,0:0:0:0:
296,232,21376,1,0,0:0:0:0:
296,232,21517,2,0,L|353:227,1,57.5,0|0,0:0|0:0,0:0:0:0:
257,301,21797,2,0,L|196:307,2,57.5,4|0|0,0:0|0:0|0:0,0:0:0:0:
328,340,22217,1,0,0:0:0:0:
260,380,22358,1,8,1:0:0:0:
408,92,22918,6,0,P|472:132|496:268,1,172.5,4|0,0:0|0:0,0:0:0:0:
484,296,23479,2,0,P|448:300|440:228,1,115,8|0,1:0|0:0,0:0:0:0:
304,332,24040,1,8,1:0:0:0:
228,192,24320,1,0,0:0:0:0:
64,226,24601,2,0,P|108:292|172:300,1,115,8|0,1:0|0:0,0:0:0:0:
216,280,25021,1,0,0:0:0:0:
288,252,25161,6,0,L|460:268,1,172.5,4|0,1:0|0:0,0:0:0:0:
432,192,25722,1,8,1:0:0:0:
352,332,26003,1,0,0:0:0:0:
254,181,26283,2,0,P|222:211|254:323,1,172.5,4|0,0:0|0:0,0:0:0:0:
288,252,26844,1,8,1:0:0:0:
140,316,27124,1,0,0:0:0:0:
20,208,27404,6,0,P|8:160|44:28,1,172.5,4|0,0:0|0:0,0:0:0:0:
112,64,27965,2,0,L|92:192,1,115,8|0,1:0|0:0,0:0:0:0:
248,136,28526,1,8,1:0:0:0:
368,32,28806,1,0,0:0:0:0:
508,91,29087,2,0,P|428:152|385:141,1,115,8|0,1:0|0:0,0:0:0:0:
352,120,29507,1,0,0:0:0:0:
296,72,29647,6,0,P|232:40|136:80,2,172.500006580353,4|8|4,0:0|0:0|3:0,0:0:0:0:
328,124,30909,2,0,L|320:196,2,43.1250016450883,0|0|0,0:0|0:0|0:0,0:0:0:0:
384,104,31330,2,0,L|392:8,1,86.2500032901765,8|0,0:0|0:0,0:0:0:0:
492,84,31890,6,0,L|482:194,1,86.2500032901765,4|0,3:0|0:0,0:0:0:0:
380,236,32451,2,0,P|392:272|428:316,1,86.2500032901765,8|0,0:0|0:0,0:0:0:0:
480,312,32872,1,0,3:0:0:0:
508,260,33012,1,2,3:0:0:0:
292,368,33573,1,8,0:0:0:0:
100,224,34133,6,0,P|44:232|-8:308,1,129.375004935265,4|0,0:0|0:0,0:0:0:0:
4,344,34694,2,0,P|40:360|64:312,1,86.2500032901765,8|0,0:0|0:0,0:0:0:0:
176,280,35255,2,0,L|368:292,1,172.500006580353,4|8,3:0|0:0,0:0:0:0:
456,344,36096,1,0,0:0:0:0:
472,288,36236,1,0,0:0:0:0:
492,232,36376,6,0,P|488:172|404:208,2,172.500006580353,4|8|2,3:0|0:0|3:0,0:0:0:0:
388,292,37778,2,0,L|316:280,1,43.1250016450883,0|0,3:0|0:0,0:0:0:0:
292,316,38059,2,0,L|196:300,1,86.2500032901765,8|0,0:0|0:0,0:0:0:0:
160,192,38619,6,0,L|288:212,1,129.375004935265,4|0,0:0|0:0,0:0:0:0:
348,200,39180,2,0,P|372:180|400:108,1,86.2500032901765,8|0,0:0|0:0,0:0:0:0:
340,24,39741,1,4,3:0:0:0:
512,168,40302,1,8,0:0:0:0:
444,268,40582,2,0,L|452:340,1,43.1250016450883,0|0,0:0|0:0,0:0:0:0:
408,352,40862,6,0,P|380:344|328:244,1,129.375004935265,4|0,3:0|0:0,0:0:0:0:
284,220,41423,2,0,P|244:216|180:248,1,86.2500032901765,8|0,0:0|0:0,0:0:0:0:
164,280,41844,1,0,3:0:0:0:
188,336,41984,2,0,L|324:324,1,129.375004935265,2|0,3:0|0:0,0:0:0:0:
372,352,42545,1,8,0:0:0:0:
416,240,42825,1,0,0:0:0:0:
464,128,43105,6,0,L|456:32,1,86.2500032901765,4|0,0:0|0:0,0:0:0:0:
340,12,43666,2,0,L|351:142,1,129.375004935265,8|0,0:0|0:0,0:0:0:0:
316,192,44227,2,0,P|296:200|224:168,1,86.2500032901765,4|0,3:0|0:0,0:0:0:0:
160,276,44788,2,0,P|192:272|260:364,1,129.375004935265,8|0,0:0|0:0,0:0:0:0:
304,372,45348,6,0,P|344:380|408:364,1,86.2500032901765,4|0,3:0|0:0,0:0:0:0:
432,328,45769,1,0,0:0:0:0:
424,268,45909,2,0,L|356:272,2,43.1250016450883,8|0|0,0:0|0:0|0:0,0:0:0:0:
512,184,46470,1,2,3:0:0:0:
408,124,46750,1,0,0:0:0:0:
512,51,47031,1,8,0:0:0:0:
328,208,47591,6,0,P|296:158|304:76,1,129.375004935265,4|0,0:0|0:0,0:0:0:0:
260,44,48152,2,0,P|216:44|168:56,1,86.2500032901765,2|0,0:0|0:0,0:0:0:0:
104,152,48713,1,4,0:0:0:0:
97,156,49274,2,0,L|92:100,2,43.1250016450883,2|0|0,0:0|0:0|0:0,0:0:0:0:
212,192,49834,6,0,L|200:328,1,129.375004935265,4|0,0:0|0:0,0:0:0:0:
240,368,50395,2,0,P|284:372|340:352,1,86.2500032901765,2|0,0:0|0:0,0:0:0:0:
424,296,50956,2,0,P|464:320|496:368,1,86.2500032901765,2|0,0:0|0:0,0:0:0:0:
337,290,51517,2,0,P|320:252|320:160,1,129.375004935265,2|0,0:0|0:0,0:0:0:0:
356,116,52077,6,0,B|390:106|390:106|393:103|393:103|394:110|394:110|398:106|398:106|445:95,1,86.2500032901765,4|0,0:0|0:0,0:0:0:0:
512,231,52638,2,0,B|477:240|477:240|474:243|474:243|473:236|473:236|469:240|469:240|422:251,1,86.2500032901765,8|0,0:0|0:0,0:0:0:0:
313,163,53199,1,4,3:0:0:0:
313,163,53479,1,0,0:0:0:0:
313,163,53760,1,8,0:0:0:0:
124,64,54320,5,4,3:0:0:0:
124,64,54601,1,0,0:0:0:0:
124,64,54881,1,8,0:0:0:0:
68,300,55442,1,4,3:0:0:0:
68,300,55722,1,0,0:0:0:0:
68,300,56003,2,0,P|88:280|108:160,1,129.375004935265,8|0,0:0|0:0,0:0:0:0:
164,148,56563,6,0,P|208:180|236:232,1,86.2500032901765,4|0,0:0|0:0,0:0:0:0:
232,328,57124,1,2,0:0:0:0:
336,268,57404,1,0,0:0:0:0:
452,236,57685,2,0,P|484:260|516:324,1,86.2500032901765,8|0,0:0|0:0,0:0:0:0:
392,330,58246,2,0,P|360:306|328:242,1,86.2500032901765,8|0,1:0|0:0,0:0:0:0:
336,208,58666,1,0,0:0:0:0:
384,172,58806,6,0,L|480:180,1,86.2500032901765,4|0,0:0|0:0,0:0:0:0:
436,64,59367,2,0,L|332:55,1,86.2500032901765,2|0,0:0|0:0,0:0:0:0:
300,88,59788,1,0,0:0:0:0:
248,120,59928,2,0,L|156:112,2,86.2500032901765,2|0|2,0:0|0:0|0:0,0:0:0:0:
332,208,60769,1,0,0:0:0:0:
239,345,61049,6,0,B|204:354|204:354|201:357|201:357|200:350|200:350|196:354|196:354|149:365,1,86.2500032901765,4|0,0:0|0:0,0:0:0:0:
56,224,61610,2,0,B|90:214|90:214|93:211|93:211|94:218|94:218|98:214|98:214|145:203,1,86.2500032901765,8|0,0:0|0:0,0:0:0:0:
272,239,62171,1,4,3:0:0:0:
272,239,62451,1,0,0:0:0:0:
272,239,62731,1,8,0:0:0:0:
428,56,63292,5,4,3:0:0:0:
428,56,63573,1,0,0:0:0:0:
428,56,63853,1,8,0:0:0:0:
464,296,64414,1,4,3:0:0:0:
464,296,64694,1,0,0:0:0:0:
464,296,64974,2,0,P|440:268|344:268,1,129.375004935265,8|0,0:0|0:0,0:0:0:0:
304,296,65535,5,8,0:0:0:0:
184,276,65816,1,8,0:0:0:0:
84,344,66096,2,0,P|68:296|72:220,1,86.2500032901765,8|8,0:0|0:0,0:0:0:0:
128,188,66657,2,0,L|176:376,1,172.500006580353,8|8,0:0|0:0,0:0:0:0:
256,344,67498,1,8,0:0:0:0:
341,355,67778,6,0,L|384:188,2,172.500006580353,8|0|8,0:0|0:0|0:0,0:0:0:0:
427,344,69180,2,0,P|442:303|446:260,2,86.2500032901765,8|8|8,0:0|0:0|0:0,0:0:0:0:
356,280,70021,6,0,L|324:76,1,172.500006580353,8|8,0:0|0:0,0:0:0:0:
256,168,70862,1,8,0:0:0:0:
182,109,71143,2,0,L|156:280,1,172.500006580353,8|8,0:0|0:0,0:0:0:0:
60,288,71984,1,8,0:0:0:0:
96,200,72264,6,0,P|168:180|252:244,1,172.500006580353,8|8,0:0|0:0,0:0:0:0:
236,324,73105,1,8,0:0:0:0:
320,284,73386,2,0,L|424:276,1,86.2500032901765,8|8,0:0|0:0,0:0:0:0:
448,192,73946,2,0,L|341:202,1,86.2500032901765,8|8,0:0|0:0,0:0:0:0:
245,230,74507,6,0,P|177:181|96:200,1,172.500006580353,8|8,0:0|0:0,0:0:0:0:
48,280,75348,1,8,0:0:0:0:
136,316,75629,2,0,L|240:308,1,86.2500032901765,8|8,0:0|0:0,0:0:0:0:
300,364,76189,1,8,0:0:0:0:
324,272,76470,6,0,P|364:276|456:376,2,172.500006580353,8|8|8,0:0|0:0|0:0,0:0:0:0:
240,228,77872,2,0,P|224:200|216:144,1,86.2500032901765,8|8,0:0|0:0,0:0:0:0:
312,152,78432,2,0,P|328:112|360:76,1,86.2500032901765,8|8,0:0|0:0,0:0:0:0:
416,152,78993,6,0,P|464:148|512:264,1,172.500006580353,8|8,0:0|0:0,0:0:0:0:
476,324,79834,1,8,0:0:0:0:
408,260,80115,2,0,L|308:240,1,86.2500032901765,8|8,0:0|0:0,0:0:0:0:
232,264,80675,1,8,0:0:0:0:
268,176,80956,1,8,0:0:0:0:
296,84,81236,5,8,0:0:0:0:
296,84,81797,1,8,0:0:0:0:
296,84,82358,2,0,L|368:68,3,43.1250016450883,8|8|8|8,0:0|0:0|0:0|0:0,0:0:0:0:
380,96,82918,2,0,L|428:88,3,43.1250016450883,8|8|8|8,0:0|0:0|0:0|0:0,0:0:0:0:
468,104,83479,5,0,0:0:0:0:
468,104,84040,1,0,0:0:0:0:
468,104,84601,1,0,0:0:0:0:
455,112,85161,5,0,2:0:0:0:
112,24,85722,6,0,P|131:74|115:199,1,172.5,4|0,1:0|0:0,0:0:0:0:
56,244,86283,2,0,L|73:365,1,115,8|0,1:0|0:0,0:0:0:0:
225,369,86844,2,0,L|197:173,1,172.5,4|0,0:0|0:0,0:0:0:0:
240,124,87404,2,0,P|272:84|292:24,1,115,8|0,1:0|0:0,0:0:0:0:
84,147,87965,6,0,P|77:120|158:140,1,172.5,4|0,0:0|0:0,0:0:0:0:
124,212,88526,2,0,P|108:264|104:352,1,115,8|0,1:0|0:0,0:0:0:0:
258,146,89087,2,0,P|250:89|222:25,1,115,8|0,1:0|0:0,0:0:0:0:
219,232,89647,1,8,1:0:0:0:
368,168,89928,1,0,0:0:0:0:
508,308,90208,6,0,P|456:332|308:280,1,172.5,4|0,1:0|0:0,0:0:0:0:
304,244,90769,2,0,L|284:112,1,115,8|0,1:0|0:0,0:0:0:0:
140,60,91330,2,0,L|168:244,1,172.5,4|0,0:0|0:0,0:0:0:0:
144,308,91890,2,0,P|104:332|32:336,1,115,8|0,1:0|0:0,0:0:0:0:
233,294,92451,5,4,0:0:0:0:
233,294,92731,1,0,0:0:0:0:
84,179,93012,1,8,1:0:0:0:
84,179,93292,1,0,0:0:0:0:
188,56,93573,2,0,L|160:240,1,172.5,8|0,1:0|0:0,0:0:0:0:
240,208,94133,2,0,L|258:93,1,115,8|0,1:0|0:0,0:0:0:0:
96,116,94694,5,4,1:0:0:0:
176,256,94974,2,0,L|184:320,1,57.5,0|0,0:0|0:0,0:0:0:0:
264,328,95255,2,0,L|252:252,1,57.5,8|0,1:0|0:0,0:0:0:0:
228,196,95535,1,0,0:0:0:0:
228,196,95675,1,0,0:0:0:0:
228,196,95816,1,4,0:0:0:0:
492,12,96376,2,0,L|508:204,1,172.5,8|0,1:0|0:0,0:0:0:0:
467,255,96937,6,0,P|436:224|429:153,1,115,4|0,0:0|0:0,0:0:0:0:
500,116,97358,1,0,0:0:0:0:
428,76,97498,2,0,L|423:8,2,57.5,8|0|0,1:0|0:0|0:0,0:0:0:0:
356,112,97918,1,0,0:0:0:0:
284,148,98059,2,0,L|289:226,1,57.5,8|0,1:0|0:0,0:0:0:0:
288,71,98339,2,0,L|209:74,1,57.5,0|0,0:0|0:0,0:0:0:0:
356,112,98619,2,0,L|364:244,1,115,8|0,1:0|0:0,0:0:0:0:
240,332,99180,6,0,P|200:300|192:152,1,172.5,4|0,1:0|0:0,0:0:0:0:
112,140,99741,2,0,P|76:176|48:244,1,115,8|0,1:0|0:0,0:0:0:0:
269,240,100302,2,0,L|248:32,1,172.5,4|0,0:0|0:0,0:0:0:0:
312,16,100862,2,0,P|356:36|412:96,1,115,8|0,1:0|0:0,0:0:0:0:
392,244,101423,5,4,0:0:0:0:
392,244,101703,1,0,0:0:0:0:
244,176,101984,2,0,P|232:220|240:288,1,115,8|0,1:0|0:0,0:0:0:0:
362,121,102545,2,0,P|372:88|372:0,1,115,8|0,1:0|0:0,0:0:0:0:
224,76,103105,2,0,L|84:88,1,115,8|0,1:0|0:0,0:0:0:0:
184,344,105909,6,0,P|160:320|24:296,2,172.500006580353,4|0|4,1:0|0:0|3:0,1:1:0:0:
252,280,107311,2,0,L|260:184,1,86.2500032901765,0|0,0:0|0:0,0:0:0:0:
332,136,107872,1,0,3:0:0:0:
404,200,108152,6,0,P|380:236|332:264,1,86.2500032901765,0|0,3:0|0:0,1:1:0:0:
328,352,108713,2,0,P|384:364|500:336,2,172.500006580353,0|4|0,0:0|3:0|0:0,1:1:0:0:
260,284,110115,1,0,0:0:0:0:
184,228,110395,6,0,P|128:216|12:244,2,172.500006580353,0|0|4,3:0|0:0|3:0,1:1:0:0:
260,284,111797,1,0,0:0:0:0:
260,188,112077,2,0,L|252:88,1,86.2500032901765,0|0,0:0|3:0,0:0:0:0:
324,40,112638,6,0,P|368:92|473:88,1,172.500006580353,0|0,3:0|0:0,1:1:0:0:
412,4,113479,1,0,3:0:0:0:
324,40,113760,1,4,3:0:0:0:
344,132,114040,1,0,3:0:0:0:
364,224,114320,1,0,0:0:0:0:
384,316,114601,1,0,0:0:0:0:
473,307,114881,6,0,P|356:227|333:389,1,345.000013160706,4|4,1:0|3:0,1:1:0:0:
384,316,116283,1,0,0:0:0:0:
312,256,116563,2,0,P|272:268|212:272,1,86.2500032901765,0|0,0:0|3:0,0:0:0:0:
168,200,117124,6,0,P|212:176|352:168,1,172.500006580353,0|0,3:0|0:0,1:1:0:0:
400,224,117965,1,0,3:0:0:0:
480,172,118246,2,0,L|472:68,1,86.2500032901765,4|0,3:0|0:0,1:1:0:0:
388,44,118806,2,0,L|396:148,1,86.2500032901765,0|0,0:0|0:0,1:1:0:0:
400,224,119367,5,0,3:0:0:0:
400,224,119928,1,0,0:0:0:0:
400,224,120489,1,4,3:0:0:0:
400,224,121049,1,0,0:0:0:0:
256,192,121610,12,0,123292,0:0:0:0:
324,125,123853,6,0,P|344:168|427:180,1,129.375004935265,4|0,0:0|0:0,0:0:0:0:
472,152,124414,1,2,0:0:0:0:
416,260,124694,1,0,0:0:0:0:
500,360,124974,1,4,0:0:0:0:
500,360,125115,1,0,0:0:0:0:
500,360,125255,1,0,0:0:0:0:
380,348,125535,2,0,L|280:340,1,86.2500032901765,8|0,1:0|0:0,0:0:0:0:
232,236,126096,6,0,P|308:212|336:160,1,129.375004935265,4|0,0:0|0:0,0:0:0:0:
388,144,126657,2,0,P|432:168|456:208,1,86.2500032901765,2|0,0:0|0:0,0:0:0:0:
316,86,127217,2,0,L|328:-8,1,86.2500032901765,0|0,0:0|0:0,0:0:0:0:
191,66,127778,2,0,L|168:220,1,129.375004935265,2|0,0:0|0:0,0:0:0:0:
164,256,128339,6,0,B|157:290|157:290|154:293|154:293|161:294|161:294|157:298|157:298|150:346,1,86.2500032901765,4|0,0:0|0:0,0:0:0:0:
293,256,128900,2,0,B|299:221|299:221|302:218|302:218|295:217|295:217|299:213|299:213|306:165,1,86.2500032901765,8|0,0:0|0:0,0:0:0:0:
384,350,129460,2,0,P|432:352|508:280,1,129.375004935265,8|0,0:0|0:0,0:0:0:0:
480,248,130021,2,0,P|444:204|432:168,1,86.2500032901765,8|0,0:0|0:0,0:0:0:0:
464,60,130582,5,4,0:0:0:0:
464,60,130862,1,0,0:0:0:0:
464,60,131143,2,0,L|264:40,1,172.5,8|0,0:0|0:0,0:0:0:0:
244,80,131703,1,8,0:0:0:0:
244,80,131984,1,0,0:0:0:0:
244,80,132264,2,0,P|264:112|316:144,1,86.2500032901765,8|0,0:0|0:0,0:0:0:0:
364,124,132685,1,0,0:0:0:0:
404,168,132825,6,0,P|392:208|388:272,1,86.2500032901765,4|0,0:0|0:0,0:0:0:0:
492,312,133386,2,0,P|512:252|508:176,1,129.375004935265,2|0,0:0|0:0,0:0:0:0:
488,132,133946,2,0,P|480:104|476:72,2,43.1250016450883,4|0|0,0:0|0:0|0:0,0:0:0:0:
396,212,134507,2,0,P|364:176|344:120,1,86.2500032901765,2|0,0:0|0:0,0:0:0:0:
229,46,135068,6,0,P|184:88|84:104,1,129.375004935265,4|0,0:0|0:0,0:0:0:0:
96,160,135629,2,0,P|152:192|236:188,1,129.375004935265,2|0,0:0|0:0,0:0:0:0:
260,232,136189,2,0,P|228:268|160:284,1,86.2500032901765,2|0,0:0|0:0,0:0:0:0:
376,210,136750,2,0,P|409:266|423:348,1,129.375004935265,2|0,0:0|0:0,0:0:0:0:
380,372,137311,6,0,B|345:365|345:365|342:362|342:362|341:369|341:369|337:365|337:365|289:358,1,86.2500032901765,4|0,0:0|0:0,0:0:0:0:
225,250,137872,2,0,B|190:243|190:243|187:240|187:240|186:247|186:247|182:243|182:243|134:236,1,86.2500032901765,8|0,0:0|0:0,0:0:0:0:
328,168,138432,1,8,0:0:0:0:
328,168,138713,1,0,0:0:0:0:
328,168,138993,2,0,P|348:216|352:268,1,86.2500032901765,8|0,0:0|0:0,0:0:0:0:
214,130,139554,6,0,P|228:92|308:28,1,129.375004935265,4|0,0:0|0:0,0:0:0:0:
352,36,140115,2,0,P|392:56|428:100,1,86.2500032901765,8|0,0:0|0:0,0:0:0:0:
372,196,140675,1,2,0:0:0:0:
372,196,140956,1,0,0:0:0:0:
372,196,141236,2,0,L|248:180,1,86.2500032901765,2|0,0:0|0:0,0:0:0:0:
200,228,141797,6,0,P|184:272|184:332,1,86.2500032901765,8|8,0:0|0:0,0:0:0:0:
264,360,142358,2,0,L|448:328,1,172.500006580353,8|8,0:0|0:0,0:0:0:0:
480,248,143199,1,8,0:0:0:0:
400,196,143479,2,0,P|372:220|344:288,1,86.2500032901765,8|8,0:0|0:0,0:0:0:0:
252,260,144040,6,0,P|236:220|236:84,2,172.500006580353,8|0|8,0:0|0:0|0:0,0:0:0:0:
316,332,145442,1,8,0:0:0:0:
228,368,145722,2,0,L|132:356,1,86.2500032901765,8|8,0:0|0:0,0:0:0:0:
76,288,146283,6,0,P|68:248|44:196,1,86.2500032901765,8|8,0:0|0:0,0:0:0:0:
84,116,146844,2,0,P|136:96|176:64,1,86.2500032901765,8|8,0:0|0:0,0:0:0:0:
137,196,147404,1,8,0:0:0:0:
137,196,147685,1,8,0:0:0:0:
239,290,147965,1,8,0:0:0:0:
239,290,148246,1,8,0:0:0:0:
334,155,148526,6,0,P|372:141|492:212,1,172.500006580353,8|8,0:0|0:0,0:0:0:0:
478,289,149367,1,8,0:0:0:0:
396,336,149647,2,0,L|216:328,1,172.500006580353,8|8,0:0|0:0,0:0:0:0:
144,380,150489,1,8,0:0:0:0:
64,328,150769,6,0,P|95:298|149:284,1,86.2500032901765,8|8,0:0|0:0,0:0:0:0:
172,196,151330,2,0,P|128:172|28:164,1,129.375004935265,8|0,0:0|0:0,0:0:0:0:
20,128,151890,2,0,P|56:100|104:84,1,86.2500032901765,8|8,0:0|0:0,0:0:0:0:
188,108,152451,1,8,0:0:0:0:
156,20,152731,1,8,0:0:0:0:
93,85,153012,6,0,L|109:245,1,129.375004935265,8|0,0:0|0:0,0:0:0:0:
76,252,153573,2,0,P|60:288|52:336,1,86.2500032901765,8|8,0:0|0:0,0:0:0:0:
140,368,154133,2,0,L|180:216,1,129.375004935265,8|0,0:0|0:0,0:0:0:0:
220,228,154694,2,0,P|236:272|240:328,1,86.2500032901765,8|8,0:0|0:0,0:0:0:0:
336,328,155255,6,0,P|388:292|496:304,2,172.500006580353,8|8|8,0:0|0:0|0:0,0:0:0:0:
300,240,156657,1,8,0:0:0:0:
240,310,156937,2,0,P|220:272|172:240,1,86.2500032901765,0|8,0:0|0:0,0:0:0:0:
161,127,157498,6,0,P|200:120|280:56,1,129.375004935265,8|0,0:0|0:0,0:0:0:0:
316,56,158059,2,0,P|332:96|308:216,1,129.375004935265,8|0,0:0|0:0,0:0:0:0:
300,220,158619,2,0,L|304:288,3,43.1250016450883,8|0|8|0,0:0|0:0|0:0|0:0,0:0:0:0:
308,312,159180,1,8,0:0:0:0:
264,292,159320,1,0,0:0:0:0:
216,288,159460,1,8,0:0:0:0:
168,296,159601,1,0,0:0:0:0:
128,320,159741,6,0,L|64:312,1,43.1250016450883,8|8,0:0|0:0,0:0:0:0:
48,177,160161,2,0,L|112:188,2,43.1250016450883,8|8|8,0:0|0:0|0:0,0:0:0:0:
153,51,160722,2,0,L|208:60,1,43.1250016450883,8|8,0:0|0:0,0:0:0:0:
321,12,161143,1,0,0:0:0:0:
311,28,161423,5,0,2:0:0:0:
324,278,161984,6,0,L|500:252,1,172.5,4|0,1:0|0:0,0:0:0:0:
488,172,162545,2,0,P|460:160|404:88,1,115,8|0,1:0|0:0,0:0:0:0:
409,285,163105,2,0,P|402:311|258:339,1,172.5,4|0,0:0|0:0,0:0:0:0:
237,282,163666,2,0,L|253:162,1,115,8|0,1:0|0:0,0:0:0:0:
76,28,164227,5,4,0:0:0:0:
136,176,164507,1,0,0:0:0:0:
44,308,164788,2,0,P|40:256|64:192,1,115,8|0,1:0|0:0,0:0:0:0:
212,140,165348,1,8,1:0:0:0:
68,68,165629,1,0,0:0:0:0:
140,212,165909,2,0,L|132:344,1,115,8|0,1:0|0:0,0:0:0:0:
345,227,166470,6,0,P|382:245|446:361,1,172.5,4|0,1:0|0:0,0:0:0:0:
280,341,167031,2,0,P|316:312|356:360,1,115,8|0,1:0|0:0,0:0:0:0:
202,297,167591,2,0,P|261:236|345:227,1,172.5,4|0,0:0|0:0,0:0:0:0:
388,156,168152,2,0,P|360:108|356:48,1,115,8|0,1:0|0:0,0:0:0:0:
494,191,168713,6,0,L|368:200,1,115,4|0,0:0|0:0,0:0:0:0:
268,316,169274,1,8,1:0:0:0:
428,344,169554,1,0,0:0:0:0:
268,316,169834,1,8,1:0:0:0:
428,344,170114,1,0,0:0:0:0:
268,316,170395,1,8,1:0:0:0:
428,344,170675,1,0,0:0:0:0:
270,177,170956,6,0,P|196:216|68:176,1,172.5,4|0,1:0|0:0,0:0:0:0:
56,144,171517,2,0,P|48:92|60:24,1,115,8|0,1:0|0:0,0:0:0:0:
136,8,171937,1,0,0:0:0:0:
172,80,172077,2,0,P|152:104|120:128,2,57.5,4|0|0,0:0|0:0|0:0,0:0:0:0:
244,112,172498,1,0,0:0:0:0:
312,72,172638,2,0,P|360:84|432:80,1,115,8|0,1:0|0:0,0:0:0:0:
512,216,173199,6,0,P|508:272|452:216,1,172.5,4|0,0:0|0:0,0:0:0:0:
396,160,173760,2,0,P|368:200|372:284,1,115,8|0,1:0|0:0,0:0:0:0:
336,340,174180,1,0,0:0:0:0:
260,320,174320,2,0,P|208:304|104:356,1,172.5,8|0,1:0|0:0,0:0:0:0:
24,352,174881,2,0,L|12:172,1,172.5,8|0,1:0|0:0,0:0:0:0:
52,112,175442,6,0,P|84:92|200:136,1,172.5,4|0,1:0|0:0,0:0:0:0:
192,216,176003,2,0,L|180:336,1,115,8|0,1:0|0:0,0:0:0:0:
258,313,176423,1,0,0:0:0:0:
331,282,176563,2,0,L|347:102,1,172.5,4|0,0:0|0:0,0:0:0:0:
396,44,177124,2,0,P|448:40|496:84,1,115,8|0,1:0|0:0,0:0:0:0:
496,240,177685,5,4,0:0:0:0:
360,148,177965,1,0,0:0:0:0:
232,244,178246,2,0,P|268:272|388:244,1,172.5,8|0,1:0|0:0,0:0:0:0:
440,192,178806,1,8,1:0:0:0:
372,340,179087,1,0,0:0:0:0:
312,192,179367,2,0,L|320:72,1,115,8|0,1:0|0:0,0:0:0:0:
172,12,179928,6,0,L|188:204,1,172.5,4|0,1:0|0:0,0:0:0:0:
179,263,180489,2,0,P|139:247|110:171,1,115,8|0,1:0|0:0,0:0:0:0:
268,235,181049,2,0,P|273:289|238:341,1,115,4|0,0:0|0:0,0:0:0:0:
270,141,181610,2,0,P|320:116|424:156,1,172.5,8|0,1:0|0:0,0:0:0:0:
444,232,182171,6,0,P|416:280|308:300,1,172.5,4|0,0:0|0:0,0:0:0:0:
268,235,182731,1,8,1:0:0:0:
156,352,183012,1,0,0:0:0:0:
76,212,183292,2,0,P|116:216|156:232,1,57.5,8|0,1:0|0:0,0:0:0:0:
196,272,183573,1,0,0:0:0:0:
180,112,183853,2,0,P|204:68|328:40,1,172.5,8|0,1:0|0:0,0:0:0:0:
376,88,184414,6,0,P|408:84|484:40,1,115,4|0,1:0|0:0,0:0:0:0:
301,149,184974,2,0,P|312:209|416:304,1,172.5,8|0,1:0|0:0,0:0:0:0:
464,276,185535,2,0,P|496:232|508:160,1,115,4|0,0:0|0:0,0:0:0:0:
440,356,186096,1,8,1:0:0:0:
446,363,186376,1,0,0:0:0:0:
260,360,186657,6,0,L|138:341,1,115,4|0,0:0|0:0,0:0:0:0:
116,184,187217,2,0,P|176:176|264:280,1,172.5,8|0,1:0|0:0,0:0:0:0:
336,256,187778,2,0,P|388:240|456:244,1,115,8|0,1:0|0:0,0:0:0:0:
296,137,188339,2,0,L|305:314,1,172.5,8|0,1:0|0:0,0:0:0:0:
248,368,188900,6,0,P|200:368|144:256,1,172.5,4|0,1:0|0:0,0:0:0:0:
124,192,189460,2,0,P|92:160|8:140,1,115,8|0,1:0|0:0,0:0:0:0:
242,200,190021,2,0,P|280:152|272:32,1,172.5,4|0,0:0|0:0,0:0:0:0:
348,0,190582,2,0,P|400:28|472:20,1,115,8|0,1:0|0:0,0:0:0:0:
503,218,191143,6,0,P|444:248|364:172,1,172.5,4|0,0:0|0:0,0:0:0:0:
308,248,191703,2,0,L|324:364,1,115,8|0,1:0|0:0,0:0:0:0:
172,304,192264,2,0,L|200:124,1,172.5,8|0,1:0|0:0,0:0:0:0:
132,88,192825,2,0,P|92:112|4:108,1,115,8|0,1:0|0:0,0:0:0:0:
200,208,193386,6,0,P|128:169|132:88,1,172.5,4|0,1:0|0:0,0:0:0:0:
204,52,193946,2,0,P|256:76|268:144,1,115,8|0,1:0|0:0,0:0:0:0:
216,280,194507,1,4,0:0:0:0:
216,280,194647,1,0,0:0:0:0:
216,280,194788,1,0,0:0:0:0:
364,216,195068,2,0,L|488:204,1,115,0|0,1:0|0:0,0:0:0:0:
280,168,195629,5,4,0:0:0:0:
332,320,195909,1,0,0:0:0:0:
252,332,196049,1,0,0:0:0:0:
280,256,196189,1,8,1:0:0:0:
434,259,196470,1,0,0:0:0:0:
280,168,196750,2,0,P|260:124|260:52,1,115,8|0,1:0|0:0,0:0:0:0:
320,8,197171,1,0,0:0:0:0:
336,88,197311,1,8,1:0:0:0:
184,40,197591,1,0,0:0:0:0:
8,8,197872,6,0,L|28:152,1,143.75,4|0,0:0|0:0,0:0:0:0:
