osu file format v14

[General]
AudioFilename: audio.mp3
AudioLeadIn: 0
PreviewTime: 66994
Countdown: 0
SampleSet: Soft
StackLeniency: 0.5
Mode: 0
LetterboxInBreaks: 0
EpilepsyWarning: 1
WidescreenStoryboard: 0

[Editor]
DistanceSpacing: 0.8
BeatDivisor: 4
GridSize: 4
TimelineZoom: 1.2

[Metadata]
Title:DDD
TitleUnicode:덜덜덜
Artist:EXID
ArtistUnicode:이엑스아이디
Creator:cosmiccc
Version:Fire
Source:
Tags:kpop Dul DulDulDul Full Moon Hani 안희연 LE 안효진 Park Junghwa Jeonghwa 박정화 Seo Hyelin Hyerin 서혜린 Heo Solji 허솔지
BeatmapID:1463256
BeatmapSetID:691433

[Difficulty]
HPDrainRate:6.3
CircleSize:4
OverallDifficulty:7.3
ApproachRate:9
SliderMultiplier:2
SliderTickRate:1

[Events]
//Background and Video events
Video,0,"DDD.mp4"
0,0,"ddd1.png",0,0
//Break Periods
//Storyboard Layer 0 (Background)
//Storyboard Layer 1 (Fail)
//Storyboard Layer 2 (Pass)
//Storyboard Layer 3 (Foreground)
//Storyboard Sound Samples

[TimingPoints]
412,526.315789473684,4,2,2,40,1,0
8833,-83.3333333333333,4,2,2,40,0,0
10280,-83.3333333333333,4,2,2,5,0,0
10411,-83.3333333333333,4,2,2,40,0,0
10543,-83.3333333333333,4,2,2,5,0,0
10675,-83.3333333333333,4,2,2,40,0,0
12385,-83.3333333333333,4,2,2,5,0,0
12517,-83.3333333333333,4,2,2,40,0,0
12648,-83.3333333333333,4,2,2,5,0,0
12780,-83.3333333333333,4,2,2,40,0,0
14490,-83.3333333333333,4,2,2,5,0,0
14622,-83.3333333333333,4,2,2,40,0,0
14754,-83.3333333333333,4,2,2,5,0,0
14885,-83.3333333333333,4,2,2,40,0,0
16596,-83.3333333333333,4,2,2,5,0,0
16727,-83.3333333333333,4,2,2,40,0,0
16859,-83.3333333333333,4,2,2,5,0,0
16990,-83.3333333333333,4,2,2,40,0,0
17254,-100,4,2,2,40,0,0
18306,-200,4,2,2,40,0,0
19359,-62.5,4,2,2,40,0,0
19425,-62.5,4,2,2,5,0,0
19622,-62.5,4,2,2,40,0,0
20938,-83.3333333333333,4,2,2,40,0,0
21069,-83.3333333333333,4,2,2,5,0,0
21201,-83.3333333333333,4,2,2,40,0,0
21333,-83.3333333333333,4,2,2,5,0,0
21464,-100,4,2,2,40,0,0
22648,-100,4,2,2,5,0,0
23043,-100,4,2,2,40,0,0
25675,-100,4,2,2,40,0,1
29490,-100,4,2,2,5,0,1
29622,-100,4,2,2,40,0,1
29754,-100,4,2,2,5,0,1
29885,-100,4,2,2,40,0,1
31596,-100,4,2,2,5,0,1
31727,-100,4,2,2,40,0,1
31859,-100,4,2,2,5,0,1
31990,-100,4,2,2,40,0,1
34096,-100,4,2,2,40,0,0
35148,-200,4,2,2,40,0,0
35938,-62.5,4,2,2,40,0,0
36004,-62.5,4,2,2,5,0,0
36201,-100,4,2,2,40,0,0
37911,-100,4,2,2,5,0,0
38043,-100,4,2,2,40,0,0
38175,-100,4,2,2,5,0,0
38306,-100,4,2,2,40,0,0
40411,-100,4,2,2,40,0,0
41333,-100,4,2,2,35,0,0
41464,-100,4,2,2,40,0,0
41596,-100,4,2,2,35,0,0
41727,-100,4,2,2,40,0,0
41903,-100,4,2,2,35,0,0
41990,-142.857142857143,4,2,2,40,0,0
42517,-100,4,2,2,40,0,1
44227,-100,4,2,2,5,0,1
44359,-100,4,2,2,40,0,1
44490,-100,4,2,2,5,0,1
44622,-100,4,2,2,40,0,1
46859,-100,4,2,2,5,0,1
46990,-100,4,2,2,40,0,1
50938,-200,4,2,3,30,0,0
51464,-200,4,2,2,30,0,0
59359,-200,4,2,2,60,0,0
63569,-100,4,2,2,60,0,0
65675,517.241379310345,4,2,2,55,1,0
67743,-83.3333333333333,4,2,2,65,0,1
67873,-83.3333333333333,4,2,2,5,0,1
68002,-83.3333333333333,4,2,2,65,0,1
68131,-83.3333333333333,4,2,2,5,0,1
68261,-83.3333333333333,4,2,2,65,0,1
69425,-83.3333333333333,4,2,2,5,0,1
69554,-83.3333333333333,4,2,2,65,0,1
69683,-83.3333333333333,4,2,2,5,0,1
69812,-83.3333333333333,4,2,2,65,0,1
75372,-83.3333333333333,4,2,2,5,0,1
75501,-83.3333333333333,4,2,2,65,0,1
75630,-83.3333333333333,4,2,2,5,0,1
75760,-83.3333333333333,4,2,2,65,0,1
75889,-83.3333333333333,4,2,2,5,0,1
76018,-200,4,2,2,65,0,1
76536,-83.3333333333333,4,2,2,65,0,1
84294,-100,4,3,2,50,0,0
84811,-62.5,4,2,2,50,0,0
84941,-100,4,2,2,5,0,0
85070,-62.5,4,2,2,50,0,0
85329,-285.714285714286,4,2,2,50,0,0
85846,-33.3333333333333,4,2,2,50,0,0
85975,-33.3333333333333,4,2,2,5,0,0
86364,-33.3333333333333,4,2,2,50,0,0
90502,526.315789473684,4,2,2,50,1,0
109455,-100,4,2,2,50,0,1
117876,-100,4,2,2,50,0,0
134712,517.241379310345,4,2,2,50,1,0
136780,-100,4,2,2,50,0,1
152819,-100,4,2,2,50,0,0
153336,-100,4,2,2,50,0,1
159543,-100,4,2,2,50,0,0
161612,-100,4,2,2,50,0,1
169371,-100,4,2,2,50,0,0
169888,-100,4,2,2,50,0,1
186440,526.315789473684,4,2,2,50,1,0
100000000,-400,4,2,2,50,0,0

[HitObjects]
24,148,8833,6,0,P|76:168|136:144,1,119.999996337891
200,92,9227,1,0,0:0:0:0:
176,208,9359,1,0,0:0:0:0:
80,80,9490,5,0,0:0:0:0:
160,208,9622,1,0,0:0:0:0:
268,44,9885,5,0,0:0:0:0:
84,344,10148,6,0,L|92:280,1,59.9999981689454
344,256,10411,2,0,L|336:315,1,59.9999981689454
80,268,10675,5,0,0:0:0:0:
420,252,10938,6,0,P|428:200|384:144,1,119.999996337891
316,104,11333,1,0,0:0:0:0:
350,214,11465,1,0,0:0:0:0:
444,84,11596,5,0,0:0:0:0:
340,224,11728,1,0,0:0:0:0:
76,135,11990,5,0,0:0:0:0:
316,32,12254,6,0,L|308:91,1,59.9999981689454
76,135,12517,2,0,L|83:75,1,59.9999981689454
316,112,12780,5,0,0:0:0:0:
0,207,13043,6,0,L|120:215,1,119.999996337891
216,224,13438,1,0,0:0:0:0:
132,116,13569,1,0,0:0:0:0:
160,312,13701,5,0,0:0:0:0:
136,132,13833,1,0,0:0:0:0:
0,288,14096,5,0,0:0:0:0:
352,360,14359,6,0,P|312:364|280:356,1,59.9999981689454
220,252,14622,2,0,P|260:248|292:256,1,59.9999981689454
88,344,14885,5,0,0:0:0:0:
384,152,15148,6,0,L|396:284,1,119.999996337891
312,296,15543,1,0,0:0:0:0:
496,240,15674,1,0,0:0:0:0:
408,356,15806,5,0,0:0:0:0:
488,252,15938,1,0,0:0:0:0:
368,32,16201,5,0,0:0:0:0:
240,127,16464,6,0,P|210:132|180:128,1,59.9999981689454
107,20,16727,2,0,P|137:15|167:19,1,59.9999981689454
136,216,16990,5,0,0:0:0:0:
136,216,17254,5,0,0:0:0:0:
16,192,17517,1,0,0:0:0:0:
144,164,17780,2,0,L|152:264,1,100
160,368,18306,6,0,B|160:352|180:336|180:336|212:352|248:348,1,100
376,332,19096,5,0,0:0:0:0:
352,188,19359,6,0,P|350:213|354:236,1,40
360,88,19622,5,0,0:0:0:0:
240,212,19885,1,0,0:0:0:0:
444,228,20148,1,0,0:0:0:0:
240,212,20411,5,0,0:0:0:0:
444,228,20543,1,0,0:0:0:0:
132,256,20938,6,0,P|124:220|132:180,1,59.9999981689454
368,124,21201,6,0,P|376:160|368:200,1,59.9999981689454
96,120,21464,6,0,B|28:112|28:112|0:92,2,100
228,56,22254,1,0,0:0:0:0:
52,216,22517,6,0,L|60:268,1,50
52,216,23043,6,0,L|68:316,1,100
236,328,23569,5,0,0:0:0:0:
428,352,23833,1,0,0:0:0:0:
304,180,24096,5,0,0:0:0:0:
336,364,24359,1,0,0:0:0:0:
304,180,24622,5,0,0:0:0:0:
336,364,24754,1,0,0:0:0:0:
480,128,25148,6,0,B|476:168|476:168|488:196|488:196|484:236,1,100
144,40,25675,5,0,0:0:0:0:
144,40,25938,6,0,P|152:75|168:100,1,50
364,148,26201,6,0,P|356:113|340:88,1,50
40,28,26464,5,0,0:0:0:0:
228,44,26640,5,0,0:0:0:0:
8,128,26859,5,0,0:0:0:0:
284,148,26990,1,0,0:0:0:0:
76,240,27254,2,0,L|64:180,1,50
268,256,27517,1,0,0:0:0:0:
268,256,27780,5,0,0:0:0:0:
352,204,27911,1,0,0:0:0:0:
320,320,28043,1,0,0:0:0:0:
220,188,28175,1,0,0:0:0:0:
428,216,28306,1,0,0:0:0:0:
412,316,28569,5,0,0:0:0:0:
440,132,28745,5,0,0:0:0:0:
304,360,28964,5,0,0:0:0:0:
344,80,29096,1,0,0:0:0:0:
12,300,29359,6,0,B|7:271|7:271|14:241,1,50
216,308,29622,2,0,B|221:337|221:337|214:367,1,50
43,160,29885,6,0,P|91:153|136:176,1,100
72,364,30280,5,0,0:0:0:0:
80,232,30411,6,0,L|76:284,1,50
340,248,30675,5,0,0:0:0:0:
332,360,30806,1,0,0:0:0:0:
348,152,30938,5,0,0:0:0:0:
224,252,31069,1,0,0:0:0:0:
436,304,31201,1,0,0:0:0:0:
216,232,31464,6,0,L|221:182,1,50
496,136,31727,2,0,L|490:185,1,50
32,52,31990,6,0,L|100:56,1,50
0,200,32254,5,0,0:0:0:0:
80,104,32517,6,0,L|148:108,1,50
0,280,32780,5,0,0:0:0:0:
324,236,33043,5,0,0:0:0:0:
256,100,33175,1,0,0:0:0:0:
188,212,33306,1,0,0:0:0:0:
364,124,33438,1,0,0:0:0:0:
108,136,33569,6,0,L|176:144,1,50
484,184,33833,5,0,0:0:0:0:
476,360,34096,6,0,B|500:318|500:318|492:266,1,100
360,224,34622,1,0,0:0:0:0:
480,188,34885,1,0,0:0:0:0:
272,256,35148,6,0,B|264:307|264:307|291:355,1,100
32,252,35938,6,0,L|71:249,1,40
48,352,36201,5,0,0:0:0:0:
188,240,36464,5,0,0:0:0:0:
60,148,36727,1,0,0:0:0:0:
40,360,36990,1,0,0:0:0:0:
60,148,37254,5,0,0:0:0:0:
40,360,37385,1,0,0:0:0:0:
220,276,37780,6,0,P|196:280|160:276,1,50
72,136,38043,2,0,P|96:132|132:136,1,50
392,360,38306,5,0,0:0:0:0:
328,188,38569,1,0,0:0:0:0:
476,260,38833,1,0,0:0:0:0:
256,280,39096,1,0,0:0:0:0:
476,260,39359,5,4,0:0:0:0:
256,280,39490,1,0,0:0:0:0:
364,272,39885,6,0,B|375:222|375:222|364:172,1,100
52,344,40411,6,0,L|56:244,1,100
236,160,40806,5,0,0:0:0:0:
236,160,40938,1,0,0:0:0:0:
236,160,41201,6,0,B|231:188|231:188|234:221,1,50
384,64,41464,6,0,B|356:59|356:59|323:62,1,50
468,228,41727,6,0,B|473:200|473:200|468:152,1,66.6666666666667
460,364,41990,6,0,B|466:327|466:327|457:290|457:290|473:262|467:227,1,139.999995727539
160,44,42780,6,0,L|228:47,1,50
56,120,43043,1,0,0:0:0:0:
56,120,43306,6,0,L|112:124,2,50
68,344,43701,5,0,0:0:0:0:
244,324,43833,1,0,0:0:0:0:
40,220,44096,6,0,P|34:250|38:286,1,50
268,312,44359,2,0,P|274:282|270:246,1,50
260,20,44622,6,0,B|252:68|252:68|260:96|260:96|257:117,1,100
257,118,45148,6,0,B|260:152,1,25
352,352,45411,5,0,0:0:0:0:
384,212,45543,1,0,0:0:0:0:
456,348,45675,1,0,0:0:0:0:
312,276,45806,1,0,0:0:0:0:
476,248,45938,1,0,0:0:0:0:
40,340,46201,6,0,B|76:336|76:336|108:348|108:348|144:340,1,100
160,48,46727,6,0,P|160:72|156:100,1,50
120,188,46990,1,0,0:0:0:0:
36,100,47122,1,0,0:0:0:0:
288,144,47254,1,0,0:0:0:0:
288,144,47517,6,0,P|293:119|292:94,2,50
260,296,47911,5,0,0:0:0:0:
468,232,48043,1,0,0:0:0:0:
468,232,48306,6,0,L|463:332,2,100
256,192,48964,12,0,50675,0:0:0:0:
392,36,50938,6,0,B|426:40|426:40|451:33|451:33|491:37,1,100,2|0,0:0|0:0,0:0:0:0:
376,184,51727,1,0,0:0:0:0:
376,184,51990,2,0,B|336:180|336:180|311:187|311:187|277:183,1,100
56,360,52780,1,0,0:0:0:0:
56,360,53043,6,0,P|40:292|60:248,1,100
256,176,54096,2,0,P|265:224|248:270,1,100
40,184,54885,1,0,0:0:0:0:
40,184,55148,6,0,L|28:124,1,50
140,212,55675,5,0,0:0:0:0:
140,212,55938,1,0,0:0:0:0:
100,44,56201,6,0,L|112:108,1,50
396,184,56727,6,0,B|376:200|376:200|336:184|296:200,1,100
368,320,57780,6,0,L|420:324,1,50
272,368,58306,2,0,P|257:320|265:271,1,100
488,36,59359,5,4,0:0:0:0:
404,208,59622,1,4,0:0:0:0:
328,68,59885,1,4,0:0:0:0:
500,120,60148,1,4,0:0:0:0:
180,264,60411,5,4,0:0:0:0:
136,108,60675,1,4,0:0:0:0:
296,60,60938,1,4,0:0:0:0:
356,232,61201,1,4,0:0:0:0:
64,324,61464,5,4,0:0:0:0:
248,264,61727,1,4,0:0:0:0:
84,220,61990,1,4,0:0:0:0:
244,360,62254,1,4,0:0:0:0:
56,100,62517,5,4,0:0:0:0:
152,248,62780,1,4,0:0:0:0:
236,64,63043,1,4,0:0:0:0:
48,184,63306,1,4,0:0:0:0:
48,184,63569,6,4,P|44:160|44:132,1,50
236,176,63833,2,4,P|235:200|231:225,1,50
88,44,64096,6,4,L|160:52,1,50
172,296,64359,6,4,L|122:290,1,50
332,172,64622,5,4,0:0:0:0:
448,300,64754,1,4,0:0:0:0:
428,120,64885,1,4,0:0:0:0:
352,264,65017,1,4,0:0:0:0:
480,192,65148,5,4,0:0:0:0:
248,160,65280,1,4,0:0:0:0:
352,264,65411,1,4,0:0:0:0:
272,88,65543,1,4,0:0:0:0:
200,280,65675,1,4,0:0:0:0:
256,192,65804,12,0,67226,0:0:0:0:
356,32,67743,6,0,L|360:100,1,59.9999981689454
500,176,68002,2,0,L|496:116,1,59.9999981689454
256,84,68261,5,0,0:0:0:0:
164,140,68389,1,0,0:0:0:0:
304,180,68518,1,0,0:0:0:0:
256,84,68777,5,0,0:0:0:0:
224,348,69036,5,0,0:0:0:0:
128,332,69166,1,0,0:0:0:0:
48,264,69295,6,0,P|74:244|106:236,1,59.9999981689454
372,332,69554,2,0,P|343:354|314:361,1,59.9999981689454
24,36,69811,5,0,0:0:0:0:
140,48,69940,1,0,0:0:0:0:
268,60,70069,1,0,0:0:0:0:
492,204,70328,5,0,0:0:0:0:
452,12,70587,1,0,0:0:0:0:
224,204,70847,6,0,P|280:228|344:216,1,119.999996337891
416,184,71235,1,0,0:0:0:0:
292,132,71364,1,0,0:0:0:0:
0,296,71622,5,0,0:0:0:0:
108,288,71751,1,0,0:0:0:0:
220,280,71880,1,0,0:0:0:0:
88,376,72139,6,0,L|76:296,1,59.9999981689454
344,228,72398,2,0,L|332:292,1,59.9999981689454
168,200,72656,1,0,0:0:0:0:
312,364,72915,5,0,0:0:0:0:
484,176,73174,2,0,L|460:300,2,119.999996337891
256,192,73820,12,0,74984,0:0:0:0:
224,32,75243,6,0,P|236:61|236:112,1,59.9999981689454
424,176,75501,6,0,P|396:193|352:204,1,59.9999981689454
188,304,75760,6,0,P|184:272|192:224,1,59.9999981689454
268,200,76018,2,0,P|272:232|264:272,1,50
188,168,76536,5,0,0:0:0:0:
88,312,76665,1,0,0:0:0:0:
20,208,76794,1,0,0:0:0:0:
244,320,77053,5,0,0:0:0:0:
512,304,77311,1,0,0:0:0:0:
360,352,77571,6,0,B|332:332|332:332|432:320,1,119.999996337891
480,24,78087,5,0,0:0:0:0:
424,128,78216,1,0,0:0:0:0:
512,208,78345,1,0,0:0:0:0:
480,24,78605,5,0,0:0:0:0:
196,88,78863,1,0,0:0:0:0:
388,36,79122,6,0,P|308:76|292:112,1,119.999996337891
248,188,79510,1,0,0:0:0:0:
112,168,79639,1,0,0:0:0:0:
76,268,79898,5,0,0:0:0:0:
144,100,80027,1,0,0:0:0:0:
268,200,80156,6,0,B|128:206,1,119.999996337891
416,356,80674,6,0,L|412:296,1,59.9999981689454
300,376,80932,1,0,0:0:0:0:
496,248,81191,5,0,0:0:0:0:
72,32,81449,5,0,0:0:0:0:
72,32,81708,6,0,B|83:63|83:63|77:108|77:108|92:160,1,119.999996337891
404,152,82225,5,0,0:0:0:0:
420,308,82355,1,0,0:0:0:0:
512,232,82613,5,0,0:0:0:0:
172,136,82743,1,0,0:0:0:0:
384,24,83001,5,0,0:0:0:0:
256,192,83260,12,0,84294,0:0:0:0:
48,272,84811,6,0,P|44:316|68:364,1,80
120,188,85070,1,0,0:0:0:0:
120,188,85329,6,0,L|116:232,1,34.9999989318848
300,160,85846,6,0,B|276:144|236:148|236:148|192:168|148:148,1,150.000005722046
400,72,86363,1,0,0:0:0:0:
