osu file format v14

[General]
AudioFilename: audio.mp3
AudioLeadIn: 0
PreviewTime: 195589
Countdown: 0
SampleSet: Soft
StackLeniency: 0.7
Mode: 0
LetterboxInBreaks: 0
WidescreenStoryboard: 1

[Editor]
Bookmarks: 8089,15589,30589,45589,60589,75589,83089,90589,92464,95276,99964,103714,107464,122464,129964,137464,152464,167464,175667,182464
DistanceSpacing: 0.4
BeatDivisor: 8
GridSize: 32
TimelineZoom: 3.399999

[Metadata]
Title:Are You Hungry?
TitleUnicode:냠냠쩝쩝
Artist:EXID
ArtistUnicode:EXID
Creator:Everything Dust
Version:YUM
Source:
Tags:Momoland BBoom Jeonghwa Hyelin Exceed in Memeing Solji Hani LE Street
BeatmapID:2103621
BeatmapSetID:1005132

[Difficulty]
HPDrainRate:4
CircleSize:4
OverallDifficulty:9
ApproachRate:9
SliderMultiplier:3.59999990463257
SliderTickRate:1

[Events]
//Background and Video events
0,0,"hungry.png",0,0
//Break Periods
2,90554,91864
//Storyboard Layer 0 (Background)
//Storyboard Layer 1 (Fail)
//Storyboard Layer 2 (Pass)
//Storyboard Layer 3 (Foreground)
//Storyboard Sound Samples

[TimingPoints]
589.024317497081,468.75,4,2,0,60,1,0
15589,-100,4,2,0,60,0,0
18167,-400,4,2,0,60,0,0
18401,-400,4,2,0,5,0,0
18870,-151.515151515152,4,2,0,60,0,0
19104,-400,4,2,0,5,0,0
19573,-100,4,2,0,60,0,0
26135,-100,4,2,0,5,0,0
26370,-400,4,2,0,60,0,0
26839,-400,4,2,0,5,0,0
27073,-100,4,2,0,60,0,0
30120,-303.030303030303,4,2,0,60,0,0
30589,-400,4,2,0,60,0,0
30940,-400,4,2,0,5,0,0
31057,-100,4,2,0,60,0,0
31643,-100,4,2,0,5,0,0
31760,-100,4,2,0,60,0,0
33167,-200,4,2,0,60,0,0
33870,-100,4,2,0,60,0,0
34339,-400,4,2,0,60,0,0
34690,-400,4,2,0,5,0,0
34807,-100,4,2,0,60,0,0
35393,-100,4,2,0,5,0,0
35510,-100,4,2,0,60,0,0
36917,-200,4,2,0,60,0,0
37620,-100,4,2,0,60,0,0
38089,-400,4,2,0,60,0,0
38440,-400,4,2,0,5,0,0
38557,-100,4,2,0,60,0,0
39143,-100,4,2,0,5,0,0
39260,-100,4,2,0,60,0,0
40667,-200,4,2,0,60,0,0
40901,-100,4,2,0,5,0,0
41135,-100,4,2,0,60,0,0
41370,-66.6666666666667,4,2,0,60,0,0
41604,-100,4,2,0,60,0,0
42542,-100,4,2,0,60,0,0
43245,-400,4,2,0,60,0,0
43596,-400,4,2,0,5,0,0
43714,-100,4,2,0,60,0,0
45589,-90.9090909090909,4,2,0,60,0,0
45823,-100,4,2,0,60,0,0
49339,-100,4,2,0,60,0,0
49807,-100,4,2,0,60,0,0
52151,-400,4,2,0,60,0,0
52503,-400,4,2,0,5,0,0
52620,-400,4,2,0,60,0,0
52971,-400,4,2,0,5,0,0
53089,-100,4,2,0,60,0,0
58245,-400,4,2,0,60,0,0
58714,-100,4,2,0,5,0,0
59885,-100,4,2,0,60,0,0
60589,-400,4,2,0,60,0,1
60706,-400,4,2,0,5,0,1
61057,-400,4,2,0,60,0,1
61292,-400,4,2,0,60,0,1
61409,-400,4,2,0,5,0,1
61526,-400,4,2,0,60,0,1
61643,-400,4,2,0,5,0,1
61760,-400,4,2,0,60,0,1
61878,-400,4,2,0,5,0,1
61995,-400,4,2,0,60,0,1
62112,-400,4,2,0,5,0,1
62229,-400,4,2,0,60,0,1
62346,-400,4,2,0,5,0,1
62464,-400,4,2,0,60,0,1
62581,-400,4,2,0,5,0,1
62932,-400,4,2,0,60,0,1
63167,-400,4,2,0,60,0,1
63284,-400,4,2,0,5,0,1
63401,-400,4,2,0,60,0,1
63518,-400,4,2,0,5,0,1
63635,-400,4,2,0,60,0,1
63753,-400,4,2,0,5,0,1
63870,-400,4,2,0,60,0,1
63987,-400,4,2,0,5,0,1
64104,-400,4,2,0,60,0,1
64221,-400,4,2,0,5,0,1
64339,-400,4,2,0,60,0,1
64456,-400,4,2,0,5,0,1
64807,-400,4,2,0,60,0,1
65042,-400,4,2,0,60,0,1
65159,-400,4,2,0,5,0,1
65276,-400,4,2,0,60,0,1
65393,-400,4,2,0,5,0,1
65510,-400,4,2,0,60,0,1
65628,-400,4,2,0,5,0,1
65745,-400,4,2,0,60,0,1
65862,-400,4,2,0,5,0,1
65979,-400,4,2,0,60,0,1
66096,-400,4,2,0,5,0,1
66214,-400,4,2,0,60,0,1
68323,-50,4,2,0,60,0,1
75589,-100,4,2,0,60,0,1
90589,-100,4,2,0,60,0,0
95745,-151.515151515152,4,2,0,60,0,0
95979,-151.515151515152,4,2,0,5,0,0
96448,-100,4,2,0,60,0,0
99495,-100,4,2,0,60,0,0
99964,-100,4,2,0,60,0,1
105354,-50,4,2,0,60,0,1
105413,-100,4,2,0,5,0,1
105823,-100,4,2,0,60,0,1
106526,-66.6666666666667,4,2,0,60,0,1
107464,-400,4,2,0,60,0,0
107815,-400,4,2,0,5,0,0
107932,-100,4,2,0,60,0,0
108635,-100,4,2,0,60,0,0
110042,-200,4,2,0,60,0,0
110745,-100,4,2,0,60,0,0
111214,-400,4,2,0,60,0,0
111565,-400,4,2,0,5,0,0
111682,-100,4,2,0,60,0,0
112268,-100,4,2,0,5,0,0
112385,-100,4,2,0,60,0,0
113792,-200,4,2,0,60,0,0
114495,-100,4,2,0,60,0,0
114964,-100,4,2,0,60,0,0
115315,-400,4,2,0,5,0,0
115432,-100,4,2,0,60,0,0
116018,-100,4,2,0,5,0,0
116135,-100,4,2,0,60,0,0
118069,-100,4,2,0,5,0,0
118245,-66.6666666666667,4,2,0,60,0,0
118479,-100,4,2,0,60,0,0
119417,-100,4,2,0,60,0,0
120120,-400,4,2,0,60,0,0
120471,-400,4,2,0,5,0,0
120589,-100,4,2,0,60,0,0
122756,-100,4,2,0,5,0,0
122932,-100,4,2,0,60,0,0
123635,-100,4,2,0,5,0,0
123870,-100,4,2,0,60,0,0
125276,-400,4,2,0,60,0,0
125745,-133.333333333333,4,2,0,60,0,0
126214,-100,4,2,0,60,0,0
128440,-100,4,2,0,5,0,0
128557,-100,4,2,0,60,0,0
129026,-400,4,2,0,60,0,0
129378,-400,4,2,0,5,0,0
129495,-100,4,2,0,60,0,0
129729,-100,4,2,0,5,0,0
129964,-100,4,2,0,60,0,0
135120,-400,4,2,0,60,0,0
135589,-100,4,2,0,5,0,0
136760,-100,4,2,0,60,0,0
137464,-400,4,2,0,60,0,1
137581,-400,4,2,0,5,0,1
137932,-400,4,2,0,60,0,1
138167,-400,4,2,0,60,0,1
138284,-400,4,2,0,5,0,1
138401,-400,4,2,0,60,0,1
138518,-400,4,2,0,5,0,1
138635,-400,4,2,0,60,0,1
138753,-400,4,2,0,5,0,1
138870,-400,4,2,0,60,0,1
138987,-400,4,2,0,5,0,1
139104,-400,4,2,0,60,0,1
139221,-400,4,2,0,5,0,1
139339,-400,4,2,0,60,0,1
139456,-400,4,2,0,5,0,1
139807,-400,4,2,0,60,0,1
140042,-400,4,2,0,60,0,1
140159,-400,4,2,0,5,0,1
140276,-400,4,2,0,60,0,1
140393,-400,4,2,0,5,0,1
140510,-400,4,2,0,60,0,1
140628,-400,4,2,0,5,0,1
140745,-400,4,2,0,60,0,1
140862,-400,4,2,0,5,0,1
140979,-400,4,2,0,60,0,1
141096,-400,4,2,0,5,0,1
141214,-400,4,2,0,60,0,1
141331,-400,4,2,0,5,0,1
141682,-400,4,2,0,60,0,1
141917,-400,4,2,0,60,0,1
142034,-400,4,2,0,5,0,1
142151,-400,4,2,0,60,0,1
142268,-400,4,2,0,5,0,1
142385,-400,4,2,0,60,0,1
142503,-400,4,2,0,5,0,1
142620,-400,4,2,0,60,0,1
142737,-400,4,2,0,5,0,1
142854,-400,4,2,0,60,0,1
142971,-400,4,2,0,5,0,1
143089,-400,4,2,0,60,0,1
145198,-50,4,2,0,60,0,1
152464,-100,4,2,0,60,0,1
167464,-100,4,2,0,60,0,1
171096,-100,4,2,0,5,0,1
171214,-100,4,2,0,60,0,1
175198,-50,4,2,0,60,0,1
176839,-100,4,2,0,60,0,1
177776,-100,4,2,0,60,0,1
182464,-100,4,2,0,60,0,0

[Colours]
Combo1 : 143,162,203
Combo2 : 242,123,186
Combo3 : 123,225,174

[HitObjects]
124,368,15589,6,2,P|176:297|178:102,1,269.999992847443
272,308,16057,5,2,0:0:0:0:
296,60,16292,1,2,0:0:0:0:
118,274,16526,5,2,0:0:0:0:
94,26,16761,1,2,0:0:0:0:
338,352,16995,5,2,0:0:0:0:
367,56,17230,1,2,0:0:0:0:
190,356,17464,5,2,0:0:0:0:
150,56,17699,1,2,0:0:0:0:
351,228,17932,5,2,0:0:0:0:
512,0,18167,2,2,L|511:45,1,44.9999988079071
0,384,18870,2,2,B|4:346|4:346|1:378|1:378|8:298,1,118.799996490326
204,95,19573,5,2,0:0:0:0:
95,378,19807,1,2,0:0:0:0:
32,143,20042,1,2,0:0:0:0:
272,308,20276,5,2,0:0:0:0:
296,60,20511,1,2,0:0:0:0:
156,248,20745,5,2,0:0:0:0:
132,0,20980,1,2,0:0:0:0:
281,325,21214,6,2,L|251:167,1,89.9999976158143,6|2,0:0|0:0,0:0:0:0:
305,242,21448,1,2,0:0:0:0:
206,186,21682,6,2,L|236:28,1,89.9999976158143,6|2,0:0|0:0,0:0:0:0:
182,103,21916,1,2,0:0:0:0:
381,132,22151,6,2,L|351:-26,1,89.9999976158143,6|2,0:0|0:0,0:0:0:0:
405,49,22385,1,2,0:0:0:0:
126,323,22620,2,2,P|192:240|408:220,1,269.999992847443,4|2,3:0|0:0,0:0:0:0:
280,337,23089,5,2,0:0:0:0:
427,63,23324,1,2,0:0:0:0:
476,293,23557,5,2,0:0:0:0:
143,110,23792,1,2,0:0:0:0:
91,315,24026,5,2,0:0:0:0:
512,152,24261,1,2,0:0:0:0:
512,279,24495,5,2,0:0:0:0:
0,163,24729,1,2,0:0:0:0:
25,377,24964,5,2,0:0:0:0:
415,186,25199,1,2,0:0:0:0:
407,366,25432,5,2,0:0:0:0:
313,129,25667,1,2,0:0:0:0:
243,207,25901,6,2,P|217:103|235:18,1,179.999995231629
238,380,26370,2,2,B|234:355|234:355|236:368|236:368|228:311,1,89.9999976158143
320,69,27073,5,2,0:0:0:0:
165,305,27307,1,2,0:0:0:0:
449,313,27542,1,2,0:0:0:0:
193,108,27776,5,2,0:0:0:0:
252,357,28010,1,2,0:0:0:0:
421,18,28245,5,2,0:0:0:0:
362,267,28479,1,2,0:0:0:0:
56,222,28714,5,2,0:0:0:0:
56,222,28831,1,2,0:0:0:0:
87,255,28948,2,2,L|199:237,1,89.9999976158143
427,224,29182,5,2,0:0:0:0:
427,224,29299,1,2,0:0:0:0:
413,181,29416,2,2,L|301:163,1,89.9999976158143
95,115,29651,5,2,0:0:0:0:
95,115,29768,1,2,0:0:0:0:
139,31,29885,2,2,L|157:143,1,89.9999976158143
199,377,30120,2,2,B|179:351|206:314|183:282,1,89.0999973677445
66,236,30589,6,2,L|127:185,1,67.4999982118607
453,377,31057,2,2,B|464:316|489:289|489:289|453:274|453:274|534:84|420:-24,1,449.999988079071
154,287,31760,5,2,0:0:0:0:
262,13,31995,1,2,0:0:0:0:
314,340,32229,1,2,0:0:0:0:
93,60,32464,1,2,0:0:0:0:
413,161,32698,1,2,0:0:0:0:
0,222,32932,1,2,0:0:0:0:
307,209,33167,6,2,B|349:153|276:70|308:1,1,179.999995231629
303,384,33870,1,2,0:0:0:0:
93,315,34104,2,2,L|235:269,1,89.9999976158143
446,236,34339,6,2,L|394:192,1,67.4999982118607
59,377,34807,2,2,B|48:316|23:289|23:289|59:274|59:274|-22:84|87:-19,1,449.999988079071
334,245,35510,5,2,0:0:0:0:
392,31,35745,1,2,0:0:0:0:
149,261,35979,1,2,0:0:0:0:
90,17,36214,1,2,0:0:0:0:
370,363,36448,1,2,0:0:0:0:
446,157,36682,1,2,0:0:0:0:
11,247,36917,6,2,B|2:177|107:142|114:66,1,179.999995231629
509,53,37620,2,2,P|442:44|380:71,1,134.999996423721
231,223,37854,2,2,L|261:322,1,89.9999976158143
443,384,38089,6,2,L|475:313,1,67.4999982118607
16,199,38557,2,2,P|96:110|451:148,1,449.999988079071
384,367,39260,5,2,0:0:0:0:
482,163,39495,1,2,0:0:0:0:
229,360,39729,1,2,0:0:0:0:
92,147,39964,1,2,0:0:0:0:
506,273,40198,1,2,0:0:0:0:
6,330,40432,1,2,0:0:0:0:
259,313,40667,6,2,P|247:264|250:320,1,179.999995231629
511,0,41370,2,2,P|441:-2|324:118,1,179.999995231629
137,104,41604,2,2,L|115:212,1,89.9999976158143
0,384,41839,1,2,0:0:0:0:
462,358,42073,2,2,P|476:288|377:152,1,179.999995231629
98,306,42542,5,2,0:0:0:0:
287,179,42776,2,2,P|265:111|111:43,1,179.999995231629
0,384,43245,2,2,L|15:301,1,67.4999982118607
31,187,43714,5,2,0:0:0:0:
88,351,43948,1,2,0:0:0:0:
91,63,44182,1,2,0:0:0:0:
192,369,44417,1,2,0:0:0:0:
406,71,44651,5,2,0:0:0:0:
200,284,44885,1,2,0:0:0:0:
200,284,45003,1,2,0:0:0:0:
200,284,45120,1,2,0:0:0:0:
512,384,45354,1,2,0:0:0:0:
108,345,45589,6,2,B|96:248|187:206|155:108,1,198.000000797272
133,19,46057,1,2,0:0:0:0:
196,332,46292,1,2,0:0:0:0:
268,24,46526,6,2,L|315:261,1,179.999995231629
346,373,46995,2,2,L|381:196,1,179.999995231629
0,254,47464,5,2,0:0:0:0:
512,184,47698,1,2,0:0:0:0:
0,254,47932,1,2,0:0:0:0:
512,184,48167,1,2,0:0:0:0:
161,314,48401,5,2,0:0:0:0:
161,316,48870,1,2,0:0:0:0:
487,197,49339,6,2,P|395:187|305:288,1,179.999995231629
441,331,49807,1,2,0:0:0:0:
125,66,50042,1,2,0:0:0:0:
62,351,50276,1,2,0:0:0:0:
459,70,50510,1,2,0:0:0:0:
472,384,50745,1,2,0:0:0:0:
2,89,50979,1,2,0:0:0:0:
72,356,51214,6,2,B|111:354|111:354|143:269|228:232,1,179.999995231629
245,375,51682,1,2,0:0:0:0:
51,43,51917,1,2,0:0:0:0:
512,212,52151,2,2,L|497:147,1,67.4999982118607
0,304,52620,2,2,L|15:239,1,67.4999982118607
123,199,53089,5,2,0:0:0:0:
111,311,53323,1,2,0:0:0:0:
430,199,53557,1,2,0:0:0:0:
306,297,53792,1,2,0:0:0:0:
512,349,54026,5,2,0:0:0:0:
138,384,54260,1,2,0:0:0:0:
349,253,54495,5,2,0:0:0:0:
71,74,54729,1,2,0:0:0:0:
339,384,54964,5,2,0:0:0:0:
425,14,55198,1,2,0:0:0:0:
20,384,55432,1,2,0:0:0:0:
0,24,55667,1,2,0:0:0:0:
512,52,55901,5,2,0:0:0:0:
27,182,56135,1,2,0:0:0:0:
512,384,56370,1,2,0:0:0:0:
263,0,56604,1,2,0:0:0:0:
75,384,56839,5,2,0:0:0:0:
97,0,57073,1,2,0:0:0:0:
437,384,57307,5,2,0:0:0:0:
415,0,57541,1,2,0:0:0:0:
0,190,57776,5,2,0:0:0:0:
512,230,58010,1,2,0:0:0:0:
215,208,58245,2,2,B|226:187|226:187|217:205|217:205|246:150,1,89.9999976158143
127,279,59885,5,2,0:0:0:0:
127,279,60120,1,2,0:0:0:0:
240,1,60589,6,2,L|230:39,1,22.4999994039536
142,370,61057,1,2,0:0:0:0:
512,270,61292,6,2,L|474:260,1,22.4999994039536
142,370,61526,2,2,L|152:332,1,22.4999994039536
240,1,61760,2,2,L|230:39,1,22.4999994039536
142,370,61995,2,2,L|152:332,1,22.4999994039536
512,270,62229,2,2,L|474:260,1,22.4999994039536
272,383,62464,6,2,L|282:345,1,22.4999994039536
370,14,62932,1,2,0:0:0:0:
0,114,63167,6,2,L|38:124,1,22.4999994039536
272,383,63401,2,2,L|282:345,1,22.4999994039536
370,14,63635,2,2,L|360:52,1,22.4999994039536
272,383,63870,2,2,L|282:345,1,22.4999994039536
0,114,64104,2,2,L|38:124,1,22.4999994039536
240,1,64339,6,2,L|230:39,1,22.4999994039536
142,370,64807,1,2,0:0:0:0:
512,270,65042,6,2,L|474:260,1,22.4999994039536
240,1,65276,2,2,L|230:39,1,22.4999994039536
142,370,65510,2,2,L|152:332,1,22.4999994039536
240,1,65745,2,2,L|230:39,1,22.4999994039536
512,270,65979,2,2,L|474:260,1,22.4999994039536
139,211,66214,5,2,0:0:0:0:
109,97,66448,1,2,0:0:0:0:
338,258,66682,5,2,0:0:0:0:
422,176,66916,1,2,0:0:0:0:
373,173,67151,5,2,0:0:0:0:
403,287,67385,1,2,0:0:0:0:
0,272,67619,5,2,0:0:0:0:
403,287,67853,1,2,0:0:0:0:
256,384,68089,1,2,0:0:0:0:
157,105,68323,6,2,P|176:80|157:111,1,179.999995231629
394,347,68792,2,2,P|375:372|394:341,1,179.999995231629
16,301,69260,6,2,P|35:276|16:307,1,179.999995231629
420,107,69729,2,2,P|401:132|420:101,1,179.999995231629
192,382,70198,6,2,P|167:363|198:382,1,179.999995231629
307,0,70667,2,2,P|332:19|301:0,1,179.999995231629
0,200,71135,6,2,P|-25:181|6:200,1,179.999995231629
499,274,71604,2,2,P|524:293|493:274,1,179.999995231629
26,384,72073,6,2,P|51:365|20:384,1,179.999995231629
357,0,72542,2,2,P|332:19|363:0,1,179.999995231629
357,384,73010,6,2,P|332:365|363:384,1,179.999995231629
26,0,73479,2,2,P|51:19|20:0,1,179.999995231629
84,191,73714,5,2,0:0:0:0:
84,191,73831,1,2,0:0:0:0:
84,191,73948,1,2,0:0:0:0:
184,40,74182,5,2,0:0:0:0:
113,339,74417,1,2,0:0:0:0:
42,44,74651,5,2,0:0:0:0:
279,378,74885,1,2,0:0:0:0:
279,378,75003,1,2,0:0:0:0:
279,378,75120,1,2,0:0:0:0:
416,2,75354,1,2,0:0:0:0:
458,359,75589,6,2,L|431:117,1,179.999995231629
26,149,76057,1,2,0:0:0:0:
458,359,76292,1,2,0:0:0:0:
46,328,76526,1,2,0:0:0:0:
438,180,76760,1,2,0:0:0:0:
26,149,76995,1,2,0:0:0:0:
458,359,77229,1,2,0:0:0:0:
46,328,77464,6,2,L|19:86,1,179.999995231629
12,22,77932,1,2,0:0:0:0:
154,340,78167,1,2,0:0:0:0:
286,8,78401,1,2,0:0:0:0:
0,201,78635,1,2,0:0:0:0:
406,349,78870,2,2,P|437:216|377:124,1,179.999995231629
54,25,79339,6,2,L|81:267,1,179.999995231629
486,235,79807,1,2,0:0:0:0:
54,25,80042,1,2,0:0:0:0:
466,56,80276,1,2,0:0:0:0:
74,204,80510,1,2,0:0:0:0:
486,235,80745,1,2,0:0:0:0:
54,25,80979,1,2,0:0:0:0:
466,56,81214,6,2,L|493:298,1,179.999995231629
215,384,81682,2,2,L|188:142,1,179.999995231629
299,0,82151,6,2,L|326:242,1,179.999995231629
48,328,82619,2,2,L|21:86,1,179.999995231629
493,28,83089,6,2,L|251:55,1,179.999995231629
32,82,83557,1,2,0:0:0:0:
410,38,83792,1,2,0:0:0:0:
0,284,84026,5,2,0:0:0:0:
377,120,84261,1,2,0:0:0:0:
310,381,84495,5,2,0:0:0:0:
481,155,84730,1,2,0:0:0:0:
19,356,84964,2,2,L|261:329,1,179.999995231629
512,307,85432,5,2,0:0:0:0:
173,353,85667,1,2,0:0:0:0:
493,28,85901,5,2,0:0:0:0:
154,74,86136,1,2,0:0:0:0:
512,374,86370,6,2,L|465:200,1,179.999995231629
55,0,86839,2,2,L|113:253,1,179.999995231629
382,384,87307,5,2,0:0:0:0:
512,0,87542,1,2,0:0:0:0:
129,73,87776,5,2,0:0:0:0:
506,237,88011,1,2,0:0:0:0:
0,271,88245,5,2,0:0:0:0:
512,88,88480,1,2,0:0:0:0:
512,384,88714,1,2,0:0:0:0:
512,384,88831,1,2,0:0:0:0:
512,384,88948,1,2,0:0:0:0:
0,51,89182,5,2,0:0:0:0:
256,384,89417,1,2,0:0:0:0:
512,0,89651,1,2,0:0:0:0:
0,384,89885,1,2,0:0:0:0:
0,384,90003,1,2,0:0:0:0:
0,384,90120,1,2,0:0:0:0:
512,0,90354,1,2,0:0:0:0:
144,322,92464,6,2,B|81:270|198:199|215:73,1,269.999992847443
400,305,92932,1,2,0:0:0:0:
468,195,93167,1,2,0:0:0:0:
112,305,93401,5,2,0:0:0:0:
24,224,93636,1,2,0:0:0:0:
337,384,93870,5,2,0:0:0:0:
509,125,94104,1,2,0:0:0:0:
168,384,94339,5,2,0:0:0:0:
0,238,94573,1,2,0:0:0:0:
327,349,94807,1,2,0:0:0:0:
466,163,95042,1,2,0:0:0:0:
0,330,95276,5,2,0:0:0:0:
483,244,95510,1,2,0:0:0:0:
0,45,95745,2,2,B|8:87|8:87|2:57|2:57|20:144,1,118.799996490326
257,75,96448,5,2,0:0:0:0:
382,384,96682,1,2,0:0:0:0:
512,86,96917,1,2,0:0:0:0:
239,384,97151,5,2,0:0:0:0:
17,80,97385,1,2,0:0:0:0:
77,377,97620,5,2,0:0:0:0:
334,11,97854,1,2,0:0:0:0:
0,218,98089,5,2,0:0:0:0:
417,245,98323,1,2,0:0:0:0:
0,63,98557,5,2,0:0:0:0:
512,382,98792,1,2,0:0:0:0:
6,384,99026,5,2,0:0:0:0:
500,38,99260,1,2,0:0:0:0:
138,32,99495,2,2,B|109:75|109:75|128:89|128:89|91:198|166:295,1,269.999992847443
413,68,99964,6,2,L|371:163,1,89.9999976158143
263,324,100198,1,2,0:0:0:0:
263,324,100315,1,2,0:0:0:0:
218,328,100432,2,2,L|260:233,1,89.9999976158143
488,245,100667,1,2,0:0:0:0:
488,245,100784,1,2,0:0:0:0:
492,290,100901,6,2,L|397:247,1,89.9999976158143
177,78,101135,2,2,L|94:157,1,89.9999976158143
126,352,101370,1,2,0:0:0:0:
126,352,101487,1,2,0:0:0:0:
126,352,101604,1,2,0:0:0:0:
126,352,101721,1,2,0:0:0:0:
171,356,101838,6,2,L|128:261,1,89.9999976158143
4,67,102073,1,2,0:0:0:0:
4,67,102190,1,2,0:0:0:0:
0,112,102307,2,2,L|94:69,1,89.9999976158143
336,104,102542,1,2,0:0:0:0:
336,104,102659,1,2,0:0:0:0:
308,139,102776,2,2,L|271:42,1,89.9999976158143
461,0,103010,5,2,0:0:0:0:
367,379,103245,1,2,0:0:0:0:
367,379,103362,1,2,0:0:0:0:
286,350,103479,1,2,0:0:0:0:
286,350,103596,1,2,0:0:0:0:
242,352,103714,6,2,L|279:242,1,89.9999976158143
328,104,103948,1,2,0:0:0:0:
328,104,104065,1,2,0:0:0:0:
415,160,104182,1,2,0:0:0:0:
415,160,104299,1,2,0:0:0:0:
451,105,104417,6,2,L|472:192,1,89.9999976158143
249,368,104651,2,2,L|228:281,1,89.9999976158143
51,162,104885,1,2,0:0:0:0:
51,162,105002,1,2,0:0:0:0:
28,200,105119,2,2,L|131:210,1,89.9999976158143
451,257,105354,2,2,P|422:210|382:180,1,89.9999976158143
512,30,105823,5,2,0:0:0:0:
33,384,106058,1,2,0:0:0:0:
431,345,106292,1,2,0:0:0:0:
0,0,106526,6,2,B|-5:93|77:165|59:265,1,270.000003147125
512,384,106995,2,2,B|517:291|435:219|453:119,1,270.000003147125
104,334,107464,6,2,L|87:247,1,67.4999982118607
508,111,107932,2,2,P|470:22|437:185,1,449.999988079071
419,93,108635,1,2,0:0:0:0:
0,78,108870,1,2,0:0:0:0:
406,379,109104,1,2,0:0:0:0:
0,377,109339,1,2,0:0:0:0:
512,75,109573,1,2,0:0:0:0:
0,53,109807,1,2,0:0:0:0:
436,359,110042,2,2,B|465:324|381:237|409:157,1,179.999995231629
65,18,110745,6,2,P|32:77|33:144,1,134.999996423721
282,265,110979,2,2,L|280:157,1,89.9999976158143
469,3,111214,2,2,L|454:69,1,67.4999982118607
4,273,111682,2,2,P|42:362|75:199,1,449.999988079071
93,291,112385,5,2,0:0:0:0:
480,136,112620,1,2,0:0:0:0:
188,384,112854,1,2,0:0:0:0:
512,333,113089,1,2,0:0:0:0:
180,137,113323,1,2,0:0:0:0:
398,384,113557,1,2,0:0:0:0:
488,32,113792,2,2,B|442:36|440:157|364:193,1,179.999995231629
1,46,114495,6,2,P|123:34|159:61,1,134.999996423721
278,251,114729,2,2,L|219:319,1,89.9999976158143
0,384,114964,2,2,P|-12:262|137:216,1,269.999992847443
453,377,115432,2,2,B|464:316|489:289|489:289|453:274|453:274|534:84|420:-24,1,449.999988079071
215,112,116135,1,2,0:0:0:0:
441,383,116370,1,2,0:0:0:0:
512,37,116604,1,2,0:0:0:0:
180,384,116839,1,2,0:0:0:0:
1,60,117073,1,2,0:0:0:0:
447,384,117307,1,2,0:0:0:0:
494,92,117542,2,2,B|508:57|508:57|459:86|459:86|402:51|275:241|151:112,1,404.999989271164
1,384,118245,6,2,P|71:386|188:266,1,179.999995231629
375,280,118479,2,2,L|397:172,1,89.9999976158143
512,0,118714,1,2,0:0:0:0:
50,26,118948,2,2,P|36:96|135:232,1,179.999995231629
414,78,119417,5,2,0:0:0:0:
225,205,119651,2,2,P|247:273|401:341,1,179.999995231629
512,0,120120,2,2,L|497:83,1,67.4999982118607
481,197,120589,5,2,0:0:0:0:
424,33,120823,1,2,0:0:0:0:
421,321,121057,1,2,0:0:0:0:
320,15,121292,1,2,0:0:0:0:
106,313,121526,5,2,0:0:0:0:
312,100,121760,1,2,0:0:0:0:
312,100,121878,1,2,0:0:0:0:
312,100,121995,1,2,0:0:0:0:
0,0,122229,1,2,0:0:0:0:
404,346,122464,6,2,B|416:249|325:207|342:132,1,224.999994039536
57,261,122932,1,2,0:0:0:0:
512,60,123167,1,2,0:0:0:0:
123,180,123401,6,2,B|94:154|94:154|125:117|69:0,1,179.999995231629
288,384,123870,1,2,0:0:0:0:
15,92,124339,5,2,0:0:0:0:
103,384,124573,1,2,0:0:0:0:
512,88,124807,1,2,0:0:0:0:
421,379,125042,1,2,0:0:0:0:
70,291,125276,6,2,L|87:241,1,44.9999988079071
437,37,125745,2,2,B|464:71|433:109|455:185,1,135.000001573563
210,344,126214,5,2,0:0:0:0:
109,99,126448,1,2,0:0:0:0:
267,349,126682,5,2,0:0:0:0:
400,30,126917,1,2,0:0:0:0:
234,384,127151,5,2,0:0:0:0:
512,62,127385,1,2,0:0:0:0:
0,191,127620,1,2,0:0:0:0:
512,313,127854,1,2,0:0:0:0:
0,191,128089,6,2,B|-21:142|-21:142|99:165|137:15,1,269.999992847443
95,219,128557,1,2,0:0:0:0:
470,271,128792,1,2,0:0:0:0:
502,14,129026,6,2,L|483:94,1,67.4999982118607
24,360,129495,2,2,B|0:322|0:322|37:313|37:313|-3:231|80:176,1,179.999995231629
84,122,129964,5,2,0:0:0:0:
131,256,130198,1,2,0:0:0:0:
439,86,130432,1,2,0:0:0:0:
380,327,130667,1,2,0:0:0:0:
0,153,130901,1,2,0:0:0:0:
100,384,131135,1,2,0:0:0:0:
512,69,131370,1,2,0:0:0:0:
419,384,131604,1,2,0:0:0:0:
0,45,131839,5,2,0:0:0:0:
218,384,132073,1,2,0:0:0:0:
288,89,132307,1,2,0:0:0:0:
0,373,132542,1,2,0:0:0:0:
391,384,132776,5,2,0:0:0:0:
0,276,133010,1,2,0:0:0:0:
512,91,133244,1,2,0:0:0:0:
0,274,133479,1,2,0:0:0:0:
512,384,133714,5,2,0:0:0:0:
0,0,133948,1,2,0:0:0:0:
269,384,134182,1,2,0:0:0:0:
0,0,134417,1,2,0:0:0:0:
512,142,134651,1,2,0:0:0:0:
0,384,134885,1,2,0:0:0:0:
487,36,135120,2,2,B|475:56|475:56|486:39|486:39|461:78,1,89.9999976158143
260,296,136760,5,2,0:0:0:0:
260,296,136995,1,2,0:0:0:0:
384,384,137464,6,2,L|384:352,1,22.4999994039536
384,0,137932,1,2,0:0:0:0:
0,0,138167,6,2,L|32:0,1,22.4999994039536
384,0,138401,2,2,L|384:32,1,22.4999994039536
384,384,138635,2,2,L|352:384,1,22.4999994039536
0,384,138870,2,2,L|0:352,1,22.4999994039536
0,0,139104,2,2,L|0:32,1,22.4999994039536
384,0,139339,6,2,L|352:0,1,22.4999994039536
0,0,139807,1,2,0:0:0:0:
512,0,140042,6,2,L|480:0,1,22.4999994039536
128,0,140276,2,2,L|128:32,1,22.4999994039536
128,384,140510,2,2,L|160:384,1,22.4999994039536
512,384,140745,2,2,L|512:352,1,22.4999994039536
512,0,140979,2,2,L|512:32,1,22.4999994039536
128,0,141214,6,2,L|160:0,1,22.4999994039536
512,0,141682,1,2,0:0:0:0:
0,0,141917,6,2,L|32:0,1,22.4999994039536
384,0,142151,2,2,L|384:32,1,22.4999994039536
384,384,142385,2,2,L|352:384,1,22.4999994039536
0,384,142620,2,2,L|0:352,1,22.4999994039536
0,0,142854,2,2,L|0:32,1,22.4999994039536
283,9,143089,5,2,0:0:0:0:
199,123,143323,1,2,0:0:0:0:
52,109,143557,5,2,0:0:0:0:
136,223,143791,1,2,0:0:0:0:
448,99,144026,5,2,0:0:0:0:
397,231,144260,1,2,0:0:0:0:
251,256,144494,5,2,0:0:0:0:
362,344,144728,1,2,0:0:0:0:
0,383,144964,1,2,0:0:0:0:
408,236,145198,6,2,P|389:261|408:230,1,179.999995231629
0,91,145667,2,2,P|19:66|0:97,1,179.999995231629
111,370,146135,6,2,P|86:351|117:370,1,179.999995231629
401,14,146604,2,2,P|426:33|395:14,1,179.999995231629
436,321,147073,6,2,P|434:261|427:320,1,179.999995231629
214,109,147542,2,2,P|189:128|220:109,1,179.999995231629
373,351,148010,6,2,P|354:376|373:345,1,179.999995231629
37,239,148479,2,2,P|56:264|37:233,1,179.999995231629
467,97,148948,6,2,P|442:116|473:97,1,179.999995231629
75,339,149417,2,2,P|100:320|69:339,1,179.999995231629
313,0,149885,6,2,P|338:19|307:0,1,179.999995231629
486,384,150354,2,2,P|461:365|492:384,1,179.999995231629
428,193,150589,5,2,0:0:0:0:
428,193,150706,1,2,0:0:0:0:
428,193,150823,1,2,0:0:0:0:
328,344,151057,5,2,0:0:0:0:
399,45,151292,1,2,0:0:0:0:
470,340,151526,5,2,0:0:0:0:
233,6,151760,1,2,0:0:0:0:
233,6,151878,1,2,0:0:0:0:
233,6,151995,1,2,0:0:0:0:
96,382,152229,1,2,0:0:0:0:
54,25,152464,6,2,L|81:267,1,179.999995231629
458,359,152932,1,2,0:0:0:0:
425,1,153167,1,2,0:0:0:0:
96,382,153401,1,2,0:0:0:0:
54,25,153635,1,2,0:0:0:0:
458,359,153870,1,2,0:0:0:0:
429,6,154104,1,2,0:0:0:0:
437,377,154339,6,2,L|193:371,1,179.999995231629
69,4,154807,1,2,0:0:0:0:
429,6,155042,1,2,0:0:0:0:
78,366,155276,1,2,0:0:0:0:
437,377,155510,1,2,0:0:0:0:
25,36,155745,2,2,P|-6:169|54:261,1,179.999995231629
458,359,156214,6,2,L|431:117,1,179.999995231629
54,25,156682,1,2,0:0:0:0:
87,383,156917,1,2,0:0:0:0:
416,2,157151,1,2,0:0:0:0:
458,359,157385,1,2,0:0:0:0:
54,25,157620,1,2,0:0:0:0:
83,378,157854,1,2,0:0:0:0:
17,269,158089,6,2,L|54:28,1,179.999995231629
484,345,158557,2,2,L|244:308,1,179.999995231629
28,39,159026,6,2,L|268:76,1,179.999995231629
495,115,159495,2,2,L|458:356,1,179.999995231629
19,356,159964,6,2,L|261:329,1,179.999995231629
480,302,160432,1,2,0:0:0:0:
102,346,160667,1,2,0:0:0:0:
512,100,160901,5,2,0:0:0:0:
135,264,161136,1,2,0:0:0:0:
202,3,161370,5,2,0:0:0:0:
31,229,161605,1,2,0:0:0:0:
493,28,161839,2,2,L|251:55,1,179.999995231629
19,28,162307,5,2,0:0:0:0:
358,74,162542,1,2,0:0:0:0:
0,307,162776,5,2,0:0:0:0:
339,353,163011,1,2,0:0:0:0:
328,14,163245,6,2,L|281:188,1,179.999995231629
262,382,163714,2,2,L|204:129,1,179.999995231629
0,384,164182,5,2,0:0:0:0:
170,0,164417,1,2,0:0:0:0:
0,284,164651,5,2,0:0:0:0:
377,120,164886,1,2,0:0:0:0:
0,144,165120,5,2,0:0:0:0:
512,253,165355,1,2,0:0:0:0:
0,0,165589,1,2,0:0:0:0:
0,0,165706,1,2,0:0:0:0:
0,0,165823,1,2,0:0:0:0:
512,333,166057,5,2,0:0:0:0:
256,0,166292,1,2,0:0:0:0:
256,384,166526,1,2,0:0:0:0:
512,0,166760,1,2,0:0:0:0:
512,0,166878,1,2,0:0:0:0:
512,0,166995,1,2,0:0:0:0:
0,384,167229,1,2,0:0:0:0:
418,313,167464,6,2,B|455:242|351:168|415:109,1,179.999995231629
0,0,167932,1,2,0:0:0:0:
290,384,168167,1,2,0:0:0:0:
438,0,168401,1,2,0:0:0:0:
291,384,168635,1,2,0:0:0:0:
0,384,168870,1,2,0:0:0:0:
495,384,169104,1,2,0:0:0:0:
512,97,169339,6,2,B|441:60|367:164|308:100,1,179.999995231629
0,307,169807,1,2,0:0:0:0:
508,201,170042,1,2,0:0:0:0:
106,384,170276,1,2,0:0:0:0:
511,314,170510,1,2,0:0:0:0:
33,24,170745,2,2,L|87:336,1,269.999992847443
120,343,171214,6,2,B|174:283|92:185|169:145,1,179.999995231629
206,211,171682,1,2,0:0:0:0:
508,99,171917,1,2,0:0:0:0:
478,175,172151,1,2,0:0:0:0:
27,168,172385,1,2,0:0:0:0:
72,241,172620,1,2,0:0:0:0:
470,0,172854,1,2,0:0:0:0:
170,364,173089,1,2,0:0:0:0:
170,364,173323,5,2,0:0:0:0:
255,336,173440,1,2,0:0:0:0:
341,308,173557,1,2,0:0:0:0:
341,308,173792,5,2,0:0:0:0:
256,280,173909,1,2,0:0:0:0:
170,252,174026,1,2,0:0:0:0:
170,252,174260,5,2,0:0:0:0:
255,224,174377,1,2,0:0:0:0:
341,196,174494,1,2,0:0:0:0:
192,0,174729,5,2,0:0:0:0:
255,192,174846,1,2,0:0:0:0:
320,384,174963,1,2,0:0:0:0:
30,88,175198,6,2,P|49:63|30:94,1,179.999995231629
482,296,175667,6,2,P|463:321|482:290,1,179.999995231629
118,384,176135,6,2,P|93:365|124:384,1,179.999995231629
394,0,176604,6,2,P|419:19|388:0,1,179.999995231629
61,294,176839,2,2,L|208:81,1,179.999995231629
512,162,177307,1,2,0:0:0:0:
0,138,177542,1,2,0:0:0:0:
497,384,177776,1,2,0:0:0:0:
0,366,178010,1,2,0:0:0:0:
450,90,178245,2,2,L|303:303,1,179.999995231629
0,328,178714,5,2,0:0:0:0:
0,328,178831,1,2,0:0:0:0:
18,369,178948,2,2,L|65:250,1,89.9999976158143
302,77,179182,5,2,0:0:0:0:
302,77,179299,1,2,0:0:0:0:
273,42,179416,2,2,L|257:168,1,89.9999976158143
177,384,179651,5,2,0:0:0:0:
177,384,179768,1,2,0:0:0:0:
133,367,179885,2,2,L|245:308,1,89.9999976158143
500,175,180120,5,2,0:0:0:0:
500,175,180237,1,2,0:0:0:0:
477,135,180354,2,2,L|440:256,1,89.9999976158143
138,258,180589,5,2,0:0:0:0:
138,258,180706,1,2,0:0:0:0:
138,258,180823,1,2,0:0:0:0:
138,258,181057,5,2,0:0:0:0:
182,266,181115,1,2,0:0:0:0:
227,266,181174,1,2,0:0:0:0:
271,258,181232,1,2,0:0:0:0:
313,242,181291,1,2,0:0:0:0:
351,218,181349,1,2,0:0:0:0:
384,188,181408,1,2,0:0:0:0:
411,152,181467,1,2,0:0:0:0:
399,102,181526,5,2,0:0:0:0:
378,111,181584,1,2,0:0:0:0:
360,123,181643,1,2,0:0:0:0:
344,139,181701,1,2,0:0:0:0:
331,158,181760,1,2,0:0:0:0:
322,179,181818,1,2,0:0:0:0:
317,201,181877,1,2,0:0:0:0:
317,223,181936,1,2,0:0:0:0:
322,266,181995,6,2,B|353:254|353:254|349:238|393:142,1,89.9999976158143
512,1,182229,1,2,0:0:0:0:
512,384,182346,1,6,0:0:0:0:
