osu file format v14

[General]
AudioFilename: Ib.mp3
AudioLeadIn: 1000
PreviewTime: 95594
Countdown: 0
SampleSet: Soft
StackLeniency: 0.6
Mode: 3
LetterboxInBreaks: 0
SpecialStyle: 0
WidescreenStoryboard: 0

[Editor]
Bookmarks: 13727,28310
DistanceSpacing: 1
BeatDivisor: 4
GridSize: 4
TimelineZoom: 7.399995

[Metadata]
Title:Memory
TitleUnicode:記憶
Artist:EX INDUSTRY
ArtistUnicode:イーエックス・インダストリー
Creator:ZZHBOY
Version:Memory
Source:Ib
Tags:Eeb Eve Kouri Scary RPG Horror Mystery Piano Pixel Adventure Creepy Puzzle Mary Garry Alone
BeatmapID:1037580
BeatmapSetID:486597

[Difficulty]
HPDrainRate:8
CircleSize:7
OverallDifficulty:8
ApproachRate:7
SliderMultiplier:1.6
SliderTickRate:1

[Events]
//Background and Video events
0,0,"bg.jpg",0,0
//Break Periods
//Storyboard Layer 0 (Background)
//Storyboard Layer 1 (Fail)
//Storyboard Layer 2 (Pass)
//Storyboard Layer 3 (Foreground)
//Storyboard Sound Samples

[TimingPoints]
870,535.714285714286,3,2,1,20,1,0
24977,560.747663551402,3,2,1,20,1,0
27754,560.747663551402,3,2,1,20,1,0
28310,550.45871559633,3,2,1,20,1,0
29961,541.516245487365,3,2,1,20,1,0
41351,545.454545454546,3,2,1,20,1,0
44618,542.986425339367,3,2,1,20,1,0
47871,540.540540540541,3,2,1,20,1,0
64076,555.555555555556,3,2,1,20,1,0
67409,565.50424128181,3,2,1,20,1,0
69115,550.45871559633,3,2,1,20,1,0
72407,550.45871559633,3,2,1,20,1,0
75692,545.454545454546,3,2,1,20,1,0
92057,566.037735849057,3,2,1,20,1,0
93189,576.923076923077,3,2,1,20,1,0
95594,540.540540540541,3,2,1,20,1,0
116675,560.747663551402,3,2,1,20,1,0
120039,550.45871559633,3,2,1,20,1,0
121690,545.454545454546,3,2,1,20,1,0
141326,571.428571428571,3,2,1,20,1,0
143037,582.52427184466,3,2,1,20,1,0
144784,618.556701030928,3,2,1,20,1,0
145419,645.161290322581,3,2,1,20,1,0
146064,769.230769230769,3,2,1,20,1,0

[HitObjects]
256,192,870,5,0,0:0:0:0:Ib_056.wav
402,192,870,1,0,0:0:0:0:
36,192,870,1,0,0:0:0:0:
109,192,1137,1,0,0:0:0:0:Ib_021.wav
256,192,1405,1,0,0:0:0:0:Ib_054.wav
329,192,1673,1,0,0:0:0:0:Ib_067.wav
402,192,1941,1,0,0:0:0:0:Ib_081.wav
256,192,2209,1,0,0:0:0:0:Ib_097.wav
475,192,2477,1,0,0:0:0:0:Ib_119.wav
36,192,2477,1,0,0:0:0:0:
329,192,2477,1,0,0:0:0:0:
109,192,2745,1,0,0:0:0:0:Ib_021.wav
256,192,3012,1,0,0:0:0:0:Ib_043.wav
329,192,3280,1,0,0:0:0:0:Ib_067.wav
402,192,3548,1,0,0:0:0:0:Ib_107.wav
182,192,4084,1,0,0:0:0:0:Ib_119.wav
475,192,4084,1,0,0:0:0:0:
36,192,4084,1,0,0:0:0:0:
329,192,4352,1,0,0:0:0:0:Ib_022.wav
36,192,4620,1,0,0:0:0:0:Ib_054.wav
182,192,4887,1,0,0:0:0:0:Ib_065.wav
329,192,5155,1,0,0:0:0:0:Ib_080.wav
475,192,5423,1,0,0:0:0:0:Ib_117.wav
329,192,5691,1,0,0:0:0:0:Ib_098.wav
182,192,5691,1,0,0:0:0:0:
36,192,5691,1,0,0:0:0:0:
109,192,5959,1,0,0:0:0:0:Ib_012.wav
256,192,6227,1,0,0:0:0:0:Ib_033.wav
402,192,6495,1,0,0:0:0:0:Ib_054.wav
475,192,6762,1,0,0:0:0:0:Ib_090.wav
256,192,7298,1,0,0:0:0:0:Ib_097.wav
402,192,7298,1,0,0:0:0:0:
109,192,7298,1,0,0:0:0:0:
182,192,7566,1,0,0:0:0:0:Ib_027.wav
36,192,7834,1,0,0:0:0:0:Ib_054.wav
109,192,8102,1,0,0:0:0:0:Ib_067.wav
182,192,8370,1,0,0:0:0:0:Ib_080.wav
256,192,8637,1,0,0:0:0:0:Ib_096.wav
329,192,8905,1,0,0:0:0:0:Ib_081.wav
475,192,8905,1,0,0:0:0:0:
109,192,8905,1,0,0:0:0:0:
182,192,9173,1,0,0:0:0:0:Ib_008.wav
36,192,9441,1,0,0:0:0:0:Ib_017.wav
256,192,9709,1,0,0:0:0:0:Ib_054.wav
475,192,9977,1,0,0:0:0:0:Ib_074.wav
36,192,10512,1,0,0:0:0:0:Ib_052.wav
256,192,10512,1,0,0:0:0:0:
402,192,10512,1,0,0:0:0:0:
182,192,10780,1,0,0:0:0:0:Ib_007.wav
329,192,11048,1,0,0:0:0:0:Ib_015.wav
475,192,11316,1,0,0:0:0:0:Ib_032.wav
109,192,11584,1,0,0:0:0:0:Ib_054.wav
182,192,11852,1,0,0:0:0:0:Ib_080.wav
36,192,12120,1,0,0:0:0:0:Ib_068.wav
256,192,12120,1,0,0:0:0:0:
402,192,12120,1,0,0:0:0:0:
109,192,12387,1,0,0:0:0:0:Ib_020.wav
182,192,12655,1,0,0:0:0:0:Ib_043.wav
329,192,12923,1,0,0:0:0:0:Ib_068.wav
475,192,13191,1,0,0:0:0:0:Ib_107.wav
402,192,13727,1,0,0:0:0:0:Ib_119.wav
36,192,13727,1,0,0:0:0:0:
256,192,13727,1,0,0:0:0:0:
475,192,13995,1,0,0:0:0:0:Ib_021.wav
182,192,14262,1,0,0:0:0:0:Ib_054.wav
36,192,14262,1,0,0:0:0:0:
256,192,14530,1,0,0:0:0:0:Ib_066.wav
109,192,14530,1,0,0:0:0:0:
329,192,14798,1,0,0:0:0:0:Ib_079.wav
182,192,14798,1,0,0:0:0:0:
402,192,15066,1,0,0:0:0:0:Ib_096.wav
256,192,15066,1,0,0:0:0:0:
475,192,15334,1,0,0:0:0:0:Ib_118.wav
182,192,15334,1,0,0:0:0:0:
36,192,15334,1,0,0:0:0:0:
329,192,15602,1,0,0:0:0:0:Ib_022.wav
36,192,15870,1,0,0:0:0:0:Ib_042.wav
109,192,16137,1,0,0:0:0:0:Ib_066.wav
475,192,16137,1,0,0:0:0:0:
402,192,16405,1,0,0:0:0:0:
182,192,16405,1,0,0:0:0:0:Ib_117.wav
256,192,16673,1,0,0:0:0:0:Ib_138.wav
475,192,16941,1,0,0:0:0:0:Ib_118.wav
329,192,16941,1,0,0:0:0:0:
182,192,16941,1,0,0:0:0:0:
109,192,17209,1,0,0:0:0:0:Ib_021.wav
256,192,17477,1,0,0:0:0:0:
36,192,17477,1,0,0:0:0:0:Ib_054.wav
109,192,17745,1,0,0:0:0:0:Ib_068.wav
329,192,17745,1,0,0:0:0:0:
182,192,18012,1,0,0:0:0:0:Ib_081.wav
402,192,18012,1,0,0:0:0:0:
475,192,18280,1,0,0:0:0:0:Ib_116.wav
36,192,18548,1,0,0:0:0:0:Ib_098.wav
402,192,18548,1,0,0:0:0:0:
256,192,18548,1,0,0:0:0:0:
109,192,18816,1,0,0:0:0:0:Ib_013.wav
182,192,19084,1,0,0:0:0:0:Ib_032.wav
329,192,19352,1,0,0:0:0:0:Ib_055.wav
475,192,19620,1,0,0:0:0:0:Ib_090.wav
256,192,20155,1,0,0:0:0:0:Ib_096.wav
402,192,20155,1,0,0:0:0:0:
109,192,20423,1,0,0:0:0:0:Ib_009.wav
36,192,20691,1,0,0:0:0:0:Ib_024.wav
475,192,20691,1,0,0:0:0:0:
329,192,20959,1,0,0:0:0:0:Ib_052.wav
109,192,20959,1,0,0:0:0:0:
402,192,21227,1,0,0:0:0:0:Ib_079.wav
182,192,21227,1,0,0:0:0:0:
475,192,21495,1,0,0:0:0:0:Ib_095.wav
256,192,21495,1,0,0:0:0:0:
329,192,21762,1,0,0:0:0:0:Ib_082.wav
36,192,21762,1,0,0:0:0:0:
182,192,21762,1,0,0:0:0:0:
402,192,22030,1,0,0:0:0:0:Ib_008.wav
36,192,22298,1,0,0:0:0:0:Ib_017.wav
109,192,22566,1,0,0:0:0:0:Ib_051.wav
329,192,22566,1,0,0:0:0:0:
475,192,22834,1,0,0:0:0:0:Ib_082.wav
182,192,22834,1,0,0:0:0:0:
402,192,23102,1,0,0:0:0:0:Ib_057.wav
36,192,23370,1,0,0:0:0:0:Ib_044.wav
182,192,23370,1,0,0:0:0:0:
329,192,23370,1,0,0:0:0:0:
475,192,23637,1,0,0:0:0:0:Ib_019.wav
256,192,23905,1,0,0:0:0:0:Ib_043.wav
329,192,24173,1,0,0:0:0:0:Ib_066.wav
402,192,24441,1,0,0:0:0:0:Ib_107.wav
109,192,24441,1,0,0:0:0:0:
475,192,24977,1,0,0:0:0:0:Ib_057.wav
36,192,24977,1,0,0:0:0:0:
256,192,24977,1,0,0:0:0:0:
182,192,25257,1,0,0:0:0:0:Ib_000.wav
256,192,25537,1,0,0:0:0:0:Ib_001.wav
329,192,25818,1,0,0:0:0:0:Ib_002.wav
402,192,26098,1,0,0:0:0:0:Ib_006.wav
256,192,26378,1,0,0:0:0:0:Ib_017.wav
329,192,26659,1,0,0:0:0:0:Ib_046.wav
36,192,27754,1,0,0:0:0:0:Ib_086.wav
109,192,28034,1,0,0:0:0:0:Ib_098.wav
182,192,28310,1,0,0:0:0:0:Ib_102.wav
329,192,28310,1,0,0:0:0:0:
475,192,28310,1,0,0:0:0:0:
256,192,28585,1,0,0:0:0:0:
402,192,28860,1,0,0:0:0:0:
36,192,29135,1,0,0:0:0:0:Ib_084.wav
329,192,29135,1,0,0:0:0:0:
182,192,29410,1,0,0:0:0:0:Ib_109.wav
402,192,29410,1,0,0:0:0:0:
475,192,29686,1,0,0:0:0:0:Ib_130.wav
109,192,29961,1,0,0:0:0:0:Ib_125.wav
256,192,29961,1,0,0:0:0:0:
402,192,29961,1,0,0:0:0:0:
182,192,30231,1,0,0:0:0:0:Ib_111.wav
329,192,30231,1,0,0:0:0:0:
36,192,30502,1,0,0:0:0:0:Ib_093.wav
256,192,30502,1,0,0:0:0:0:
329,192,30773,1,0,0:0:0:0:Ib_110.wav
109,192,30773,1,0,0:0:0:0:
402,192,31044,1,0,0:0:0:0:Ib_122.wav
182,192,31044,1,0,0:0:0:0:
475,192,31585,1,0,0:0:0:0:Ib_088.wav
36,192,31585,1,0,0:0:0:0:
329,192,31585,1,0,0:0:0:0:
109,192,31856,1,0,0:0:0:0:
329,192,32127,1,0,0:0:0:0:Ib_062.wav
182,192,32397,1,0,0:0:0:0:Ib_091.wav
402,192,32397,1,0,0:0:0:0:
256,192,32668,1,0,0:0:0:0:Ib_124.wav
475,192,32668,1,0,0:0:0:0:
475,192,32939,1,0,0:0:0:0:Ib_139.wav
329,192,33210,1,0,0:0:0:0:Ib_103.wav
36,192,33210,1,0,0:0:0:0:
182,192,33210,1,0,0:0:0:0:
109,192,33480,1,0,0:0:0:0:
256,192,33751,1,0,0:0:0:0:Ib_077.wav
36,192,33751,1,0,0:0:0:0:
329,192,34022,1,0,0:0:0:0:Ib_091.wav
109,192,34022,1,0,0:0:0:0:
402,192,34293,1,0,0:0:0:0:Ib_102.wav
182,192,34293,1,0,0:0:0:0:
256,192,34834,1,0,0:0:0:0:Ib_103.wav
109,192,34834,1,0,0:0:0:0:
475,192,34834,1,0,0:0:0:0:
36,192,35105,1,0,0:0:0:0:
109,192,35376,1,0,0:0:0:0:Ib_084.wav
329,192,35376,1,0,0:0:0:0:
182,192,35646,1,0,0:0:0:0:Ib_092.wav
402,192,35646,1,0,0:0:0:0:
36,192,35917,1,0,0:0:0:0:Ib_110.wav
256,192,35917,1,0,0:0:0:0:
475,192,36188,1,0,0:0:0:0:Ib_130.wav
402,192,36459,1,0,0:0:0:0:Ib_125.wav
256,192,36459,1,0,0:0:0:0:
109,192,36459,1,0,0:0:0:0:
36,192,36729,1,0,0:0:0:0:Ib_111.wav
182,192,37000,1,0,0:0:0:0:Ib_092.wav
329,192,37000,1,0,0:0:0:0:
256,192,37271,1,0,0:0:0:0:Ib_111.wav
402,192,37271,1,0,0:0:0:0:
329,192,37542,1,0,0:0:0:0:Ib_123.wav
475,192,37542,1,0,0:0:0:0:
36,192,38083,1,0,0:0:0:0:Ib_087.wav
182,192,38083,1,0,0:0:0:0:
475,192,38083,1,0,0:0:0:0:
329,192,38354,1,0,0:0:0:0:
256,192,38625,1,0,0:0:0:0:
36,192,38625,1,0,0:0:0:0:
329,192,38896,1,0,0:0:0:0:
109,192,38896,1,0,0:0:0:0:
402,192,39166,1,0,0:0:0:0:Ib_077.wav
182,192,39166,1,0,0:0:0:0:
256,192,39437,1,0,0:0:0:0:Ib_091.wav
36,192,39708,1,0,0:0:0:0:Ib_101.wav
329,192,39708,1,0,0:0:0:0:
475,192,39708,1,0,0:0:0:0:
402,192,39979,1,0,0:0:0:0:
256,192,40249,1,0,0:0:0:0:
36,192,40249,1,0,0:0:0:0:
329,192,40520,1,0,0:0:0:0:
109,192,40520,1,0,0:0:0:0:
402,192,40791,1,0,0:0:0:0:
182,192,40791,1,0,0:0:0:0:
256,192,41062,1,0,0:0:0:0:
475,192,41351,1,0,0:0:0:0:
329,192,41351,1,0,0:0:0:0:
36,192,41351,1,0,0:0:0:0:Ib_116.wav
109,192,41623,1,0,0:0:0:0:Ib_019.wav
329,192,41896,1,0,0:0:0:0:Ib_051.wav
182,192,41896,1,0,0:0:0:0:
256,192,42169,1,0,0:0:0:0:Ib_064.wav
402,192,42169,1,0,0:0:0:0:
36,192,42441,1,0,0:0:0:0:Ib_079.wav
329,192,42441,1,0,0:0:0:0:
475,192,42441,1,0,0:0:0:0:
109,192,42714,1,0,0:0:0:0:Ib_095.wav
402,192,42714,1,0,0:0:0:0:
475,192,42987,1,0,0:0:0:0:Ib_115.wav
182,192,42987,1,0,0:0:0:0:
329,192,42987,1,0,0:0:0:0:
402,192,43260,1,0,0:0:0:0:Ib_020.wav
182,192,43532,1,0,0:0:0:0:Ib_041.wav
36,192,43532,1,0,0:0:0:0:
256,192,43805,1,0,0:0:0:0:Ib_063.wav
109,192,43805,1,0,0:0:0:0:
475,192,44078,1,0,0:0:0:0:Ib_104.wav
182,192,44078,1,0,0:0:0:0:
329,192,44078,1,0,0:0:0:0:
256,192,44351,1,0,0:0:0:0:
109,192,44351,1,0,0:0:0:0:
329,192,44618,1,0,0:0:0:0:Ib_115.wav
36,192,44618,1,0,0:0:0:0:
475,192,44618,1,0,0:0:0:0:
182,192,44889,1,0,0:0:0:0:Ib_020.wav
256,192,45160,1,0,0:0:0:0:Ib_051.wav
36,192,45160,1,0,0:0:0:0:
329,192,45432,1,0,0:0:0:0:Ib_064.wav
109,192,45432,1,0,0:0:0:0:
36,192,45703,1,0,0:0:0:0:Ib_078.wav
182,192,45703,1,0,0:0:0:0:
402,192,45703,1,0,0:0:0:0:
475,192,45975,1,0,0:0:0:0:Ib_113.wav
256,192,46246,1,0,0:0:0:0:Ib_095.wav
402,192,46246,1,0,0:0:0:0:
329,192,46518,1,0,0:0:0:0:Ib_013.wav
36,192,46789,1,0,0:0:0:0:Ib_030.wav
182,192,46789,1,0,0:0:0:0:
109,192,47061,1,0,0:0:0:0:Ib_048.wav
256,192,47061,1,0,0:0:0:0:
475,192,47332,1,0,0:0:0:0:Ib_089.wav
182,192,47332,1,0,0:0:0:0:
329,192,47332,1,0,0:0:0:0:
475,192,47604,1,0,0:0:0:0:Ib_089.wav
402,192,47871,1,0,0:0:0:0:Ib_094.wav
256,192,47871,1,0,0:0:0:0:
36,192,47871,1,0,0:0:0:0:
109,192,48141,1,0,0:0:0:0:Ib_025.wav
36,192,48411,1,0,0:0:0:0:Ib_051.wav
182,192,48411,1,0,0:0:0:0:
402,192,48681,1,0,0:0:0:0:Ib_064.wav
256,192,48681,1,0,0:0:0:0:
475,192,48952,1,0,0:0:0:0:Ib_078.wav
36,192,48952,1,0,0:0:0:0:
329,192,48952,1,0,0:0:0:0:
256,192,49222,1,0,0:0:0:0:Ib_095.wav
109,192,49222,1,0,0:0:0:0:
182,192,49492,1,0,0:0:0:0:Ib_080.wav
329,192,49492,1,0,0:0:0:0:
475,192,49492,1,0,0:0:0:0:
36,192,49762,1,0,0:0:0:0:Ib_007.wav
109,192,50033,1,0,0:0:0:0:Ib_016.wav
402,192,50033,1,0,0:0:0:0:
256,192,50303,1,0,0:0:0:0:Ib_048.wav
36,192,50303,1,0,0:0:0:0:
329,192,50573,1,0,0:0:0:0:Ib_072.wav
475,192,50573,1,0,0:0:0:0:
36,192,51114,1,0,0:0:0:0:Ib_055.wav
402,192,51114,1,0,0:0:0:0:
256,192,51114,1,0,0:0:0:0:
182,192,51384,1,0,0:0:0:0:Ib_003.wav
402,192,51654,1,0,0:0:0:0:Ib_014.wav
109,192,51654,1,0,0:0:0:0:
475,192,51925,1,0,0:0:0:0:Ib_030.wav
36,192,51925,1,0,0:0:0:0:
109,192,52195,1,0,0:0:0:0:Ib_048.wav
402,192,52195,1,0,0:0:0:0:
256,192,52195,1,0,0:0:0:0:
182,192,52465,1,0,0:0:0:0:Ib_078.wav
329,192,52465,1,0,0:0:0:0:
36,192,52735,1,0,0:0:0:0:Ib_067.wav
256,192,52735,1,0,0:0:0:0:
475,192,52735,1,0,0:0:0:0:
182,192,53006,1,0,0:0:0:0:Ib_019.wav
36,192,53276,1,0,0:0:0:0:Ib_039.wav
475,192,53276,1,0,0:0:0:0:
329,192,53276,1,0,0:0:0:0:
402,192,53546,1,0,0:0:0:0:Ib_064.wav
182,192,53546,1,0,0:0:0:0:
329,192,53816,1,0,0:0:0:0:Ib_104.wav
475,192,53816,1,0,0:0:0:0:
109,192,53816,1,0,0:0:0:0:
36,192,54357,1,0,0:0:0:0:Ib_115.wav
256,192,54357,1,0,0:0:0:0:
182,192,54627,1,0,0:0:0:0:Ib_016.wav
475,192,54898,1,0,0:0:0:0:Ib_055.wav
329,192,54898,1,0,0:0:0:0:
109,192,54898,1,0,0:0:0:0:
36,192,55168,1,0,0:0:0:0:Ib_064.wav
256,192,55168,1,0,0:0:0:0:
402,192,55168,1,0,0:0:0:0:
182,192,55438,1,0,0:0:0:0:Ib_078.wav
475,192,55438,1,0,0:0:0:0:
329,192,55438,1,0,0:0:0:0:
109,192,55708,1,0,0:0:0:0:Ib_094.wav
36,192,55979,1,0,0:0:0:0:Ib_114.wav
256,192,55979,1,0,0:0:0:0:
475,192,55979,1,0,0:0:0:0:
402,192,56249,1,0,0:0:0:0:Ib_019.wav
329,192,56519,1,0,0:0:0:0:Ib_041.wav
182,192,56519,1,0,0:0:0:0:
36,192,56519,1,0,0:0:0:0:
109,192,56789,1,0,0:0:0:0:Ib_064.wav
402,192,56789,1,0,0:0:0:0:
256,192,56789,1,0,0:0:0:0:
36,192,57060,1,0,0:0:0:0:Ib_106.wav
475,192,57060,1,0,0:0:0:0:
329,192,57060,1,0,0:0:0:0:
182,192,57330,1,0,0:0:0:0:
256,192,57600,1,0,0:0:0:0:Ib_116.wav
402,192,57600,1,0,0:0:0:0:
109,192,57600,1,0,0:0:0:0:
329,192,57871,1,0,0:0:0:0:Ib_020.wav
475,192,58141,1,0,0:0:0:0:Ib_051.wav
36,192,58141,1,0,0:0:0:0:
256,192,58411,1,0,0:0:0:0:Ib_064.wav
109,192,58411,1,0,0:0:0:0:
402,192,58411,1,0,0:0:0:0:
36,192,58681,1,0,0:0:0:0:Ib_079.wav
329,192,58681,1,0,0:0:0:0:
182,192,58681,1,0,0:0:0:0:
402,192,58952,1,0,0:0:0:0:Ib_114.wav
475,192,59222,1,0,0:0:0:0:Ib_096.wav
182,192,59222,1,0,0:0:0:0:
329,192,59222,1,0,0:0:0:0:
109,192,59492,1,0,0:0:0:0:Ib_013.wav
182,192,59762,1,0,0:0:0:0:Ib_031.wav
256,192,60033,1,0,0:0:0:0:Ib_051.wav
402,192,60033,1,0,0:0:0:0:
36,192,60033,1,0,0:0:0:0:
475,192,60303,1,0,0:0:0:0:Ib_089.wav
329,192,60303,1,0,0:0:0:0:
109,192,60303,1,0,0:0:0:0:
402,192,60573,1,0,0:0:0:0:
475,192,60843,1,0,0:0:0:0:Ib_095.wav
256,192,60843,1,0,0:0:0:0:
109,192,60843,1,0,0:0:0:0:
36,192,61114,1,0,0:0:0:0:Ib_026.wav
329,192,61384,1,0,0:0:0:0:Ib_051.wav
109,192,61384,1,0,0:0:0:0:
402,192,61654,1,0,0:0:0:0:Ib_064.wav
182,192,61654,1,0,0:0:0:0:
475,192,61925,1,0,0:0:0:0:Ib_078.wav
256,192,61925,1,0,0:0:0:0:
36,192,61925,1,0,0:0:0:0:
109,192,62195,1,0,0:0:0:0:Ib_095.wav
402,192,62195,1,0,0:0:0:0:
36,192,62465,1,0,0:0:0:0:Ib_079.wav
182,192,62465,1,0,0:0:0:0:
329,192,62465,1,0,0:0:0:0:
402,192,62735,1,0,0:0:0:0:Ib_007.wav
36,192,63006,1,0,0:0:0:0:Ib_016.wav
182,192,63006,1,0,0:0:0:0:
109,192,63276,1,0,0:0:0:0:Ib_051.wav
256,192,63276,1,0,0:0:0:0:
475,192,63546,1,0,0:0:0:0:Ib_073.wav
329,192,63546,1,0,0:0:0:0:
182,192,63546,1,0,0:0:0:0:
475,192,64076,1,0,0:0:0:0:Ib_043.wav
109,192,64076,1,0,0:0:0:0:
256,192,64076,1,0,0:0:0:0:
402,192,64353,1,0,0:0:0:0:Ib_017.wav
36,192,64631,1,0,0:0:0:0:Ib_041.wav
182,192,64631,1,0,0:0:0:0:
402,192,64909,1,0,0:0:0:0:Ib_063.wav
109,192,64909,1,0,0:0:0:0:
475,192,65187,1,0,0:0:0:0:Ib_105.wav
182,192,65187,1,0,0:0:0:0:
329,192,65187,1,0,0:0:0:0:
109,192,65464,1,0,0:0:0:0:
36,192,65742,1,0,0:0:0:0:Ib_056.wav
256,192,65742,1,0,0:0:0:0:
402,192,65742,1,0,0:0:0:0:
475,192,66020,1,0,0:0:0:0:Ib_019.wav
36,192,66298,1,0,0:0:0:0:Ib_048.wav
256,192,66298,1,0,0:0:0:0:
109,192,66576,1,0,0:0:0:0:Ib_064.wav
329,192,66576,1,0,0:0:0:0:
182,192,66853,1,0,0:0:0:0:Ib_085.wav
402,192,66853,1,0,0:0:0:0:
256,192,67131,1,0,0:0:0:0:Ib_114.wav
475,192,67409,128,0,69115:0:0:0:0:Ib_135.wav
36,192,67409,1,0,0:0:0:0:
329,192,67409,1,0,0:0:0:0:
109,192,67691,1,0,0:0:0:0:
182,192,67974,1,0,0:0:0:0:
256,192,68257,1,0,0:0:0:0:
329,192,68540,1,0,0:0:0:0:
182,192,68822,1,0,0:0:0:0:
329,192,69115,1,0,0:0:0:0:Ib_010.wav
36,192,69115,1,0,0:0:0:0:
182,192,69390,1,0,0:0:0:0:Ib_028.wav
329,192,69665,1,0,0:0:0:0:Ib_058.wav
475,192,69940,1,0,0:0:0:0:Ib_099.wav
256,192,70215,1,0,0:0:0:0:Ib_127.wav
36,192,70215,1,0,0:0:0:0:
109,192,70491,1,0,0:0:0:0:Ib_137.wav
182,192,70766,1,0,0:0:0:0:Ib_134.wav
475,192,70766,1,0,0:0:0:0:
329,192,70766,1,0,0:0:0:0:
256,192,71041,1,0,0:0:0:0:Ib_038.wav
329,192,71316,1,0,0:0:0:0:Ib_070.wav
402,192,71592,1,0,0:0:0:0:Ib_099.wav
475,192,71867,1,0,0:0:0:0:Ib_132.wav
329,192,72142,1,0,0:0:0:0:Ib_127.wav
475,192,72407,1,0,0:0:0:0:Ib_133.wav
109,192,72407,1,0,0:0:0:0:
256,192,72407,1,0,0:0:0:0:
36,192,72682,1,0,0:0:0:0:Ib_100.wav
329,192,72957,1,0,0:0:0:0:Ib_133.wav
475,192,72957,1,0,0:0:0:0:
109,192,73232,1,0,0:0:0:0:Ib_128.wav
402,192,73507,1,0,0:0:0:0:Ib_100.wav
182,192,73507,1,0,0:0:0:0:
329,192,73783,1,0,0:0:0:0:Ib_070.wav
475,192,74058,1,0,0:0:0:0:Ib_121.wav
36,192,74058,1,0,0:0:0:0:
256,192,74058,1,0,0:0:0:0:
109,192,74333,1,0,0:0:0:0:Ib_005.wav
182,192,74608,1,0,0:0:0:0:Ib_021.wav
329,192,74884,1,0,0:0:0:0:Ib_045.wav
402,192,75159,1,0,0:0:0:0:Ib_058.wav
475,192,75434,1,0,0:0:0:0:Ib_070.wav
402,192,75692,1,0,0:0:0:0:Ib_080.wav
256,192,75692,1,0,0:0:0:0:
36,192,75692,1,0,0:0:0:0:
329,192,75964,1,0,0:0:0:0:Ib_021.wav
109,192,76237,1,0,0:0:0:0:Ib_055.wav
182,192,76510,1,0,0:0:0:0:Ib_067.wav
329,192,76782,1,0,0:0:0:0:Ib_080.wav
402,192,77055,1,0,0:0:0:0:Ib_097.wav
475,192,77328,1,0,0:0:0:0:Ib_119.wav
256,192,77328,1,0,0:0:0:0:
182,192,77328,1,0,0:0:0:0:
36,192,77601,1,0,0:0:0:0:Ib_022.wav
109,192,77873,1,0,0:0:0:0:Ib_042.wav
182,192,78146,1,0,0:0:0:0:Ib_067.wav
329,192,78419,1,0,0:0:0:0:Ib_079.wav
475,192,78692,1,0,0:0:0:0:Ib_118.wav
256,192,78964,1,0,0:0:0:0:Ib_098.wav
36,192,78964,1,0,0:0:0:0:
402,192,78964,1,0,0:0:0:0:
329,192,79237,1,0,0:0:0:0:Ib_013.wav
475,192,79510,1,0,0:0:0:0:Ib_032.wav
402,192,79782,1,0,0:0:0:0:Ib_055.wav
109,192,80055,1,0,0:0:0:0:Ib_067.wav
329,192,80055,1,0,0:0:0:0:
182,192,80328,1,0,0:0:0:0:Ib_080.wav
256,192,80601,1,0,0:0:0:0:Ib_037.wav
36,192,80601,1,0,0:0:0:0:
402,192,80601,1,0,0:0:0:0:
109,192,80873,1,0,0:0:0:0:Ib_011.wav
329,192,81146,1,0,0:0:0:0:Ib_036.wav
402,192,81419,1,0,0:0:0:0:Ib_055.wav
475,192,81692,1,0,0:0:0:0:Ib_060.wav
256,192,82237,1,0,0:0:0:0:Ib_077.wav
109,192,82237,1,0,0:0:0:0:
402,192,82237,1,0,0:0:0:0:
36,192,82510,1,0,0:0:0:0:Ib_035.wav
256,192,82782,1,0,0:0:0:0:Ib_076.wav
329,192,83055,1,0,0:0:0:0:Ib_092.wav
402,192,83328,1,0,0:0:0:0:Ib_112.wav
36,192,83328,1,0,0:0:0:0:
475,192,83601,1,0,0:0:0:0:Ib_131.wav
109,192,83601,1,0,0:0:0:0:
36,192,83873,1,0,0:0:0:0:Ib_126.wav
329,192,83873,1,0,0:0:0:0:
182,192,83873,1,0,0:0:0:0:
109,192,84146,1,0,0:0:0:0:Ib_006.wav
36,192,84419,1,0,0:0:0:0:Ib_023.wav
256,192,84419,1,0,0:0:0:0:
109,192,84692,1,0,0:0:0:0:Ib_047.wav
329,192,84692,1,0,0:0:0:0:
182,192,84964,1,0,0:0:0:0:Ib_076.wav
475,192,84964,1,0,0:0:0:0:
402,192,85237,1,0,0:0:0:0:Ib_063.wav
182,192,85510,1,0,0:0:0:0:Ib_092.wav
36,192,85510,1,0,0:0:0:0:
329,192,85510,1,0,0:0:0:0:
109,192,85782,1,0,0:0:0:0:Ib_010.wav
182,192,86055,1,0,0:0:0:0:Ib_034.wav
256,192,86328,1,0,0:0:0:0:Ib_061.wav
402,192,86601,1,0,0:0:0:0:Ib_092.wav
182,192,86601,1,0,0:0:0:0:
329,192,86873,1,0,0:0:0:0:Ib_125.wav
36,192,87146,1,0,0:0:0:0:Ib_114.wav
256,192,87146,1,0,0:0:0:0:
475,192,87146,1,0,0:0:0:0:
182,192,87419,1,0,0:0:0:0:Ib_036.wav
36,192,87692,1,0,0:0:0:0:Ib_077.wav
109,192,87964,1,0,0:0:0:0:Ib_093.wav
182,192,88237,1,0,0:0:0:0:Ib_103.wav
329,192,88237,1,0,0:0:0:0:
256,192,88782,1,0,0:0:0:0:Ib_053.wav
402,192,88782,1,0,0:0:0:0:
109,192,88782,1,0,0:0:0:0:
36,192,89055,1,0,0:0:0:0:Ib_006.wav
475,192,89328,1,0,0:0:0:0:Ib_047.wav
329,192,89601,1,0,0:0:0:0:Ib_061.wav
36,192,89873,1,0,0:0:0:0:Ib_077.wav
475,192,89873,1,0,0:0:0:0:
109,192,90146,1,0,0:0:0:0:Ib_111.wav
329,192,90419,1,0,0:0:0:0:Ib_094.wav
475,192,90419,1,0,0:0:0:0:
182,192,90419,1,0,0:0:0:0:
36,192,90692,1,0,0:0:0:0:Ib_009.wav
402,192,90692,1,0,0:0:0:0:
475,192,90964,1,0,0:0:0:0:Ib_023.wav
329,192,91237,1,0,0:0:0:0:Ib_047.wav
475,192,91510,1,0,0:0:0:0:Ib_071.wav
182,192,91510,1,0,0:0:0:0:
475,192,92057,1,0,0:0:0:0:
36,192,92057,1,0,0:0:0:0:
329,192,92057,1,0,0:0:0:0:Ib_063.wav
182,192,92340,1,0,0:0:0:0:Ib_035.wav
36,192,92623,1,0,0:0:0:0:Ib_009.wav
182,192,92906,1,0,0:0:0:0:Ib_034.wav
329,192,93189,1,0,0:0:0:0:Ib_061.wav
402,192,93477,1,0,0:0:0:0:Ib_093.wav
475,192,93765,1,0,0:0:0:0:Ib_129.wav
36,192,93765,128,0,95594:0:0:0:0:
182,192,95594,1,0,0:0:0:0:Ib_118.wav
329,192,95594,1,0,0:0:0:0:
475,192,95594,1,0,0:0:0:0:
256,192,95864,1,0,0:0:0:0:Ib_022.wav
402,192,96134,1,0,0:0:0:0:Ib_048.wav
182,192,96134,1,0,0:0:0:0:
109,192,96404,1,0,0:0:0:0:Ib_066.wav
329,192,96404,1,0,0:0:0:0:
402,192,96675,1,0,0:0:0:0:Ib_078.wav
182,192,96675,1,0,0:0:0:0:
256,192,96945,1,0,0:0:0:0:Ib_094.wav
475,192,97215,1,0,0:0:0:0:Ib_115.wav
109,192,97215,1,0,0:0:0:0:
329,192,97215,1,0,0:0:0:0:
256,192,97485,1,0,0:0:0:0:Ib_020.wav
182,192,97756,1,0,0:0:0:0:Ib_039.wav
36,192,97756,1,0,0:0:0:0:
256,192,98026,1,0,0:0:0:0:Ib_063.wav
402,192,98026,1,0,0:0:0:0:
329,192,98296,1,0,0:0:0:0:Ib_105.wav
475,192,98296,1,0,0:0:0:0:
109,192,98837,1,0,0:0:0:0:Ib_116.wav
329,192,98837,1,0,0:0:0:0:
475,192,98837,1,0,0:0:0:0:
182,192,99107,1,0,0:0:0:0:Ib_021.wav
36,192,99107,1,0,0:0:0:0:
109,192,99377,1,0,0:0:0:0:Ib_051.wav
475,192,99377,1,0,0:0:0:0:
329,192,99377,1,0,0:0:0:0:
36,192,99648,1,0,0:0:0:0:Ib_064.wav
402,192,99648,1,0,0:0:0:0:
256,192,99648,1,0,0:0:0:0:
475,192,99918,1,0,0:0:0:0:Ib_078.wav
182,192,99918,1,0,0:0:0:0:
329,192,99918,1,0,0:0:0:0:
109,192,100188,1,0,0:0:0:0:Ib_114.wav
402,192,100188,1,0,0:0:0:0:
36,192,100458,1,0,0:0:0:0:Ib_096.wav
329,192,100458,1,0,0:0:0:0:
182,192,100458,1,0,0:0:0:0:
475,192,100458,1,0,0:0:0:0:
402,192,100729,1,0,0:0:0:0:Ib_012.wav
109,192,100729,1,0,0:0:0:0:
36,192,100999,1,0,0:0:0:0:Ib_030.wav
475,192,100999,1,0,0:0:0:0:
256,192,100999,1,0,0:0:0:0:
109,192,101269,1,0,0:0:0:0:Ib_050.wav
329,192,101269,1,0,0:0:0:0:
402,192,101269,1,0,0:0:0:0:
475,192,101539,1,0,0:0:0:0:Ib_089.wav
182,192,101539,1,0,0:0:0:0:
36,192,101539,1,0,0:0:0:0:
256,192,102080,1,0,0:0:0:0:Ib_094.wav
475,192,102080,1,0,0:0:0:0:
109,192,102080,1,0,0:0:0:0:
329,192,102350,1,0,0:0:0:0:Ib_026.wav
182,192,102621,1,0,0:0:0:0:Ib_050.wav
36,192,102621,1,0,0:0:0:0:
402,192,102621,1,0,0:0:0:0:
256,192,102891,1,0,0:0:0:0:Ib_064.wav
475,192,102891,1,0,0:0:0:0:
109,192,102891,1,0,0:0:0:0:
36,192,103161,1,0,0:0:0:0:Ib_078.wav
329,192,103161,1,0,0:0:0:0:
182,192,103161,1,0,0:0:0:0:
402,192,103431,1,0,0:0:0:0:Ib_094.wav
256,192,103431,1,0,0:0:0:0:
36,192,103702,1,0,0:0:0:0:Ib_080.wav
475,192,103702,1,0,0:0:0:0:
182,192,103702,1,0,0:0:0:0:
329,192,103702,1,0,0:0:0:0:
109,192,103972,1,0,0:0:0:0:Ib_007.wav
402,192,103972,1,0,0:0:0:0:
329,192,104242,1,0,0:0:0:0:Ib_016.wav
182,192,104242,1,0,0:0:0:0:
36,192,104242,1,0,0:0:0:0:
109,192,104512,1,0,0:0:0:0:Ib_048.wav
402,192,104512,1,0,0:0:0:0:
256,192,104512,1,0,0:0:0:0:
36,192,104783,1,0,0:0:0:0:Ib_073.wav
475,192,104783,1,0,0:0:0:0:
329,192,104783,1,0,0:0:0:0:
475,192,105323,1,0,0:0:0:0:Ib_066.wav
182,192,105323,1,0,0:0:0:0:
329,192,105323,1,0,0:0:0:0:
109,192,105594,1,0,0:0:0:0:Ib_002.wav
256,192,105594,1,0,0:0:0:0:
36,192,105864,1,0,0:0:0:0:Ib_014.wav
329,192,105864,1,0,0:0:0:0:
475,192,105864,1,0,0:0:0:0:
256,192,106134,1,0,0:0:0:0:Ib_029.wav
109,192,106134,1,0,0:0:0:0:
402,192,106134,1,0,0:0:0:0:
182,192,106404,1,0,0:0:0:0:Ib_049.wav
329,192,106404,1,0,0:0:0:0:
36,192,106404,1,0,0:0:0:0:
109,192,106675,1,0,0:0:0:0:Ib_078.wav
402,192,106675,1,0,0:0:0:0:
36,192,106945,1,0,0:0:0:0:Ib_066.wav
256,192,106945,1,0,0:0:0:0:
182,192,106945,1,0,0:0:0:0:
475,192,106945,1,0,0:0:0:0:
109,192,107215,1,0,0:0:0:0:Ib_018.wav
329,192,107485,1,0,0:0:0:0:Ib_039.wav
36,192,107485,1,0,0:0:0:0:
109,192,107756,1,0,0:0:0:0:Ib_066.wav
402,192,107756,1,0,0:0:0:0:
182,192,108026,1,0,0:0:0:0:Ib_114.wav
475,192,108026,1,0,0:0:0:0:
402,192,108296,1,0,0:0:0:0:Ib_095.wav
475,192,108566,1,0,0:0:0:0:Ib_114.wav
36,192,108566,1,0,0:0:0:0:
182,192,108566,1,0,0:0:0:0:
256,192,108566,1,0,0:0:0:0:
109,192,108837,1,0,0:0:0:0:Ib_020.wav
402,192,108837,1,0,0:0:0:0:
329,192,109107,1,0,0:0:0:0:Ib_049.wav
36,192,109107,1,0,0:0:0:0:
182,192,109107,1,0,0:0:0:0:
256,192,109377,1,0,0:0:0:0:Ib_063.wav
109,192,109377,1,0,0:0:0:0:
402,192,109377,1,0,0:0:0:0:
36,192,109648,1,0,0:0:0:0:Ib_078.wav
329,192,109648,1,0,0:0:0:0:
475,192,109648,1,0,0:0:0:0:
402,192,109918,1,0,0:0:0:0:Ib_095.wav
182,192,110188,1,0,0:0:0:0:Ib_115.wav
256,192,110188,1,0,0:0:0:0:
475,192,110188,1,0,0:0:0:0:
36,192,110188,1,0,0:0:0:0:
109,192,110458,1,0,0:0:0:0:Ib_020.wav
329,192,110729,1,0,0:0:0:0:Ib_040.wav
475,192,110729,1,0,0:0:0:0:
36,192,110729,1,0,0:0:0:0:
256,192,110999,1,0,0:0:0:0:Ib_063.wav
109,192,110999,1,0,0:0:0:0:
475,192,111269,1,0,0:0:0:0:Ib_106.wav
329,192,111269,1,0,0:0:0:0:
182,192,111269,1,0,0:0:0:0:
402,192,111539,1,0,0:0:0:0:
182,192,111810,1,0,0:0:0:0:Ib_116.wav
475,192,111810,1,0,0:0:0:0:
36,192,111810,1,0,0:0:0:0:
329,192,111810,1,0,0:0:0:0:
109,192,112080,1,0,0:0:0:0:Ib_019.wav
256,192,112080,1,0,0:0:0:0:
402,192,112350,1,0,0:0:0:0:Ib_049.wav
36,192,112350,1,0,0:0:0:0:
329,192,112621,1,0,0:0:0:0:Ib_064.wav
109,192,112621,1,0,0:0:0:0:
475,192,112621,1,0,0:0:0:0:
182,192,112891,1,0,0:0:0:0:Ib_078.wav
36,192,112891,1,0,0:0:0:0:
256,192,112891,1,0,0:0:0:0:
475,192,113161,1,0,0:0:0:0:Ib_114.wav
36,192,113431,1,0,0:0:0:0:Ib_096.wav
256,192,113431,1,0,0:0:0:0:
402,192,113431,1,0,0:0:0:0:
182,192,113702,1,0,0:0:0:0:Ib_012.wav
329,192,113972,1,0,0:0:0:0:Ib_030.wav
475,192,113972,1,0,0:0:0:0:
36,192,114242,1,0,0:0:0:0:Ib_049.wav
256,192,114242,1,0,0:0:0:0:
182,192,114512,1,0,0:0:0:0:Ib_089.wav
402,192,114512,1,0,0:0:0:0:
256,192,115053,1,0,0:0:0:0:Ib_095.wav
109,192,115053,1,0,0:0:0:0:
475,192,115053,1,0,0:0:0:0:
36,192,115323,1,0,0:0:0:0:Ib_026.wav
182,192,115323,1,0,0:0:0:0:
256,192,115594,1,0,0:0:0:0:Ib_049.wav
402,192,115594,1,0,0:0:0:0:
329,192,115864,1,0,0:0:0:0:Ib_064.wav
36,192,115864,1,0,0:0:0:0:
109,192,116134,1,0,0:0:0:0:Ib_078.wav
402,192,116134,1,0,0:0:0:0:
475,192,116404,1,0,0:0:0:0:Ib_094.wav
36,192,116675,1,0,0:0:0:0:Ib_080.wav
182,192,116675,1,0,0:0:0:0:
329,192,116675,1,0,0:0:0:0:
109,192,116955,1,0,0:0:0:0:Ib_007.wav
329,192,117235,1,0,0:0:0:0:Ib_016.wav
36,192,117235,1,0,0:0:0:0:
109,192,117516,1,0,0:0:0:0:Ib_049.wav
402,192,117516,1,0,0:0:0:0:
475,192,117796,1,0,0:0:0:0:Ib_074.wav
182,192,117796,1,0,0:0:0:0:
36,192,118357,1,0,0:0:0:0:Ib_042.wav
182,192,118357,1,0,0:0:0:0:
329,192,118357,1,0,0:0:0:0:
109,192,118637,1,0,0:0:0:0:Ib_018.wav
475,192,118917,1,0,0:0:0:0:Ib_040.wav
182,192,118917,1,0,0:0:0:0:
329,192,119198,1,0,0:0:0:0:Ib_063.wav
36,192,119198,1,0,0:0:0:0:
109,192,119478,1,0,0:0:0:0:Ib_105.wav
402,192,119478,1,0,0:0:0:0:
329,192,120039,1,0,0:0:0:0:Ib_119.wav
182,192,120039,1,0,0:0:0:0:
36,192,120039,128,0,123326:0:0:0:0:
109,192,120314,1,0,0:0:0:0:Ib_021.wav
256,192,120589,1,0,0:0:0:0:Ib_056.wav
329,192,120864,1,0,0:0:0:0:Ib_068.wav
402,192,121139,1,0,0:0:0:0:Ib_079.wav
256,192,121415,1,0,0:0:0:0:Ib_096.wav
475,192,121690,1,0,0:0:0:0:Ib_116.wav
329,192,121690,1,0,0:0:0:0:
109,192,121962,1,0,0:0:0:0:Ib_022.wav
256,192,122235,1,0,0:0:0:0:Ib_043.wav
402,192,122508,1,0,0:0:0:0:Ib_067.wav
475,192,122780,1,0,0:0:0:0:Ib_107.wav
109,192,123326,1,0,0:0:0:0:Ib_119.wav
402,192,123326,1,0,0:0:0:0:
182,192,123599,1,0,0:0:0:0:Ib_021.wav
256,192,123871,1,0,0:0:0:0:Ib_055.wav
329,192,124144,1,0,0:0:0:0:Ib_067.wav
109,192,124417,1,0,0:0:0:0:Ib_080.wav
402,192,124690,1,0,0:0:0:0:Ib_118.wav
182,192,124962,1,0,0:0:0:0:Ib_098.wav
329,192,124962,1,0,0:0:0:0:
36,192,125235,1,0,0:0:0:0:Ib_013.wav
256,192,125508,1,0,0:0:0:0:Ib_033.wav
329,192,125780,1,0,0:0:0:0:Ib_055.wav
402,192,126053,1,0,0:0:0:0:Ib_090.wav
182,192,126599,1,0,0:0:0:0:Ib_097.wav
475,192,126599,1,0,0:0:0:0:
109,192,126871,1,0,0:0:0:0:Ib_027.wav
36,192,127144,1,0,0:0:0:0:Ib_055.wav
182,192,127417,1,0,0:0:0:0:Ib_066.wav
329,192,127690,1,0,0:0:0:0:Ib_080.wav
475,192,127962,1,0,0:0:0:0:Ib_096.wav
36,192,128235,1,0,0:0:0:0:Ib_082.wav
256,192,128235,1,0,0:0:0:0:
402,192,128508,1,0,0:0:0:0:Ib_008.wav
36,192,128780,1,0,0:0:0:0:Ib_018.wav
182,192,129053,1,0,0:0:0:0:Ib_055.wav
329,192,129326,1,0,0:0:0:0:Ib_075.wav
475,192,129871,1,0,0:0:0:0:Ib_056.wav
36,192,129871,1,0,0:0:0:0:
182,192,130144,1,0,0:0:0:0:Ib_004.wav
109,192,130417,1,0,0:0:0:0:Ib_015.wav
256,192,130690,1,0,0:0:0:0:Ib_032.wav
402,192,130962,1,0,0:0:0:0:Ib_053.wav
475,192,131235,1,0,0:0:0:0:Ib_080.wav
109,192,131508,1,0,0:0:0:0:Ib_068.wav
329,192,131508,1,0,0:0:0:0:
182,192,131780,1,0,0:0:0:0:Ib_021.wav
36,192,132053,1,0,0:0:0:0:Ib_043.wav
256,192,132326,1,0,0:0:0:0:Ib_067.wav
475,192,132599,1,0,0:0:0:0:Ib_106.wav
36,192,133144,1,0,0:0:0:0:Ib_057.wav
329,192,133144,1,0,0:0:0:0:
182,192,133144,1,0,0:0:0:0:
109,192,133417,1,0,0:0:0:0:Ib_020.wav
182,192,133690,1,0,0:0:0:0:Ib_055.wav
256,192,133962,1,0,0:0:0:0:Ib_066.wav
36,192,134235,1,0,0:0:0:0:Ib_080.wav
329,192,134235,1,0,0:0:0:0:
109,192,134508,1,0,0:0:0:0:Ib_096.wav
402,192,134508,1,0,0:0:0:0:
182,192,134780,1,0,0:0:0:0:Ib_118.wav
475,192,134780,1,0,0:0:0:0:
329,192,134780,1,0,0:0:0:0:
109,192,135053,1,0,0:0:0:0:Ib_021.wav
36,192,135326,1,0,0:0:0:0:Ib_043.wav
109,192,135599,1,0,0:0:0:0:Ib_067.wav
256,192,135871,1,0,0:0:0:0:Ib_108.wav
182,192,135871,1,0,0:0:0:0:
329,192,136144,1,0,0:0:0:0:Ib_096.wav
402,192,136417,1,0,0:0:0:0:Ib_119.wav
182,192,136417,1,0,0:0:0:0:
36,192,136417,1,0,0:0:0:0:
109,192,136690,1,0,0:0:0:0:Ib_021.wav
256,192,136962,1,0,0:0:0:0:Ib_055.wav
329,192,137235,1,0,0:0:0:0:Ib_066.wav
402,192,137508,1,0,0:0:0:0:Ib_080.wav
182,192,137508,1,0,0:0:0:0:
475,192,137780,1,0,0:0:0:0:Ib_115.wav
402,192,138053,1,0,0:0:0:0:Ib_098.wav
36,192,138053,1,0,0:0:0:0:
256,192,138053,1,0,0:0:0:0:
182,192,138326,1,0,0:0:0:0:Ib_013.wav
329,192,138599,1,0,0:0:0:0:Ib_032.wav
402,192,138871,1,0,0:0:0:0:Ib_053.wav
475,192,139144,1,0,0:0:0:0:Ib_090.wav
36,192,139690,1,0,0:0:0:0:Ib_096.wav
402,192,139690,1,0,0:0:0:0:
182,192,139690,1,0,0:0:0:0:
329,192,139962,1,0,0:0:0:0:Ib_027.wav
402,192,140235,1,0,0:0:0:0:Ib_053.wav
475,192,140508,1,0,0:0:0:0:Ib_067.wav
182,192,140780,1,0,0:0:0:0:Ib_080.wav
36,192,140780,1,0,0:0:0:0:
256,192,141053,1,0,0:0:0:0:Ib_096.wav
109,192,141053,1,0,0:0:0:0:
329,192,141326,1,0,0:0:0:0:Ib_082.wav
36,192,141326,1,0,0:0:0:0:
475,192,141326,1,0,0:0:0:0:
402,192,141611,1,0,0:0:0:0:Ib_008.wav
36,192,141897,1,0,0:0:0:0:Ib_018.wav
109,192,142183,1,0,0:0:0:0:Ib_053.wav
182,192,142468,1,0,0:0:0:0:Ib_075.wav
329,192,142468,1,0,0:0:0:0:
36,192,143037,1,0,0:0:0:0:Ib_045.wav
256,192,143037,1,0,0:0:0:0:
402,192,143037,1,0,0:0:0:0:
182,192,143328,1,0,0:0:0:0:Ib_021.wav
329,192,143619,1,0,0:0:0:0:Ib_044.wav
402,192,143910,1,0,0:0:0:0:Ib_068.wav
475,192,144202,1,0,0:0:0:0:Ib_119.wav
36,192,144202,1,0,0:0:0:0:
329,192,144493,1,0,0:0:0:0:Ib_083.wav
182,192,144784,1,0,0:0:0:0:Ib_059.wav
475,192,144784,1,0,0:0:0:0:
109,192,145093,1,0,0:0:0:0:Ib_022.wav
256,192,145402,1,0,0:0:0:0:Ib_057.wav
402,192,145741,1,0,0:0:0:0:Ib_069.wav
36,192,146064,1,0,0:0:0:0:Ib_083.wav
256,192,146448,1,0,0:0:0:0:Ib_120.wav
475,192,146833,1,0,0:0:0:0:Ib_136.wav
