osu file format v14

[General]
AudioFilename: [A]ddiction.mp3
AudioLeadIn: 0
PreviewTime: 42999
Countdown: 0
SampleSet: Normal
StackLeniency: 0.7
Mode: 0
LetterboxInBreaks: 0
WidescreenStoryboard: 0

[Editor]
Bookmarks: 2938,8792,32207,43914,67329,143426
DistanceSpacing: 0.5
BeatDivisor: 4
GridSize: 4
TimelineZoom: 1.5

[Metadata]
Title:[A]ddiction
TitleUnicode:[A]ddiction
Artist:EVO+
ArtistUnicode:EVO+
Creator:Mei
Version:Hard
Source:
Tags:giga reol DreaM117er m1223961117 Streliteela Euphoria Vert addiction
BeatmapID:832642
BeatmapSetID:378803

[Difficulty]
HPDrainRate:4
CircleSize:4
OverallDifficulty:6
ApproachRate:8
SliderMultiplier:1.5
SliderTickRate:1

[Events]
//Background and Video events
0,0,"bgr.jpg",0,0
Video,0,"ok.avi"
//Break Periods
2,67529,72432
2,131919,142676
2,165577,166640
//Storyboard Layer 0 (Background)
//Storyboard Layer 1 (Fail)
//Storyboard Layer 2 (Pass)
//Storyboard Layer 3 (Foreground)
//Storyboard Sound Samples

[TimingPoints]
12,365.853658536585,4,2,1,70,1,0
19036,-100,4,3,0,70,0,0
20499,-100,4,2,1,70,0,0
32207,-133.333333333333,4,2,2,70,0,0
41719,-111.111111111111,4,2,2,70,0,0
42450,-100,4,2,2,70,0,0
43914,-90.9090909090909,4,1,1,85,0,1
67329,-100,4,2,1,70,0,0
73182,-100,4,2,1,80,0,0
96597,-133.333333333333,4,2,2,70,0,0
106109,-111.111111111111,4,2,2,70,0,0
106841,-100,4,2,2,70,0,0
108304,-90.9090909090909,4,1,1,85,0,1
131719,-100,4,2,1,50,0,0
143426,-90.9090909090909,4,2,1,80,0,0
155133,-133.333333333333,4,2,2,70,0,0
164646,-111.111111111111,4,2,2,70,0,0
165377,-100,4,2,2,70,0,0
168304,-90.9090909090909,4,1,1,85,0,1
191719,-133.333333333333,4,2,1,60,0,0

[Colours]
Combo1 : 123,0,62
Combo2 : 249,240,138
Combo3 : 159,255,64
Combo4 : 164,164,255

[HitObjects]
104,80,2938,6,0,P|117:130|129:244,1,150,4|10,0:0|0:0,0:0:0:0:
167,309,3487,1,2,0:0:0:0:
254,286,3670,2,0,L|343:278,1,75
424,174,4036,2,0,P|365:194|290:189,1,112.5,10|0,0:0|0:0,0:0:0:0:
298,174,4402,6,0,L|280:83,1,75,2|2,0:0|0:0,0:0:0:0:
352,32,4768,2,0,L|366:105,1,75,8|0,0:0|0:0,0:0:0:0:
216,184,5133,2,0,L|179:16,1,150,2|10,0:0|0:0,0:0:0:0:
260,256,5865,6,0,P|224:280|92:276,1,150,2|8,0:2|0:0,0:0:0:0:
56,240,6414,1,2,0:0:0:0:
112,168,6597,2,0,P|164:152|204:140,1,75,2|0,0:0|0:0,0:0:0:0:
280,164,6963,2,0,P|324:176|408:172,1,112.5,10|0,0:0|0:0,0:0:0:0:
412,160,7329,6,0,L|440:68,2,75,2|2|8,0:0|0:0|0:0,0:0:0:0:
456,248,7877,1,2,0:0:0:0:
352,248,8060,2,0,P|304:268|292:376,1,150,2|10,0:0|0:0,0:0:0:0:
360,328,8609,1,0,0:0:0:0:
200,352,8792,6,0,L|196:184,1,150,4|8,0:0|0:0,0:0:0:0:
192,120,9341,1,10,0:0:0:0:
192,120,9707,6,0,P|132:120|92:116,1,75,2|10,0:3|0:0,0:0:0:0:
152,28,10072,1,2,0:0:0:0:
240,36,10255,6,0,P|296:32|404:8,1,150,2|8,0:3|0:0,0:0:0:0:
472,64,10804,1,10,0:0:0:0:
472,64,11170,6,0,L|464:156,1,75,2|10,0:3|0:0,0:0:0:0:
352,144,11536,1,2,0:0:0:0:
404,228,11719,6,0,P|448:256|424:348,1,150,2|8,0:3|0:0,0:0:0:0:
344,364,12268,1,10,0:0:0:0:
344,364,12633,6,0,L|236:352,1,75,2|10,0:3|0:0,0:0:0:0:
172,348,12999,1,0,0:0:0:0:
172,348,13182,1,2,0:3:0:0:
72,224,13548,6,0,L|64:48,2,150,10|0|10,0:0|0:0|0:0,0:0:0:0:
324,108,14646,6,0,B|324:80|340:64|340:64|448:80,1,150,12|8,0:0|0:0,0:0:0:0:
496,144,15194,1,10,0:0:0:0:
496,144,15560,6,0,L|484:236,1,75,2|10,0:3|0:0,0:0:0:0:
448,304,15926,1,2,0:0:0:0:
376,244,16109,6,0,P|308:268|220:240,1,150,2|8,0:3|0:0,0:0:0:0:
140,272,16658,1,10,0:0:0:0:
140,272,17024,6,0,L|156:176,1,75,2|10,0:3|0:0,0:0:0:0:
72,176,17390,1,2,0:0:0:0:
120,84,17572,6,0,P|168:80|204:72,1,75,2|0,0:3|0:0,0:0:0:0:
280,24,17938,1,10,0:0:0:0:
260,120,18121,2,0,P|256:184|252:280,1,150,8|2,0:0|0:3,0:0:0:0:
312,352,18670,2,0,L|400:352,1,75,10|10,0:0|0:0,0:0:0:0:
228,372,19036,5,0,3:0:0:0:
160,300,19219,1,0,3:3:0:0:
76,352,19402,1,0,3:3:0:0:
80,264,19585,1,0,3:0:0:0:
80,264,19768,2,0,P|116:224|224:240,1,150,8|8,0:0|0:0,0:0:0:0:
376,352,20499,5,4,0:0:0:0:
304,288,20682,2,0,L|300:204,1,75,0|8,0:0|0:0,0:0:0:0:
396,244,21048,1,10,0:0:0:0:
396,244,21231,2,0,L|400:160,1,75,0|2,0:0|0:3,0:0:0:0:
432,80,21597,2,0,P|496:68|520:64,1,75,10|2,0:0|0:0,0:0:0:0:
356,56,21963,5,10,0:3:0:0:
292,8,22146,1,0,0:0:0:0:
280,88,22329,1,8,0:0:0:0:
280,88,22511,2,0,P|284:152|288:264,1,150,10|2,0:0|0:3,0:0:0:0:
304,344,23060,2,0,P|256:360|228:368,1,75,10|2,0:0|0:0,0:0:0:0:
136,352,23426,5,10,0:3:0:0:
208,288,23609,2,0,L|212:204,1,75,0|8,0:0|0:0,0:0:0:0:
116,244,23975,1,10,0:0:0:0:
116,244,24158,2,0,L|112:160,1,75,0|2,0:0|0:3,0:0:0:0:
80,80,24524,2,0,P|16:68|-8:64,1,75,10|2,0:0|0:0,0:0:0:0:
156,56,24890,5,10,0:3:0:0:
220,8,25073,1,0,0:0:0:0:
232,88,25256,1,8,0:0:0:0:
232,88,25438,2,0,P|228:152|224:264,1,150,10|2,0:0|0:3,0:0:0:0:
208,344,25987,2,0,P|256:360|284:368,1,75,10|2,0:0|0:0,0:0:0:0:
372,316,26353,6,0,P|416:300|460:280,1,75,12|0,0:0|0:0,0:0:0:0:
316,240,26719,1,8,0:0:0:0:
316,240,26902,2,0,P|376:216|464:184,1,150,10|2,0:0|0:3,0:0:0:0:
364,44,27451,2,0,L|356:128,1,75,10|2,0:0|0:0,0:0:0:0:
260,164,27816,6,0,P|216:180|172:200,1,75,10|0,0:3|0:0,0:0:0:0:
316,240,28182,1,8,0:0:0:0:
316,240,28365,2,0,P|256:264|168:296,1,150,10|2,0:0|0:3,0:0:0:0:
100,344,28914,1,10,0:0:0:0:
20,276,29097,1,2,0:0:0:0:
104,224,29280,6,0,L|112:132,1,75,10|0,0:3|0:0,0:0:0:0:
220,44,29646,2,0,L|212:136,1,75,8|10,0:0|0:0,0:0:0:0:
224,280,30011,2,0,L|232:188,1,75,0|10,0:0|0:3,0:0:0:0:
340,100,30377,2,0,L|332:192,1,75,10|2,0:0|0:0,0:0:0:0:
328,292,30743,6,0,P|388:272|480:292,1,150,10|10,0:3|0:0,0:0:0:0:
484,176,31292,1,10,0:0:0:0:
484,176,31475,2,0,L|496:76,1,75,0|2,0:0|0:3,0:0:0:0:
412,32,31841,6,0,P|356:48|284:40,1,112.5,10|0,0:0|0:0,0:0:0:0:
280,32,32207,6,0,P|220:28|152:28,2,112.500004291535,8|0|0,0:0|0:0|0:0,0:0:0:0:
332,120,33121,1,0,0:0:0:0:
240,120,33304,2,0,L|212:176,1,56.2500021457673,8|0,0:0|0:0,0:0:0:0:
292,232,33670,6,0,P|324:228|428:224,1,112.500004291535,10|0,0:0|0:0,0:0:0:0:
216,296,34219,1,0,0:0:0:0:
216,296,34402,2,0,P|159:293|103:287,1,112.500004291535,0|8,0:0|0:0,0:0:0:0:
316,356,35133,6,0,P|400:352|504:344,1,168.750006437302,10|8,0:0|0:0,0:0:0:0:
484,345,35865,2,0,L|492:268,1,56.2500021457673,0|0,0:0|0:0,0:0:0:0:
408,264,36231,2,0,L|415:186,1,56.2500021457673,8|0,0:0|0:0,0:0:0:0:
496,180,36597,6,0,P|512:144|480:60,1,112.500004291535,10|0,0:0|0:0,0:0:0:0:
372,80,37146,1,0,0:0:0:0:
292,156,37329,2,0,P|276:192|308:276,1,112.500004291535,8|8,0:0|0:0,0:0:0:0:
292,260,37877,1,0,0:0:0:0:
292,260,38060,6,0,L|112:272,1,168.750006437302,10|8,0:0|0:0,0:0:0:0:
56,212,38792,2,0,P|104:192|124:172,1,56.2500021457673,2|0,0:0|0:0,0:0:0:0:
148,112,39158,2,0,L|156:40,1,56.2500021457673,8|0,0:0|0:0,0:0:0:0:
56,72,39524,5,10,0:0:0:0:
224,192,39890,1,0,0:0:0:0:
400,96,40255,2,0,L|412:20,2,56.2500021457673,2|0|0,0:0|0:0|0:0,0:0:0:0:
308,124,40804,1,0,0:0:0:0:
320,212,40987,6,0,L|328:267,1,56.2500021457673,10|0,0:0|0:0,0:0:0:0:
416,256,41353,2,0,L|424:311,1,56.2500021457673,10|0,0:0|0:0,0:0:0:0:
316,368,41719,6,0,L|236:372,1,67.4999979400635,10|0,0:0|0:0,0:0:0:0:
160,336,42085,2,0,L|80:340,1,67.4999979400635,10|0,0:0|0:0,0:0:0:0:
36,240,42451,6,0,L|28:180,7,37.5,8|0|0|0|0|0|0|0,3:2|3:0|3:0|3:0|3:0|3:0|3:0|3:0,0:0:0:0:
32,168,43182,6,0,P|72:176|128:172,1,75,2|0,3:0|0:0,0:0:0:0:
176,112,43548,1,8,3:0:0:0:
416,64,43914,6,0,P|340:36|260:72,1,165.000005035401,4|2,0:0|0:0,0:0:0:0:
328,144,44463,1,0,0:0:0:0:
248,184,44646,2,0,L|248:244|248:272,1,82.5000025177003,10|2,0:0|0:0,0:0:0:0:
344,240,45011,2,0,L|432:232,1,82.5000025177003,0|2,0:0|0:0,0:0:0:0:
328,352,45377,5,0,0:0:0:0:
236,324,45560,1,2,0:0:0:0:
136,336,45743,2,0,P|76:344|36:344,1,82.5000025177003,2|0,0:0|0:0,0:0:0:0:
0,240,46109,2,0,P|41:242|81:248,1,82.5000025177003,10|2,0:0|0:0,0:0:0:0:
176,248,46475,2,0,P|196:176|204:112,1,123.75000377655
191,100,46841,6,0,P|127:88|-1:72,1,165.000005035401,2|2,0:0|0:0,0:0:0:0:
184,4,47390,1,2,0:0:0:0:
272,32,47572,2,0,L|292:136,1,82.5000025177003,8|2,0:0|0:0,0:0:0:0:
375,133,47938,2,0,L|360:52,1,82.5000025177003,2|0,0:0|0:0,0:0:0:0:
312,188,48304,5,2,0:0:0:0:
412,216,48487,1,0,0:0:0:0:
344,280,48670,2,0,P|328:328|316:368,1,82.5000025177003,2|0,0:0|0:0,0:0:0:0:
248,308,49036,2,0,L|160:320,2,82.5000025177003,10|2|2,0:0|0:0|0:0,0:0:0:0:
344,280,49585,1,0,0:0:0:0:
432,308,49768,6,0,P|480:308|508:196,1,165.000005035401,2|2,0:0|0:0,0:0:0:0:
432,164,50316,1,2,0:0:0:0:
504,104,50499,2,0,P|512:48|512:20,1,82.5000025177003,8|2,0:0|0:0,0:0:0:0:
364,92,50865,2,0,P|404:80|432:48,1,82.5000025177003,2|0,0:0|0:0,0:0:0:0:
284,40,51231,6,0,P|204:40|104:56,1,165.000005035401,2|2,0:0|0:0,0:0:0:0:
72,136,51780,1,2,0:0:0:0:
160,184,51963,2,0,P|212:208|240:216,1,82.5000025177003,8|2,0:0|0:0,0:0:0:0:
328,172,52329,1,2,0:0:0:0:
308,268,52511,1,0,0:0:0:0:
208,296,52694,6,0,P|144:304|32:320,1,165.000005035401,2|2,0:0|0:0,0:0:0:0:
280,368,53243,1,2,0:0:0:0:
280,368,53426,2,0,L|304:272,1,82.5000025177003,8|2,0:0|0:0,0:0:0:0:
236,214,53792,2,0,L|260:118,1,82.5000025177003,0|2,0:0|0:0,0:0:0:0:
340,80,54158,5,2,0:0:0:0:
224,56,54341,2,0,L|168:64,2,41.2500012588501,2|0|0,0:0|0:0|0:0,0:0:0:0:
308,0,54707,1,2,0:0:0:0:
416,24,54890,2,0,P|456:60|492:96,1,82.5000025177003,10|0,0:0|0:0,0:0:0:0:
400,144,55255,2,0,P|392:184|388:232,1,82.5000025177003,2|0,0:0|0:0,0:0:0:0:
436,316,55621,6,0,P|388:340|268:312,1,165.000005035401,6|2,0:0|0:0,0:0:0:0:
188,296,56170,1,0,0:0:0:0:
268,216,56353,2,0,P|328:204|372:200,1,82.5000025177003,10|2,0:0|0:0,0:0:0:0:
172,184,56719,2,0,L|160:88,1,82.5000025177003,2|0,0:0|0:0,0:0:0:0:
240,24,57085,5,2,0:0:0:0:
240,24,57268,2,0,L|250:105,1,82.5000025177003,2|0,0:0|0:0,0:0:0:0:
356,84,57633,1,2,0:0:0:0:
356,84,57816,2,0,P|344:144|344:192,1,82.5000025177003,10|0,0:0|0:0,0:0:0:0:
376,260,58182,2,0,P|332:280|284:280,1,82.5000025177003,2|0,0:0|0:0,0:0:0:0:
200,264,58548,6,0,P|124:248|80:328,1,165.000005035401,2|2,0:0|0:0,0:0:0:0:
78,311,59097,1,0,0:0:0:0:
12,240,59280,2,0,L|0:136,1,82.5000025177003,8|2,0:0|0:0,0:0:0:0:
40,60,59646,1,0,0:0:0:0:
112,124,59829,1,2,0:0:0:0:
196,60,60011,6,0,P|264:52|360:40,1,165.000005035401,2|2,0:0|0:0,0:0:0:0:
464,20,60560,1,2,0:0:0:0:
424,104,60743,2,0,P|412:160|404:200,1,82.5000025177003,10|0,0:0|0:0,0:0:0:0:
304,172,61109,2,0,P|324:232|336:264,1,82.5000025177003,2|0,0:0|0:0,0:0:0:0:
400,320,61475,6,0,P|428:256|524:280,1,165.000005035401,2|2,0:0|0:0,0:0:0:0:
472,364,62024,1,2,0:0:0:0:
472,364,62207,2,0,L|360:352,1,82.5000025177003,8|2,0:0|0:0,0:0:0:0:
304,268,62572,2,0,L|288:368,1,82.5000025177003,2|0,0:0|0:0,0:0:0:0:
196,284,62938,6,0,P|160:236|216:144,1,165.000005035401,2|2,0:0|0:0,0:0:0:0:
288,180,63487,1,2,0:0:0:0:
324,88,63670,2,0,L|336:0,1,82.5000025177003,8|2,0:0|0:0,0:0:0:0:
236,56,64036,1,2,0:0:0:0:
144,64,64219,1,2,0:0:0:0:
144,64,64402,6,0,P|128:132|128:252,1,165.000005035401,2|0,0:0|0:0,0:0:0:0:
108,320,64951,1,2,0:0:0:0:
208,288,65133,2,0,P|268:284|304:284,1,82.5000025177003,8|2,0:0|0:0,0:0:0:0:
352,372,65499,2,0,P|292:376|256:376,1,82.5000025177003,2|2,0:0|0:0,0:0:0:0:
380,264,65865,5,2,0:0:0:0:
452,332,66048,2,0,L|460:376,2,41.2500012588501,0|0|2,0:0|0:0|0:0,0:0:0:0:
492,252,66414,1,2,0:0:0:0:
492,252,66597,2,0,L|504:156,1,82.5000025177003,8|2,0:0|0:0,0:0:0:0:
400,168,66963,2,0,L|412:72,1,82.5000025177003,2|2,0:0|0:0,0:0:0:0:
320,24,67329,5,4,0:0:0:0:
144,80,73182,6,0,P|208:68|296:52,1,150,4|8,0:0|0:0,0:0:0:0:
433,91,73731,2,0,P|409:155|344:136,1,150,10|2,0:0|0:3,0:0:0:0:
252,160,74280,2,0,L|268:248,1,75,10|2,0:0|0:0,0:0:0:0:
296,316,74646,5,2,0:3:0:0:
352,252,74829,1,0,0:0:0:0:
265,233,75011,2,0,L|168:228,1,75,8|10,0:0|0:0,0:0:0:0:
104,256,75377,2,0,P|92:300|96:340,2,75,0|2|10,0:0|0:3|0:0,0:0:0:0:
32,200,75926,1,2,0:0:0:0:
32,200,76109,6,0,L|24:112,1,75,2|0,0:3|0:0,0:0:0:0:
37,111,76383,1,0,0:0:0:0:
51,99,76475,2,0,P|111:87|155:83,1,75,8|10,0:0|0:0,0:0:0:0:
176,16,76841,1,0,0:0:0:0:
224,88,77024,2,0,P|272:96|320:96,2,75,2|10|0,0:3|0:0|0:0,0:0:0:0:
164,160,77572,5,2,0:3:0:0:
248,184,77755,2,0,L|256:272,1,75,0|10,0:0|0:0,0:0:0:0:
184,324,78121,1,10,0:0:0:0:
124,248,78304,2,0,L|40:244,2,75,0|10|10,0:0|0:3|0:0,0:0:0:0:
324,340,79036,6,0,P|340:284|368:184,1,150,12|8,0:0|0:0,0:0:0:0:
400,88,79585,2,0,P|340:116|284:44,1,150,10|2,0:0|0:3,0:0:0:0:
212,4,80133,2,0,P|164:0|116:4,1,75,10|2,0:0|0:0,0:0:0:0:
88,88,80499,5,2,0:3:0:0:
88,88,80682,2,0,P|125:89|162:85,2,75,0|8|10,0:0|0:0|0:0,0:0:0:0:
8,44,81231,2,0,P|0:104|4:148,1,75,0|2,0:0|0:3,0:0:0:0:
80,176,81597,2,0,P|88:236|84:280,1,75,10|2,0:0|0:0,0:0:0:0:
180,208,81963,5,2,0:3:0:0:
144,288,82146,1,0,0:0:0:0:
224,332,82329,1,10,0:0:0:0:
268,240,82511,2,0,L|276:200|284:160,2,75,8|0|2,0:0|0:0|0:3,0:0:0:0:
316,328,83060,2,0,P|360:336|392:336,1,75,10|2,0:0|0:0,0:0:0:0:
484,304,83426,6,0,L|496:216,1,75,10|10,0:3|0:0,0:0:0:0:
418,181,83792,2,0,L|408:256,1,75,0|10,0:0|0:0,0:0:0:0:
336,192,84158,2,0,L|348:104,1,75,0|10,0:0|0:3,0:0:0:0:
432,76,84524,2,0,P|480:68|512:56,1,75,2|10,0:0|0:0,0:0:0:0:
352,28,84890,6,0,P|296:16|184:12,1,150,4|8,0:0|0:0,0:0:0:0:
80,16,85438,1,10,0:0:0:0:
128,104,85621,2,0,P|180:104|228:100,1,75,0|2,0:0|0:3,0:0:0:0:
24,84,85987,2,0,P|0:136|-16:164,1,75,10|2,0:0|0:0,0:0:0:0:
76,228,86353,6,0,P|32:244|-4:260,2,75,12|8|0,0:0|0:0|0:0,0:0:0:0:
148,296,86902,1,10,0:0:0:0:
180,204,87085,2,0,P|226:243|235:333,1,150,0|10,0:0|0:0,0:0:0:0:
320,360,87633,1,2,0:0:0:0:
388,288,87816,6,0,P|400:224|436:120,1,150,12|8,0:0|0:0,0:0:0:0:
508,84,88365,1,10,0:0:0:0:
424,40,88548,1,0,0:0:0:0:
348,100,88731,2,0,P|292:116|240:120,2,75,2|10|2,0:3|0:0|0:0,0:0:0:0:
288,28,89280,6,0,L|192:16,1,75,12|8,0:0|0:0,0:0:0:0:
156,92,89646,2,0,L|168:188,2,75,0|10|0,0:0|0:0|0:0,0:0:0:0:
80,40,90194,1,2,0:3:0:0:
80,40,90377,2,0,L|60:128,1,75,10|10,0:0|0:0,0:0:0:0:
0,192,90743,6,0,P|20:248|112:256,1,150,12|8,0:0|0:0,0:0:0:0:
164,324,91292,1,10,0:0:0:0:
236,244,91475,2,0,L|260:80,1,150,2|0,0:0|0:0,0:0:0:0:
444,204,92207,5,10,0:3:0:0:
448,300,92390,1,0,0:0:0:0:
360,264,92572,2,0,L|344:168,1,75,8|10,0:0|0:0,0:0:0:0:
400,104,92938,2,0,L|448:84,3,37.5,2|0|2|0,0:0|0:0|0:0|0:0,0:0:0:0:
464,64,93304,2,0,P|412:60|328:44,1,112.5,2|0,0:0|0:0,0:0:0:0:
328,48,93670,6,0,P|276:44|168:44,1,150,10|8,0:3|0:0,0:0:0:0:
84,144,94219,2,0,P|158:144|233:139,1,150,10|2,0:0|0:3,0:0:0:0:
344,176,94768,2,0,L|352:272,1,75,10|2,0:0|0:0,0:0:0:0:
264,312,95133,1,10,0:3:0:0:
184,248,95316,6,0,L|136:240,2,37.5,0|0|2,0:0|0:0|0:0,0:0:0:0:
256,184,95682,1,10,0:0:0:0:
158,140,95865,2,0,P|121:145|84:144,1,75,0|2,0:0|0:3,0:0:0:0:
120,56,96231,2,0,P|72:52|36:44,1,75,10|0,0:0|0:0,0:0:0:0:
228,0,96597,6,0,L|240:120,1,112.500004291535,8|0,0:0|0:0,0:0:0:0:
384,248,97329,2,0,P|432:236|456:232,1,56.2500021457673,0|0,0:0|0:0,0:0:0:0:
424,152,97694,2,0,P|396:159|369:165,1,56.2500021457673,8|0,0:0|0:0,0:0:0:0:
296,224,98060,2,0,P|248:212|160:208,1,112.500004291535,10|0,0:0|0:0,0:0:0:0:
36,256,98792,1,0,0:0:0:0:
72,96,99158,1,8,0:0:0:0:
185,206,99524,6,0,L|201:330,1,112.500004291535,10|0,0:0|0:0,0:0:0:0:
376,348,100255,2,0,P|424:344|448:344,1,56.2500021457673,0|0,0:0|0:0,0:0:0:0:
504,272,100621,2,0,L|516:208,1,56.2500021457673,8|0,0:0|0:0,0:0:0:0:
408,152,100987,6,0,P|392:192|408:280,1,112.500004291535,10|0,0:0|0:0,0:0:0:0:
312,268,101536,1,8,0:0:0:0:
312,268,101719,2,0,P|264:264|232:268,1,56.2500021457673,8|0,0:0|0:0,0:0:0:0:
180,312,102085,2,0,L|176:368,1,56.2500021457673,8|0,0:0|0:0,0:0:0:0:
140,236,102451,6,0,L|152:104,1,112.500004291535,10|0,0:0|0:0,0:0:0:0:
396,32,103182,2,0,P|408:68|412:96,1,56.2500021457673,2|0,0:0|0:0,0:0:0:0:
324,88,103548,2,0,P|312:132|308:160,1,56.2500021457673,8|0,0:0|0:0,0:0:0:0:
416,180,103914,6,0,P|472:184|544:188,2,112.500004291535,10|0|2,0:0|0:0|0:0,0:0:0:0:
352,252,104829,1,0,0:0:0:0:
276,204,105011,2,0,L|244:200|212:196,1,56.2500021457673,8|0,0:0|0:0,0:0:0:0:
152,280,105377,6,0,L|144:336,1,56.2500021457673,10|0,0:0|0:0,0:0:0:0:
68,300,105743,2,0,L|60:356,1,56.2500021457673,10|0,0:0|0:0,0:0:0:0:
4,216,106109,6,0,L|76:208,1,67.4999979400635,10|0,0:0|0:0,0:0:0:0:
144,136,106475,2,0,L|76:128,1,67.4999979400635,10|0,0:0|0:0,0:0:0:0:
24,48,106841,6,0,L|16:8,7,37.5,8|0|0|0|0|0|0|0,3:2|3:2|3:0|3:0|3:0|3:0|3:0|3:0,0:0:0:0:
16,11,107572,6,0,P|68:16|112:16,1,75,2|0,3:0|0:0,0:0:0:0:
192,16,107938,1,8,3:0:0:0:
364,72,108304,6,0,P|320:88|296:212,1,165.000005035401,4|2,0:0|0:0,0:0:0:0:
336,280,108853,1,0,0:0:0:0:
412,216,109036,2,0,P|460:208|496:200,1,82.5000025177003,10|2,0:0|0:0,0:0:0:0:
480,296,109402,2,0,L|448:380,1,82.5000025177003,0|2,0:0|0:0,0:0:0:0:
352,376,109768,5,0,0:0:0:0:
256,320,109951,2,0,L|236:216,1,82.5000025177003,2|2,0:0|0:0,0:0:0:0:
332,176,110316,1,0,0:0:0:0:
240,152,110499,2,0,P|180:140|144:132,1,82.5000025177003,8|2,0:0|0:0,0:0:0:0:
159,222,110865,2,0,L|199:230|239:238,1,82.5000025177003,2|0,0:0|0:0,0:0:0:0:
340,256,111231,6,0,P|396:272|408:368,1,165.000005035401,2|2,0:0|0:0,0:0:0:0:
272,380,111780,1,2,0:0:0:0:
272,380,111963,2,0,L|252:276,1,82.5000025177003,8|0,0:0|0:0,0:0:0:0:
156,256,112328,2,0,L|171:337,1,82.5000025177003,2|0,0:0|0:0,0:0:0:0:
252,216,112694,6,0,P|268:168|280:128,1,82.5000025177003,2|0,0:0|0:0,0:0:0:0:
188,120,113060,2,0,P|204:72|216:32,1,82.5000025177003,2|0,0:0|0:0,0:0:0:0:
72,16,113426,1,10,0:0:0:0:
72,16,113609,2,0,P|84:55|97:94,1,82.5000025177003,2|2,0:0|0:0,0:0:0:0:
188,120,113975,1,0,0:0:0:0:
116,184,114158,6,0,P|68:184|40:296,1,165.000005035401,2|2,0:0|0:0,0:0:0:0:
92,356,114706,1,2,0:0:0:0:
152,272,114890,2,0,P|216:264|256:256,1,82.5000025177003,8|2,0:0|0:0,0:0:0:0:
316,184,115255,2,0,L|308:284,1,82.5000025177003,2|0,0:0|0:0,0:0:0:0:
252,356,115621,6,0,P|332:356|432:340,1,165.000005035401,2|2,0:0|0:0,0:0:0:0:
440,248,116170,1,2,0:0:0:0:
352,200,116353,2,0,P|296:180|272:168,1,82.5000025177003,8|2,0:0|0:0,0:0:0:0:
184,212,116719,1,2,0:0:0:0:
204,116,116901,1,0,0:0:0:0:
304,88,117085,6,0,P|368:80|480:64,1,165.000005035401,2|2,0:0|0:0,0:0:0:0:
232,16,117633,1,2,0:0:0:0:
232,16,117816,2,0,L|208:112,1,82.5000025177003,8|2,0:0|0:0,0:0:0:0:
276,170,118182,2,0,L|252:266,1,82.5000025177003,0|2,0:0|0:0,0:0:0:0:
172,304,118548,5,2,0:0:0:0:
288,328,118731,2,0,L|344:320,2,41.2500012588501,2|0|0,0:0|0:0|0:0,0:0:0:0:
204,384,119097,1,2,0:0:0:0:
96,360,119280,2,0,P|56:324|20:288,1,82.5000025177003,10|0,0:0|0:0,0:0:0:0:
104,232,119646,2,0,P|120:196|120:144,1,82.5000025177003,2|0,0:0|0:0,0:0:0:0:
76,68,120011,6,0,P|124:44|244:72,1,165.000005035401,6|2,0:0|0:0,0:0:0:0:
324,88,120560,1,0,0:0:0:0:
244,168,120743,2,0,P|184:180|140:184,1,82.5000025177003,10|2,0:0|0:0,0:0:0:0:
340,200,121109,2,0,L|352:296,1,82.5000025177003,2|0,0:0|0:0,0:0:0:0:
272,360,121475,5,2,0:0:0:0:
272,360,121658,2,0,L|262:279,1,82.5000025177003,2|0,0:0|0:0,0:0:0:0:
156,300,122023,1,2,0:0:0:0:
156,300,122207,2,0,P|168:240|168:192,1,82.5000025177003,10|0,0:0|0:0,0:0:0:0:
176,120,122572,2,0,P|216:96|320:112,1,123.75000377655,2|0,0:0|0:0,0:0:0:0:
312,120,122938,6,0,P|388:136|432:56,1,165.000005035401,2|2,0:0|0:0,0:0:0:0:
434,73,123487,1,0,0:0:0:0:
500,144,123670,2,0,L|512:248,1,82.5000025177003,8|2,0:0|0:0,0:0:0:0:
472,324,124036,1,0,0:0:0:0:
400,260,124219,1,2,0:0:0:0:
316,324,124402,6,0,P|248:332|152:344,1,165.000005035401,2|2,0:0|0:0,0:0:0:0:
48,364,124950,1,2,0:0:0:0:
88,280,125133,2,0,P|100:224|108:184,1,82.5000025177003,10|0,0:0|0:0,0:0:0:0:
208,212,125499,2,0,P|188:152|176:120,1,82.5000025177003,2|0,0:0|0:0,0:0:0:0:
112,64,125865,6,0,P|84:128|-12:104,1,165.000005035401,2|2,0:0|0:0,0:0:0:0:
40,20,126414,1,2,0:0:0:0:
40,20,126597,2,0,L|152:32,1,82.5000025177003,8|2,0:0|0:0,0:0:0:0:
208,116,126963,2,0,L|224:16,1,82.5000025177003,2|0,0:0|0:0,0:0:0:0:
316,100,127328,6,0,P|352:148|296:240,1,165.000005035401,2|2,0:0|0:0,0:0:0:0:
224,204,127877,1,2,0:0:0:0:
188,296,128060,2,0,L|176:384,1,82.5000025177003,8|2,0:0|0:0,0:0:0:0:
276,328,128426,1,2,0:0:0:0:
368,320,128609,1,2,0:0:0:0:
368,320,128792,6,0,P|384:252|384:132,1,165.000005035401,2|0,0:0|0:0,0:0:0:0:
404,64,129341,1,2,0:0:0:0:
304,96,129524,2,0,P|244:100|208:100,1,82.5000025177003,8|2,0:0|0:0,0:0:0:0:
160,12,129889,2,0,P|220:8|256:8,1,82.5000025177003,2|2,0:0|0:0,0:0:0:0:
132,120,130255,5,2,0:0:0:0:
60,52,130438,2,0,L|52:8,2,41.2500012588501,0|0|2,0:0|0:0|0:0,0:0:0:0:
20,132,130804,1,2,0:0:0:0:
20,132,130987,2,0,L|8:228,1,82.5000025177003,8|2,0:0|0:0,0:0:0:0:
112,216,131353,2,0,L|100:312,1,82.5000025177003,2|2,0:0|0:0,0:0:0:0:
192,360,131719,5,4,0:0:0:0:
80,72,143426,6,0,P|92:120|108:260,1,165.000005035401,4|10,0:0|0:0,0:0:0:0:
160,328,143975,1,2,0:0:0:0:
232,256,144158,2,0,P|304:244|344:240,1,82.5000025177003,0|2,0:0|0:3,0:0:0:0:
408,168,144524,1,10,0:0:0:0:
300,160,144707,1,2,0:0:0:0:
216,96,144890,6,0,L|256:-12,1,82.5000025177003,2|0,0:3|0:0,0:0:0:0:
92,64,145255,2,0,P|112:136|124:244,1,165.000005035401,10|0,0:0|0:0,0:0:0:0:
48,320,145804,1,2,0:3:0:0:
156,372,145987,2,0,P|216:356|260:352,1,82.5000025177003,10|2,0:0|0:0,0:0:0:0:
324,292,146353,6,0,L|340:376,1,82.5000025177003,2|0,0:3|0:0,0:0:0:0:
416,264,146719,1,10,0:0:0:0:
416,264,146902,2,0,P|464:216|496:192,1,82.5000025177003,0|2,0:0|0:0,0:0:0:0:
344,188,147268,1,2,0:3:0:0:
344,188,147451,2,0,L|228:176,1,82.5000025177003,8|0,0:0|0:0,0:0:0:0:
160,164,147816,5,2,0:3:0:0:
232,96,147999,2,0,L|248:48,2,41.2500012588501,0|0|10,0:0|0:0|0:0,0:0:0:0:
136,64,148365,2,0,P|80:56|28:48,1,82.5000025177003,2|0,0:0|0:0,0:0:0:0:
0,120,148731,1,2,0:3:0:0:
64,188,148914,2,0,L|64:280,1,82.5000025177003,10|2,0:0|0:0,0:0:0:0:
168,328,149280,6,0,P|212:288|320:296,1,165.000005035401,4|10,0:0|0:0,0:0:0:0:
364,204,149829,1,2,0:0:0:0:
364,204,150011,2,0,P|440:240|528:224,1,165.000005035401,0|10,0:0|0:0,0:0:0:0:
448,140,150560,1,0,0:0:0:0:
448,140,150743,6,0,L|460:44,1,82.5000025177003,2|0,0:3|0:0,0:0:0:0:
460,36,151018,1,0,0:0:0:0:
460,36,151109,2,0,P|410:38|370:34,1,82.5000025177003,10|0,0:0|0:0,0:0:0:0:
260,16,151475,2,0,L|280:208,1,165.000005035401,0|10,0:0|0:0,0:0:0:0:
360,252,152024,1,2,0:0:0:0:
264,312,152207,6,0,P|208:296|160:284,1,82.5000025177003,2|0,0:3|0:0,0:0:0:0:
344,360,152572,2,0,P|412:348|460:340,1,82.5000025177003,10|2,0:0|0:0,0:0:0:0:
488,264,152938,2,0,L|508:180,1,82.5000025177003,0|2,0:0|0:3,0:0:0:0:
431,95,153304,2,0,L|412:176,1,82.5000025177003,10|0,0:0|0:0,0:0:0:0:
304,188,153670,5,2,3:0:0:0:
332,92,153853,2,0,L|324:40,2,41.2500012588501,0|0|10,3:2|3:2|3:2,0:0:0:0:
224,56,154219,2,0,L|216:4,2,41.2500012588501,2|0|0,0:0|0:0|0:0,0:0:0:0:
188,168,154585,2,0,L|180:220,2,41.2500012588501,2|0|10,3:0|3:0|3:3,0:0:0:0:
80,204,154951,2,0,L|72:256,2,41.2500012588501,2|0|8,3:2|3:0|0:0,0:0:0:0:
344,348,155682,5,8,0:0:0:0:
344,348,155865,2,0,P|412:336|456:328,1,112.500004291535,0|8,0:0|0:0,0:0:0:0:
500,240,156414,1,0,0:0:0:0:
400,216,156597,2,0,P|388:172|432:104,2,112.500004291535,10|0|0,0:0|0:0|0:0,0:0:0:0:
344,348,157694,2,0,P|292:344|212:336,1,112.500004291535,8|10,0:0|0:0,0:0:0:0:
40,232,158426,5,0,0:0:0:0:
124,200,158609,2,0,P|128:148|136:68,1,112.500004291535,8|0,0:0|0:0,0:0:0:0:
232,36,159158,2,0,P|268:24|308:16,1,56.2500021457673,8|0,0:0|0:0,0:0:0:0:
388,100,159524,6,0,P|352:124|280:104,2,112.500004291535,10|0|8,0:0|0:0|0:0,0:0:0:0:
500,224,160621,2,0,L|492:288,1,56.2500021457673,8|0,0:0|0:0,0:0:0:0:
416,324,160987,6,0,P|368:312|280:308,1,112.500004291535,10|0,0:0|0:0,0:0:0:0:
224,256,161536,1,8,0:0:0:0:
224,256,161719,2,0,L|204:328,2,56.2500021457673,2|0|8,0:0|0:0|0:0,0:0:0:0:
128,240,162268,1,0,0:0:0:0:
128,240,162451,6,0,P|108:208|24:180,2,112.500004291535,10|0|2,0:0|0:0|0:0,0:0:0:0:
292,160,163548,2,0,L|312:92,1,56.2500021457673,8|0,0:0|0:0,0:0:0:0:
216,116,163914,5,10,0:0:0:0:
248,292,164280,1,10,0:0:0:0:
400,216,164646,2,0,P|444:208|476:200,1,67.4999979400635,10|0,0:0|0:0,0:0:0:0:
432,120,165011,2,0,P|476:112|508:104,1,67.4999979400635,10|0,0:0|0:0,0:0:0:0:
360,52,165377,5,8,3:2:0:0:
136,176,167390,5,2,0:0:0:0:
136,176,167572,2,0,P|152:240|160:280,1,75,2|0,3:3|3:0,0:0:0:0:
212,336,167938,2,0,P|252:304|328:304,1,112.5,8|0,3:0|0:0,0:0:0:0:
327,323,168304,6,0,P|367:343|491:307,1,165.000005035401,4|2,0:0|0:0,0:0:0:0:
402,227,168853,1,0,0:0:0:0:
402,227,169036,2,0,P|353:208|319:196,1,82.5000025177003,10|2,0:0|0:0,0:0:0:0:
255,137,169402,2,0,L|254:55,1,82.5000025177003,0|2,0:0|0:0,0:0:0:0:
356,19,169768,6,0,P|416:37|405:135,1,165.000005035401,0|2,0:0|0:0,0:0:0:0:
324,197,170316,1,0,0:0:0:0:
407,250,170499,2,0,P|418:300|425:337,1,82.5000025177003,10|2,0:0|0:0,0:0:0:0:
311,365,170865,2,0,P|262:344|225:331,1,82.5000025177003,0|0,0:0|0:0,0:0:0:0:
82,273,171231,6,0,P|129:280|219:191,1,165.000005035401,2|2,0:0|0:0,0:0:0:0:
120,113,171780,1,2,0:0:0:0:
120,113,171963,2,0,L|128:204,1,82.5000025177003,8|2,0:0|0:0,0:0:0:0:
222,120,172329,2,0,P|261:91|302:66,1,82.5000025177003,2|0,0:0|0:0,0:0:0:0:
373,93,172694,5,0,0:0:0:0:
307,168,172877,1,2,0:0:0:0:
400,188,173060,2,0,L|407:303,1,82.5000025177003,2|0,0:0|0:0,0:0:0:0:
322,346,173426,2,0,P|274:336|223:328,1,82.5000025177003,10|2,0:0|0:0,0:0:0:0:
135,254,173792,2,0,P|175:247|216:238,1,82.5000025177003,2|0,0:0|0:0,0:0:0:0:
317,225,174158,6,0,L|323:32,1,165.000005035401,2|2,0:0|0:0,0:0:0:0:
209,20,174707,1,2,0:0:0:0:
229,116,174890,1,8,0:0:0:0:
117,152,175072,2,0,L|133:63,2,82.5000025177003,2|2|0,0:0|0:0|0:0,0:0:0:0:
195,212,175621,6,0,P|239:226|271:343,1,165.000005035401,2|2,0:0|0:0,0:0:0:0:
170,368,176170,1,2,0:0:0:0:
88,312,176353,2,0,P|41:306|0:298,1,82.5000025177003,8|2,0:0|0:0,0:0:0:0:
113,224,176719,2,0,P|153:216|194:211,1,82.5000025177003,2|0,0:0|0:0,0:0:0:0:
264,149,177085,6,0,P|322:174|436:170,1,165.000005035401,2|2,0:0|0:0,0:0:0:0:
505,125,177633,1,2,0:0:0:0:
417,75,177816,2,0,P|399:36|358:10,2,82.5000025177003,8|2|0,0:0|0:0|0:0,0:0:0:0:
422,173,178365,1,2,0:0:0:0:
502,231,178548,6,0,P|478:278|481:335,1,82.5000025177003,2|2,0:0|0:0,0:0:0:0:
482,326,178822,1,0,0:0:0:0:
492,343,178914,2,0,L|375:338,1,82.5000025177003,0|2,0:0|0:0,0:0:0:0:
343,274,179280,1,10,0:0:0:0:
298,360,179463,1,0,0:0:0:0:
240,281,179646,2,0,L|231:149,1,123.75000377655,2|0,0:0|0:0,0:0:0:0:
194,136,180011,6,0,L|208:325,1,165.000005035401,6|2,0:0|0:0,0:0:0:0:
116,363,180560,1,0,0:0:0:0:
51,290,180743,2,0,P|32:235|34:181,1,82.5000025177003,10|2,0:0|0:0,0:0:0:0:
61,119,181109,2,0,L|96:16,1,82.5000025177003,2|0,0:0|0:0,0:0:0:0:
210,25,181475,5,2,0:0:0:0:
174,115,181658,1,2,0:0:0:0:
255,171,181841,2,0,P|315:165|354:161,1,82.5000025177003,0|2,0:0|0:0,0:0:0:0:
430,122,182207,2,0,L|446:214,2,82.5000025177003,10|0|2,0:0|0:0|0:0,0:0:0:0:
358,44,182755,1,2,0:0:0:0:
318,136,182938,6,0,L|304:325,1,165.000005035401,6|2,0:0|0:0,0:0:0:0:
396,363,183487,1,0,0:0:0:0:
461,290,183670,2,0,P|480:235|478:181,1,82.5000025177003,8|2,0:0|0:0,0:0:0:0:
451,119,184036,2,0,L|416:16,1,82.5000025177003,0|2,0:0|0:0,0:0:0:0:
302,25,184402,5,2,0:0:0:0:
338,115,184585,1,0,0:0:0:0:
257,171,184768,2,0,P|197:165|158:161,1,82.5000025177003,2|2,0:0|0:0,0:0:0:0:
82,122,185134,2,0,L|66:214,2,82.5000025177003,10|0|2,0:0|0:0|0:0,0:0:0:0:
154,44,185682,1,0,0:0:0:0:
225,105,185865,6,0,P|288:116|392:82,1,165.000005035401,6|2,0:0|0:0,0:0:0:0:
452,30,186414,1,2,0:0:0:0:
508,90,186597,2,0,L|513:192,1,82.5000025177003,8|2,0:0|0:0,0:0:0:0:
420,186,186963,1,2,0:0:0:0:
498,257,187146,1,0,0:0:0:0:
415,314,187329,6,0,P|348:304|224:302,1,165.000005035401,6|2,0:0|0:0,0:0:0:0:
167,238,187877,1,2,0:0:0:0:
277,202,188060,1,8,0:0:0:0:
199,136,188243,2,0,L|206:42,2,82.5000025177003,2|2|2,0:0|0:0|0:0,0:0:0:0:
88,190,188792,6,0,P|76:253|177:323,1,165.000005035401,6|0,0:0|0:0,0:0:0:0:
213,377,189341,1,2,0:0:0:0:
264,292,189524,2,0,P|310:279|350:263,1,82.5000025177003,8|2,0:0|0:0,0:0:0:0:
277,202,189890,2,0,P|317:176|351:150,1,82.5000025177003,2|2,0:0|0:0,0:0:0:0:
207,103,190255,6,0,L|194:208,1,82.5000025177003,6|0,0:0|0:0,0:0:0:0:
192,205,190530,1,0,0:0:0:0:
188,225,190621,2,0,B|152:242|152:242|101:235,1,82.5000025177003,2|2,0:0|0:0,0:0:0:0:
28,151,190987,2,0,L|20:53,1,82.5000025177003,12|2,0:0|0:0,0:0:0:0:
115,106,191353,2,0,L|107:8,1,82.5000025177003,2|2,0:0|0:0,0:0:0:0:
215,12,191719,6,0,P|276:32|384:8,1,168.750006437302,4|0,0:0|0:0,0:0:0:0:
