osu file format v14

[General]
AudioFilename: [A]ddiction.mp3
AudioLeadIn: 0
PreviewTime: 42999
Countdown: 0
SampleSet: Normal
StackLeniency: 0.5
Mode: 0
LetterboxInBreaks: 0
WidescreenStoryboard: 1

[Editor]
Bookmarks: 2938
DistanceSpacing: 1.1
BeatDivisor: 4
GridSize: 4
TimelineZoom: 1.5

[Metadata]
Title:[A]ddiction
TitleUnicode:[A]ddiction
Artist:EVO+
ArtistUnicode:EVO+
Creator:Mei
Version:117's Insane
Source:
Tags:giga reol DreaM117er m1223961117 Streliteela Euphoria Vert addiction
BeatmapID:860107
BeatmapSetID:378803

[Difficulty]
HPDrainRate:5
CircleSize:4
OverallDifficulty:7
ApproachRate:9
SliderMultiplier:1.5
SliderTickRate:1

[Events]
//Background and Video events
0,0,"bgr.jpg",0,0
Video,0,"ok.avi"
//Break Periods
2,67529,72582
2,131919,141546
//Storyboard Layer 0 (Background)
//Storyboard Layer 1 (Fail)
//Storyboard Layer 2 (Pass)
//Storyboard Layer 3 (Foreground)
//Storyboard Sound Samples

[TimingPoints]
12,365.853658536585,4,2,1,70,1,0
19036,-100,4,3,0,70,0,0
20499,-100,4,2,1,70,0,0
32207,-133.333333333333,4,2,2,70,0,0
41719,-111.111111111111,4,2,2,70,0,0
42450,-100,4,2,2,70,0,0
43914,-90.9090909090909,4,1,1,85,0,1
54158,-90.9090909090909,4,1,1,85,0,0
55621,-90.9090909090909,4,1,1,85,0,1
67329,-100,4,2,1,70,0,0
73182,-100,4,2,1,80,0,0
91475,-133.333333333333,4,2,1,80,0,0
92207,-100,4,2,1,80,0,0
96597,-133.333333333333,4,2,2,70,0,0
106841,-100,4,2,2,70,0,0
108304,-90.9090909090909,4,1,1,85,0,1
118548,-90.9090909090909,4,1,1,85,0,0
120011,-90.9090909090909,4,1,1,85,0,1
131719,-100,4,2,1,50,0,0
143426,-90.9090909090909,4,2,1,80,0,0
155133,-133.333333333333,4,2,2,70,0,0
165377,-100,4,2,2,70,0,0
168304,-90.9090909090909,4,1,1,85,0,1
178548,-90.9090909090909,4,1,1,85,0,0
180011,-90.9090909090909,4,1,1,85,0,1
191719,-133.333333333333,4,2,1,60,0,0

[Colours]
Combo1 : 123,0,62
Combo2 : 249,240,138
Combo3 : 159,255,64
Combo4 : 164,164,255

[HitObjects]
280,96,2938,5,4,0:0:0:0:
280,96,3304,1,10,0:0:0:0:
294,185,3487,1,2,0:0:0:0:
384,200,3670,1,0,0:0:0:0:
423,119,3853,1,0,0:0:0:0:
361,55,4036,1,10,0:0:0:0:
361,55,4402,5,2,0:0:0:0:
384,200,4585,1,2,0:0:0:0:
384,200,4676,1,0,0:0:0:0:
384,200,4768,1,8,0:0:0:0:
280,96,4951,1,0,0:0:0:0:
423,119,5133,2,0,P|468:114|512:108,1,75,2|0,0:0|0:0,0:0:0:0:
294,185,5499,1,10,0:0:0:0:
294,185,5865,6,0,P|224:176|140:164,1,150,2|8,0:2|0:0,0:0:0:0:
60,200,6414,1,2,0:0:0:0:
168,60,6597,1,2,0:0:0:0:
56,112,6780,1,0,0:0:0:0:
184,148,6963,1,10,0:0:0:0:
184,148,7329,5,2,0:0:0:0:
128,280,7511,1,2,0:0:0:0:
128,280,7603,1,0,0:0:0:0:
128,280,7694,1,8,0:0:0:0:
224,240,7877,1,2,0:0:0:0:
100,192,8060,2,0,P|62:195|25:200,1,75,2|0,0:0|0:0,0:0:0:0:
208,332,8426,2,0,P|245:328|282:323,1,75,10|0,0:0|0:0,0:0:0:0:
128,280,8792,5,4,0:0:0:0:
128,280,9158,1,8,0:0:0:0:
128,280,9341,2,0,L|108:108,1,150,10|2,0:0|0:3,0:0:0:0:
202,29,9890,2,0,L|196:104,1,75,10|2,0:0|0:0,0:0:0:0:
80,216,10255,6,0,P|29:163|31:90,1,150,2|8,0:3|0:0,0:0:0:0:
208,208,10804,2,0,L|190:356,1,150,10|2,0:0|0:3,0:0:0:0:
189,356,11353,1,10,0:0:0:0:
276,380,11536,1,2,0:0:0:0:
152,276,11719,6,0,P|100:280|-8:292,1,150,2|8,0:3|0:0,0:0:0:0:
192,188,12268,2,0,P|243:241|241:314,1,150,10|2,0:0|0:3,0:0:0:0:
152,276,12816,1,10,0:0:0:0:
380,152,13182,6,0,P|372:220|364:312,1,150,2|10,0:3|0:0,0:0:0:0:
392,388,13731,1,10,0:0:0:0:
280,332,13914,1,0,0:0:0:0:
408,288,14097,1,2,0:3:0:0:
320,244,14280,2,0,P|268:236|240:232,1,75,10|2,0:0|0:0,0:0:0:0:
372,376,14646,5,12,0:0:0:0:
468,136,15011,1,8,0:0:0:0:
468,136,15194,2,0,P|420:140|344:64,1,150,10|2,0:0|0:3,0:0:0:0:
189,98,15743,2,0,P|226:102|264:108,1,75,10|2,0:0|0:0,0:0:0:0:
112,164,16109,6,0,P|100:89|92:15,1,150,2|8,0:3|0:0,0:0:0:0:
200,191,16658,2,0,P|169:234|60:240,1,150,10|2,0:0|0:3,0:0:0:0:
112,164,17207,1,10,0:0:0:0:
256,348,17572,5,2,0:3:0:0:
270,257,17755,1,0,0:0:0:0:
185,287,17938,1,10,0:0:0:0:
256,348,18121,2,0,P|330:339|405:333,1,150,8|2,0:0|0:3,0:0:0:0:
488,248,18670,2,0,L|492:200|496:152,1,75,10|10,0:0|0:0,0:0:0:0:
376,64,19036,5,0,3:0:0:0:
376,64,19219,1,0,3:3:0:0:
376,64,19402,1,0,3:3:0:0:
376,64,19585,1,0,3:3:0:0:
232,100,19768,2,0,P|224:48|220:0,1,75,8|0,0:0|0:0,0:0:0:0:
336,152,20133,2,0,P|331:189|325:226,1,75,8|0,0:0|0:0,0:0:0:0:
208,120,20499,5,4,0:0:0:0:
52,344,20865,1,8,0:0:0:0:
52,344,21048,2,0,P|12:308|16:200,1,150,10|2,0:0|0:3,0:0:0:0:
134,154,21597,2,0,P|96:149|59:143,1,75,10|2,0:0|0:0,0:0:0:0:
96,256,21963,5,10,0:3:0:0:
184,232,22146,1,0,0:0:0:0:
184,232,22237,1,0,0:0:0:0:
184,232,22329,1,8,0:0:0:0:
268,268,22511,2,0,L|285:119,1,150,10|2,0:0|0:3,0:0:0:0:
189,9,23060,2,0,P|194:46|200:84,1,75,10|2,0:0|0:0,0:0:0:0:
312,192,23426,5,10,0:3:0:0:
400,160,23609,1,0,0:0:0:0:
276,120,23792,1,8,0:0:0:0:
384,248,23975,1,10,0:0:0:0:
260,208,24158,1,0,0:0:0:0:
400,160,24341,1,2,0:3:0:0:
452,300,24524,2,0,P|404:294|364:288,1,75,10|2,0:0|0:0,0:0:0:0:
256,244,24890,5,10,0:3:0:0:
188,304,25072,2,0,L|193:341,2,37.5,0|0|8,0:0|0:0|0:0,0:0:0:0:
316,348,25438,2,0,P|324:269|332:192,1,150,10|2,0:0|0:3,0:0:0:0:
256,52,25987,1,10,0:0:0:0:
360,112,26170,1,2,0:0:0:0:
236,204,26353,5,12,0:0:0:0:
8,112,26719,1,8,0:0:0:0:
8,112,26902,2,0,P|55:56|128:52,1,150,10|2,0:0|0:3,0:0:0:0:
198,174,27451,2,0,L|201:137|204:100,1,75,10|2,0:0|0:0,0:0:0:0:
100,140,27816,5,10,0:3:0:0:
120,228,27999,1,0,0:0:0:0:
120,228,28091,1,0,0:0:0:0:
120,228,28182,1,8,0:0:0:0:
212,272,28365,2,0,P|250:266|380:253,1,150,10|2,0:0|0:3,0:0:0:0:
486,336,28914,2,0,P|449:333|412:327,1,75,10|2,0:0|0:0,0:0:0:0:
284,220,29280,5,10,0:3:0:0:
284,220,29463,1,0,0:0:0:0:
440,156,29646,1,8,0:0:0:0:
440,156,29829,1,10,0:0:0:0:
304,100,30011,5,0,0:0:0:0:
445,179,30194,1,10,0:3:0:0:
284,220,30377,1,10,0:0:0:0:
436,132,30560,1,2,0:0:0:0:
315,25,30743,6,0,P|309:62|304:100,1,75,10|2,0:3|0:0,0:0:0:0:
304,100,31018,1,0,0:0:0:0:
304,100,31109,1,10,0:0:0:0:
208,168,31292,2,0,P|169:180|88:136,1,112.5,10|0,0:0|0:0,0:0:0:0:
76,120,31658,1,2,0:3:0:0:
72,32,31841,2,0,P|123:38|163:44,1,75,10|0,0:0|0:0,0:0:0:0:
208,168,32207,6,0,P|197:258|188:335,1,168.750006437302,8|8,0:0|0:0,0:0:0:0:
116,372,32938,2,0,P|111:342|106:316,1,56.2500021457673,0|0,0:0|0:0,0:0:0:0:
172,252,33304,2,0,P|202:257|227:261,1,56.2500021457673,8|0,0:0|0:0,0:0:0:0:
280,336,33670,5,10,0:0:0:0:
84,228,34036,1,0,0:0:0:0:
384,120,34402,1,0,0:0:0:0:
172,252,34768,1,8,0:0:0:0:
480,176,35133,6,0,P|444:236|444:348,1,168.750006437302,10|8,0:0|0:0,0:0:0:0:
364,352,35865,2,0,P|324:344|292:340,1,56.2500021457673,0|0,0:0|0:0,0:0:0:0:
280,268,36231,2,0,P|306:237|326:211,1,56.2500021457673,8|0,0:0|0:0,0:0:0:0:
388,272,36597,5,10,0:0:0:0:
208,348,36963,1,0,0:0:0:0:
420,188,37329,1,8,0:0:0:0:
124,96,37694,1,8,0:0:0:0:
300,240,38060,6,0,P|383:229|468:220,1,168.750006437302,10|8,0:0|0:0,0:0:0:0:
488,144,38792,2,0,P|476:96|468:68,1,56.2500021457673,2|0,0:0|0:0,0:0:0:0:
400,68,39158,2,0,P|364:102|344:123,1,56.2500021457673,8|0,0:0|0:0,0:0:0:0:
408,168,39524,5,10,0:0:0:0:
408,168,39890,1,0,0:0:0:0:
408,168,40255,1,2,0:0:0:0:
408,168,40621,1,8,0:0:0:0:
356,228,40987,5,10,0:0:0:0:
272,252,41353,1,10,0:0:0:0:
184,220,41719,1,10,0:0:0:0:
148,120,42085,1,10,0:0:0:0:
224,28,42451,5,8,3:2:0:0:
238,30,42542,1,0,3:0:0:0:
253,32,42633,1,0,3:0:0:0:
268,35,42725,1,0,3:0:0:0:
283,38,42816,1,0,3:0:0:0:
297,40,42908,1,0,3:0:0:0:
312,44,42999,1,0,3:0:0:0:
327,47,43091,1,0,3:0:0:0:
341,51,43182,6,0,P|337:99|329:151,1,75,2|0,3:0|0:0,0:0:0:0:
312,212,43548,1,8,3:0:0:0:
16,352,43914,6,0,P|9:311|6:270,1,82.5000025177003,4|0,0:0|0:0,0:0:0:0:
128,172,44280,1,2,0:0:0:0:
48,108,44463,1,0,0:0:0:0:
96,260,44646,1,10,0:0:0:0:
141,138,44829,1,2,0:0:0:0:
88,289,45011,1,0,0:0:0:0:
18,184,45194,1,2,0:0:0:0:
152,113,45377,5,0,0:0:0:0:
224,264,45560,1,2,0:0:0:0:
224,264,45652,1,0,0:0:0:0:
224,264,45743,2,0,P|265:261|305:253,1,82.5000025177003,2|0,0:0|0:0,0:0:0:0:
420,184,46109,1,10,0:0:0:0:
420,184,46292,1,2,0:0:0:0:
344,132,46475,2,0,P|302:134|262:142,1,82.5000025177003,0|0,0:0|0:0,0:0:0:0:
140,296,46841,6,0,P|198:350|276:336,1,165.000005035401,2|2,0:0|0:0,0:0:0:0:
112,204,47390,1,2,0:0:0:0:
48,268,47572,1,8,0:0:0:0:
140,296,47755,1,2,0:0:0:0:
112,204,47938,2,0,L|12:216,1,82.5000025177003,2|0,0:0|0:0,0:0:0:0:
224,264,48304,5,2,0:0:0:0:
284,156,48487,2,0,L|292:92,2,41.2500012588501,0|0|2,0:0|0:0|0:0,0:0:0:0:
156,48,48853,1,0,0:0:0:0:
196,176,49036,1,10,0:0:0:0:
296,76,49219,1,2,0:0:0:0:
156,48,49402,1,2,0:0:0:0:
156,48,49585,1,0,0:0:0:0:
284,156,49768,6,0,L|456:132,1,165.000005035401,2|2,0:0|0:0,0:0:0:0:
508,244,50316,1,2,0:0:0:0:
372,184,50499,1,8,0:0:0:0:
372,184,50682,1,2,0:0:0:0:
492,96,50865,1,2,0:0:0:0:
392,328,51231,6,0,P|310:318|228:312,1,165.000005035401,2|2,0:0|0:0,0:0:0:0:
138,335,51780,1,2,0:0:0:0:
182,207,51963,1,8,0:0:0:0:
82,263,52146,1,2,0:0:0:0:
228,312,52329,1,2,0:0:0:0:
228,312,52511,1,0,0:0:0:0:
50,351,52694,6,0,P|40:269|33:186,1,165.000005035401,2|2,0:0|0:0,0:0:0:0:
73,58,53243,1,2,0:0:0:0:
73,58,53426,2,0,P|128:68|168:72,1,82.5000025177003,8|2,0:0|0:0,0:0:0:0:
284,24,53792,1,0,0:0:0:0:
284,24,53975,1,2,0:0:0:0:
380,172,54158,6,0,P|325:112|245:117,1,165.000005035401,2|0,0:0|0:0,0:0:0:0:
412,260,54707,1,2,0:0:0:0:
496,220,54890,2,0,P|502:167|508:119,1,82.5000025177003,10|0,0:0|0:0,0:0:0:0:
492,48,55255,1,2,0:0:0:0:
200,196,55621,6,0,P|204:240|210:277,1,82.5000025177003,6|0,0:0|0:0,0:0:0:0:
352,348,55987,2,0,P|348:304|341:266,1,82.5000025177003,2|0,0:0|0:0,0:0:0:0:
260,112,56353,1,10,0:0:0:0:
392,181,56536,1,2,0:0:0:0:
274,219,56719,1,0,0:0:0:0:
413,157,56902,1,0,0:0:0:0:
261,63,57085,5,2,0:0:0:0:
256,204,57268,2,0,L|268:260,2,41.2500012588501,2|0|0,0:0|0:0|0:0,0:0:0:0:
384,256,57633,1,2,0:0:0:0:
260,112,57816,1,10,0:0:0:0:
208,224,57999,1,0,0:0:0:0:
336,168,58182,2,0,P|342:127|346:86,1,82.5000025177003,2|2,0:0|0:0,0:0:0:0:
164,24,58548,6,0,P|82:33|0:47,1,165.000005035401,2|2,0:0|0:0,0:0:0:0:
212,100,59097,1,0,0:0:0:0:
284,29,59280,1,8,0:0:0:0:
308,125,59463,1,2,0:0:0:0:
140,169,59646,1,0,0:0:0:0:
212,100,59829,1,2,0:0:0:0:
332,225,60011,5,2,0:0:0:0:
237,197,60194,1,0,0:0:0:0:
237,197,60286,1,0,0:0:0:0:
237,197,60377,2,0,P|231:156|227:115,1,82.5000025177003,2|2,0:0|0:0,0:0:0:0:
360,16,60743,2,0,P|366:57|370:98,1,82.5000025177003,10|0,0:0|0:0,0:0:0:0:
304,268,61109,1,2,0:0:0:0:
304,268,61292,1,0,0:0:0:0:
139,168,61475,6,0,P|59:165|-4:224,1,165.000005035401,2|2,0:0|0:0,0:0:0:0:
177,265,62024,1,2,0:0:0:0:
237,197,62207,2,0,P|243:141|246:97,1,82.5000025177003,8|2,0:0|0:0,0:0:0:0:
216,28,62572,1,2,0:0:0:0:
84,296,62938,6,0,P|144:348|225:345,1,165.000005035401,2|2,0:0|0:0,0:0:0:0:
328,264,63487,1,2,0:0:0:0:
304,352,63670,1,8,0:0:0:0:
436,232,63853,1,2,0:0:0:0:
400,368,64036,1,2,0:0:0:0:
400,368,64219,1,2,0:0:0:0:
348,180,64402,6,0,P|430:189|512:203,1,165.000005035401,2|0,0:0|0:0,0:0:0:0:
511,202,64951,1,2,0:0:0:0:
328,264,65133,1,8,0:0:0:0:
204,136,65316,1,2,0:0:0:0:
348,180,65499,1,2,0:0:0:0:
244,248,65682,1,2,0:0:0:0:
168,124,65865,5,2,0:0:0:0:
168,124,66048,1,0,0:0:0:0:
116,260,66231,1,2,0:0:0:0:
116,260,66414,1,2,0:0:0:0:
280,340,66597,5,8,0:0:0:0:
212,216,66780,1,2,0:0:0:0:
160,352,66963,1,2,0:0:0:0:
320,260,67146,1,2,0:0:0:0:
168,124,67329,1,4,0:0:0:0:
480,344,73182,5,4,0:0:0:0:
480,344,73548,1,8,0:0:0:0:
400,304,73731,2,0,P|320:312|240:324,1,150,10|2,0:0|0:3,0:0:0:0:
180,376,74280,1,10,0:0:0:0:
112,316,74463,1,2,0:0:0:0:
28,344,74646,6,0,P|17:269|9:195,1,150,2|8,0:3|0:0,0:0:0:0:
40,112,75194,1,10,0:0:0:0:
40,112,75560,1,2,0:3:0:0:
124,80,75743,1,10,0:0:0:0:
56,24,75926,1,2,0:0:0:0:
112,164,76109,6,0,P|186:156|260:145,1,150,2|8,0:3|0:0,0:0:0:0:
472,119,76658,2,0,P|399:116|348:168,1,150,10|2,0:0|0:3,0:0:0:0:
312,252,77207,1,10,0:0:0:0:
392,296,77390,1,2,0:0:0:0:
392,296,77481,1,0,0:0:0:0:
392,296,77572,6,0,P|452:288|485:282,1,75,2|0,0:3|0:0,0:0:0:0:
312,252,77938,1,10,0:0:0:0:
236,300,78121,1,10,0:0:0:0:
152,268,78304,1,0,0:0:0:0:
148,242,78396,1,0,0:0:0:0:
144,216,78487,1,10,0:3:0:0:
141,189,78579,1,0,0:0:0:0:
138,163,78670,2,0,P|175:167|212:173,1,75,10|2,0:0|0:0,0:0:0:0:
60,236,79036,5,12,0:0:0:0:
0,40,79402,1,8,0:0:0:0:
0,40,79585,2,0,P|36:80|144:64,1,150,10|2,0:0|0:3,0:0:0:0:
200,28,80133,1,10,0:0:0:0:
138,163,80316,1,2,0:0:0:0:
212,112,80499,6,0,P|284:102|338:150,1,150,2|8,0:3|0:0,0:0:0:0:
265,266,81048,1,10,0:0:0:0:
265,266,81231,2,0,P|260:229|256:191,1,75,0|2,0:0|0:3,0:0:0:0:
416,104,81597,2,0,P|420:141|425:178,1,75,10|2,0:0|0:0,0:0:0:0:
336,320,81963,6,0,P|261:310|186:304,1,150,2|10,0:3|0:0,0:0:0:0:
100,324,82511,1,8,0:0:0:0:
16,196,82694,1,0,0:0:0:0:
100,228,82877,1,2,0:3:0:0:
184,128,83060,2,0,P|188:90|193:53,1,75,10|2,0:0|0:0,0:0:0:0:
88,136,83426,5,10,0:3:0:0:
88,136,83609,1,10,0:0:0:0:
192,220,83792,1,0,0:0:0:0:
192,220,83975,1,10,0:0:0:0:
308,176,84158,1,0,0:0:0:0:
350,270,84341,2,0,P|312:266|276:260,1,75,10|2,0:3|0:0,0:0:0:0:
456,132,84707,1,10,0:0:0:0:
456,132,84890,6,0,P|504:192|484:276,1,150,4|8,0:0|0:0,0:0:0:0:
428,324,85438,1,10,0:0:0:0:
336,172,85621,2,0,L|341:97|346:22,1,150,0|10,0:0|0:0,0:0:0:0:
416,216,86170,1,2,0:0:0:0:
236,292,86353,5,12,0:0:0:0:
316,188,86536,1,8,0:0:0:0:
316,188,86627,1,0,0:0:0:0:
316,188,86719,2,0,P|320:224|324:280,1,75,0|10,0:0|0:0,0:0:0:0:
152,340,87085,2,0,P|147:302|144:265,1,75,0|0,0:0|0:0,0:0:0:0:
208,120,87451,2,0,P|212:156|216:212,1,75,10|2,0:0|0:0,0:0:0:0:
152,340,87816,5,12,0:0:0:0:
152,340,88182,1,8,0:0:0:0:
236,292,88365,1,10,0:0:0:0:
156,252,88548,2,0,P|100:248|56:244,1,75,0|2,0:0|0:3,0:0:0:0:
320,340,88914,2,0,L|357:337|394:334,1,75,10|2,0:0|0:0,0:0:0:0:
232,200,89280,5,12,0:0:0:0:
156,252,89463,1,8,0:0:0:0:
156,252,89554,1,8,0:0:0:0:
156,252,89646,1,0,0:0:0:0:
312,244,89829,2,0,P|317:206|321:169,1,75,10|0,0:0|0:0,0:0:0:0:
204,44,90194,2,0,P|198:81|194:118,1,75,2|10,0:3|0:0,0:0:0:0:
232,200,90560,1,10,0:0:0:0:
364,76,90743,5,12,0:0:0:0:
364,76,91109,5,8,0:0:0:0:
364,76,91292,1,10,0:0:0:0:
364,76,91475,6,0,B|316:88|288:92|288:92|264:80|224:64|224:64|188:76|132:84,1,225.000008583069,2|10,0:0|0:3,0:0:0:0:
60,84,92390,5,0,0:0:0:0:
60,84,92481,1,0,0:0:0:0:
60,84,92572,2,0,P|53:47|48:9,1,75,8|10,0:0|0:0,0:0:0:0:
156,124,92938,1,2,0:0:0:0:
151,149,93030,1,2,0:0:0:0:
147,175,93121,1,2,0:0:0:0:
143,201,93213,1,2,0:0:0:0:
140,227,93304,1,0,0:0:0:0:
140,227,93670,6,0,P|96:216|16:296,1,150,10|8,0:3|0:0,0:0:0:0:
4,364,94219,2,0,P|56:360|100:356,1,75,10|0,0:0|0:0,0:0:0:0:
230,306,94585,2,0,P|193:308|156:312,1,75,2|10,0:3|0:0,0:0:0:0:
300,364,94951,1,2,0:0:0:0:
384,332,95133,6,0,P|388:280|392:232,1,75,10|0,0:3|0:0,0:0:0:0:
389,257,95408,1,0,0:0:0:0:
389,257,95499,1,2,0:0:0:0:
368,172,95682,1,10,0:0:0:0:
424,100,95865,2,0,P|476:88|512:84,1,75,0|2,0:0|0:3,0:0:0:0:
368,172,96231,2,0,P|330:166|294:157,1,75,10|0,0:0|0:0,0:0:0:0:
168,76,96597,6,0,L|182:244,1,168.750006437302,8|8,0:0|0:0,0:0:0:0:
230,312,97329,2,0,P|251:294|263:269,1,56.2500021457673,0|0,0:0|0:0,0:0:0:0:
106,282,97694,2,0,P|122:304|145:319,1,56.2500021457673,8|0,0:0|0:0,0:0:0:0:
182,244,98060,5,10,0:0:0:0:
56,356,98426,1,0,0:0:0:0:
320,340,98792,1,0,0:0:0:0:
168,76,99158,1,8,0:0:0:0:
475,144,99524,6,0,P|391:156|308:168,1,168.750006437302,10|8,0:0|0:0,0:0:0:0:
240,220,100255,2,0,P|211:217|184:214,1,56.2500021457673,0|0,0:0|0:0,0:0:0:0:
108,324,100621,2,0,P|110:295|113:267,1,56.2500021457673,8|0,0:0|0:0,0:0:0:0:
84,148,100987,5,2,0:0:0:0:
84,148,101353,1,0,0:0:0:0:
16,216,101536,1,0,0:0:0:0:
84,148,101719,2,0,P|76:100|72:72,1,56.2500021457673,2|0,0:0|0:0,0:0:0:0:
16,216,102085,2,0,P|12:243|10:271,1,56.2500021457673,8|0,0:0|0:0,0:0:0:0:
60,340,102451,6,0,P|116:340|172:384,1,112.500004291535,10|0,0:0|0:0,0:0:0:0:
162,370,102999,1,8,0:0:0:0:
240,336,103182,2,0,P|244:288|248:260,2,56.2500021457673,2|0|8,0:0|0:0|0:0,0:0:0:0:
320,360,103731,1,0,0:0:0:0:
432,244,103914,6,0,P|376:244|320:288,1,112.500004291535,10|0,0:0|0:0,0:0:0:0:
164,120,104646,2,0,P|220:120|276:164,1,112.500004291535,2|8,0:0|0:0,0:0:0:0:
196,200,105194,1,0,0:0:0:0:
112,208,105377,6,0,P|64:204|-20:192,1,112.500004291535,10|10,0:0|0:0,0:0:0:0:
216,28,106109,2,0,P|264:32|348:44,1,112.500004291535,10|10,0:0|0:0,0:0:0:0:
492,176,106841,5,8,3:2:0:0:
490,190,106932,1,0,3:2:0:0:
489,205,107024,1,0,3:0:0:0:
487,220,107115,1,0,3:0:0:0:
485,235,107207,1,0,3:0:0:0:
483,249,107298,1,0,3:0:0:0:
480,264,107390,1,0,3:0:0:0:
478,279,107481,1,0,3:0:0:0:
475,294,107572,6,0,P|427:290|375:282,1,75,2|0,3:0|0:0,0:0:0:0:
311,265,107938,1,8,3:0:0:0:
115,32,108304,6,0,P|156:36|197:41,1,82.5000025177003,4|0,0:0|0:0,0:0:0:0:
356,92,108670,2,0,P|315:96|274:101,1,82.5000025177003,2|0,0:0|0:0,0:0:0:0:
120,236,109036,1,10,0:0:0:0:
230,203,109219,1,2,0:0:0:0:
104,144,109402,1,0,0:0:0:0:
239,237,109585,1,2,0:0:0:0:
127,117,109768,5,0,0:0:0:0:
32,200,109951,1,2,0:0:0:0:
32,200,110042,1,0,0:0:0:0:
32,200,110133,2,0,P|27:234|23:289,1,82.5000025177003,2|0,0:0|0:0,0:0:0:0:
192,372,110499,2,0,P|197:338|201:283,1,82.5000025177003,8|2,0:0|0:0,0:0:0:0:
144,116,110865,2,0,P|139:150|135:205,1,82.5000025177003,2|0,0:0|0:0,0:0:0:0:
280,332,111231,6,0,P|362:324|444:317,1,165.000005035401,2|2,0:0|0:0,0:0:0:0:
444,317,111780,1,2,0:0:0:0:
276,240,111963,1,8,0:0:0:0:
200,290,112146,1,0,0:0:0:0:
120,248,112329,2,0,P|113:207|108:166,1,82.5000025177003,2|0,0:0|0:0,0:0:0:0:
200,290,112694,5,2,0:0:0:0:
84,336,112877,1,0,0:0:0:0:
84,336,112969,1,0,0:0:0:0:
84,336,113060,2,0,P|40:328|-24:316,1,82.5000025177003,2|0,0:0|0:0,0:0:0:0:
200,196,113426,2,0,P|244:204|308:216,1,82.5000025177003,10|2,0:0|0:0,0:0:0:0:
352,268,113792,1,2,0:0:0:0:
352,268,113975,1,0,0:0:0:0:
160,284,114158,6,0,P|152:224|140:104,1,165.000005035401,2|2,0:0|0:0,0:0:0:0:
236,32,114707,1,2,0:0:0:0:
200,196,114890,1,8,0:0:0:0:
200,196,115072,1,2,0:0:0:0:
68,88,115255,1,2,0:0:0:0:
367,147,115621,6,0,P|447:144|497:81,1,165.000005035401,2|2,0:0|0:0,0:0:0:0:
308,72,116170,1,2,0:0:0:0:
260,180,116353,1,8,0:0:0:0:
367,147,116536,1,2,0:0:0:0:
200,104,116719,1,2,0:0:0:0:
200,104,116902,1,0,0:0:0:0:
408,64,117085,6,0,P|456:127|440:205,1,165.000005035401,2|2,0:0|0:0,0:0:0:0:
336,272,117633,1,2,0:0:0:0:
336,272,117816,2,0,L|295:266|254:260,1,82.5000025177003,8|2,0:0|0:0,0:0:0:0:
112,140,118182,1,0,0:0:0:0:
112,140,118365,1,2,0:0:0:0:
200,104,118548,6,0,P|240:109|281:115,1,82.5000025177003,2|2,0:0|0:0,0:0:0:0:
112,140,118914,1,0,0:0:0:0:
41,80,119097,1,2,0:0:0:0:
127,50,119280,1,10,0:0:0:0:
188,200,119463,1,0,0:0:0:0:
24,172,119646,1,2,0:0:0:0:
340,72,120011,6,0,P|332:140|324:252,1,165.000005035401,6|2,0:0|0:0,0:0:0:0:
248,360,120560,1,0,0:0:0:0:
248,360,120743,2,0,P|244:304|240:252,1,82.5000025177003,10|2,0:0|0:0,0:0:0:0:
372,160,121109,2,0,P|412:166|468:180,1,82.5000025177003,2|0,0:0|0:0,0:0:0:0:
324,236,121475,5,2,0:0:0:0:
224,136,121658,2,0,L|216:76,2,41.2500012588501,2|0|0,0:0|0:0|0:0,0:0:0:0:
328,80,122024,1,2,0:0:0:0:
236,224,122207,1,10,0:0:0:0:
140,128,122390,1,0,0:0:0:0:
316,172,122572,2,0,P|324:232|328:280,1,82.5000025177003,2|2,0:0|0:0,0:0:0:0:
184,368,122938,6,0,P|102:358|20:346,1,165.000005035401,2|2,0:0|0:0,0:0:0:0:
248,300,123487,1,0,0:0:0:0:
332,332,123670,2,0,P|340:284|344:228,1,82.5000025177003,8|2,0:0|0:0,0:0:0:0:
260,96,124036,1,0,0:0:0:0:
260,96,124219,1,2,0:0:0:0:
392,168,124402,6,0,P|448:160|484:152,1,82.5000025177003,2|0,0:0|0:0,0:0:0:0:
473,154,124676,1,0,0:0:0:0:
473,154,124768,1,2,0:0:0:0:
356,76,124951,1,2,0:0:0:0:
224,184,125133,1,10,0:0:0:0:
160,120,125316,1,0,0:0:0:0:
312,160,125499,1,2,0:0:0:0:
312,160,125682,1,0,0:0:0:0:
184,264,125865,6,0,P|128:256|92:248,1,82.5000025177003,2|0,0:0|0:0,0:0:0:0:
48,80,126231,2,0,P|104:88|140:96,1,82.5000025177003,2|2,0:0|0:0,0:0:0:0:
312,160,126597,1,8,0:0:0:0:
224,80,126780,1,2,0:0:0:0:
276,248,126963,1,2,0:0:0:0:
500,80,127329,6,0,P|472:36|356:32,1,165.000005035401,2|2,0:0|0:0,0:0:0:0:
228,164,127877,1,2,0:0:0:0:
332,108,128060,1,8,0:0:0:0:
224,80,128243,1,2,0:0:0:0:
364,200,128426,1,2,0:0:0:0:
364,200,128609,1,2,0:0:0:0:
188,248,128792,6,0,P|128:240|8:228,1,165.000005035401,2|0,0:0|0:0,0:0:0:0:
228,164,129341,1,2,0:0:0:0:
340,288,129524,1,8,0:0:0:0:
308,192,129707,1,2,0:0:0:0:
440,140,129890,1,2,0:0:0:0:
416,240,130072,1,2,0:0:0:0:
336,88,130255,5,2,0:0:0:0:
336,88,130438,1,0,0:0:0:0:
428,188,130621,1,2,0:0:0:0:
428,188,130804,1,2,0:0:0:0:
288,280,130987,5,8,0:0:0:0:
344,176,131170,1,2,0:0:0:0:
224,232,131353,1,2,0:0:0:0:
356,328,131536,1,2,0:0:0:0:
376,160,131719,1,4,0:0:0:0:
140,200,142146,6,0,L|132:243,2,37.5,0|0|0,0:0|0:0|0:0,0:0:0:0:
160,112,142511,1,0,0:0:0:0:
212,264,142694,2,0,P|260:260|336:352,1,150,0|0,0:0|0:0,0:0:0:0:
244,348,143243,1,0,0:0:0:0:
244,348,143426,6,0,P|236:284|228:176,1,165.000005035401,4|10,0:0|0:0,0:0:0:0:
244,40,143975,2,0,P|220:92|120:120,1,165.000005035401,2|2,0:0|0:3,0:0:0:0:
70,20,144524,2,0,P|111:24|151:31,1,82.5000025177003,10|2,0:0|0:0,0:0:0:0:
300,116,144890,6,0,P|381:105|463:96,1,165.000005035401,2|10,0:3|0:0,0:0:0:0:
292,208,145438,1,0,0:0:0:0:
216,160,145621,1,0,0:0:0:0:
187,153,145713,1,0,0:0:0:0:
159,158,145804,1,2,0:3:0:0:
135,173,145896,1,0,0:0:0:0:
118,196,145987,2,0,P|128:264|132:304,1,82.5000025177003,10|2,0:0|0:0,0:0:0:0:
244,360,146353,5,2,0:3:0:0:
244,360,146719,1,10,0:0:0:0:
303,289,146902,2,0,P|293:221|289:181,1,82.5000025177003,0|2,0:0|0:0,0:0:0:0:
200,72,147268,1,2,0:3:0:0:
304,112,147451,2,0,P|368:100|400:92,1,82.5000025177003,8|0,0:0|0:0,0:0:0:0:
504,168,147816,6,0,P|436:160|368:248,1,165.000005035401,2|10,0:3|0:0,0:0:0:0:
352,312,148365,1,2,0:0:0:0:
464,248,148548,1,0,0:0:0:0:
464,248,148640,1,0,0:0:0:0:
464,248,148731,1,2,0:3:0:0:
324,144,148914,1,10,0:0:0:0:
371,223,149097,1,2,0:0:0:0:
404,76,149280,6,0,P|340:68|228:60,1,165.000005035401,4|10,0:0|0:0,0:0:0:0:
128,140,149829,1,2,0:0:0:0:
211,229,150011,2,0,P|216:189|220:148,1,82.5000025177003,0|2,0:0|0:3,0:0:0:0:
36,104,150377,2,0,P|39:145|44:185,1,82.5000025177003,10|0,0:0|0:0,0:0:0:0:
152,296,150743,5,2,0:3:0:0:
296,204,150926,1,0,0:0:0:0:
296,204,151018,1,0,0:0:0:0:
296,204,151109,1,10,0:0:0:0:
240,312,151292,1,0,0:0:0:0:
356,264,151475,2,0,P|444:264|500:332,1,165.000005035401,0|10,0:0|0:0,0:0:0:0:
404,348,152024,1,2,0:0:0:0:
356,263,152207,6,0,P|357:222|362:181,1,82.5000025177003,2|0,0:3|0:0,0:0:0:0:
396,96,152572,1,10,0:0:0:0:
396,96,152664,1,0,0:0:0:0:
396,96,152755,1,2,0:0:0:0:
276,176,152938,1,0,0:0:0:0:
220,72,153121,1,2,0:3:0:0:
220,72,153213,1,0,0:0:0:0:
220,72,153304,2,0,P|276:80|316:88,1,82.5000025177003,10|0,0:0|0:0,0:0:0:0:
172,152,153670,5,2,3:0:0:0:
88,112,153853,1,0,3:2:0:0:
88,112,153944,1,0,3:2:0:0:
88,112,154036,2,0,P|76:56|72:16,1,82.5000025177003,10|2,3:2|0:0,0:0:0:0:
172,152,154402,1,0,0:0:0:0:
140,236,154585,1,2,3:0:0:0:
140,236,154676,1,0,3:0:0:0:
140,236,154768,1,10,3:3:0:0:
220,280,154951,1,2,3:2:0:0:
188,360,155133,6,0,P|92:360|32:320,2,168.750006437302,8|8|8,0:0|0:0|0:0,0:0:0:0:
336,184,156597,5,10,0:0:0:0:
184,260,156963,1,0,0:0:0:0:
496,304,157329,1,0,0:0:0:0:
336,376,157694,1,8,0:0:0:0:
478,136,158060,6,0,P|487:219|496:264,1,112.500004291535,10|8,0:0|0:0,0:0:0:0:
456,332,158609,1,0,0:0:0:0:
456,332,158792,2,0,P|408:328|380:324,1,56.2500021457673,0|0,0:0|0:0,0:0:0:0:
283,261,159158,2,0,P|311:257|339:256,1,56.2500021457673,8|0,0:0|0:0,0:0:0:0:
228,324,159524,6,0,P|188:296|112:300,2,112.500004291535,10|0|8,0:0|0:0|0:0,0:0:0:0:
52,336,160621,2,0,P|41:297|42:265,1,56.2500021457673,8|0,0:0|0:0,0:0:0:0:
69,201,160987,6,0,P|65:141|52:76,1,112.500004291535,10|0,0:0|0:0,0:0:0:0:
96,12,161536,1,8,0:0:0:0:
172,44,161719,2,0,P|168:84|164:112,1,56.2500021457673,2|0,0:0|0:0,0:0:0:0:
258,151,162085,2,0,P|254:124|251:96,1,56.2500021457673,8|0,0:0|0:0,0:0:0:0:
180,180,162451,5,10,0:0:0:0:
180,180,162816,1,0,0:0:0:0:
180,180,163182,1,2,0:0:0:0:
180,180,163548,1,8,0:0:0:0:
220,252,163914,5,10,0:0:0:0:
296,300,164280,1,10,0:0:0:0:
392,308,164646,1,10,0:0:0:0:
480,260,165011,1,10,0:0:0:0:
496,144,165377,5,8,3:2:0:0:
469,146,165469,1,0,3:2:0:0:
443,149,165560,1,0,3:0:0:0:
417,151,165652,1,0,3:0:0:0:
391,154,165743,2,0,L|384:204,4,37.5,0|0|0|0|2,3:0|3:0|3:0|3:0|3:0,0:0:0:0:
184,360,167390,5,2,0:0:0:0:
184,360,167572,2,0,P|232:354|272:348,1,75,2|0,3:3|3:0,0:0:0:0:
348,328,167938,1,8,3:0:0:0:
480,56,168304,6,0,P|437:49|395:44,1,82.5000025177003,4|0,0:0|0:0,0:0:0:0:
264,128,168670,1,2,0:0:0:0:
352,172,168853,1,0,0:0:0:0:
240,224,169036,1,10,0:0:0:0:
424,304,169219,1,2,0:0:0:0:
313,364,169402,1,0,0:0:0:0:
313,364,169493,1,0,0:0:0:0:
313,364,169585,1,2,0:0:0:0:
334,262,169768,5,0,0:0:0:0:
240,224,169951,2,0,L|224:172,2,41.2500012588501,2|0|2,0:0|0:0|0:0,0:0:0:0:
292,360,170316,1,0,0:0:0:0:
172,320,170499,1,10,0:0:0:0:
332,280,170682,1,2,0:0:0:0:
240,224,170865,1,0,0:0:0:0:
292,360,171048,1,0,0:0:0:0:
292,360,171140,1,0,0:0:0:0:
292,360,171231,6,0,P|332:355|373:350,1,82.5000025177003,2|0,0:0|0:0,0:0:0:0:
460,192,171597,2,0,P|419:196|378:201,1,82.5000025177003,2|2,0:0|0:0,0:0:0:0:
208,272,171963,1,8,0:0:0:0:
208,272,172146,1,2,0:0:0:0:
292,152,172329,1,2,0:0:0:0:
292,152,172511,1,0,0:0:0:0:
188,92,172694,6,0,B|193:133|197:173,1,82.5000025177003,2|0,0:0|0:0,0:0:0:0:
296,332,173060,2,0,B|301:291|305:251,1,82.5000025177003,2|0,0:0|0:0,0:0:0:0:
292,152,173426,1,10,0:0:0:0:
208,272,173609,1,2,0:0:0:0:
380,188,173792,1,2,0:0:0:0:
380,188,173975,1,0,0:0:0:0:
197,173,174158,6,0,P|114:180|32:190,1,165.000005035401,2|2,0:0|0:0,0:0:0:0:
208,272,174707,1,2,0:0:0:0:
316,124,174890,1,8,0:0:0:0:
197,173,175072,1,2,0:0:0:0:
296,312,175255,1,2,0:0:0:0:
443,60,175621,6,0,P|363:59|315:123,1,165.000005035401,2|2,0:0|0:0,0:0:0:0:
296,252,176170,1,2,0:0:0:0:
404,140,176353,1,8,0:0:0:0:
240,180,176536,1,2,0:0:0:0:
388,232,176719,1,2,0:0:0:0:
388,232,176902,1,0,0:0:0:0:
232,316,177085,6,0,P|184:310|132:300,1,82.5000025177003,2|0,0:0|0:0,0:0:0:0:
64,152,177451,2,0,P|112:158|164:168,1,82.5000025177003,2|2,0:0|0:0,0:0:0:0:
296,252,177816,1,8,0:0:0:0:
404,140,177999,1,2,0:0:0:0:
360,312,178182,1,0,0:0:0:0:
272,172,178365,1,2,0:0:0:0:
452,64,178548,6,0,P|444:132|436:244,1,165.000005035401,2|0,0:0|0:0,0:0:0:0:
360,312,179097,1,2,0:0:0:0:
272,172,179280,1,10,0:0:0:0:
216,288,179463,1,0,0:0:0:0:
348,220,179646,1,2,0:0:0:0:
72,56,180011,6,0,P|10:107|16:192,1,165.000005035401,6|2,0:0|0:0,0:0:0:0:
160,224,180560,1,0,0:0:0:0:
96,144,180743,1,10,0:0:0:0:
212,112,180926,1,2,0:0:0:0:
80,228,181109,1,2,0:0:0:0:
216,288,181292,1,0,0:0:0:0:
312,208,181475,6,0,P|393:198|476:190,1,165.000005035401,2|0,0:0|0:0,0:0:0:0:
312,304,182024,1,2,0:0:0:0:
184,196,182207,1,10,0:0:0:0:
232,324,182390,1,0,0:0:0:0:
312,208,182572,2,0,P|316:168|324:104,1,82.5000025177003,2|2,0:0|0:0,0:0:0:0:
140,36,182938,6,0,P|144:76|149:117,1,82.5000025177003,6|0,0:0|0:0,0:0:0:0:
216,224,183304,1,2,0:0:0:0:
216,224,183487,1,0,0:0:0:0:
321,126,183670,1,8,0:0:0:0:
321,126,183853,1,2,0:0:0:0:
312,256,184036,1,0,0:0:0:0:
404,192,184219,1,2,0:0:0:0:
321,126,184402,5,2,0:0:0:0:
404,288,184585,1,0,0:0:0:0:
404,288,184676,1,0,0:0:0:0:
404,288,184768,2,0,P|444:284|485:279,1,82.5000025177003,2|2,0:0|0:0,0:0:0:0:
312,204,185133,1,10,0:0:0:0:
220,344,185316,1,0,0:0:0:0:
308,300,185499,1,2,0:0:0:0:
308,300,185682,1,0,0:0:0:0:
136,236,185865,6,0,P|88:232|-4:320,1,165.000005035401,6|2,0:0|0:0,0:0:0:0:
224,280,186414,1,2,0:0:0:0:
156,112,186597,1,8,0:0:0:0:
260,196,186780,1,2,0:0:0:0:
68,160,186963,1,2,0:0:0:0:
400,64,187329,6,0,P|448:100|452:212,1,165.000005035401,6|2,0:0|0:0,0:0:0:0:
364,292,187877,1,2,0:0:0:0:
260,196,188060,1,8,0:0:0:0:
372,156,188243,1,2,0:0:0:0:
268,288,188426,1,2,0:0:0:0:
268,288,188609,1,2,0:0:0:0:
144,236,188792,6,0,P|136:184|132:132,1,82.5000025177003,6|0,0:0|0:0,0:0:0:0:
248,16,189158,2,0,P|254:56|258:97,1,82.5000025177003,0|2,0:0|0:0,0:0:0:0:
144,236,189524,1,8,0:0:0:0:
260,196,189707,1,2,0:0:0:0:
180,316,189890,1,2,0:0:0:0:
316,272,190072,1,2,0:0:0:0:
232,152,190255,5,6,0:0:0:0:
192,276,190438,1,0,0:0:0:0:
324,128,190621,1,2,0:0:0:0:
160,196,190804,1,2,0:0:0:0:
344,312,190987,5,12,0:0:0:0:
260,184,191170,1,2,0:0:0:0:
388,232,191353,1,2,0:0:0:0:
256,340,191536,1,2,0:0:0:0:
440,336,191719,6,0,L|452:156,1,168.750006437302,4|0,0:0|0:0,0:0:0:0:
