osu file format v14

[General]
AudioFilename: audio.mp3
AudioLeadIn: 0
PreviewTime: 244143
Countdown: 0
SampleSet: Soft
StackLeniency: 0.4
Mode: 0
LetterboxInBreaks: 0
WidescreenStoryboard: 1

[Editor]
Bookmarks: 44172,168286
DistanceSpacing: 0.8
BeatDivisor: 4
GridSize: 8
TimelineZoom: 1.799999

[Metadata]
Title:Aquila
TitleUnicode:Aquila
Artist:EVO+
ArtistUnicode:EVO+
Creator:Bellicose
Version:toybot's Insane
Source:
Tags:toybot vikala rage quit Sunazuka Akira necho japanese rock electronic drum and bass dnb evolution NaturaLe Treow
BeatmapID:3115525
BeatmapSetID:1107531

[Difficulty]
HPDrainRate:5.5
CircleSize:4
OverallDifficulty:8
ApproachRate:9
SliderMultiplier:1.75
SliderTickRate:1

[Events]
//Background and Video events
0,0,"bg13413431.jpg",0,0
//Break Periods
2,34086,43572
2,157514,167686
2,223343,233514
//Storyboard Layer 0 (Background)
//Storyboard Layer 1 (Fail)
//Storyboard Layer 2 (Pass)
//Storyboard Layer 3 (Foreground)
//Storyboard Layer 4 (Overlay)
//Storyboard Sound Samples

[TimingPoints]
972,342.857142857143,4,2,4,45,1,0
1657,-200,4,2,4,45,0,0
3029,-100,4,2,4,45,0,0
3714,-200,4,2,4,45,0,0
8514,-100,4,2,4,45,0,0
9200,-200,4,2,4,45,0,0
11600,-200,4,2,7,60,0,0
11943,-100,4,2,1,65,0,0
12114,-100,4,2,1,60,0,0
12286,-100,4,2,1,65,0,0
12800,-100,4,2,1,60,0,0
12972,-100,4,2,1,65,0,0
13657,-100,4,2,1,60,0,0
13828,-100,4,2,1,65,0,0
14343,-100,4,2,4,65,0,0
14686,-100,4,2,1,65,0,0
14857,-100,4,2,1,60,0,0
15029,-100,4,2,1,65,0,0
15200,-100,4,2,1,60,0,0
15372,-100,4,2,1,65,0,0
15543,-100,4,2,1,60,0,0
15715,-100,4,2,1,65,0,0
16914,-100,4,2,1,60,0,0
17086,-150.000000000015,4,2,1,65,0,0
17429,-200,4,2,1,65,0,0
20172,-133.333333333333,4,2,1,65,0,0
20257,-133.333333333333,4,2,1,5,0,0
20343,-133.333333333333,4,2,1,65,0,0
20428,-133.333333333333,4,2,1,5,0,0
20514,-100,4,2,1,65,0,0
20599,-100,4,2,1,5,0,0
20686,-100,4,2,1,65,0,0
20771,-100,4,2,1,5,0,0
20857,-100,4,2,1,45,0,0
21543,-100,4,2,1,50,0,0
22229,-100,4,2,1,60,0,0
22914,-100,4,2,1,70,0,0
23429,-66.6666666666667,4,2,1,70,0,0
23686,-66.6666666666667,4,2,1,60,0,0
23772,-100,4,2,1,70,0,0
24114,-66.6666666666667,4,2,1,70,0,0
24371,-66.6666666666667,4,2,1,60,0,0
24457,-100,4,2,1,70,0,0
26172,-66.6666666666667,4,2,1,70,0,0
26429,-66.6666666666667,4,2,1,60,0,0
26514,-100,4,2,1,70,0,0
26857,-66.6666666666667,4,2,1,70,0,0
27114,-66.6666666666667,4,2,1,60,0,0
27200,-66.6666666666667,4,2,1,70,0,0
27714,-66.6666666666667,4,2,1,60,0,0
27886,-100,4,2,1,70,0,0
28914,-66.6666666666667,4,2,1,70,0,0
29257,-100,4,2,1,70,0,0
29600,-66.6666666666667,4,2,1,70,0,0
29857,-66.6666666666667,4,2,1,60,0,0
29943,-66.6666666666667,4,2,1,70,0,0
30286,-100,4,2,1,70,0,0
31657,-66.6666666666667,4,2,1,70,0,0
31914,-66.6666666666667,4,2,1,60,0,0
32000,-66.6666666666667,4,2,1,70,0,0
32343,-200,4,2,1,70,0,0
33543,-200,4,2,1,60,0,0
44172,-200,4,2,1,55,0,0
44857,-133.333333333333,4,2,1,50,0,0
46229,-200,4,2,1,50,0,0
46571,-200,4,2,1,60,0,0
46743,-200,4,2,1,50,0,0
47600,-133.333333333333,4,2,1,50,0,0
48972,-200,4,2,1,50,0,0
49314,-200,4,2,1,60,0,0
49486,-200,4,2,1,50,0,0
50343,-133.333333333333,4,2,1,50,0,0
51714,-200,4,2,1,50,0,0
53257,-200,4,2,1,60,0,0
53600,-200,4,2,1,50,0,0
54286,-200,4,2,1,60,0,0
54629,-250,4,2,1,60,0,0
54972,-333.333333333333,4,2,1,65,0,0
55143,-333.333333333333,4,2,1,60,0,0
55314,-333.333333333333,4,2,1,70,0,0
55657,-333.333333333333,4,2,1,60,0,0
55829,-66.6666666666667,4,2,1,75,0,0
56343,-100,4,2,1,75,0,0
56514,-100,4,2,1,60,0,0
56686,-100,4,2,1,75,0,0
57200,-100,4,2,1,60,0,0
57372,-100,4,2,1,75,0,0
57885,-100,4,2,1,60,0,0
57972,-100,4,2,1,75,0,0
58572,-66.6666666666667,4,2,1,75,0,0
58743,-100,4,2,1,75,0,0
60457,-66.6666666666667,4,2,1,75,0,0
61829,-100,4,2,1,75,0,0
64057,-66.6666666666667,4,2,1,75,0,0
64229,-100,4,2,1,75,0,0
65429,-133.333333333333,4,2,1,70,0,0
65771,-133.333333333333,4,2,1,75,0,0
66114,-133.333333333333,4,2,1,70,0,0
66286,-133.333333333333,4,2,1,50,0,0
66800,-200,4,2,1,50,0,0
68172,-200,4,2,1,75,0,0
68343,-200,4,2,1,50,0,0
68857,-133.333333333333,4,2,1,50,0,0
69543,-200,4,2,1,50,0,0
71429,-100,4,2,1,50,0,0
72286,-200,4,2,1,50,0,0
75029,-100,4,2,1,50,0,0
75886,-133.333333333333,4,2,1,50,0,0
76229,-100,4,2,1,50,0,0
76400,-200,4,2,1,40,0,0
77514,-200,4,2,1,50,0,0
77600,-200,4,2,1,40,0,0
77685,-200,4,2,1,50,0,0
77771,-200,4,2,1,40,0,0
78457,-200,4,2,1,60,0,0
78800,-400,4,2,1,70,0,0
79143,-66.6666666666667,4,2,1,75,0,1
79829,-100,4,2,1,75,0,1
80771,-100,4,2,1,70,0,1
80857,-100,4,2,1,75,0,1
81200,-100,4,2,1,70,0,1
81372,-100,4,2,1,75,0,1
82828,-100,4,2,1,70,0,1
82914,-100,4,2,1,75,0,1
83086,-66.6666666666667,4,2,1,75,0,1
83514,-66.6666666666667,4,2,1,70,0,1
83772,-66.6666666666667,4,2,1,75,0,1
84629,-100,4,2,1,75,0,1
85143,-100,4,2,5,75,0,1
85314,-100,4,2,5,70,0,1
85486,-100,4,2,5,75,0,1
85657,-100,4,2,1,75,0,1
85829,-100,4,2,5,75,0,1
86171,-100,4,2,1,75,0,1
86514,-100,4,2,5,75,0,1
86857,-100,4,2,1,75,0,1
90114,-66.6666666666667,4,2,1,75,0,1
91314,-100,4,2,1,75,0,1
94057,-66.6666666666667,4,2,1,75,0,1
95600,-66.6666666666667,4,2,1,70,0,0
95772,-200,4,2,1,70,0,0
100057,-66.6666666666667,4,2,1,70,0,0
101086,-66.6666666666667,4,2,1,60,0,0
101600,-66.6666666666667,4,2,1,70,0,0
101772,-100,4,2,1,60,0,0
103829,-66.6666666666667,4,2,1,60,0,0
104857,-100,4,2,1,60,0,0
106572,-66.6666666666667,4,2,1,60,0,0
107257,-100,4,2,1,60,0,0
109314,-66.6666666666667,4,2,1,60,0,0
110686,-100,4,2,1,60,0,0
111372,-66.6666666666667,4,2,1,60,0,0
111714,-80,4,2,1,60,0,0
112057,-400,4,2,1,60,0,0
112143,-400,4,2,1,5,0,0
114799,-400,4,2,1,15,0,0
117543,-400,4,2,1,25,0,0
120286,-400,4,2,1,35,0,0
122172,-400,4,2,1,60,0,0
122514,-200,4,2,1,55,0,0
123029,-100,4,2,1,55,0,0
123200,-100,4,2,1,50,0,0
123372,-100,4,2,1,55,0,0
123543,-100,4,2,1,50,0,0
123714,-100,4,2,1,55,0,0
124571,-100,4,2,1,50,0,0
124742,-100,4,2,1,55,0,0
125600,-100,4,2,1,50,0,0
125686,-100,4,2,1,55,0,0
126285,-100,4,2,1,50,0,0
126457,-100,4,2,1,55,0,0
127314,-100,4,2,1,50,0,0
127486,-100,4,2,1,55,0,0
128685,-100,4,2,1,50,0,0
128857,-100,4,2,1,55,0,0
129286,-100,4,2,1,50,0,0
129372,-100,4,2,1,55,0,0
129714,-100,4,2,1,50,0,0
129886,-100,4,2,1,55,0,0
130143,-100,4,2,1,50,0,0
130229,-100,4,2,1,55,0,0
131086,-100,4,2,1,50,0,0
131257,-100,4,2,1,55,0,0
132628,-100,4,2,1,50,0,0
132800,-100,4,2,1,55,0,0
133143,-100,4,2,1,60,0,0
133742,-100,4,2,1,50,0,0
134000,-100,4,2,1,55,0,0
134514,-100,4,2,1,50,0,0
134686,-100,4,2,1,55,0,0
135543,-100,4,2,1,50,0,0
135714,-100,4,2,1,55,0,0
136571,-100,4,2,1,50,0,0
136657,-100,4,2,1,55,0,0
137257,-100,4,2,1,50,0,0
137429,-100,4,2,1,55,0,0
138285,-100,4,2,1,50,0,0
138457,-100,4,2,1,55,0,0
139657,-100,4,2,1,50,0,0
139829,-100,4,2,1,55,0,0
140257,-100,4,2,1,50,0,0
140343,-100,4,2,1,55,0,0
140685,-100,4,2,1,50,0,0
140857,-100,4,2,1,55,0,0
141114,-100,4,2,1,50,0,0
141200,-100,4,2,1,55,0,0
141285,-100,4,2,1,50,0,0
141372,-100,4,2,1,55,0,0
141629,-100,4,2,1,50,0,0
141714,-100,4,2,1,55,0,0
142057,-100,4,2,1,50,0,0
142229,-100,4,2,1,55,0,0
143600,-100,4,2,1,50,0,0
143772,-100,4,2,1,55,0,0
144714,-100,4,2,1,50,0,0
144800,-100,4,2,1,55,0,0
144972,-200,4,2,1,50,0,0
147029,-133.333333333333,4,2,1,50,0,0
147714,-200,4,2,1,50,0,0
149772,-100,4,2,1,50,0,0
150457,-200,4,2,1,50,0,0
153200,-100,4,2,1,50,0,0
154057,-133.333333333333,4,2,1,50,0,0
154400,-100,4,2,1,50,0,0
154572,-200,4,2,1,50,0,0
155086,-200,4,2,1,40,0,0
155685,-200,4,2,1,50,0,0
155772,-200,4,2,1,40,0,0
155857,-200,4,2,1,50,0,0
156972,-400,4,2,1,50,0,0
157314,-400,4,2,5,50,0,0
168286,-192.307692307692,4,2,4,60,0,0
179171,-192.307692307692,4,2,4,5,0,0
179257,-200,4,2,1,55,0,0
185000,-200,4,2,1,5,0,0
185086,-200,4,2,1,55,0,0
185343,-200,4,2,1,5,0,0
185429,-200,4,2,1,55,0,0
185686,-200,4,2,1,5,0,0
185772,-200,4,2,1,55,0,0
186029,-200,4,2,1,5,0,0
186114,-133.333333333333,4,2,1,60,0,0
186199,-133.333333333333,4,2,1,5,0,0
186286,-133.333333333333,4,2,1,60,0,0
186371,-133.333333333333,4,2,1,5,0,0
186457,-100,4,2,1,60,0,0
186542,-100,4,2,1,5,0,0
186629,-100,4,2,1,60,0,0
186714,-100,4,2,1,5,0,0
186800,-100,4,2,1,60,0,0
187486,-100,4,2,5,60,0,0
188857,-100,4,2,1,50,0,0
189028,-100,4,2,1,60,0,0
189800,-100,4,2,1,5,0,0
189886,-100,4,2,1,60,0,0
190143,-100,4,2,1,5,0,0
190229,-100,4,2,1,65,0,0
190914,-100,4,2,1,60,0,0
191085,-100,4,2,1,65,0,0
191600,-100,4,2,1,60,0,0
191942,-100,4,2,1,65,0,0
192285,-100,4,2,1,60,0,0
192457,-100,4,2,1,65,0,0
193657,-100,4,2,1,60,0,0
193828,-100,4,2,1,65,0,0
194257,-100,4,2,1,60,0,0
194514,-100,4,2,1,65,0,0
195029,-100,4,2,1,60,0,0
195200,-100,4,2,1,65,0,0
196400,-100,4,2,1,60,0,0
196742,-100,4,2,1,65,0,0
197086,-100,4,2,1,60,0,0
197428,-100,4,2,1,65,0,0
197771,-100,4,2,1,60,0,0
197943,-100,4,2,1,65,0,0
199143,-100,4,2,1,60,0,0
199314,-100,4,2,1,65,0,0
199829,-100,4,2,1,60,0,0
200000,-100,4,2,1,65,0,0
200514,-100,4,2,1,60,0,0
200685,-100,4,2,1,65,0,0
200728,-100,4,2,1,60,0,0
200857,-100,4,2,1,65,0,0
201285,-100,4,2,1,60,0,0
201372,-100,4,2,1,65,0,0
201457,-100,4,2,1,60,0,0
201543,-100,4,2,1,65,0,0
201628,-100,4,2,1,60,0,0
201714,-100,4,2,1,65,0,0
202057,-100,4,2,1,60,0,0
202229,-100,4,2,1,65,0,0
203429,-100,4,2,1,60,0,0
203600,-100,4,2,1,65,0,0
204028,-100,4,2,1,60,0,0
204115,-100,4,2,1,65,0,0
204200,-100,4,2,1,60,0,0
204286,-100,4,2,1,65,0,0
204371,-100,4,2,1,60,0,0
204457,-100,4,2,1,65,0,0
204800,-100,4,2,1,60,0,0
204972,-100,4,2,1,65,0,0
206171,-100,4,2,1,60,0,0
206343,-100,4,2,1,65,0,0
206600,-100,4,2,1,60,0,0
206686,-200,4,2,1,60,0,0
210114,-200,4,2,1,55,0,0
210457,-200,4,2,1,60,0,0
210800,-100,4,2,1,65,0,0
211829,-100,4,2,1,55,0,0
212172,-100,4,2,1,50,0,0
212686,-133.333333333333,4,2,1,50,0,0
222629,-200,4,2,1,50,0,0
234114,-133.333333333333,4,2,1,60,0,0
234285,-133.333333333333,4,2,1,50,0,0
234457,-133.333333333333,4,2,1,60,0,0
234628,-133.333333333333,4,2,1,50,0,0
234800,-133.333333333333,4,2,1,60,0,0
239600,-133.333333333333,4,2,1,50,0,0
242000,-133.333333333333,4,2,1,60,0,0
242343,-200,4,2,1,60,0,0
244228,-200,4,2,1,50,0,0
245086,-66.6666666666667,4,2,1,75,0,1
246286,-100,4,2,1,75,0,1
246714,-100,4,2,1,50,0,1
246800,-100,4,2,1,75,0,1
247143,-100,4,2,1,50,0,1
247314,-100,4,2,1,75,0,1
248771,-100,4,2,1,50,0,1
248857,-100,4,2,1,75,0,1
249029,-66.6666666666667,4,2,1,75,0,1
249457,-66.6666666666667,4,2,1,50,0,1
249714,-66.6666666666667,4,2,1,75,0,1
250572,-100,4,2,1,75,0,1
251086,-100,4,2,5,75,0,1
251257,-100,4,2,5,50,0,1
251429,-100,4,2,5,75,0,1
251600,-100,4,2,1,75,0,1
251772,-100,4,2,5,75,0,1
251943,-100,4,2,5,50,0,1
252114,-100,4,2,1,75,0,1
252457,-100,4,2,5,75,0,1
252800,-100,4,2,1,75,0,1
253143,-100,4,2,1,50,0,1
253314,-100,4,2,1,75,0,1
253827,-100,4,2,1,50,0,1
253999,-100,4,2,1,75,0,1
256057,-66.6666666666667,4,2,1,75,0,1
257257,-100,4,2,1,75,0,1
257428,-100,4,2,1,50,0,1
257600,-100,4,2,1,75,0,1
257685,-100,4,2,1,50,0,1
257772,-100,4,2,1,75,0,1
259742,-100,4,2,1,50,0,1
259829,-100,4,2,1,75,0,1
260000,-50,4,2,1,75,0,1
261543,-200,4,2,1,70,0,0
266000,-66.6666666666667,4,2,1,70,0,0
267029,-66.6666666666667,4,2,1,60,0,0
267543,-66.6666666666667,4,2,1,70,0,0
268400,-100,4,2,1,70,0,0
273714,-66.6666666666667,4,2,1,70,0,0
274057,-100,4,2,1,70,0,0
276972,-80,4,2,1,70,0,0
277314,-66.6666666666667,4,2,1,70,0,0
277657,-57.1428571428571,4,2,1,70,0,0
278000,-66.6666666666667,4,2,1,75,0,0
278600,-66.6666666666667,4,2,1,70,0,0
278686,-100,4,2,1,75,0,0
278771,-100,4,2,1,70,0,0
278857,-100,4,2,1,75,0,0
278942,-100,4,2,1,70,0,0
279114,-100,4,2,1,75,0,0
280057,-66.6666666666667,4,2,1,75,0,0
280228,-66.6666666666667,4,2,1,70,0,0
280400,-66.6666666666667,4,2,1,75,0,0
281086,-100,4,2,1,75,0,0
281171,-100,4,2,1,70,0,0
281257,-100,4,2,1,75,0,0
282800,-66.6666666666667,4,2,1,75,0,0
283486,-100,4,2,1,65,0,0
284857,-80,4,2,1,65,0,0
285543,-66.6666666666667,4,2,1,65,0,0
286572,-80,4,2,1,65,0,0
287600,-100,4,2,1,65,0,0
287943,-80,4,2,1,65,0,0
288286,-66.6666666666667,4,2,1,65,0,0
288629,-66.6666666666667,4,2,5,65,0,0

[Colours]
Combo1 : 226,143,243
Combo2 : 139,222,254
Combo3 : 253,206,240
Combo4 : 150,166,254

[HitObjects]
93,66,971,5,6,0:0:0:0:
38,121,1486,1,2,0:0:0:0:
93,66,1657,2,0,P|145:57|188:60,1,87.5,0|2,0:0|0:0,0:0:0:0:
352,156,2343,1,0,0:0:0:0:
198,180,2514,2,0,P|240:189|284:191,1,87.5,2|0,0:0|0:0,0:0:0:0:
352,156,3029,6,0,B|347:126|384:121|389:151|389:151|395:198|395:198|401:229|435:223|430:193,1,175,2|0,3:2|3:0,0:0:0:0:
430,196,3714,6,0,P|416:237|419:280,2,87.5,0|2|2,3:0|0:0|0:0,0:0:0:0:
473,131,4572,2,0,P|471:110|464:89,2,43.75,0|0|0,0:0|3:0|3:0,0:0:0:0:
509,28,5086,5,2,0:0:0:0:
439,9,5257,1,0,3:0:0:0:
368,29,5429,1,2,0:0:0:0:
324,86,5600,1,0,0:0:0:0:
260,122,5772,5,2,3:2:0:0:
124,92,5943,1,0,0:0:0:0:
167,224,6114,1,6,0:0:0:0:
167,224,6457,5,2,3:2:0:0:
215,285,6800,1,0,3:0:0:0:
167,224,7143,2,0,P|116:210|68:213,1,87.5,0|2,0:0|0:0,0:0:0:0:
167,224,7657,1,0,3:0:0:0:
272,338,7829,1,0,0:0:0:0:
431,338,8000,2,0,P|380:352|332:349,1,87.5,2|0,0:0|0:0,0:0:0:0:
272,338,8514,6,0,B|238:331|246:293|246:293|259:235|259:235|269:194|228:186,1,175,2|0,3:2|3:0,0:0:0:0:
238,189,9200,6,0,P|278:175|326:174,2,87.5,0|2|2,3:0|0:0|0:0,0:0:0:0:
172,143,10057,2,0,P|164:122|164:100,2,43.75,0|0|0,0:0|3:0|3:0,0:0:0:0:
93,74,10572,5,2,0:0:0:0:
154,26,10743,1,0,3:0:0:0:
229,18,10914,1,0,3:0:0:0:
303,42,11086,1,0,3:0:0:0:
350,104,11257,5,0,3:0:0:0:
377,265,11429,1,0,3:0:0:0:
209,292,11600,2,0,L|202:261,3,21.875,2|2|2|2,0:3|0:3|0:3|0:3,0:0:0:0:
209,292,11943,6,0,P|160:299|107:321,1,87.5,6|0,1:2|0:0,0:0:0:0:
31,252,12286,2,0,P|74:246|115:232,1,87.5,0|2,3:0|0:0,0:0:0:0:
100,361,12629,2,0,P|93:312|71:259,1,87.5,2|0,3:2|0:0,0:0:0:0:
140,183,12972,2,0,P|145:226|159:267,1,87.5,0|2,3:0|0:0,0:0:0:0:
303,292,13314,6,0,P|352:299|405:321,1,87.5,0|2,1:0|0:0,0:0:0:0:
481,252,13657,2,0,P|437:245|396:231,1,87.5,0|2,3:0|0:0,0:0:0:0:
412,360,14000,2,0,P|416:317|431:276,1,87.5,2|0,3:2|0:0,0:0:0:0:
351,267,14343,2,0,P|366:225|372:182,1,87.5,0|0,3:0|3:0,0:0:0:0:
335,113,14600,1,0,3:0:0:0:
335,113,14686,6,0,P|322:63|323:7,1,87.5,0|0,1:0|0:0,0:0:0:0:
405,12,15029,2,0,P|418:62|417:118,1,87.5,2|0,3:2|0:0,0:0:0:0:
320,27,15372,2,0,P|370:14|426:15,1,87.5,2|0,3:2|0:0,0:0:0:0:
420,98,15715,2,0,P|370:111|314:110,1,87.5,2|0,3:2|3:0,0:0:0:0:
177,113,16057,6,0,P|190:63|189:7,1,87.5,2|0,1:2|3:0,0:0:0:0:
107,12,16400,2,0,P|94:62|95:118,1,87.5,0|0,3:0|3:0,0:0:0:0:
192,27,16743,2,0,P|142:14|86:15,1,87.5,2|0,3:2|3:0,0:0:0:0:
92,98,17086,2,0,P|142:111|198:111,1,87.5,2|0,3:2|0:0,0:0:0:0:
27,155,17429,6,0,L|41:245,1,87.5,0|0,1:0|3:0,0:0:0:0:
485,229,18114,2,0,L|471:139,1,87.5,0|0,1:0|3:0,0:0:0:0:
113,194,18800,6,0,L|129:292,1,87.5,0|0,1:0|3:0,0:0:0:0:
399,190,19486,2,0,L|383:92,1,87.5,0|0,1:0|3:0,0:0:0:0:
181,133,20172,6,0,L|188:174,1,32.8125012516976,0|0,1:0|0:0,0:0:0:0:
331,251,20343,2,0,L|324:210,1,32.8125012516976,0|0,1:0|0:0,0:0:0:0:
288,80,20514,6,0,L|278:151,1,43.75,0|0,1:0|0:0,0:0:0:0:
224,304,20686,2,0,L|234:233,1,43.75,0|0,1:0|0:0,0:0:0:0:
256,192,20857,5,0,1:0:0:0:
245,185,20943,1,0,1:0:0:0:
231,191,21029,1,0,1:0:0:0:
225,210,21114,1,0,1:0:0:0:
239,233,21200,1,0,1:0:0:0:
281,235,21286,1,0,1:0:0:0:
318,200,21372,1,0,1:0:0:0:
308,147,21457,1,0,1:0:0:0:
256,96,21543,6,0,B|248:72|264:80|256:52,7,43.75,2|2|2|2|2|2|2|2,0:3|0:3|0:3|0:3|0:3|0:3|0:3|0:3,0:0:0:0:
224,128,22229,5,8,0:3:0:0:
239,185,22314,5,8,0:3:0:0:
254,242,22400,5,4,0:3:0:0:
269,299,22486,5,4,0:3:0:0:
283,356,22572,5,8,0:0:0:0:
283,356,22914,6,0,P|324:339|368:336,1,87.5,6|2,1:2|3:2,0:0:0:0:
506,354,23257,1,8,3:2:0:0:
366,335,23429,2,2,B|400:296|355:239|319:274|260:211|329:144,1,196.875007510186,2|0,3:2|0:0,0:1:0:0:
307,172,23772,2,0,P|352:176|393:188,1,87.5,2|8,1:2|0:0,0:0:0:0:
317,56,24114,6,2,B|256:16|179:18|147:140|258:142|266:87,1,196.875007510186,2|0,3:2|0:0,0:1:0:0:
231,116,24457,1,2,1:2:0:0:
392,187,24629,1,8,0:0:0:0:
329,140,24800,2,2,P|238:159|156:172,1,175,2|2,3:2|1:2,0:1:0:0:
111,242,25314,1,10,0:0:0:0:
50,126,25486,1,2,3:2:0:0:
190,270,25657,6,0,P|185:333|172:373,1,87.5,2|2,1:2|1:2,0:0:0:0:
24,365,26000,1,10,0:0:0:0:
178,356,26172,2,2,B|215:349|209:310|209:310|195:239|195:239|189:204|232:196,1,196.875007510186,2|0,3:2|0:0,0:1:0:0:
228,196,26514,2,0,P|218:160|212:110,1,87.5,0|10,1:0|0:0,0:0:0:0:
401,86,26857,6,2,B|356:94|326:68|339:66|306:35|265:47|265:47|297:72|288:111,1,196.875007510186,2|0,3:2|0:0,0:1:0:0:
290,88,27200,1,0,1:0:0:0:
278,261,27372,1,10,0:0:0:0:
387,234,27543,1,2,3:0:0:0:
278,261,27714,5,0,3:0:0:0:
340,324,27886,2,0,P|333:362|323:380,1,43.75,2|0,1:2|1:0,0:0:0:0:
423,341,28057,1,10,0:0:0:0:
502,313,28229,2,0,P|493:288|492:246,1,43.75,2|0,3:2|3:0,0:0:0:0:
509,148,28400,6,0,P|475:120|434:109,1,87.5,6|2,1:2|3:2,0:0:0:0:
300,205,28743,1,10,0:0:0:0:
434,109,28914,2,2,B|456:91|456:91|410:61|331:69|299:141,1,196.875007510186,2|0,3:2|3:0,0:1:0:0:
308,125,29257,2,2,P|263:119|204:82,1,87.5,2|8,1:2|0:0,0:1:0:0:
24,76,29600,6,2,B|52:87|52:87|82:64|76:19|76:19|132:5|164:80,1,196.875007510186,2|0,3:2|0:0,0:1:0:0:
151,55,29943,1,2,1:2:0:0:
234,249,30114,1,8,0:0:0:0:
225,22,30286,2,2,P|186:121|178:228,1,175,2|2,3:2|1:2,0:1:0:0:
219,327,30800,1,10,0:0:0:0:
313,232,30972,1,2,3:2:0:0:
94,297,31143,6,0,P|75:257|70:214,1,87.5,2|2,1:2|1:2,0:0:0:0:
234,249,31486,1,10,0:0:0:0:
70,215,31657,2,2,B|66:187|89:168|92:181|154:127|126:64|17:62|45:146,1,196.875007510186,2|0,3:2|0:0,0:1:0:0:
42,115,32000,1,0,1:0:0:0:
177,188,32172,1,10,0:0:0:0:
325,144,32343,6,0,L|388:133,1,43.75,2|0,3:1|1:0,0:0:0:0:
368,136,32686,2,0,L|325:144,1,43.75,2|0,0:1|1:0,0:0:0:0:
325,144,33029,2,0,L|368:136,1,43.75,2|0,0:1|1:0,0:0:0:0:
359,214,33372,1,2,1:0:0:0:
426,313,33543,5,0,1:0:0:0:
419,269,33629,5,0,1:0:0:0:
441,231,33714,5,0,1:0:0:0:
436,187,33800,5,0,1:0:0:0:
456,147,33886,5,4,1:2:0:0:
70,79,44172,5,2,0:3:0:0:
104,105,44257,1,8,0:3:0:0:
112,143,44343,1,4,0:3:0:0:
96,183,44429,1,4,0:3:0:0:
66,198,44514,6,0,L|72:237,1,21.875,0|0,1:0|1:0,0:0:0:0:
31,286,44686,1,0,1:0:0:0:
35,304,44772,1,0,1:0:0:0:
82,332,44857,6,0,B|176:323|176:323|179:320|179:320|194:321|194:321|276:314,1,196.875007510186,4|0,1:2|3:0,0:0:0:0:
408,333,45543,1,8,0:0:0:0:
339,381,45714,2,0,B|317:319|317:319|361:259,1,131.25000500679,0|0,1:0|1:0,0:0:0:0:
355,266,46229,6,0,L|345:169,1,87.5,2|0,3:2|0:0,0:0:0:0:
408,333,46743,1,0,1:0:0:0:
273,239,46914,1,8,0:0:0:0:
420,141,47257,1,0,1:0:0:0:
273,239,47429,1,8,0:0:0:0:
197,203,47600,6,0,B|123:188|123:188|187:175,2,131.25000500679,0|0|8,1:0|1:0|0:0,0:0:0:0:
51,147,48457,2,0,B|31:53|31:53|54:13,1,131.25000500679,0|0,1:0|1:0,0:0:0:0:
48,22,48972,6,0,L|144:37,1,87.5,2|0,3:2|0:0,0:0:0:0:
187,94,49486,1,0,1:0:0:0:
133,230,49657,1,8,0:0:0:0:
282,203,50000,1,0,1:0:0:0:
187,94,50172,1,8,0:0:0:0:
133,230,50343,6,0,B|281:250|281:250|274:289|296:312,1,196.875007510186,0|0,1:0|1:0,0:0:0:0:
511,284,51029,1,8,0:0:0:0:
355,267,51200,2,0,B|439:261|439:261|446:234|472:221,1,131.25000500679,0|0,1:0|1:0,0:0:0:0:
466,224,51714,6,0,P|415:190|407:150,1,87.5,2|0,3:2|1:0,0:0:0:0:
429,98,52143,1,0,1:0:0:0:
429,98,52229,2,0,L|433:66,1,21.875,0|0,1:0|1:0,0:0:0:0:
450,4,52400,5,10,0:0:0:0:
407,167,52743,1,0,1:0:0:0:
511,284,52914,1,8,0:0:0:0:
506,207,53086,6,0,L|452:227,1,43.75,2|0,1:2|0:0,0:0:0:0:
465,223,53600,1,2,1:2:0:0:
400,282,53772,5,10,0:0:0:0:
256,258,53943,1,2,1:2:0:0:
281,110,54114,1,2,3:2:0:0:
335,223,54286,6,2,L|329:180,1,43.75,2|0,1:2|0:0,0:1:0:0:
168,309,54629,6,2,L|176:259,1,35,2|0,1:2|0:0,0:1:0:0:
3,326,54972,6,2,L|21:298,1,26.2499991989136,4|0,1:3|0:0,0:1:0:0:
96,350,55314,5,0,1:0:0:0:
97,368,55400,1,0,1:0:0:0:
87,379,55486,1,8,0:0:0:0:
59,236,55657,1,0,0:0:0:0:
87,379,55829,6,0,B|67:336|92:294|128:306|160:251|123:188,1,196.875007510186,6|0,1:2|3:0,0:1:0:0:
129,201,56172,1,8,3:2:0:0:
179,133,56343,6,2,B|191:115|183:90|183:90|172:120|150:130,1,87.5,2|0,3:2|3:0,0:1:0:0:
59,236,56686,1,2,1:2:0:0:
107,69,56857,1,8,0:0:0:0:
267,174,57029,6,2,P|310:179|355:182,1,87.5,2|0,3:2|3:0,0:1:0:0:
318,93,57372,1,2,1:2:0:0:
301,270,57543,1,8,0:0:0:0:
490,226,57714,6,2,P|482:173|429:148,1,87.5,2|0,3:2|3:0,0:1:0:0:
457,153,57972,1,0,3:0:0:0:
457,153,58057,1,2,1:2:0:0:
393,330,58229,2,0,P|362:274|299:269,1,131.25,8|0,0:0|3:0,0:0:0:0:
300,268,58572,6,0,P|308:307|307:333,1,65.6250025033952,2|0,1:2|3:0,0:0:0:0:
229,332,58743,2,0,P|225:309|225:281,1,43.75,2|0,1:2|0:0,0:0:0:0:
238,211,58914,1,8,0:0:0:0:
128,150,59086,6,2,B|177:134|177:134|153:133|122:117,1,87.5,2|0,3:2|3:0,0:1:0:0:
54,189,59429,1,2,1:2:0:0:
179,56,59600,1,8,0:0:0:0:
1,29,59772,6,2,P|21:82|25:136,1,87.5,2|0,3:2|3:0,0:1:0:0:
68,283,60114,1,2,1:2:0:0:
177,184,60286,1,8,0:0:0:0:
54,189,60457,6,2,B|120:200|120:200|144:219|144:219|284:244,1,196.875007510186,2|0,3:2|3:0,0:1:0:0:
312,271,60800,1,0,1:0:0:0:
316,289,60886,1,0,1:0:0:0:
289,313,60972,6,2,P|367:323|364:198,1,196.875007510186,10|0,0:0|3:0,0:1:0:0:
395,226,61314,6,0,B|317:154|395:76|455:103|431:178,1,196.875007510186,6|0,1:2|3:0,0:0:0:0:
435,152,61657,1,8,3:2:0:0:
302,108,61829,6,2,L|294:13,1,87.5,2|0,3:2|3:0,0:1:0:0:
398,17,62172,1,2,1:2:0:0:
218,77,62343,1,8,0:0:0:0:
396,193,62514,6,2,B|390:167|363:162|363:162|348:183|312:183,1,87.5,2|0,3:2|3:0,0:1:0:0:
402,276,62857,1,2,1:2:0:0:
302,108,63029,1,8,0:0:0:0:
469,230,63200,6,2,P|490:228|511:221,2,43.75,2|0|0,3:2|3:0|3:0,0:1:0:0:
333,328,63543,1,2,1:2:0:0:
333,328,63629,1,0,1:0:0:0:
333,328,63714,2,0,P|268:312|185:312,1,131.25,8|0,0:0|3:0,0:0:0:0:
203,310,64057,6,0,P|187:271|204:225,1,65.6250025033952,2|0,1:2|3:0,0:0:0:0:
116,229,64229,2,0,P|122:208|136:191,1,43.75,2|0,1:2|0:0,0:0:0:0:
192,134,64400,1,8,0:0:0:0:
335,178,64572,6,2,L|225:196,1,87.5,2|0,3:2|3:0,0:1:0:0:
248,192,64829,1,0,3:0:0:0:
248,192,64914,1,0,1:0:0:0:
192,134,65086,1,8,0:0:0:0:
387,248,65257,1,2,3:2:0:0:
256,80,65429,6,0,B|253:55|239:40|223:47|226:-4|285:-4|288:46|273:40|259:56|264:74,2,131.25000500679,0|0|0,1:0|1:0|1:0,0:0:0:0:
256,280,66286,1,0,1:0:0:0:
328,352,66457,5,0,1:0:0:0:
296,328,66542,5,0,1:0:0:0:
256,320,66628,5,0,1:0:0:0:
216,328,66714,5,0,1:0:0:0:
184,352,66800,6,0,P|141:349|98:338,1,87.5,6|2,1:2|0:0,0:0:0:0:
28,302,67314,1,0,1:0:0:0:
94,260,67486,1,10,0:0:0:0:
94,260,67657,2,0,P|105:238|111:215,1,43.75,0|0,1:0|0:0,0:0:0:0:
112,103,68000,2,0,P|120:130|121:145,2,43.75,0|0|2,1:0|0:0|3:2,0:0:0:0:
112,103,68686,1,2,1:2:0:0:
51,174,68857,6,0,P|118:178|180:196,1,131.25000500679,10|2,0:2|1:2,0:0:0:0:
279,288,69372,1,10,0:2:0:0:
408,323,69543,6,0,P|443:323|490:306,1,65.625,2|0,1:2|0:0,0:0:0:0:
473,315,69886,1,0,1:0:0:0:
500,245,70057,1,2,1:2:0:0:
430,205,70229,1,10,0:0:0:0:
430,205,70400,2,0,P|415:173|415:151,1,43.75,0|2,1:0|3:2,0:0:0:0:
354,84,70743,2,0,P|389:87|408:98,1,43.75,2|0,1:2|0:0,0:0:0:0:
497,77,71086,2,0,P|476:105|457:116,1,43.75,0|0,1:0|0:0,0:0:0:0:
327,164,71429,5,2,3:2:0:0:
387,272,71600,2,0,P|352:246|309:242,1,87.5,8|0,0:0|3:2,0:0:0:0:
251,131,71943,1,2,1:2:0:0:
251,131,72029,1,0,1:0:0:0:
251,131,72114,2,0,P|229:134|212:147,1,43.75,8|0,0:0|3:0,0:0:0:0:
143,203,72286,6,0,P|140:159|128:117,1,87.5,2|0,1:2|3:0,0:0:0:0:
70,67,72800,1,2,1:2:0:0:
142,43,72972,1,8,0:0:0:0:
70,67,73143,1,0,1:0:0:0:
24,129,73486,1,0,1:0:0:0:
22,205,73829,1,0,1:0:0:0:
62,275,74172,1,2,1:2:0:0:
62,275,74343,2,0,L|89:269,1,21.875,8|0,0:0|0:0,0:0:0:0:
200,376,74686,1,2,1:2:0:0:
200,376,74857,2,0,L|179:371,1,21.875,10|0,0:0|0:0,0:0:0:0:
109,342,75029,6,0,P|121:259|143:188,1,131.25,2|0,1:2|0:0,0:0:0:0:
134,214,75372,2,0,P|113:191|126:218,1,87.5,0|0,1:0|0:0,0:0:0:0:
293,42,75714,1,10,0:0:0:0:
219,100,75886,2,0,P|210:77|209:101,1,65.6250025033952,0|0,1:0|0:0,0:0:0:0:
372,88,76229,2,0,P|377:72|368:86,1,43.75,0|0,1:0|0:0,0:0:0:0:
297,118,76400,6,0,P|362:124|422:149,1,131.25,4|2,1:3|0:0,0:0:0:0:
422,149,77429,2,0,L|429:177,1,21.875,8|0,0:3|0:0,0:0:0:0:
445,246,77600,2,0,L|452:274,2,21.875,4|0|2,0:3|0:0|0:0,0:0:0:0:
445,246,78457,5,8,0:3:0:0:
389,234,78543,5,8,0:3:0:0:
351,276,78629,5,4,0:3:0:0:
368,330,78714,5,4,0:3:0:0:
319,363,78800,6,0,L|277:369,1,32.8125,10|0,0:0|0:0,0:0:0:0:
225,321,79143,6,0,B|250:290|250:290|306:296|306:296|343:358|343:358|398:363|398:363|421:331,1,262.500010013581,6|8,1:2|0:0,0:0:0:0:
428,49,79829,1,2,3:2:0:0:
383,184,80000,1,2,1:2:0:0:
503,240,80172,1,10,0:0:0:0:
439,129,80343,6,0,P|374:140|308:140,1,131.25,2|0,3:2|3:0,0:0:0:0:
262,80,80686,2,0,P|246:95|238:115,1,43.75,2|0,1:2|0:0,0:0:0:0:
298,254,80857,1,8,0:0:0:0:
154,186,81029,2,0,P|197:188|238:202,1,87.5,2|0,3:2|3:0,0:0:0:0:
334,336,81372,1,2,1:2:0:0:
334,336,81457,1,0,1:0:0:0:
334,336,81543,2,0,P|372:304|365:239,1,87.5,10|2,0:0|3:2,0:0:0:0:
428,49,81886,5,2,1:2:0:0:
350,37,82057,1,0,1:0:0:0:
284,83,82229,5,10,0:0:0:0:
204,73,82400,1,2,3:2:0:0:
138,119,82572,5,2,3:2:0:0:
138,119,82657,1,0,3:0:0:0:
138,119,82743,2,0,L|148:167,1,43.75,2|0,1:2|0:0,0:0:0:0:
57,108,82914,2,0,L|67:156,1,43.75,10|0,0:0|0:0,0:0:0:0:
54,284,83086,6,2,P|113:210|208:213,1,196.875007510186,2|0,1:2|0:0,0:1:0:0:
283,210,83429,2,2,P|279:242|259:268,1,65.6250025033952,2|0,1:2|0:0,0:1:0:0:
448,356,83772,2,2,P|422:261|422:163,1,196.875007510186,2|0,1:2|0:0,0:1:0:0:
422,163,84114,5,2,1:2:0:0:
453,127,84200,1,0,1:0:0:0:
446,81,84286,1,8,0:0:0:0:
369,106,84457,1,2,3:2:0:0:
505,252,84629,6,0,B|459:234|420:262|433:274|390:311|340:289,1,175,6|8,1:2|0:0,0:0:0:0:
283,210,85143,2,0,P|290:173|290:123,1,87.5,2|0,3:2|3:0,0:0:0:0:
166,29,85486,2,0,P|179:64|176:104,1,43.75,2|0,1:2|0:0,0:0:0:0:
136,137,85657,1,10,0:0:0:0:
31,110,85829,1,2,3:2:0:0:
147,216,86000,6,0,P|194:196|208:134,1,87.5,0|0,3:0|1:0,0:0:0:0:
31,110,86343,1,8,0:0:0:0:
79,261,86514,2,0,P|145:258|206:281,1,131.25,2|0,3:2|3:0,0:0:0:0:
275,334,86857,1,0,1:0:0:0:
275,334,86943,1,0,1:0:0:0:
274,334,87029,2,0,P|314:317|357:314,1,87.5,10|0,0:0|3:0,0:0:0:0:
465,115,87372,6,0,P|433:86|390:89,1,87.5,2|0,1:2|1:0,0:0:0:0:
425,260,87714,2,0,P|465:246|484:208,1,87.5,10|0,0:0|3:0,0:0:0:0:
319,152,88057,1,2,3:2:0:0:
319,152,88229,2,0,P|310:193|333:229,1,87.5,0|8,1:0|0:0,0:0:0:0:
357,314,88572,2,0,P|298:260|190:258,1,175,2|2,3:2|1:2,0:0:0:0:
37,297,89086,1,10,0:0:0:0:
134,317,89257,5,2,3:2:0:0:
113,237,89429,1,0,3:0:0:0:
104,204,89514,1,0,3:0:0:0:
119,174,89600,1,2,1:2:0:0:
156,160,89686,1,0,1:0:0:0:
184,130,89772,6,0,L|189:87,1,43.75,10|0,0:0|0:0,0:0:0:0:
114,13,89943,2,0,L|120:56,1,43.75,2|0,3:2|3:0,0:0:0:0:
120,56,90114,6,0,B|186:24|235:72|203:92|277:164|384:56|267:16|261:72,1,262.500010013581,6|8,1:2|0:0,0:0:0:0:
234,334,90800,1,2,3:2:0:0:
405,294,90972,1,2,1:2:0:0:
247,221,91143,1,10,0:0:0:0:
326,368,91314,6,0,L|312:265,1,87.5,2|0,3:2|3:0,0:0:0:0:
419,131,91657,2,0,L|412:198,1,43.75,2|0,1:2|0:0,0:0:0:0:
463,236,91829,1,8,0:0:0:0:
466,62,92000,2,0,P|411:96|347:90,1,131.25,2|0,3:2|3:0,0:0:0:0:
292,41,92343,1,2,1:2:0:0:
292,41,92429,1,0,1:0:0:0:
292,40,92514,2,0,P|266:74|287:127,1,87.5,10|2,0:0|3:2,0:0:0:0:
79,152,92857,5,2,1:2:0:0:
63,75,93029,1,0,1:0:0:0:
142,233,93200,5,10,0:0:0:0:
157,156,93372,1,2,3:2:0:0:
151,333,93543,5,2,3:2:0:0:
151,333,93629,1,0,3:0:0:0:
151,333,93714,2,0,L|198:362,1,43.75,2|0,1:2|0:0,0:0:0:0:
208,281,93886,2,0,L|255:310,1,43.75,10|0,0:0|0:0,0:0:0:0:
188,355,94057,6,2,P|269:308|384:325,1,196.875007510186,2|0,1:2|0:0,0:1:0:0:
426,369,94400,2,2,P|446:318|401:248,1,131.25000500679,2|8,1:2|0:0,0:1:0:0:
263,215,94743,2,2,B|245:126|245:126|247:119|247:119|229:22,1,196.875007510186,2|0,1:2|3:0,0:1:0:0:
228,21,95086,5,2,1:2:0:0:
270,6,95172,1,0,1:0:0:0:
310,29,95257,1,10,0:0:0:0:
265,98,95429,1,2,3:2:0:0:
92,75,95600,5,0,1:0:0:0:
92,75,95772,2,0,P|134:77|163:109,1,87.5,0|0,1:0|1:0,0:0:0:0:
102,156,96286,1,8,0:0:0:0:
242,143,96629,5,0,1:0:0:0:
242,143,96801,2,0,P|260:181|248:222,1,87.5,0|0,1:0|1:0,0:0:0:0:
176,192,97315,1,8,0:0:0:0:
257,303,97657,6,0,P|249:323|232:336,1,43.75,2|2,1:2|1:2,0:0:0:0:
185,273,98000,1,10,0:0:0:0:
317,365,98172,1,2,0:3:0:0:
398,335,98343,5,0,1:0:0:0:
398,335,98514,2,0,P|398:297|443:255,1,87.5,0|0,1:0|1:0,0:0:0:0:
503,236,99029,1,8,0:0:0:0:
416,126,99372,5,0,1:0:0:0:
416,126,99543,2,0,P|447:138|467:174,1,65.625,0|0,1:0|0:0,0:0:0:0:
465,164,99886,1,0,1:0:0:0:
465,61,100057,6,0,P|373:93|316:98,1,131.25000500679,8|0,0:0|0:0,0:0:0:0:
339,97,101086,6,0,B|375:171|296:224|213:179|242:84|258:127|296:27|201:-6|106:58|172:133,1,393.750015020371,4|0,1:2|0:0,0:0:0:0:
45,238,101772,5,8,0:0:0:0:
152,341,101943,2,0,L|141:249,1,87.5,0|0,1:0|3:0,0:0:0:0:
159,234,102200,1,0,3:0:0:0:
162,262,102285,1,0,3:0:0:0:
165,291,102371,1,0,3:0:0:0:
168,320,102457,6,0,P|210:327|245:303,1,87.5,2|2,3:2|3:2,0:0:0:0:
316,176,102800,2,0,P|351:152|393:159,1,87.5,2|2,3:2|1:2,0:0:0:0:
452,210,103057,1,0,3:0:0:0:
452,210,103143,2,0,L|444:287,1,43.75,10|0,0:0|0:0,0:0:0:0:
388,303,103314,1,2,0:0:0:0:
255,228,103486,2,0,B|242:221|242:221|232:164,1,43.75,2|0,1:2|3:0,0:0:0:0:
144,116,103657,2,0,L|187:122,1,43.75,10|0,0:0|0:0,0:0:0:0:
292,36,103829,6,2,B|288:63|288:63|150:87|150:87|144:115,2,196.875007510186,2|0|0,1:2|1:0|1:0,0:1:0:0:
465,128,104514,2,0,B|459:111|459:111|381:91|381:91|393:125,1,131.25000500679,10|2,0:0|1:3,0:0:0:0:
447,310,104857,1,2,0:3:0:0:
422,197,105029,2,0,L|415:249,1,43.75,2|2,1:3|0:3,0:0:0:0:
447,310,105200,6,0,L|487:303,4,29.1666666666667,2|2|2|2|2,1:3|0:3|0:3|0:0|0:3,0:0:0:0:
340,330,105543,2,0,L|380:323,4,29.1666666666667,2|2|2|2|2,1:3|0:3|0:3|0:0|0:3,0:0:0:0:
258,343,105886,5,10,0:0:0:0:
214,276,106057,1,2,1:2:0:0:
201,243,106143,1,2,1:2:0:0:
219,211,106229,1,2,1:2:0:0:
253,197,106314,1,2,1:2:0:0:
287,184,106400,1,10,0:2:0:0:
305,151,106486,1,10,0:2:0:0:
292,119,106572,6,0,B|248:120|208:96|208:96|124:166|147:305|260:343,1,393.750015020371,2|2,1:3|1:3,0:0:0:0:
397,188,107257,2,0,P|393:147|357:85,1,87.5,10|0,0:0|0:0,0:1:0:0:
473,211,107600,2,0,P|464:287|447:321,1,87.5,0|0,3:0|3:0,0:0:0:0:
465,373,107857,1,0,3:0:0:0:
465,373,107943,6,0,P|417:364|389:308,1,87.5,0|0,1:0|3:0,0:0:0:0:
350,271,108200,2,0,P|321:239|278:233,1,87.5,0|0,1:0|3:0,0:0:0:0:
282,311,108457,1,0,1:0:0:0:
44,184,108629,5,10,0:0:0:0:
44,184,108714,2,0,P|89:175|120:129,1,87.5,2|2,0:0|0:0,0:0:0:0:
143,74,108972,1,0,3:0:0:0:
154,55,109057,1,0,3:0:0:0:
172,42,109143,1,2,3:2:0:0:
192,35,109229,1,0,3:0:0:0:
216,36,109314,6,2,P|199:134|208:209,1,131.25000500679,2|0,1:2|3:0,0:1:0:0:
206,244,109572,2,0,P|238:237|261:214,1,65.6250025033952,2|0,3:2|3:0,0:0:0:0:
99,345,109829,2,0,P|67:340|43:318,1,65.6250025033952,2|0,1:2|3:0,0:0:0:0:
43,319,110000,6,2,B|140:295|140:295|154:310|185:321,1,131.25000500679,10|0,0:0|3:0,0:1:0:0:
239,336,110257,2,2,B|326:351|326:351|275:370,1,131.25000500679,10|0,0:0|0:0,0:1:0:0:
393,311,110514,2,0,L|383:213,1,65.6250025033952,2|0,3:0|3:0,0:0:0:0:
370,91,110686,6,0,L|367:62,3,29.1666666666667,2|2|2|2,1:2|0:0|0:0|0:0,0:0:0:0:
378,170,110943,1,2,0:0:0:0:
378,170,111029,1,2,1:2:0:0:
378,170,111372,6,0,P|335:168|305:137,1,87.5000033378602,10|10,0:3|0:3,0:0:0:0:
155,80,111600,1,10,0:3:0:0:
187,152,111714,6,0,P|217:132|229:99,1,72.9166666666667,6|6,0:3|0:3,0:0:0:0:
275,32,111943,1,2,1:3:0:0:
256,24,112057,6,0,B|224:104|288:128|256:192|256:192|224:256|288:289|252:365,1,350,0|0,1:0|0:0,0:0:0:0:
256,192,117543,12,2,122172,0:0:0:0:
416,80,122514,6,0,L|413:110,1,21.875,2|2,0:3|0:3,0:0:0:0:
364,163,122686,1,10,0:0:0:0:
405,178,122772,1,2,0:3:0:0:
428,214,122857,1,2,0:3:0:0:
418,256,122943,1,2,0:3:0:0:
382,281,123029,5,4,1:2:0:0:
382,281,123200,1,0,3:0:0:0:
302,315,123372,2,0,L|209:295,1,87.5,10|0,0:0|3:0,0:0:0:0:
51,261,123714,1,2,3:2:0:0:
51,261,123800,1,0,3:0:0:0:
51,261,123886,2,0,L|156:244,1,87.5,0|10,1:0|0:0,0:0:0:0:
206,191,124229,1,0,3:0:0:0:
137,247,124400,6,0,P|122:193|131:139,2,87.5,2|0|8,3:2|1:0|0:0,0:0:0:0:
199,91,124914,2,0,B|111:74|111:74|68:65|39:99|59:134,1,175,2|0,3:2|1:0,0:0:0:0:
271,138,125429,2,0,P|283:82|276:46,1,87.5,8|0,0:0|3:0,0:0:0:0:
278,52,125686,1,0,3:0:0:0:
278,52,125772,5,0,1:0:0:0:
388,21,125943,1,0,1:0:0:0:
455,104,126114,2,0,P|410:135|369:126,1,87.5,10|0,0:0|3:0,0:0:0:0:
356,152,126372,1,0,3:0:0:0:
380,170,126457,1,0,3:0:0:0:
392,198,126543,1,0,3:0:0:0:
390,228,126629,1,0,1:0:0:0:
219,261,126800,2,0,P|279:255|323:325,1,131.25,10|0,0:0|3:0,0:0:0:0:
321,305,127143,6,0,P|312:268|309:218,1,87.5,2|0,3:2|1:0,0:0:0:0:
476,181,127486,1,10,0:0:0:0:
309,218,127657,2,0,B|375:205|369:266|458:245,1,131.25,2|0,3:2|3:0,0:0:0:0:
432,249,128000,1,0,1:0:0:0:
477,50,128172,2,0,P|482:115|476:181,1,131.25,8|0,0:0|3:0,0:0:0:0:
476,181,128514,6,0,P|435:163|383:151,1,87.5,4|0,1:2|3:0,0:0:0:0:
258,48,128857,2,0,P|277:103|285:162,1,87.5,10|0,0:0|3:0,0:0:0:0:
240,276,129200,1,2,3:2:0:0:
240,276,129286,1,0,3:0:0:0:
240,276,129372,1,0,1:0:0:0:
72,227,129543,2,0,P|113:210|156:205,1,87.5,10|0,0:0|3:0,0:0:0:0:
320,358,129886,6,0,P|354:315|337:260,1,87.5,2|0,3:2|1:0,0:0:0:0:
317,215,130143,1,0,0:0:0:0:
317,215,130229,1,10,0:0:0:0:
505,248,130400,2,0,P|467:176|370:170,1,175,2|0,3:2|1:0,0:0:0:0:
243,289,130914,1,8,0:0:0:0:
125,182,131086,1,0,3:0:0:0:
196,349,131257,5,2,1:2:0:0:
196,349,131429,1,0,1:0:0:0:
208,174,131600,2,0,P|198:261|195:348,1,175,8|2,0:0|3:2,0:0:0:0:
284,204,132114,1,2,1:2:0:0:
118,269,132286,1,10,0:0:0:0:
335,363,132457,6,0,P|331:304|320:266,1,87.5,2|0,3:2|3:0,0:0:0:0:
34,259,132800,2,0,P|38:200|49:162,1,87.5,2|8,1:2|0:0,0:0:0:0:
190,90,133143,1,2,3:2:0:0:
28,28,133314,1,2,3:2:0:0:
185,168,133486,1,2,1:2:0:0:
229,168,133571,1,0,1:0:0:0:
256,133,133657,2,0,L|310:123,1,43.75,8|0,0:0|0:0,0:0:0:0:
346,64,133829,2,0,L|416:87,1,43.75,0|0,3:0|3:0,0:0:0:0:
439,137,134000,6,0,P|427:77|423:6,1,131.25,4|0,1:2|3:0,0:0:0:0:
506,176,134343,2,0,P|470:214|417:205,1,87.5,10|0,0:0|3:0,0:0:0:0:
414,312,134600,1,0,3:0:0:0:
414,312,134686,2,0,P|358:306|335:246,1,87.5,2|0,3:2|1:0,0:0:0:0:
212,314,135029,2,0,B|189:268|224:224|224:224|277:215,1,131.25,10|0,0:0|3:0,0:0:0:0:
263,253,135372,6,0,L|158:236,1,87.5,2|0,3:2|1:0,0:0:0:0:
330,184,135714,1,8,0:0:0:0:
122,305,135886,2,0,B|92:318|60:302|58:269|58:269|49:165,1,175,2|0,3:2|1:0,0:0:0:0:
140,37,136400,2,0,L|126:145,1,87.5,8|0,0:0|3:0,0:0:0:0:
152,153,136657,1,0,3:0:0:0:
152,153,136743,5,0,1:0:0:0:
33,91,136914,1,0,1:0:0:0:
215,90,137086,2,0,L|314:76,1,87.5,10|0,0:0|3:0,0:0:0:0:
273,173,137343,1,0,3:0:0:0:
273,173,137429,2,0,L|362:194,1,87.5,2|0,3:2|1:0,0:0:0:0:
477,327,137772,2,0,B|470:280|470:280|481:250|481:250|471:179,1,131.25,10|0,0:0|3:0,0:0:0:0:
422,135,138114,6,0,P|421:99|441:38,1,87.5,2|0,3:2|1:0,0:0:0:0:
383,232,138457,1,10,0:0:0:0:
435,50,138629,2,0,P|381:77|295:78,1,131.25,2|0,3:2|3:0,0:0:0:0:
245,25,138972,1,2,1:2:0:0:
218,281,139143,2,0,B|229:201|194:237|210:134,1,131.25,8|0,0:0|3:0,0:0:0:0:
208,152,139486,6,0,L|119:130,1,87.5,4|0,1:2|3:0,0:0:0:0:
24,314,139829,2,0,L|114:294,1,87.5,10|0,0:0|3:0,0:0:0:0:
273,364,140172,1,2,3:2:0:0:
273,364,140257,1,0,3:0:0:0:
273,364,140343,1,0,1:0:0:0:
337,164,140514,2,0,L|322:280,1,87.5,10|0,0:0|3:0,0:0:0:0:
109,295,140857,6,0,P|68:281|48:243,1,87.5,2|0,3:2|1:0,0:0:0:0:
32,171,141114,1,2,0:0:0:0:
32,171,141200,2,0,L|19:90,1,43.75,10|0,0:0|0:0,0:0:0:0:
35,34,141372,2,0,P|42:100|50:165,1,131.25,2|0,3:2|3:0,0:0:0:0:
121,219,141714,1,0,1:0:0:0:
0,365,141886,2,0,P|36:326|105:330,1,87.5,8|0,0:0|3:0,0:0:0:0:
295,239,142229,5,2,1:2:0:0:
295,239,142400,1,0,1:0:0:0:
121,219,142572,2,0,P|207:231|294:239,1,175,8|2,0:0|3:2,0:0:0:0:
396,300,143086,1,2,1:2:0:0:
302,156,143257,1,10,0:0:0:0:
231,320,143429,6,0,P|172:338|125:329,1,87.5,2|0,3:2|3:0,0:0:0:0:
389,170,143772,2,0,P|438:180|483:213,1,87.5,2|8,1:2|0:0,0:0:0:0:
209,193,144114,1,2,3:2:0:0:
175,40,144286,5,2,3:2:0:0:
175,40,144457,1,2,1:2:0:0:
119,95,144629,2,0,P|104:79|97:58,1,43.75,10|0,0:0|3:0,0:0:0:0:
250,26,144801,2,0,P|251:51|222:92,1,43.75,0|0,1:0|0:0,0:0:0:0:
228,223,144972,6,0,P|240:266|242:309,1,87.5,4|2,1:2|0:0,0:0:0:0:
309,349,145486,1,0,1:0:0:0:
330,276,145657,1,10,0:0:0:0:
330,276,145829,2,0,P|357:263|379:264,1,43.75,0|0,1:0|0:0,0:0:0:0:
448,282,146172,2,0,P|466:292|479:310,2,43.75,0|0|2,1:0|0:0|3:2,0:0:0:0:
422,207,146686,5,0,1:0:0:0:
422,207,146857,1,2,1:2:0:0:
394,334,147029,2,0,P|415:272|422:207,1,131.25000500679,10|2,0:2|1:2,0:0:0:0:
351,108,147543,1,10,0:2:0:0:
228,82,147714,6,0,P|213:52|210:6,1,65.625,2|0,1:2|0:0,0:0:0:0:
208,20,148057,1,0,3:0:0:0:
293,33,148229,1,2,1:2:0:0:
142,77,148400,1,10,0:0:0:0:
142,77,148572,2,0,P|111:62|82:62,1,43.75,0|2,1:0|3:2,0:0:0:0:
30,94,148914,2,0,P|20:113|17:134,2,43.75,2|0|0,1:2|0:0|0:0,0:0:0:0:
174,162,149429,1,0,1:0:0:0:
174,162,149600,1,2,1:2:0:0:
157,241,149772,6,0,P|116:225|94:189,1,87.5,10|0,0:0|0:0,0:0:0:0:
274,198,150114,1,2,1:2:0:0:
273,198,150286,2,0,P|256:212|236:219,1,43.75,8|0,0:0|0:0,0:0:0:0:
143,330,150457,6,0,P|175:325|237:332,1,87.5,2|0,1:2|0:0,0:0:0:0:
300,296,150972,1,2,1:2:0:0:
295,373,151143,1,8,0:0:0:0:
300,296,151314,1,0,1:0:0:0:
364,248,151657,1,0,1:0:0:0:
442,251,152000,1,0,0:0:0:0:
442,251,152172,1,0,1:0:0:0:
509,293,152343,1,2,1:2:0:0:
509,293,152514,2,0,L|502:333,1,21.875,8|0,0:0|0:0,0:0:0:0:
405,87,152857,1,2,1:2:0:0:
405,87,153029,2,0,L|407:121,1,21.875,10|0,0:0|0:0,0:0:0:0:
473,146,153200,6,0,P|407:142|344:160,1,131.25,2|0,1:2|0:0,0:0:0:0:
345,160,153543,2,0,P|339:129|353:156,1,87.5,2|0,0:0|1:0,0:0:0:0:
113,185,153885,1,10,0:0:0:0:
203,162,154057,2,0,P|190:140|209:154,1,65.6250025033952,0|0,1:0|0:0,0:0:0:0:
101,276,154400,2,0,P|85:270|101:271,1,43.75,0|0,1:0|0:0,0:0:0:0:
173,238,154572,6,0,P|133:289|120:353,1,131.25,4|2,0:3|0:0,0:0:0:0:
120,353,155600,2,0,L|152:349,1,21.875,0|0,1:0|0:0,0:0:0:0:
216,337,155772,2,0,L|248:333,2,21.875,0|0|0,1:0|0:0|3:0,0:0:0:0:
43,368,156286,5,4,0:0:0:0:
216,337,156629,5,8,0:3:0:0:
236,291,156714,5,8,0:3:0:0:
208,248,156800,5,4,0:3:0:0:
156,243,156886,5,4,0:3:0:0:
119,204,156972,6,0,L|114:171,1,32.8125,8|0,0:0|0:0,0:0:0:0:
156,112,157314,5,4,1:3:0:0:
483,178,168286,5,8,0:3:0:0:
499,104,168457,1,4,0:3:0:0:
499,104,168972,5,4,0:3:0:0:
438,61,169143,1,8,0:3:0:0:
438,61,169657,6,0,B|331:7|217:46|247:67|97:92|35:29|35:29|83:23|94:18|94:18|158:122|338:170|417:134|417:134|332:89|240:102|110:175|62:284|62:284|4:252|8:185|49:187|27:123|-7:94|-7:94|44:131|110:138|110:138|150:204|192:244|192:244|245:318|428:305|475:269|475:269|472:239|446:205|446:205|379:228|304:221|250:204|250:204|210:221|148:268|133:314|133:314|165:320|182:339,1,2525.2499845871,2|0,0:0|0:0,0:0:0:0:
171,330,179257,6,0,B|250:315|212:334|309:318,1,131.25,2|0,1:2|3:0,0:0:0:0:
353,375,179943,2,0,B|339:296|358:334|342:237,1,131.25,2|0,1:2|3:0,0:0:0:0:
401,198,180629,2,0,B|323:212|361:193|264:209,1,131.25,2|0,1:2|3:0,0:0:0:0:
204,166,181314,6,0,P|205:140|214:94,1,65.625,2|0,1:2|3:0,0:0:0:0:
212,101,181657,2,0,P|211:126|202:173,1,65.625,2|0,1:2|3:0,0:0:0:0:
204,165,182000,6,0,B|277:149|261:170|341:153,1,131.25,2|0,1:2|3:0,0:0:0:0:
375,89,182686,2,0,B|391:161|370:145|387:225,1,131.25,2|0,1:2|3:0,0:0:0:0:
451,260,183372,2,0,B|379:275|395:254|315:271,1,131.25,2|0,1:2|3:0,0:0:0:0:
256,319,184057,6,0,P|257:345|266:391,1,65.625,2|0,1:2|3:0,0:0:0:0:
264,384,184400,2,0,P|263:359|254:312,1,65.625,2|0,1:2|3:0,0:0:0:0:
255,319,184743,6,0,P|223:310|191:304,1,65.625,2|0,1:2|0:0,0:0:0:0:
116,287,185086,2,0,P|120:320|122:353,1,65.625,2|0,1:2|0:0,0:0:0:0:
48,237,185429,2,0,P|79:225|108:211,1,65.625,2|0,1:2|0:0,0:0:0:0:
174,176,185772,2,0,P|152:152|132:127,1,65.625,2|0,1:2|0:0,0:0:0:0:
238,86,186114,6,0,L|244:118,1,32.8125012516976,2|0,1:2|0:0,0:0:0:0:
277,298,186286,2,0,L|272:265,1,32.8125012516976,2|0,1:2|0:0,0:0:0:0:
377,169,186457,6,0,L|335:177,1,43.75,2|0,1:2|0:0,0:0:0:0:
135,218,186629,2,0,L|178:209,1,43.75,2|0,1:2|0:0,0:0:0:0:
256,192,186800,5,2,1:2:0:0:
241,187,186886,1,2,1:2:0:0:
222,195,186972,1,2,1:2:0:0:
216,218,187057,1,2,1:2:0:0:
242,253,187143,1,2,1:2:0:0:
297,250,187229,1,2,1:2:0:0:
331,205,187314,1,2,1:2:0:0:
322,147,187400,1,2,1:2:0:0:
256,112,187486,5,4,1:3:0:0:
256,112,188857,6,0,B|279:104|279:104|236:94|236:94|250:107,1,87.5,2|0,0:0|0:0,0:0:0:0:
369,163,189200,5,8,0:3:0:0:
312,178,189285,5,8,0:3:0:0:
255,193,189371,5,4,0:3:0:0:
198,208,189457,5,4,0:3:0:0:
141,223,189543,6,0,B|134:208|119:199|108:211|49:192|79:121|129:133|136:163,1,131.25,2|0,0:0|0:0,0:0:0:0:
141,223,189886,2,0,B|141:206|151:192|166:198|212:157|156:104|115:135|121:166,1,131.25,2|0,0:0|0:0,0:0:0:0:
125,302,190229,6,0,P|131:171|175:48,1,262.5,6|2,1:2|3:2,0:1:0:0:
175,48,190914,2,0,B|193:37|193:37|234:50|239:93,1,87.5,8|0,0:0|3:2,0:0:0:0:
212,182,191257,1,0,3:0:0:0:
45,243,191429,1,2,3:2:0:0:
127,305,191600,6,0,P|122:237|74:117,2,175,0|0|8,1:0|1:0|0:0,0:0:0:0:
269,329,192457,1,0,3:0:0:0:
127,305,192629,2,0,P|174:302|215:248,1,87.5,2|2,0:0|3:2,0:1:0:0:
371,186,192972,5,2,1:2:0:0:
351,109,193143,1,2,3:2:0:0:
295,165,193314,1,2,3:2:0:0:
371,186,193486,1,2,3:2:0:0:
351,109,193657,2,0,P|352:62|378:16,1,87.5,8|0,0:0|3:0,0:0:0:0:
480,165,194000,2,0,P|501:202|501:246,1,87.5,2|2,3:2|3:2,0:0:0:0:
449,301,194257,1,0,3:0:0:0:
449,301,194343,6,0,L|328:281,1,87.5,0|0,1:0|3:0,0:0:0:0:
309,344,194600,2,0,P|263:301|170:306,1,131.25,0|2,1:0|1:2,0:0:0:0:
55,199,195029,2,0,L|37:100,1,87.5,8|0,0:0|3:0,0:0:0:0:
55,199,195372,2,0,L|70:285,1,87.5,2|2,1:2|3:2,0:0:0:0:
55,199,195714,6,0,B|115:186|81:204|160:185,1,87.5,2|2,1:2|3:2,0:0:0:0:
215,141,196057,1,2,3:2:0:0:
138,103,196229,1,2,3:2:0:0:
141,189,196400,2,0,P|167:128|271:86,1,175,8|2,0:0|3:2,0:0:0:0:
341,105,196914,1,2,3:2:0:0:
368,268,197086,6,0,P|284:282|217:229,2,175,0|0|8,1:0|1:0|0:0,0:0:0:0:
437,152,197943,1,0,3:0:0:0:
368,268,198114,2,0,L|360:180,1,87.5,2|2,0:0|3:2,0:1:0:0:
202,32,198457,5,2,1:2:0:0:
225,106,198628,1,2,3:2:0:0:
278,48,198800,1,2,3:2:0:0:
202,32,198972,1,2,1:2:0:0:
225,106,199143,2,0,P|264:124|307:119,1,87.5,8|0,0:0|3:0,0:0:0:0:
98,158,199486,2,0,P|76:194|76:238,1,87.5,2|2,3:2|3:2,0:0:0:0:
236,259,199829,5,0,1:0:0:0:
75,238,200000,2,0,P|114:218|158:217,1,87.5,8|2,0:0|3:2,0:0:0:0:
298,327,200343,1,2,1:2:0:0:
298,327,200514,2,0,L|303:361,6,21.875,8|0|0|0|0|0|0,0:0|0:0|0:0|0:0|0:0|0:0|0:0,0:0:0:0:
298,327,200857,2,0,P|336:347|379:346,1,87.5,0|10,1:0|0:0,0:0:0:0:
498,214,201200,6,0,L|493:163,1,43.75,6|0,1:2|0:0,0:0:0:0:
435,257,201372,2,0,L|452:208,1,43.75,2|0,0:0|0:0,0:0:0:0:
359,269,201543,2,0,L|394:232,1,43.75,2|0,0:0|0:0,0:0:0:0:
346,173,201714,1,2,0:0:0:0:
254,103,201886,2,0,B|212:91|212:91|171:116,1,87.5,8|0,0:0|0:0,0:1:0:0:
187,190,202229,2,0,B|229:202|229:202|270:177,1,87.5,0|2,3:0|3:2,0:0:0:0:
266,179,202572,6,0,L|277:-3,2,175,0|0|8,1:0|1:0|0:0,0:0:0:0:
165,313,203429,1,2,0:0:0:0:
85,274,203600,2,0,L|70:186,1,87.5,2|2,3:2|3:2,0:0:0:0:
33,54,203943,6,0,L|24:104,1,43.75,2|0,1:2|0:0,0:0:0:0:
104,28,204115,2,0,L|75:70,1,43.75,2|0,3:2|0:0,0:0:0:0:
181,36,204286,2,0,L|136:62,1,43.75,2|0,3:2|0:0,0:0:0:0:
124,131,204457,1,2,3:2:0:0:
252,88,204629,2,0,B|316:78|316:78|335:89,1,87.5,8|0,0:0|0:0,0:0:0:0:
389,162,204972,2,0,B|325:172|325:172|305:160,1,87.5,0|2,3:0|3:2,0:0:0:0:
439,13,205314,6,0,L|433:100,1,87.5,0|0,1:0|3:0,0:0:0:0:
389,162,205572,2,0,B|417:191|417:191|432:302,1,131.25,0|0,1:0|1:0,0:0:0:0:
276,322,206000,2,0,B|227:310|227:310|265:340,1,87.5,8|0,0:0|0:0,0:0:0:0:
257,333,206343,2,0,P|204:331|118:349,1,131.25,0|0,1:0|0:0,0:0:0:0:
61,307,206686,6,0,P|60:243|141:269,1,175,2|0,1:2|1:0,0:0:0:0:
444,162,208057,2,0,P|445:98|364:124,1,175,0|0,1:0|1:0,0:0:0:0:
365,122,209429,5,2,1:2:0:0:
284,116,209600,1,2,1:2:0:0:
195,136,209772,1,0,1:2:0:0:
119,192,209943,1,2,1:2:0:0:
60,285,210114,5,0,1:0:0:0:
55,298,210200,1,0,1:0:0:0:
55,313,210286,1,0,1:0:0:0:
42,300,210372,1,0,1:0:0:0:
36,270,210457,1,0,1:0:0:0:
46,235,210543,1,0,1:0:0:0:
74,205,210629,1,0,1:0:0:0:
119,192,210714,1,0,1:0:0:0:
189,213,210800,6,2,B|167:234|155:266|155:266|184:1,1,306.25,2|0,1:2|0:0,0:1:0:0:
181,24,211486,5,8,0:3:0:0:
204,69,211572,5,8,0:3:0:0:
241,92,211657,5,4,0:3:0:0:
290,93,211743,5,4,0:3:0:0:
330,72,211829,6,0,L|387:62,2,58.3333333333333,8|0|0,1:2|1:0|1:0,0:0:0:0:
127,102,212172,5,4,1:2:0:0:
127,102,212686,2,0,B|146:214|146:214|154:259|207:249|201:223,1,196.875007510186,2|0,0:0|0:0,0:0:0:0:
278,194,213543,1,2,0:0:0:0:
278,194,214057,2,0,B|330:183|371:230|329:256|378:308|440:291,1,196.875007510186,2|0,0:0|0:0,0:0:0:0:
472,230,214914,1,2,0:0:0:0:
472,230,215429,2,0,L|255:273,1,196.875007510186,2|0,0:0|0:0,0:0:0:0:
217,330,216286,1,2,0:0:0:0:
217,330,216800,2,0,B|172:322|177:282|177:282|183:228|183:228|189:182|141:177,1,196.875007510186,2|0,0:0|0:0,0:0:0:0:
29,78,217657,6,0,P|64:40|146:57,1,131.25000500679,2|0,0:0|0:0,0:0:0:0:
214,55,218172,2,0,B|209:87|188:110|188:110|344:82,1,196.875007510186,2|0,0:0|0:0,0:0:0:0:
441,21,219029,2,0,B|417:56|417:56|429:143,1,131.25000500679,2|0,0:0|0:0,0:0:0:0:
470,206,219543,2,0,B|493:197|501:167|501:167|517:258|429:273,1,196.875007510186,2|0,0:0|0:0,0:0:0:0:
319,227,220400,2,0,B|252:214|254:262|183:248,1,131.25000500679,2|0,0:0|0:0,0:0:0:0:
255,317,220914,2,0,L|255:120,1,196.875007510186,2|0,0:0|0:0,0:0:0:0:
337,60,221772,2,0,B|290:56|255:10|255:10|223:57|177:62,1,196.875007510186,2|2,0:0|0:0,0:0:0:0:
176,62,222629,2,0,P|170:43|159:14,2,43.75,2|0|2,0:0|0:0|0:0,0:0:0:0:
133,127,223143,5,6,0:0:0:0:
52,342,234114,6,0,P|29:311|39:267,1,65.6250025033952,2|0,0:0|0:0,0:0:0:0:
96,250,234372,1,0,0:0:0:0:
96,250,234457,2,0,P|100:214|124:188,1,65.6250025033952
119,192,234800,5,2,0:0:0:0:
176,250,234972,1,2,0:0:0:0:
252,265,235143,1,2,0:0:0:0:
325,241,235314,2,0,B|357:208|404:221|404:221|416:281,2,131.25000500679,2|2|2,0:0|0:0|0:0,0:0:0:0:
325,241,236343,2,0,L|333:163,1,65.6250025033952,2|2,0:0|0:0,0:0:0:0:
275,124,236686,1,0,0:0:0:0:
379,63,236857,6,0,B|299:67|332:46|234:48,1,131.25000500679,2|2,0:0|0:0,0:0:0:0:
175,34,237372,1,2,0:0:0:0:
101,63,237543,1,2,0:0:0:0:
68,130,237714,2,0,L|79:206,1,65.6250025033952,0|2,0:0|0:0,0:0:0:0:
43,278,238057,2,0,P|71:241|162:235,1,131.25000500679,2|0,0:0|0:0,0:0:0:0:
280,229,238572,1,2,0:0:0:0:
185,160,238743,2,0,P|231:165|281:241,1,131.25000500679,2|2,0:0|0:0,0:0:0:0:
347,268,239257,2,0,L|434:258,1,65.6250025033952,2|0,0:0|0:0,0:0:0:0:
413,339,239600,6,0,B|400:273|444:236|470:287|607:147|407:58|298:136|365:257|419:262,1,393.750015020371,2|0,0:0|0:0,0:0:0:0:
488,322,240972,2,0,B|352:222|184:253|184:253|192:213|157:172,1,393.750015020371,2|0,0:0|0:0,0:0:0:0:
106,237,242343,2,0,B|-2:175|57:29|160:35|160:35|159:38|159:38|227:31|285:95|260:168,1,481.25,2|0,0:0|0:0,0:0:0:0:
262,160,245086,6,0,B|324:155|392:126|392:126|406:213|450:299,1,262.500010013581,6|8,1:2|0:0,0:0:0:0:
372,352,245600,1,2,3:2:0:0:
372,352,245686,1,0,3:0:0:0:
372,352,245772,1,2,3:2:0:0:
333,236,245943,1,2,1:2:0:0:
462,327,246114,1,10,0:0:0:0:
281,308,246286,6,0,P|219:287|154:285,1,131.25,2|0,3:2|3:0,0:0:0:0:
97,334,246629,2,0,P|84:317|79:296,1,43.75,2|0,1:2|0:0,0:0:0:0:
158,158,246800,1,8,0:0:0:0:
10,225,246972,2,0,P|53:221|95:206,1,87.5,2|0,3:2|3:0,0:0:0:0:
239,145,247314,1,2,1:2:0:0:
239,145,247400,1,0,1:0:0:0:
239,145,247486,2,0,P|213:88|171:84,1,87.5,10|2,0:0|3:2,0:0:0:0:
53,52,247829,5,2,1:2:0:0:
131,35,248000,1,0,1:0:0:0:
194,82,248172,5,10,0:0:0:0:
272,65,248343,1,2,3:2:0:0:
346,109,248514,5,2,3:2:0:0:
346,109,248600,1,0,3:0:0:0:
346,109,248686,2,0,L|338:160,1,43.75,2|0,1:2|0:0,0:0:0:0:
424,92,248857,2,0,L|416:143,1,43.75,10|0,0:0|0:0,0:0:0:0:
367,25,249029,6,2,P|386:122|392:220,1,196.875007510186,2|0,1:2|0:0,0:1:0:0:
390,295,249372,2,2,P|358:291|335:268,1,65.6250025033952,2|0,1:2|0:0,0:1:0:0:
98,243,249714,2,2,B|148:263|207:228|213:178|213:178|146:150,1,196.875007510186,2|0,1:2|0:0,0:1:0:0:
171,160,250057,5,2,1:2:0:0:
138,125,250143,1,0,1:0:0:0:
145,81,250229,1,8,0:0:0:0:
222,101,250400,1,2,3:2:0:0:
37,200,250572,6,0,B|83:182|122:210|109:222|152:259|202:237,1,175,6|8,1:2|0:0,0:0:0:0:
293,154,251086,2,0,P|303:116|301:59,1,87.5,2|0,3:2|3:0,0:0:0:0:
414,234,251429,2,0,P|400:204|404:160,1,43.75,2|0,1:2|0:0,0:0:0:0:
426,119,251600,1,10,0:0:0:0:
318,237,251772,1,2,3:2:0:0:
489,170,251943,6,0,P|508:131|500:88,1,87.5,0|0,3:0|1:0,0:0:0:0:
386,40,252286,1,8,0:0:0:0:
398,193,252457,2,0,P|469:209|483:276,1,131.25,2|0,3:2|3:0,0:0:0:0:
444,325,252800,1,0,1:0:0:0:
444,325,252886,1,0,1:0:0:0:
444,325,252972,2,0,P|399:326|357:339,1,87.5,10|0,0:0|0:0,0:0:0:0:
227,224,253314,6,0,P|259:195|302:198,1,87.5,2|0,1:2|1:0,0:0:0:0:
267,369,253657,2,0,P|227:355|208:317,1,87.5,10|0,0:0|3:0,0:0:0:0:
373,261,253999,1,2,3:2:0:0:
373,261,254171,2,0,P|382:302|359:338,1,87.5,0|8,1:0|0:0,0:0:0:0:
142,255,254514,2,0,B|124:165|191:175|166:80,1,175,2|2,3:2|1:2,0:0:0:0:
5,38,255029,1,10,0:0:0:0:
101,20,255200,5,2,3:2:0:0:
66,115,255372,2,0,P|70:148|84:171,1,43.75,0|0,3:0|3:0,0:0:0:0:
93,230,255543,1,2,1:2:0:0:
48,231,255629,1,0,1:0:0:0:
16,203,255714,1,10,0:0:0:0:
146,122,255886,1,2,3:2:0:0:
16,203,256057,6,0,B|36:177|36:177|127:196|127:196|128:200|128:200|223:221|223:221|247:194,1,262.500010013581,6|8,1:2|0:0,0:0:0:0:
339,95,256572,1,0,3:0:0:0:
339,95,256657,1,0,3:0:0:0:
339,95,256743,1,2,3:2:0:0:
366,285,256914,1,2,1:2:0:0:
452,171,257086,1,10,0:0:0:0:
246,194,257257,6,0,L|252:86,1,87.5,2|0,3:2|3:0,0:0:0:0:
134,284,257600,2,0,L|125:211,1,43.75,2|0,1:2|0:0,0:0:0:0:
62,195,257772,1,8,0:0:0:0:
108,362,257943,2,0,P|151:314|215:305,1,131.25,2|0,3:2|3:0,0:0:0:0:
293,340,258286,1,2,1:2:0:0:
293,340,258372,1,0,1:0:0:0:
293,340,258457,2,0,P|345:332|369:283,1,87.5,10|2,0:0|3:2,0:0:0:0:
497,227,258800,5,2,1:2:0:0:
484,301,258972,1,0,1:0:0:0:
403,128,259143,5,10,0:0:0:0:
421,205,259314,1,2,3:2:0:0:
291,70,259486,5,2,3:2:0:0:
291,70,259572,1,0,3:0:0:0:
291,70,259657,2,0,L|220:92,1,43.75,2|0,1:2|0:0,0:0:0:0:
326,140,259829,2,0,L|267:157,1,43.75,10|0,0:0|0:0,0:0:0:0:
403,128,260000,6,2,B|282:106|282:106|274:99|274:99|145:74,1,262.5,2|0,1:2|3:0,0:1:0:0:
159,153,260343,2,2,B|202:131|202:131|177:-27,1,175,2|8,1:2|0:0,0:1:0:0:
38,262,260686,2,2,B|8:295|14:330|14:330|82:229|189:253,1,262.5,2|0,1:2|3:0,0:1:0:0:
171,249,261029,5,2,1:2:0:0:
218,269,261114,1,0,1:0:0:0:
238,307,261200,1,10,0:0:0:0:
163,333,261372,1,2,3:2:0:0:
302,252,261543,5,0,1:0:0:0:
302,252,261714,2,0,P|355:258|385:296,1,87.5,0|0,1:2|1:0,0:0:0:0:
318,330,262229,1,8,0:0:0:0:
335,172,262572,5,0,1:0:0:0:
335,172,262743,2,0,P|367:129|415:122,1,87.5,0|0,1:0|1:0,0:0:0:0:
410,197,263258,1,8,0:0:0:0:
280,105,263600,6,0,P|268:87|264:66,1,43.75,2|2,1:2|1:2,0:0:0:0:
340,57,263943,1,10,0:2:0:0:
199,123,264114,1,2,0:3:0:0:
150,57,264286,5,0,1:0:0:0:
150,57,264457,2,0,P|97:25|57:33,1,87.5,0|0,1:0|1:0,0:0:0:0:
89,104,264972,1,8,0:0:0:0:
57,203,265314,5,0,1:0:0:0:
57,203,265486,2,0,P|43:169|2:150,1,65.625,0|0,1:0|0:0,0:0:0:0:
19,153,265829,1,0,1:0:0:0:
13,269,266000,6,0,P|70:237|135:231,1,131.25000500679,8|0,0:0|0:0,0:0:0:0:
135,231,267029,6,0,B|163:237|180:257|180:257|131:192|177:92|310:97|349:175|317:229|269:255|224:199,1,393.750015020371,4|0,1:2|0:0,0:0:0:0:
85,133,267714,1,10,0:0:0:0:
85,133,267886,2,0,P|237:191|400:198,1,328.125012516976,2|0,1:2|0:0,0:1:0:0:
471,224,268400,6,0,P|461:243|445:258,3,43.75,2|0|0|0,3:2|3:0|3:0|3:0,0:0:0:0:
392,316,268743,2,0,P|372:307|350:305,1,43.75,2|0,3:2|0:0,0:0:0:0:
363,279,268914,2,0,P|342:279|322:288,1,43.75,0|0,1:0|0:0,0:0:0:0:
266,340,269086,6,0,L|162:351,1,87.5,10|2,0:0|0:0,0:0:0:0:
22,281,269429,2,0,L|109:290,1,87.5,2|10,1:2|3:2,0:0:0:0:
109,291,269686,1,0,3:0:0:0:
109,291,269772,5,2,1:2:0:0:
178,349,269943,2,0,B|167:272|155:309|144:222,1,131.25,2|0,1:2|0:0,0:0:0:0:
145,222,270286,1,2,1:2:0:0:
186,126,270457,5,8,0:0:0:0:
110,120,270629,2,0,P|89:128|74:144,1,43.75,2|0,1:2|0:0,0:1:0:0:
274,115,270800,5,0,3:0:0:0:
223,57,270972,2,0,P|203:47|181:48,1,43.75,2|0,1:2|0:0,0:1:0:0:
345,168,271143,5,0,3:0:0:0:
347,91,271315,2,2,P|339:70|323:55,1,43.75,2|0,1:2|0:0,0:1:0:0:
344,168,271486,6,2,P|385:152|429:149,1,87.5,0|0,1:0|3:1,0:1:0:0:
300,301,271829,2,0,P|259:284|216:279,1,87.5,10|0,0:0|1:0,0:0:0:0:
176,297,272086,1,0,1:0:0:0:
135,280,272172,1,0,1:0:0:0:
130,236,272257,1,0,1:0:0:0:
160,204,272343,1,8,0:0:0:0:
232,144,272514,6,0,L|237:56,1,87.5,4|2,1:2|3:2,0:0:0:0:
219,31,272772,1,2,3:2:0:0:
219,31,272857,1,2,3:2:0:0:
184,23,272943,1,2,3:2:0:0:
151,31,273029,1,2,3:2:0:0:
129,57,273114,1,2,3:2:0:0:
124,91,273200,2,0,P|79:99|37:100,1,87.5,10|2,0:0|1:2,0:0:0:0:
232,144,273543,1,0,3:0:0:0:
37,100,273714,6,2,B|17:79|37:56|121:69|134:158|76:206,1,196.875007510186,2|0,1:2|0:0,0:1:0:0:
83,198,274057,1,2,3:2:0:0:
75,289,274229,1,2,3:2:0:0:
150,335,274400,2,0,L|206:330,1,43.75,0|0,1:0|3:0,0:0:0:0:
244,270,274572,6,2,P|302:274|333:327,1,87.5,10|2,0:0|0:0,0:1:0:0:
401,186,274914,1,2,1:2:0:0:
414,345,275086,1,10,0:0:0:0:
420,103,275257,6,0,P|362:107|331:160,1,87.5,2|2,1:0|3:2,0:0:0:0:
292,184,275514,2,0,P|262:184|246:176,2,43.75,2|2|2,1:2|3:2|3:2,0:0:0:0:
198,125,275772,2,0,L|186:62,1,43.75,2|0,1:2|0:0,0:0:0:0:
277,27,275943,5,10,0:0:0:0:
87,56,276114,1,2,1:2:0:0:
116,136,276286,5,2,3:2:0:0:
279,110,276457,1,2,1:2:0:0:
426,234,276629,6,0,B|445:254|445:254|434:337,1,87.5,2|2,1:2|3:2,0:0:0:0:
152,356,276972,2,0,B|129:332|129:332|139:256,1,109.375,2|2,1:2|3:2,0:0:0:0:
139,256,277314,6,0,L|232:279,1,65.6250025033952,0|0,1:0|0:0,0:0:0:0:
266,221,277486,2,0,L|361:200,1,65.6250025033952,0|0,1:0|0:0,0:0:0:0:
366,330,277657,2,0,B|413:359|492:307|465:222|465:222|444:238|421:234,1,229.687502190471,8|0,0:0|0:0,0:0:0:0:
420,162,278000,6,2,B|410:279|234:319|109:125|283:-6|372:148|327:210,1,459.375017523766,6|0,1:2|0:0,0:1:0:0:
263,266,278686,2,0,P|267:301|269:309,1,43.75,8|0,0:0|0:0,0:0:0:0:
233,303,278857,2,0,P|248:329|274:349,1,43.75,0|0,1:0|0:0,0:1:0:0:
166,262,279029,2,0,P|170:226|172:218,1,43.75,0|0,3:0|3:0,0:0:0:0:
136,225,279200,2,0,P|151:199|177:179,1,43.75,2|0,1:2|0:0,0:0:0:0:
216,137,279372,5,2,3:2:0:0:
223,89,279457,1,2,3:2:0:0:
197,51,279543,1,2,3:2:0:0:
99,102,279714,2,0,L|142:108,3,43.75,2|2|2|2,3:2|3:2|1:2|3:2,0:0:0:0:
216,137,280057,6,0,B|303:121|281:149|372:133,1,131.25000500679,10|0,0:0|0:0,0:1:0:0:
486,169,280400,2,0,B|461:184|461:184|421:144|464:81,1,131.25000500679,0|8,1:0|0:0,0:0:0:0:
458,91,280743,6,2,B|484:217|484:217|459:302,1,196.875007510186,2|0,1:2|3:0,0:1:0:0:
464,282,281086,2,0,L|399:270,1,43.75,2|0,1:2|0:0,0:0:0:0:
384,246,281257,2,0,L|373:319,1,43.75,0|0,1:0|0:0,0:0:0:0:
320,340,281429,6,2,L|205:358,1,87.5,10|2,0:0|1:2,0:1:0:0:
233,353,281686,1,2,1:2:0:0:
233,353,281772,1,2,3:2:0:0:
351,367,281943,6,2,L|327:163,1,175,2|0,1:2|1:0,0:1:0:0:
304,22,282457,1,2,1:2:0:0:
304,22,282800,2,0,B|324:53|313:81|305:62|294:111|323:133|353:108|341:83,1,131.25000500679,8|0,0:0|1:0,0:0:0:0:
330,193,283143,6,0,P|280:175|229:185,1,65.6250025033952,0|0,1:0|1:0,0:0:0:0:
159,206,283314,1,8,0:0:0:0:
92,157,283486,6,0,B|132:122|112:13|112:13|136:121|209:139,1,306.25,0|0,1:0|3:0,0:0:0:0:
159,206,284172,1,2,1:2:0:0:
159,206,284514,2,0,P|170:241|167:285,3,43.75,0|0|0|0,3:0|3:0|3:0|3:0,0:0:0:0:
97,311,284857,6,0,P|249:254|412:258,1,328.125,2|0,1:2|3:0,0:0:0:0:
462,319,285543,2,0,P|287:236|191:68,1,393.750015020371,2|0,1:2|3:0,0:0:0:0:
236,1,286229,6,0,P|261:21|269:52,3,65.6250025033952,2|2|2|2,1:2|3:2|3:2|3:2,0:0:0:0:
339,89,286572,2,0,P|337:116|324:139,3,54.6875,2|2|2|2,1:2|3:2|3:2|3:2,0:0:0:0:
191,68,286914,5,2,1:2:0:0:
156,62,287000,1,2,3:2:0:0:
126,80,287086,1,2,3:2:0:0:
118,114,287172,1,2,3:2:0:0:
141,160,287257,5,2,1:2:0:0:
133,194,287343,1,2,3:2:0:0:
103,212,287429,1,2,3:2:0:0:
68,206,287515,1,2,3:2:0:0:
42,169,287600,6,0,L|30:95,2,58.3333333333333,2|0|0,1:0|1:0|1:0,0:0:0:0:
183,256,287943,6,0,L|175:340,2,72.9166666666667,0|0|0,1:0|1:0|1:0,0:0:0:0:
323,139,288286,6,0,L|309:32,2,87.5000033378602,0|0|0,1:0|1:0|1:0,0:0:0:0:
487,264,288629,5,4,1:0:0:0:
