osu file format v14

[General]
AudioFilename: audio.mp3
AudioLeadIn: 0
PreviewTime: 244143
Countdown: 0
SampleSet: Soft
StackLeniency: 0.3
Mode: 0
LetterboxInBreaks: 0
WidescreenStoryboard: 1

[Editor]
DistanceSpacing: 0.7
BeatDivisor: 4
GridSize: 4
TimelineZoom: 2.599999

[Metadata]
Title:Aquila
TitleUnicode:Aquila
Artist:EVO+
ArtistUnicode:EVO+
Creator:Bellicose
Version:Sunazuka Akira's Neglection
Source:
Tags:toybot vikala rage quit Sunazuka Akira necho japanese rock electronic drum and bass dnb evolution NaturaLe Treow
BeatmapID:3099281
BeatmapSetID:1107531

[Difficulty]
HPDrainRate:6
CircleSize:4.5
OverallDifficulty:8.5
ApproachRate:9.3
SliderMultiplier:1.8
SliderTickRate:1

[Events]
//Background and Video events
0,0,"bg13413431.jpg",0,0
//Break Periods
2,34086,43618
2,157514,167732
2,223343,233560
//Storyboard Layer 0 (Background)
//Storyboard Layer 1 (Fail)
//Storyboard Layer 2 (Pass)
//Storyboard Layer 3 (Foreground)
//Storyboard Layer 4 (Overlay)
//Storyboard Sound Samples

[TimingPoints]
972,342.857142857143,4,2,4,45,1,0
2514,-117.647058823529,4,2,4,45,0,0
2686,-100,4,2,4,45,0,0
11600,-100,4,2,7,60,0,0
11943,-80,4,2,1,65,0,0
14343,-80,4,2,4,65,0,0
14686,-80,4,2,1,65,0,0
17429,-71.4285714285714,4,2,1,65,0,0
20857,-71.4285714285714,4,2,1,45,0,0
21200,-71.4285714285714,4,2,1,50,0,0
22229,-71.4285714285714,4,2,1,60,0,0
22914,-51.2820512820513,4,2,1,70,0,0
23429,-45.4545454545455,4,2,1,70,0,0
25314,-55.5555555555556,4,2,1,70,0,0
25657,-51.2820512820513,4,2,1,70,0,0
26000,-45.4545454545455,4,2,1,70,0,0
27372,-42.5531914893617,4,2,1,70,0,0
28057,-55.5555555555556,4,2,1,70,0,0
28400,-51.2820512820513,4,2,1,70,0,0
28914,-45.4545454545455,4,2,1,70,0,0
31143,-51.2820512820513,4,2,1,70,0,0
31657,-45.4545454545455,4,2,1,70,0,0
32343,-62.5,4,2,1,70,0,0
33543,-62.5,4,2,1,60,0,0
33886,-125,4,2,1,60,0,0
44172,-125,4,2,1,55,0,0
44857,-100,4,2,1,50,0,0
45543,-71.4285714285714,4,2,1,50,0,0
45886,-100,4,2,1,50,0,0
46914,-71.4285714285714,4,2,1,50,0,0
47257,-100,4,2,1,50,0,0
48800,-71.4285714285714,4,2,1,50,0,0
50000,-100,4,2,1,50,0,0
50343,-71.4285714285714,4,2,1,50,0,0
51200,-100,4,2,1,50,0,0
52400,-71.4285714285714,4,2,1,50,0,0
53772,-100,4,2,1,50,0,0
54286,-66.6666666666667,4,2,1,60,0,0
54543,-66.6666666666667,4,2,1,5,0,0
54629,-79.9999999999999,4,2,1,60,0,0
54886,-79.9999999999999,4,2,1,5,0,0
54972,-66.6666666666667,4,2,1,65,0,0
55229,-66.6666666666667,4,2,1,5,0,0
55314,-66.6666666666667,4,2,1,70,0,0
55829,-50,4,2,1,75,0,0
56172,-58.8235294117647,4,2,1,75,0,0
56343,-50,4,2,1,75,0,0
57029,-58.8235294117647,4,2,1,75,0,0
57372,-50,4,2,1,75,0,0
58057,-58.8235294117647,4,2,1,75,0,0
58229,-50,4,2,1,75,0,0
58572,-44.4444444444445,4,2,1,75,0,0
59086,-50,4,2,1,75,0,0
59772,-58.8235294117647,4,2,1,75,0,0
60114,-50,4,2,1,75,0,0
60972,-40,4,2,1,75,0,0
61314,-50,4,2,1,75,0,0
61657,-58.8235294117647,4,2,1,75,0,0
61829,-50,4,2,1,75,0,0
62514,-58.8235294117647,4,2,1,75,0,0
62857,-50,4,2,1,75,0,0
63714,-71.4285714285714,4,2,1,75,0,0
64057,-50,4,2,1,75,0,0
64572,-58.8235294117647,4,2,1,75,0,0
64914,-50,4,2,1,75,0,0
65429,-100,4,2,1,70,0,0
66286,-66.6666666666667,4,2,1,50,0,0
66800,-100,4,2,1,50,0,0
68000,-74.0740740740741,4,2,1,50,0,0
68343,-100,4,2,1,50,0,0
69543,-74.0740740740741,4,2,1,50,0,0
70229,-66.6666666666667,4,2,1,50,0,0
70914,-100,4,2,1,50,0,0
71600,-74.0740740740741,4,2,1,50,0,0
72286,-100,4,2,1,50,0,0
73486,-74.0740740740741,4,2,1,50,0,0
75372,-100,4,2,1,50,0,0
75714,-66.6666666666667,4,2,1,50,0,0
75886,-74.0740740740741,4,2,1,50,0,0
76400,-166.666666666667,4,2,1,40,0,0
78457,-166.666666666667,4,2,1,60,0,0
78800,-66.6666666666667,4,2,1,70,0,0
79143,-46.5116279069767,4,2,1,75,0,0
79486,-62.5,4,2,1,75,0,0
79829,-55.5555555555556,4,2,1,75,0,0
80343,-46.5116279069767,4,2,1,75,0,0
81029,-62.5,4,2,1,75,0,0
81886,-50,4,2,1,75,0,0
83086,-55.5555555555556,4,2,1,75,0,0
84457,-62.5,4,2,1,75,0,0
84629,-46.5116279069767,4,2,1,75,0,0
84972,-62.5,4,2,1,75,0,0
85314,-55.5555555555556,4,2,1,75,0,0
85829,-46.5116279069767,4,2,1,75,0,0
86172,-62.5,4,2,1,75,0,0
86514,-55.5555555555556,4,2,1,75,0,0
87200,-62.5,4,2,1,75,0,0
87372,-50,4,2,1,75,0,0
88057,-62.5,4,2,1,75,0,0
88400,-55.5555555555556,4,2,1,75,0,0
88743,-50,4,2,1,75,0,0
90114,-46.5116279069767,4,2,1,75,0,0
90457,-62.5,4,2,1,75,0,0
90800,-55.5555555555556,4,2,1,75,0,0
91314,-46.5116279069767,4,2,1,75,0,0
91999,-62.5,4,2,1,75,0,0
92857,-50,4,2,1,75,0,0
94057,-55.5555555555556,4,2,1,75,0,0
95257,-62.5,4,2,1,75,0,0
95600,-100,4,2,1,70,0,0
96972,-100,4,2,4,70,0,0
97143,-100,4,2,1,70,0,0
99714,-100,4,2,4,70,0,0
99886,-100,4,2,1,70,0,0
100400,-100,4,2,1,50,0,0
101086,-43.4782608695652,4,2,1,60,0,0
101772,-50,4,2,1,60,0,0
103829,-43.4782608695652,4,2,1,60,0,0
105200,-100,4,2,1,60,0,0
107257,-43.4782608695652,4,2,1,60,0,0
107943,-50,4,2,1,60,0,0
112057,-100,4,2,1,60,0,0
112143,-100,4,2,1,5,0,0
114800,-100,4,2,1,15,0,0
120286,-125,4,2,1,35,0,0
121657,-125,4,2,1,45,0,0
122172,-125,4,2,1,60,0,0
122514,-125,4,2,1,55,0,0
122686,-125,4,2,1,50,0,0
123029,-50,4,2,1,55,0,0
123543,-55.5555555555556,4,2,1,55,0,0
123886,-71.4285714285714,4,2,1,55,0,0
124914,-55.5555555555556,4,2,1,55,0,0
125772,-62.5,4,2,1,55,0,0
126114,-62.5,4,2,1,55,0,0
127143,-55.5555555555556,4,2,1,55,0,0
128000,-62.5,4,2,1,55,0,0
128172,-55.5555555555556,4,2,1,55,0,0
130400,-62.5,4,2,1,55,0,0
131257,-55.5555555555556,4,2,1,55,0,0
132457,-62.5,4,2,1,55,0,0
133143,-50,4,2,1,60,0,0
134000,-50,4,2,1,55,0,0
134514,-55.5555555555556,4,2,1,55,0,0
134857,-71.4285714285714,4,2,1,55,0,0
135886,-55.5555555555556,4,2,1,55,0,0
136743,-62.5,4,2,1,55,0,0
137086,-62.5,4,2,1,55,0,0
138114,-55.5555555555556,4,2,1,55,0,0
138972,-62.5,4,2,1,55,0,0
139143,-55.5555555555556,4,2,1,55,0,0
141372,-62.5,4,2,1,55,0,0
142229,-55.5555555555556,4,2,1,55,0,0
142743,-62.5,4,2,1,55,0,0
144629,-55.5555555555556,4,2,1,55,0,0
144972,-100,4,2,1,50,0,0
154914,-100,4,2,1,40,0,0
155943,-100,4,2,1,50,0,0
157314,-100,4,2,5,50,0,0
168286,-83.3333333333333,4,2,4,60,0,0
172400,-125,4,2,4,60,0,0
172743,-83.3333333333333,4,2,4,60,0,0
179257,-100,4,2,1,55,0,0
186114,-100,4,2,1,60,0,0
187486,-100,4,2,5,60,0,0
188172,-100,4,2,2,50,0,0
188457,-71.4285714285714,4,2,2,50,0,0
188629,-71.4285714285714,4,2,2,50,0,0
188857,-62.5,4,2,1,50,0,0
189200,-62.5,4,2,1,60,0,0
189543,-83.3333333333333,4,2,1,60,0,0
190229,-100,4,2,1,65,0,0
190743,-83.3333333333333,4,2,1,65,0,0
191257,-100,4,2,1,65,0,0
193486,-83.3333333333333,4,2,1,65,0,0
194000,-100,4,2,1,65,0,0
194343,-83.3333333333333,4,2,1,65,0,0
195372,-100,4,2,1,65,0,0
196229,-83.3333333333333,4,2,1,65,0,0
197086,-100,4,2,1,65,0,0
201200,-83.3333333333333,4,2,1,65,0,0
201886,-100,4,2,1,65,0,0
205314,-83.3333333333333,4,2,1,65,0,0
206686,-100,4,2,1,60,0,0
210114,-100,4,2,1,55,0,0
210457,-100,4,2,1,60,0,0
210800,-55.5555555555556,4,2,1,65,0,0
211486,-71.4285714285714,4,2,1,65,0,0
211829,-71.4285714285714,4,2,1,55,0,0
212172,-100,4,2,1,50,0,0
234114,-83.3333333333333,4,2,1,60,0,0
236172,-71.4285714285714,4,2,1,60,0,0
236343,-83.3333333333333,4,2,1,60,0,0
240286,-100,4,2,1,60,0,0
241486,-83.3333333333333,4,2,1,60,0,0
243372,-83.3333333333333,4,2,1,65,0,0
245086,-46.5116279069767,4,2,1,75,0,0
245429,-62.5,4,2,1,75,0,0
245772,-55.5555555555556,4,2,1,75,0,0
246286,-46.5116279069767,4,2,1,75,0,0
246972,-62.5,4,2,1,75,0,0
247829,-50,4,2,1,75,0,0
249029,-55.5555555555556,4,2,1,75,0,0
250400,-62.5,4,2,1,75,0,0
250572,-46.5116279069767,4,2,1,75,0,0
250914,-62.5,4,2,1,75,0,0
251257,-55.5555555555556,4,2,1,75,0,0
251772,-46.5116279069767,4,2,1,75,0,0
252114,-62.5,4,2,1,75,0,0
252457,-55.5555555555556,4,2,1,75,0,0
253143,-62.5,4,2,1,75,0,0
253314,-50,4,2,1,75,0,0
254000,-62.5,4,2,1,75,0,0
254343,-55.5555555555556,4,2,1,75,0,0
254686,-50,4,2,1,75,0,0
256057,-46.5116279069767,4,2,1,75,0,0
256400,-62.5,4,2,1,75,0,0
256743,-55.5555555555556,4,2,1,75,0,0
257257,-46.5116279069767,4,2,1,75,0,0
257943,-62.5,4,2,1,75,0,0
258800,-50,4,2,1,75,0,0
260000,-55.5555555555556,4,2,1,75,0,0
261200,-62.5,4,2,1,75,0,0
261543,-100,4,2,1,70,0,0
262914,-100,4,2,4,70,0,0
263086,-100,4,2,1,70,0,0
267029,-50,4,2,1,60,0,0
267714,-42.5531914893617,4,2,1,70,0,0
269086,-50,4,2,1,70,0,0
273372,-43.4782608695652,4,2,1,70,0,0
273886,-50,4,2,1,70,0,0
278000,-43.4782608695652,4,2,1,75,0,0
278686,-50,4,2,1,75,0,0
282286,-43.4782608695652,4,2,1,75,0,0
282800,-50,4,2,1,75,0,0
283486,-58.8235294117647,4,2,1,65,0,0
284172,-50,4,2,1,65,0,0
286572,-58.8235294117647,4,2,1,65,0,0
288629,-43.4782608695652,4,2,5,65,0,0

[Colours]
Combo1 : 226,143,243
Combo2 : 139,222,254
Combo3 : 253,206,240
Combo4 : 150,166,254

[HitObjects]
24,316,971,6,0,P|52:354|100:366,1,90,6|0,0:0|0:0,0:0:0:0:
243,341,1314,1,0,0:0:0:0:
243,269,1486,2,0,L|186:284,1,45,2|0,0:0|0:0,0:0:0:0:
188,277,1657,6,0,B|186:269|186:269|184:269|184:269|186:268|186:268|164:79,1,180,0|2,0:0|0:0,0:0:0:0:
157,0,2172,1,0,3:0:0:0:
157,0,2343,5,0,0:0:0:0:
27,54,2514,2,0,B|19:45|7:51|11:68|27:70|32:61|37:66,1,38.2500007295609,2|2,0:0|0:0,0:0:0:0:
29,94,2686,6,0,P|63:64|118:61,1,90
253,16,3029,2,0,B|318:25|300:99|300:99|259:91|259:91|255:93|255:93|252:89|252:89|216:80,1,180,2|0,3:2|3:0,0:0:0:0:
149,181,3543,6,0,L|199:174,1,45
222,174,3714,2,0,B|207:133|141:139|141:139|160:200|160:200|159:207|159:207|163:210|163:210|173:242,2,180,0|2|2,3:0|0:0|0:0,0:0:0:0:
164,366,4743,5,0,3:0:0:0:
113,272,4914,1,0,3:0:0:0:
86,344,5086,2,0,P|55:379|5:382,1,90,2|0,0:0|3:0,0:0:0:0:
198,299,5429,1,2,0:0:0:0:
278,384,5600,2,0,L|328:375,1,45
269,369,5772,6,0,B|280:363|280:363|289:365|289:365|464:340,1,180,2|6,3:2|0:0,0:0:0:0:
512,332,6286,1,0,0:0:0:0:
280,290,6457,6,0,B|270:269|270:269|288:238|288:238|348:232|348:232|364:193|364:193|343:166,1,180,2|0,3:2|3:0,0:0:0:0:
255,87,6972,1,0,0:0:0:0:
263,89,7057,1,0,0:0:0:0:
257,111,7143,2,0,P|307:116|338:81,1,90,0|0,3:0|0:0,0:0:0:0:
139,7,7486,5,2,0:0:0:0:
179,79,7657,1,0,3:0:0:0:
93,74,7829,2,0,L|109:177,1,90,0|2,0:0|0:0,0:0:0:0:
55,296,8172,2,0,P|76:252|119:241,1,90
225,292,8514,6,0,B|261:305|261:374|261:374|220:365|220:365|215:366|215:366|215:364|215:364|170:353,1,180,2|0,3:2|3:0,0:0:0:0:
176,354,9029,1,0,0:0:0:0:
118,247,9200,2,0,B|82:212|105:154|166:151|166:151|155:188|163:213,2,180,0|2|2,3:0|0:0|0:0,0:0:0:0:
120,266,10057,6,0,L|169:258,1,45
236,283,10229,5,0,3:0:0:0:
266,189,10400,1,0,3:0:0:0:
212,377,10572,2,0,L|405:344,1,180,2|0,0:0|3:0,0:0:0:0:
405,343,11086,5,0,3:0:0:0:
344,259,11257,2,0,B|371:273|390:260|390:260|364:250|354:230,1,90,0|0,3:0|3:0,0:0:0:0:
304,120,11600,5,2,0:3:0:0:
281,96,11686,1,2,0:3:0:0:
275,57,11772,1,2,0:3:0:0:
310,10,11857,1,2,0:3:0:0:
390,17,11943,6,0,B|424:23|434:72|434:72|385:87,1,112.5,6|0,1:2|0:0,0:0:0:0:
381,12,12286,1,0,3:0:0:0:
263,137,12457,2,0,B|273:135|273:135|276:136|276:136|276:134|276:134|326:125,1,56.25,2|0,0:0|0:0,0:0:0:0:
340,117,12629,6,0,B|341:126|341:126|339:126|339:126|342:130|342:130|363:250|363:250|390:263|413:244|396:241|413:219|445:220,1,225,0|0,3:0|3:0,0:0:0:0:
504,253,13143,1,2,0:0:0:0:
458,305,13314,2,0,B|444:316|444:316|359:330|359:330|338:316,1,112.5,0|2,1:0|0:0,0:0:0:0:
200,235,13657,5,0,3:0:0:0:
246,373,13829,1,2,0:0:0:0:
108,306,14000,2,0,B|92:339|92:339|85:362|104:398|148:391|159:364|159:364|169:339,1,168.75,2|0,3:2|0:0,0:0:0:0:
180,262,14343,5,0,3:0:0:0:
171,242,14429,1,0,3:0:0:0:
184,226,14514,1,0,3:0:0:0:
178,204,14600,1,0,3:0:0:0:
160,160,14686,6,0,B|175:150|175:150|179:145|179:145|178:149|178:149|204:135|204:135|241:198|179:235|179:235|184:273|184:273|213:282,2,225,0|2|2,1:0|0:0|0:0,0:0:0:0:
92,193,15543,1,0,0:0:0:0:
16,33,15714,1,2,3:2:0:0:
140,65,15886,1,0,3:0:0:0:
205,14,16057,6,0,P|255:58|368:84,1,168.75,2|0,1:2|0:0,0:0:0:0:
384,85,16400,2,0,B|379:54|404:9|464:25|464:25|444:54|457:83,1,168.75,0|0,3:0|0:0,0:0:0:0:
453,87,16743,5,2,3:2:0:0:
309,7,16914,1,0,0:0:0:0:
291,150,17086,6,0,B|281:181|307:213|307:213|303:178|334:145,1,112.5,2|2,0:0|0:0,0:0:0:0:
199,341,17429,6,0,B|161:358|121:331|110:297|139:303|116:258|60:279|60:279|124:316|93:364,1,251.999992309571,0|0,1:0|3:0,0:0:0:0:
263,348,18114,6,0,B|143:361|143:361|138:366|138:366|5:379,1,251.999992309571,0|0,1:0|3:0,0:0:0:0:
406,57,18800,6,0,B|432:59|432:59|446:45|446:45|325:24|325:24|327:33|327:33|349:38|349:38|316:74|352:105,1,251.999992309571,0|0,1:0|3:0,0:0:0:0:
504,119,19486,6,0,B|246:88,1,251.999992309571,0|0,1:0|3:0,0:0:0:0:
126,12,20172,5,0,1:0:0:0:
190,127,20343,1,0,1:0:0:0:
52,163,20514,5,0,1:0:0:0:
0,268,20686,1,0,1:0:0:0:
34,384,20857,6,0,B|47:380|47:380|49:377|49:377|52:379|52:379|120:362,1,62.9999980773926,0|0,1:0|1:0,0:0:0:0:
170,346,21029,6,0,B|179:348|179:348|182:351|182:351|186:351|186:351|231:361,1,62.9999980773926,0|0,1:0|1:0,0:0:0:0:
256,384,21200,5,0,1:0:0:0:
282,365,21286,1,0,1:0:0:0:
292,323,21372,1,0,1:0:0:0:
273,264,21457,1,0,1:0:0:0:
227,168,21543,5,2,0:3:0:0:
219,154,21629,1,2,0:3:0:0:
221,139,21714,1,2,0:3:0:0:
227,129,21800,1,2,0:3:0:0:
266,63,21886,6,0,L|332:54,1,62.9999980773926,2|2,0:3|0:3,0:0:0:0:
335,85,22057,6,0,L|401:76,1,62.9999980773926,2|2,0:3|0:3,0:0:0:0:
512,89,22229,5,8,0:3:0:0:
503,96,22314,1,8,0:3:0:0:
494,103,22400,2,0,L|482:171,1,62.9999980773926,4|4,0:3|0:3,0:0:0:0:
468,20,22572,1,8,0:0:0:0:
42,289,22914,6,0,P|55:332|100:336,1,87.7500003347397,6|0,1:2|3:0,0:0:0:0:
183,377,23086,2,0,L|167:290,1,87.7500003347397,2|0,3:2|3:0,0:0:0:0:
165,273,23257,1,8,3:2:0:0:
60,155,23429,6,2,B|136:179|166:80|166:80|124:176|209:217,1,297.000009063721,2|0,3:2|3:0,0:1:0:0:
251,153,23772,2,0,B|258:130|278:123|278:123|236:113|224:145,1,99.0000030212403,2|0,1:2|0:0,0:0:0:0:
212,219,23943,5,8,0:0:0:0:
112,364,24114,2,2,B|119:280|236:262|247:339|232:333|271:379|334:386|359:329,1,297.000009063721,2|0,3:2|3:0,0:1:0:0:
355,338,24457,2,0,B|382:272|448:300|448:300,1,99.0000030212403,2|0,1:2|0:0,0:0:0:0:
423,372,24629,5,8,0:0:0:0:
463,60,24800,2,2,B|477:107|477:107|474:120|474:120|492:179|492:179|497:197|482:237|434:225|425:194|425:194|402:116,1,297.000009063721,2|0,3:2|3:0,0:1:0:0:
458,189,25143,5,2,1:2:0:0:
434,296,25314,2,0,P|396:291|369:322,1,80.9999975280763,10|0,0:0|0:0,0:0:0:0:
279,378,25486,2,0,L|295:291,1,80.9999975280763,2|0,3:2|3:0,0:0:0:0:
406,130,25657,6,0,P|381:165|328:176,1,87.7500003347397,2|0,1:2|3:0,0:0:0:0:
260,200,25829,2,0,P|234:164|193:152,1,87.7500003347397,2|0,1:2|0:0,0:0:0:0:
125,189,26000,1,10,0:0:0:0:
1,136,26172,6,2,B|50:130|122:168|122:168|111:116|157:88|157:88|49:66|35:123|58:207,1,396.000012084961,2|0,3:2|1:0,0:1:0:0:
238,0,26686,6,0,L|257:101,1,99.0000030212403,10|0,0:0|0:0,0:0:0:0:
39,277,26857,2,2,B|60:220|133:216|165:270|165:270|188:314|230:319|258:295|258:295|276:284|295:299,1,297.000009063721,2|0,3:2|3:0,0:1:0:0:
356,306,27200,1,0,1:0:0:0:
313,362,27372,6,0,P|208:257|356:310,1,422.999993545532,10|0,0:0|3:0,0:0:0:0:
322,366,27800,1,0,3:0:0:0:
337,376,27886,1,2,1:2:0:0:
432,311,28057,2,0,B|411:309|411:309|413:304|413:304|410:309|410:309|271:290,1,161.999995056153,10|2,0:0|3:2,0:0:0:0:
176,26,28400,6,0,B|161:52|164:94|213:125|249:85|249:85|227:8,1,175.500000669479,6|2,1:2|3:2,0:0:0:0:
87,42,28743,2,0,B|22:48|22:48|-1:83,1,87.7500003347397,10|0,0:0|0:0,0:0:0:0:
0,137,28914,6,2,B|5:135|5:135|12:138|12:138|13:135|13:135|315:105,1,297.000009063721,2|0,3:2|3:0,0:1:0:0:
373,88,29257,2,2,B|365:69|379:43|379:43|342:65|364:104,1,99.0000030212403,2|0,1:2|0:0,0:0:0:0:
259,192,29429,5,8,0:0:0:0:
411,313,29600,2,2,B|386:271|318:289|297:341|325:418|416:405|431:357|417:318|417:318|393:235,1,297.000009063721,2|0,3:2|3:0,0:1:0:0:
406,278,29943,2,0,B|398:232|398:232|400:228|400:228|389:175,1,99.0000030212403,2|0,1:2|0:0,0:0:0:0:
474,242,30114,5,8,0:0:0:0:
275,289,30286,2,2,B|218:235|146:274|160:336|171:312|167:400|78:435|15:333,1,297.000009063721,2|0,3:2|3:0,0:1:0:0:
96,314,30629,2,0,B|117:297|151:313|138:328|167:341|193:327,1,99.0000030212403,2|0,1:2|0:0,0:0:0:0:
345,322,30800,5,10,0:0:0:0:
322,167,30972,1,2,3:2:0:0:
164,20,31143,6,0,P|170:66|192:105,1,87.7500003347397,2|0,1:2|3:0,0:0:0:0:
288,97,31314,2,0,P|256:131|240:173,1,87.7500003347397,2|0,1:2|0:0,0:0:0:0:
322,167,31486,1,10,0:0:0:0:
175,223,31657,6,2,B|186:181|135:138|64:151|47:237|103:270|103:270|148:301|132:353|88:376|33:354|44:287,1,396.000012084961,2|0,3:2|1:0,0:1:0:0:
36,316,32172,6,0,L|144:297,1,99.0000030212403,10|0,0:0|0:0,0:0:0:0:
274,239,32343,6,0,L|255:347,2,72,2|0|0,3:1|0:0|1:0,0:0:0:0:
149,82,32686,6,0,L|168:190,2,72,2|0|0,0:1|0:0|1:0,0:0:0:0:
361,20,33029,6,0,L|342:128,2,72,2|0|0,0:1|0:0|1:0,0:0:0:0:
44,11,33372,6,0,L|63:119,1,72,2|0,1:0|0:0,0:0:0:0:
64,159,33543,1,0,1:0:0:0:
109,130,33629,1,0,1:0:0:0:
161,152,33714,1,0,1:0:0:0:
172,206,33800,1,0,1:0:0:0:
138,248,33886,5,4,1:2:0:0:
252,33,44172,5,2,0:3:0:0:
268,45,44257,1,8,0:3:0:0:
299,27,44343,2,0,L|303:74,1,36,4|4,0:3|0:3,0:0:0:0:
428,0,44514,6,0,L|423:47,1,36,0|0,1:0|1:0,0:0:0:0:
415,107,44686,1,0,1:0:0:0:
414,119,44772,1,0,1:0:0:0:
495,176,44857,6,0,P|408:151|384:234,1,180,4|2,1:2|0:0,0:0:0:0:
381,236,45372,1,0,3:0:0:0:
512,240,45543,2,0,B|511:228|528:219|528:219|501:175|450:195|444:235,1,125.999996154785,8|0,0:0|1:0,0:0:0:0:
461,378,45886,5,2,3:2:0:0:
446,306,46057,1,0,1:0:0:0:
455,24,46229,6,0,P|342:86|190:78,1,270,2|0,3:2|1:0,0:0:0:0:
236,19,46914,2,0,B|235:-11|173:-8|152:41|190:86,1,125.999996154785,8|0,0:0|0:0,0:0:0:0:
146,269,47257,6,0,P|124:250|116:224,1,45,0|0,1:0|0:0,0:0:0:0:
89,227,47429,6,0,P|98:201|117:186,1,45,8|0,0:0|0:0,0:0:0:0:
37,152,47600,6,0,B|150:129|107:175|218:158,1,180,0|0,1:0|1:0,0:0:0:0:
234,155,48114,1,0,1:0:0:0:
426,349,48286,2,0,P|391:353|341:391,1,90,8|0,0:0|1:0,0:0:0:0:
258,344,48629,5,2,3:2:0:0:
266,357,48800,1,0,1:0:0:0:
359,265,48972,6,0,B|363:248|363:248|355:239|355:239|310:15,1,251.999992309571,2|0,3:2|0:0,0:0:0:0:
191,111,49486,2,0,B|211:99|211:99|286:130|286:130|315:104,1,125.999996154785,0|8,1:0|0:0,0:0:0:0:
507,245,50000,6,0,P|488:264|449:267,1,45,0|0,1:0|0:0,0:0:0:0:
455,289,50172,2,0,P|429:272|419:240,1,45,8|0,0:0|0:0,0:0:0:0:
512,60,50343,6,0,B|485:-12|370:2|372:83|372:83|417:114|398:165,1,251.999992309571,0|2,1:0|0:3,0:0:0:0:
450,192,50857,1,0,1:0:0:0:
344,175,51029,1,8,0:0:0:0:
394,329,51200,2,0,P|371:366|320:388,1,90,0|0,1:0|3:0,0:0:0:0:
243,356,51543,6,0,B|233:305|233:305|230:302|230:302|224:267,2,90,0|2|0,1:0|3:2|0:0,0:0:0:0:
170,107,52057,5,0,1:0:0:0:
152,103,52143,1,0,1:0:0:0:
182,111,52229,5,0,1:0:0:0:
186,93,52315,1,0,1:0:0:0:
251,156,52400,6,0,P|135:118|-13:141,1,251.999992309571,10|0,0:0|1:0,0:0:0:0:
15,142,52914,2,0,P|36:114|38:79,1,62.9999980773926,8|0,0:0|0:0,0:0:0:0:
30,20,53086,6,0,B|18:66|81:91|117:60|117:60|161:20|214:45|215:86,1,251.999992309571,2|0,1:2|3:0,0:0:0:0:
54,384,53600,1,2,1:2:0:0:
13,327,53772,1,10,0:0:0:0:
128,381,53943,2,0,P|151:341|203:340,1,90,2|2,1:2|3:2,0:0:0:0:
491,285,54286,6,0,B|495:234|495:234|416:223|392:304|433:353,1,202.500007724762,2|0,1:2|0:0,0:1:0:0:
501,366,54629,6,0,B|425:383|425:383|371:291,1,168.75,2|0,1:2|0:0,0:1:0:0:
265,341,54972,6,0,B|273:282|273:282|332:262|332:262|335:258|335:258|339:261|339:261|345:257|345:257|389:327,1,202.500007724762,4|0,1:3|0:0,0:1:0:0:
354,169,55314,5,0,1:0:0:0:
280,192,55400,1,0,1:0:0:0:
207,215,55486,1,8,0:0:0:0:
12,81,55657,2,0,B|5:101|20:117|20:117|54:106,1,67.5000025749208,2|0,0:0|0:0,0:0:0:0:
141,6,55829,6,2,B|151:48|151:48|112:82|112:82|127:128|127:128|91:165,1,180,6|0,1:2|3:0,0:1:0:0:
93,348,56172,2,0,B|75:348|67:379|67:379|82:361|112:369,1,76.5000014591217,8|0,3:2|0:0,0:0:0:0:
165,280,56343,6,2,B|206:301|206:301|243:379|243:379|299:364,1,180,2|0,3:2|3:0,0:1:0:0:
502,308,56686,2,2,B|494:307|494:307|490:300|490:300|485:305|485:305|314:277,1,180,2|8,1:2|0:0,0:1:0:0:
235,125,57029,6,2,B|191:149|207:209|207:209|311:184|311:184|314:186|314:186|319:183|319:183|341:177,1,229.500004377365,2|0,3:2|3:0,0:1:0:0:
465,146,57372,2,2,B|428:128|428:128|427:126|427:126|423:128|423:128|410:123|410:123|432:210|432:210|395:228,1,180,2|8,1:2|0:0,0:1:0:0:
334,168,57629,1,0,3:0:0:0:
341,186,57714,6,2,B|393:160|423:206|423:206|448:252|515:237,1,180,2|0,3:2|3:0,0:1:0:0:
410,362,58057,2,0,B|415:381|447:387|447:387|435:361,1,76.5000014591217,2|0,1:2|0:0,0:0:0:0:
376,301,58229,2,0,B|194:273,1,180,8|0,0:0|3:0,0:0:0:0:
10,227,58572,6,0,P|6:275|41:312,1,101.250003862381,2|0,1:2|3:0,0:0:0:0:
90,198,58743,2,0,P|123:233|120:282,1,101.250003862381,2|0,1:2|0:0,0:0:0:0:
99,352,58914,1,8,0:0:0:0:
86,60,59086,6,2,B|72:20|72:20|122:-11|160:33|158:69|158:69|177:39,1,180,2|0,3:2|3:0,0:1:0:0:
29,109,59429,2,2,B|117:96|117:96|122:91|122:91|209:77,1,180,2|8,1:2|0:0,0:1:0:0:
476,57,59772,6,2,P|389:33|434:132,1,229.500004377365,2|0,3:2|3:0,0:1:0:0:
473,170,60114,2,0,P|457:209|415:205,1,90,2|0,1:2|0:0,0:0:0:0:
369,20,60286,1,8,0:0:0:0:
503,19,60457,6,2,B|484:270|484:270|485:270|485:270|483:272|483:272|482:287,1,270,2|0,3:2|3:0,0:1:0:0:
442,344,60800,1,0,1:0:0:0:
377,315,60886,1,0,1:0:0:0:
325,232,60972,2,2,B|401:252|397:358|312:409|223:335|223:335|257:393|226:435,1,337.5,10|0,0:0|3:0,0:1:0:0:
221,381,61314,6,0,B|230:300|230:300|235:297|235:297|244:204,1,180,6|2,1:2|3:2,0:0:0:0:
255,45,61657,2,0,B|268:47|286:36|286:36|275:59|251:59,1,76.5000014591217,8|0,3:2|0:0,0:0:0:0:
119,107,61829,6,2,B|229:74|180:153|304:122,1,180,2|0,3:2|3:0,0:1:0:0:
511,6,62172,2,2,P|475:46|343:58,1,180,2|8,1:2|0:0,0:1:0:0:
158,2,62514,6,2,B|210:-31|278:26|231:101|231:101|163:76,1,229.500004377365,2|0,3:2|3:0,0:1:0:0:
17,85,62857,2,2,B|35:81|35:81|39:78|39:78|41:80|41:80|107:66|107:66|62:146,1,180,2|8,1:2|0:0,0:1:0:0:
18,210,63114,1,0,3:0:0:0:
18,224,63200,6,2,B|23:224|23:224|28:225|28:225|31:222|31:222|196:182,1,180,2|0,3:2|3:0,0:1:0:0:
364,235,63543,1,2,1:2:0:0:
303,266,63629,1,0,1:0:0:0:
290,265,63714,2,0,P|318:290|317:326,1,62.9999980773926,8|0,0:0|0:0,0:0:0:0:
306,383,63886,1,0,3:0:0:0:
140,20,64057,6,0,P|156:62|201:73,1,90,2|0,1:2|3:0,0:0:0:0:
264,48,64229,2,0,P|295:16|338:22,1,90,2|0,1:2|0:0,0:0:0:0:
412,92,64400,1,8,0:0:0:0:
512,192,64572,6,2,L|284:155,1,229.500004377365,2|0,3:2|3:0,0:1:0:0:
215,142,64914,1,0,1:0:0:0:
388,243,65086,6,0,B|375:266|375:266|401:302|401:302|421:301,1,90,8|0,0:0|0:0,0:0:0:0:
387,160,65257,1,2,3:2:0:0:
488,351,65429,6,0,L|397:382,1,90,0|2,1:0|0:0,0:0:0:0:
314,338,65772,2,0,L|224:330,1,90,0|0,1:0|0:0,0:0:0:0:
142,321,66114,1,0,1:0:0:0:
142,321,66286,6,0,B|145:331|145:331|143:335|143:335|151:352|151:352|155:353|155:353|160:360|160:360|157:353|157:353|159:350|159:350|154:336,1,67.5000025749208,0|0,1:0|0:0,0:0:0:0:
121,255,66457,1,0,1:0:0:0:
155,206,66543,1,0,1:0:0:0:
212,221,66629,1,0,1:0:0:0:
235,261,66714,1,0,1:0:0:0:
224,330,66800,5,6,1:2:0:0:
224,330,66972,1,0,0:0:0:0:
91,373,67143,2,0,P|43:377|9:341,1,90,2|0,0:0|1:0,0:0:0:0:
66,309,67486,5,10,0:0:0:0:
292,377,67657,2,0,B|301:332|301:332|304:331|304:331|314:280,1,90,0|2,1:0|0:0,0:0:0:0:
453,290,68000,6,0,P|439:341|374:351,1,121.500000463486,0|0,1:0|0:0,0:0:0:0:
314,283,68343,1,2,3:2:0:0:
342,183,68514,2,0,P|360:220|406:224,1,90,0|2,3:0|1:2,0:0:0:0:
216,259,68857,5,10,0:2:0:0:
216,250,69029,1,2,0:2:0:0:
260,109,69200,2,0,L|237:12,1,90,2|10,1:2|0:2,0:0:0:0:
161,148,69543,6,0,B|188:133|226:155|201:172|243:195|272:178,1,121.500000463486,2|0,1:2|0:0,0:0:0:0:
409,149,69886,1,0,1:0:0:0:
342,183,70057,1,2,1:2:0:0:
324,85,70229,6,0,B|334:148|334:148|339:150|339:150|352:214,2,135.000005149842,10|0|2,0:0|1:0|3:2,0:0:0:0:
311,16,70743,1,2,1:2:0:0:
468,26,70914,2,0,P|427:34|409:86,1,90,0|0,3:0|1:0,0:0:0:0:
474,96,71257,5,2,0:3:0:0:
169,75,71600,2,0,L|51:102,1,121.500000463486,8|0,0:0|3:0,0:0:0:0:
39,99,71943,5,2,1:2:0:0:
60,101,72029,1,0,1:0:0:0:
71,111,72114,1,8,0:0:0:0:
76,123,72200,1,8,0:0:0:0:
83,134,72286,6,0,B|86:126|86:126|88:125|88:125|86:125|86:125|110:42,1,90,2|0,1:2|0:0,0:0:0:0:
13,245,72629,2,0,P|52:238|85:277,1,90,2|2,0:0|1:2,0:0:0:0:
27,318,72972,5,8,0:0:0:0:
254,357,73143,2,0,P|209:355|175:383,1,90,0|2,1:0|0:0,0:0:0:0:
51,332,73486,6,0,B|0:361|0:361|142:333,1,182.250000695229,0|0,1:0|0:0,0:0:0:0:
179,287,73829,2,0,B|128:258|128:258|270:286,1,182.250000695229,0|0,1:0|0:0,0:0:0:0:
313,303,74172,6,0,P|323:278|303:244,1,60.7500002317429,2|0,1:2|0:0,0:0:0:0:
254,357,74343,1,8,0:0:0:0:
109,24,74686,6,0,P|113:52|156:69,1,60.7500002317429,2|0,1:2|0:0,0:0:0:0:
184,17,74857,2,0,L|245:7,1,60.7500002317429,10|0,0:0|0:0,0:0:0:0:
336,52,75029,6,0,B|336:12|374:-16|421:12|421:12|391:52|428:86,1,182.250000695229,2|0,1:2|0:0,0:0:0:0:
483,58,75372,2,0,P|472:123|412:142,1,135,0|0,1:0|0:0,0:0:0:0:
316,141,75714,6,0,B|321:140|321:140|327:143|327:143|328:139|328:139|386:132,1,67.5000025749208,10|0,0:0|0:0,0:0:0:0:
242,153,75886,1,0,1:0:0:0:
242,162,76229,1,0,1:0:0:0:
65,267,76400,6,0,P|189:365|346:353,1,323.999990112305,4|8,1:3|0:3,0:0:0:0:
288,296,77600,1,4,0:3:0:0:
287,288,77772,2,0,P|254:360|148:353,1,188.999994232178,2|0,0:0|0:0,0:0:0:0:
138,345,78457,5,8,0:3:0:0:
150,320,78543,1,8,0:3:0:0:
81,278,78629,1,4,0:3:0:0:
107,265,78715,1,4,0:3:0:0:
156,300,78800,6,0,B|161:278|161:278|158:274|158:274|161:272|161:272|165:260|165:260|168:256|168:256|167:254|167:254|174:214,1,67.5000025749208,10|0,0:0|0:0,0:0:0:0:
129,93,79143,6,0,B|118:38|162:-6|218:9|218:9|202:77|202:77|204:80|204:80|200:82|200:82|196:102|196:102|197:109|197:109|195:109|195:109|184:158,1,290.250004428864,6|0,1:2|3:0,0:0:0:0:
195,153,79486,2,0,L|268:136,1,72,8|0,0:0|0:0,0:0:0:0:
58,175,79657,1,0,3:0:0:0:
311,15,79829,6,0,B|281:46|281:46|400:21,1,161.999995056153,2|2,3:2|1:2,0:0:0:0:
483,156,80172,2,0,B|488:138|488:138|449:123|439:155|442:174,1,80.9999975280763,10|0,0:0|0:0,0:0:0:0:
381,128,80343,6,0,B|402:206|402:206|406:211|406:211|422:263|422:263|427:293|469:318|501:277|493:253|493:253|482:215,1,290.250004428864,2|0,3:2|3:0,0:0:0:0:
486,212,80686,2,0,B|487:191|487:191|402:185|387:262|412:313,1,193.500002952576,2|8,1:2|0:0,0:0:0:0:
424,374,81029,2,0,B|394:393|360:380|357:353|363:367|358:334|325:320|295:343,1,144,2|0,3:2|3:0,0:0:0:0:
154,335,81372,5,2,1:2:0:0:
133,340,81457,1,0,1:0:0:0:
112,345,81543,1,10,0:0:0:0:
4,205,81714,2,0,B|18:206|18:206|22:205|22:205|23:207|23:207|80:215,1,72,2|0,3:2|3:0,0:0:0:0:
227,378,81886,6,0,P|231:348|214:290,1,90,2|0,1:2|3:0,0:0:0:0:
315,260,82057,2,0,P|296:235|243:206,1,90,0|0,1:0|0:0,0:0:0:0:
163,231,82229,1,10,0:0:0:0:
52,121,82400,5,2,3:2:0:0:
66,83,82486,1,0,3:0:0:0:
105,51,82572,1,2,3:2:0:0:
161,41,82657,1,0,3:0:0:0:
221,73,82743,1,2,1:2:0:0:
363,28,82914,2,0,L|461:13,1,90,10|0,0:0|0:0,0:0:0:0:
512,115,83086,6,2,B|475:76|413:95|419:159|423:143|429:192|369:221|327:182,1,242.999992584229,2|0,1:2|0:0,0:1:0:0:
311,97,83429,2,2,P|313:191|374:346,1,242.999992584229,2|0,1:2|0:0,0:1:0:0:
468,347,83772,2,2,B|473:340|473:340|477:339|477:339|478:334|478:334|483:326|483:326|487:321|487:321|489:316|489:316|495:303|495:303|447:262|365:297|365:381,1,242.999992584229,2|0,1:2|0:0,0:1:0:0:
358,378,84114,1,2,1:2:0:0:
315,370,84200,1,0,1:0:0:0:
272,362,84286,1,8,0:0:0:0:
0,384,84457,6,0,L|13:306,1,72,2|0,3:2|3:0,0:0:0:0:
55,116,84629,6,0,B|56:100|56:100|57:93|57:93|53:91|53:91|52:82|52:82|-14:86|-38:162|11:215|11:215|39:175|80:186,1,290.250004428864,6|0,1:2|3:0,0:0:0:0:
77,257,84972,2,0,B|84:258|84:258|86:261|86:261|89:258|89:258|154:270,1,72,8|0,0:0|0:0,0:0:0:0:
5,242,85143,1,0,3:2:0:0:
175,126,85314,6,0,B|257:139|257:139|236:73|236:73|227:87,1,161.999995056153,0|2,3:0|1:2,0:0:0:0:
122,25,85657,2,0,B|95:41|95:41|149:29,1,80.9999975280763,10|0,0:0|0:0,0:0:0:0:
343,8,85829,6,0,P|338:96|510:155,1,290.250004428864,2|0,3:2|3:0,0:0:0:0:
481,95,86172,2,0,B|485:75|485:75|455:70|444:103,1,72,0|0,1:0|0:0,0:0:0:0:
499,241,86343,1,8,0:0:0:0:
319,297,86514,6,0,B|306:259|334:227|334:227|232:209,1,161.999995056153,2|0,3:2|3:0,0:0:0:0:
109,174,86857,5,0,1:0:0:0:
88,179,86942,1,0,1:0:0:0:
67,184,87028,1,10,0:0:0:0:
0,274,87200,2,0,B|14:275|14:275|18:274|18:274|19:276|19:276|76:284,1,72,0|0,3:0|3:0,0:0:0:0:
281,135,87372,6,0,B|264:136|264:136|259:135|259:135|258:137|258:137|191:146,2,90,2|0|0,1:2|3:0|1:0,0:0:0:0:
453,95,87714,2,0,B|444:41|444:41|441:15|408:-7|372:23|377:45|377:45|387:105|387:105|384:110|384:110|388:138|378:149|378:149|361:153,1,270,10|0,0:0|3:0,0:0:0:0:
335,85,88057,2,0,B|325:92|335:107|354:98|358:75|349:87|356:70|374:61|390:67|381:89|368:89,1,72,2|0,3:2|3:0,0:0:0:0:
386,224,88229,1,0,1:0:0:0:
512,298,88400,6,0,B|506:259|468:243|434:261|427:296|427:296|419:338|375:349|347:331|343:299,1,242.999992584229,8|0,0:0|3:0,0:0:0:0:
318,232,88743,2,0,P|358:230|402:265,1,90,0|0,3:0|3:0,0:0:0:0:
253,307,88914,2,0,P|282:333|289:389,1,90,2|0,1:2|0:0,0:0:0:0:
240,233,89086,1,10,0:0:0:0:
148,326,89257,5,2,3:2:0:0:
130,351,89343,1,0,3:0:0:0:
89,360,89429,1,0,3:0:0:0:
39,337,89514,1,0,3:0:0:0:
26,278,89600,1,2,1:2:0:0:
119,130,89772,2,0,B|142:102|142:102|118:75|84:91,1,90,10|0,0:0|0:0,0:0:0:0:
29,106,89943,2,0,B|18:66|18:66|20:62|20:62|9:13,1,90,2|0,3:2|3:0,0:0:0:0:
74,204,90114,6,0,B|84:201|84:201|92:125|92:125|156:149|155:233|155:233|160:198|179:196|179:196|182:196|182:196|182:194|182:194|215:184,1,290.250004428864,6|0,1:2|3:0,0:0:0:0:
215,118,90457,2,0,B|237:123|237:123|254:116|246:101|246:101|216:89,1,72,8|0,0:0|0:0,0:0:0:0:
223,257,90629,1,0,3:0:0:0:
193,27,90800,6,0,B|296:-6|252:62|360:29,1,161.999995056153,2|2,3:2|1:2,0:0:0:0:
448,185,91143,2,0,B|477:195|477:195|423:187,1,80.9999975280763,10|0,0:0|0:0,0:0:0:0:
329,208,91314,6,0,B|349:233|349:233|331:313|331:313|397:314|414:258|414:258|437:262|437:262|441:260|441:260|444:263|444:263|456:266|456:266|464:264|464:264|463:267|463:267|499:274,1,290.250004428864,2|0,3:2|3:0,0:0:0:0:
512,325,91657,2,0,B|500:231|500:231|504:228|504:228|492:125,1,193.500002952576,2|8,1:2|0:0,0:0:0:0:
416,360,92000,2,0,B|430:361|430:361|438:353|438:353|370:341|370:341|371:346|371:346|383:349|383:349|365:369|385:386,1,144,2|0,3:2|3:0,0:0:0:0:
223,257,92343,5,2,1:2:0:0:
244,252,92428,1,0,1:0:0:0:
265,247,92514,1,10,0:0:0:0:
404,170,92686,2,0,B|426:188|426:188|403:119,1,72,2|0,3:2|3:0,0:0:0:0:
383,22,92857,6,0,P|350:42|318:101,1,90,2|0,1:2|3:0,0:0:0:0:
239,41,93029,2,0,P|229:78|248:142,1,90,0|0,1:0|0:0,0:0:0:0:
325,164,93200,1,10,0:0:0:0:
154,134,93372,5,2,3:2:0:0:
108,161,93457,1,0,3:0:0:0:
59,137,93543,1,2,3:2:0:0:
38,96,93629,1,0,3:0:0:0:
63,33,93714,1,2,1:2:0:0:
33,226,93886,2,0,B|34:235|34:235|39:238|39:238|34:241|34:241|44:319,1,90,10|0,0:0|0:0,0:0:0:0:
12,375,94057,6,2,B|52:402|108:388|117:339|108:330|106:339|115:286|136:283|136:283|120:312|133:337,1,242.999992584229,2|0,1:2|0:0,0:1:0:0:
197,311,94400,2,2,B|220:317|243:302|249:282|233:285|246:259|279:271|279:271|241:293|259:321,1,161.999995056153,2|8,1:2|0:0,0:1:0:0:
194,384,94743,2,2,B|203:306|203:306|207:301|207:301|216:220,1,161.999995056153,2|0,1:2|3:0,0:1:0:0:
186,11,95086,5,2,1:2:0:0:
188,23,95172,1,0,1:0:0:0:
216,13,95257,2,0,P|249:62|338:57,1,144,10|2,0:0|3:2,0:0:0:0:
486,16,95600,5,0,1:0:0:0:
486,16,95772,2,0,B|484:52|484:52|417:78|417:78|418:119|418:119|417:122|417:122|418:121|418:121|419:133|419:133|449:120,1,180,0|0,1:0|1:0,0:0:0:0:
142,107,96286,2,0,L|187:100,1,45,8|0,0:0|0:0,0:0:0:0:
288,5,96629,5,0,1:0:0:0:
288,5,96800,2,0,B|312:36|312:36|251:22,1,90,0|0,1:0|3:0,0:0:0:0:
28,60,97143,1,0,1:0:0:0:
28,60,97314,2,0,L|73:53,1,45,8|0,0:0|0:0,0:0:0:0:
171,236,97657,5,2,1:2:0:0:
171,236,97829,1,2,1:2:0:0:
171,236,98000,2,0,B|149:240|133:222|133:222|169:280|109:332|59:293,1,180,10|0,0:0|1:0,0:0:0:0:
29,222,98514,6,0,B|36:223|36:223|41:221|41:221|42:224|42:224|223:240,1,180,0|0,1:0|1:0,0:0:0:0:
283,247,99029,1,8,0:0:0:0:
274,262,99372,5,0,1:0:0:0:
274,262,99543,2,0,B|250:293|250:293|311:279,1,90,0|0,1:0|3:0,0:0:0:0:
456,256,99886,1,0,1:0:0:0:
456,256,100057,2,0,L|411:261,1,45,8|0,0:0|0:0,0:0:0:0:
40,25,101086,6,0,B|74:80|55:142|55:142|86:80|87:39|87:39|116:97|103:137|103:137|137:99|138:55|138:55|159:104|140:137|140:137|184:102|187:75|187:75|205:118|192:133|192:133|218:97|258:102,1,724.500013818741,4|0,1:2|0:0,0:0:0:0:
252,174,101772,6,0,B|261:173|261:173|266:168|266:168|270:170|270:170|337:153,1,90,8|0,0:0|0:0,0:0:0:0:
354,222,101943,2,0,B|363:221|363:221|368:216|368:216|372:218|372:218|439:201,1,90,0|0,1:0|0:0,0:0:0:0:
456,48,102114,6,2,B|416:2|416:2|383:52|383:52|357:21|357:21|307:42|307:42|228:20,1,270,0|0,3:0|3:0,0:1:0:0:
177,168,102457,6,0,P|176:206|212:243,1,90,2|0,3:2|0:0,0:0:0:0:
147,292,102629,2,0,P|173:319|224:320,1,90,2|0,3:2|0:0,0:0:0:0:
354,222,102800,6,0,B|367:255|395:270|395:270|326:288|326:288|350:326|350:326|313:341|313:341|331:353|334:394,1,270,2|0,3:2|3:0,0:0:0:0:
502,317,103143,6,0,L|408:338,1,90,10|0,0:0|0:0,0:0:0:0:
310,300,103314,2,0,L|216:321,1,90,2|0,0:0|0:0,0:0:0:0:
92,384,103486,6,0,P|80:341|28:319,1,90,2|0,1:2|3:0,0:0:0:0:
85,244,103657,2,0,B|74:201|74:201|77:198|77:198|66:155,1,90,10|0,0:0|0:0,0:0:0:0:
121,38,103829,6,2,B|147:-6|224:4|241:74|209:133|139:130|115:87|115:87|102:59|65:54|45:88,2,310.500005922318,2|0|0,1:2|1:0|1:0,0:1:0:0:
284,32,104514,5,10,0:0:0:0:
309,13,104600,1,2,0:3:0:0:
347,23,104686,1,2,1:3:0:0:
357,42,104772,1,2,0:3:0:0:
375,66,104857,5,2,0:3:0:0:
398,80,104943,1,2,0:3:0:0:
424,83,105029,1,2,1:3:0:0:
449,65,105114,1,2,0:3:0:0:
474,37,105200,5,2,1:3:0:0:
471,23,105257,2,0,L|419:30,4,30,2|2|2|2|2,0:3|0:3|0:0|0:3|0:3,0:0:0:0:
418,137,105543,5,2,1:3:0:0:
415,123,105600,2,0,L|363:130,4,30,2|2|2|2|2,0:3|0:3|0:0|0:3|0:3,0:0:0:0:
494,120,105886,5,10,0:0:0:0:
463,316,106057,5,2,1:2:0:0:
444,345,106143,1,2,1:2:0:0:
399,372,106229,1,2,1:2:0:0:
354,372,106314,1,2,1:2:0:0:
312,344,106400,1,10,0:2:0:0:
292,279,106486,1,10,0:2:0:0:
246,290,106572,5,2,1:3:0:0:
211,276,106657,1,2,0:3:0:0:
182,289,106743,1,2,0:3:0:0:
173,308,106829,1,2,0:3:0:0:
162,336,106914,5,2,0:3:0:0:
160,360,107000,1,2,0:3:0:0:
126,378,107086,1,2,1:3:0:0:
94,364,107172,1,0,0:0:0:0:
51,307,107257,6,2,B|56:260|98:251|98:251|230:237|230:237|329:235|380:170|363:42|219:-16|148:104|148:104|114:163|53:133,1,724.500013818741,10|0,0:0|3:0,0:1:0:0:
0,119,107943,6,0,B|13:93|41:85|73:109|68:138|68:138|66:165|90:185|119:176|129:160,1,180,0|0,1:0|3:0,0:0:0:0:
130,98,108200,2,0,B|152:60|112:26|112:26|193:-12|243:56,1,180,0|0,1:0|3:0,0:0:0:0:
277,13,108457,2,0,L|303:117,1,90,0|0,1:0|3:0,0:0:0:0:
342,249,108629,6,2,P|265:247|246:348,1,180,10|0,0:0|3:0,0:1:0:0:
297,374,108886,2,2,B|256:393|219:371|224:334|230:345|233:296|183:279|141:318,1,180,2|0,0:0|3:0,0:1:0:0:
97,346,109143,2,2,B|117:366|105:385|105:385|45:366,1,90,2|0,3:2|3:0,0:1:0:0:
0,228,109314,6,2,B|96:189|72:267|175:228,1,180,2|0,1:2|3:0,0:1:0:0:
237,183,109572,2,2,B|216:131|216:131|281:121|309:160|309:160|318:142|331:136,1,180,2|0,3:2|0:0,0:1:0:0:
385,185,109829,2,2,L|479:201,1,90,2|0,1:2|3:0,0:1:0:0:
382,55,110000,6,2,P|348:143|432:292,2,270,10|10|2,0:0|0:0|3:0,0:1:0:0:
264,36,110686,5,2,1:2:0:0:
264,36,110743,1,2,0:0:0:0:
264,36,110800,2,2,B|251:10|251:10|294:3|310:37|289:76,1,120,2|2,0:0|0:0,0:1:0:0:
299,202,111029,6,2,B|303:188|303:188|307:187|307:187|305:183|305:183|309:176|309:176|314:172|314:172|312:168|312:168|314:152|314:152|270:111|192:143|220:229|220:229|212:209|175:200,1,270,2|0,1:2|0:0,0:1:0:0:
19,212,111372,5,10,0:3:0:0:
40,277,111486,5,10,0:3:0:0:
107,302,111600,5,10,0:3:0:0:
166,231,111714,5,6,0:3:0:0:
141,164,111828,5,6,0:3:0:0:
76,143,111942,5,2,1:3:0:0:
95,223,112057,6,0,B|109:220|109:220|114:221|114:221|119:218|189:156|101:85|254:51|254:51|260:39|260:39|239:159|239:159|240:163|240:163|238:164|238:164|189:380|189:380|364:355|321:136|321:136|391:112|391:112|393:109|393:109|396:110|396:110|440:95|440:95|510:142|483:256|483:256|282:224,1,1440,0|0,1:0|0:0,0:0:0:0:
256,192,116172,12,0,120114,0:0:0:0:
476,43,120286,6,0,P|449:96|367:104,1,144,2|0,0:0|0:0,0:0:0:0:
305,62,120800,2,0,P|243:28|168:41,1,144,2|0,0:0|0:0,0:0:0:0:
96,54,121314,2,0,B|67:68|67:68|117:62,1,72,2|0,0:0|0:0,0:0:0:0:
27,267,121657,6,0,P|97:258|154:315,1,144,2|0,0:0|0:0,0:0:0:0:
180,377,122172,2,0,B|204:368|204:368|215:337|215:337|239:330,1,72,2|0,0:0|0:0,0:0:0:0:
298,243,122514,5,2,0:3:0:0:
345,243,122600,1,2,0:3:0:0:
372,282,122686,1,10,0:0:0:0:
367,331,122772,1,2,0:3:0:0:
394,368,122857,1,2,0:3:0:0:
438,367,122943,1,2,0:3:0:0:
494,289,123029,6,0,L|316:320,1,180,4|0,1:2|0:0,0:0:0:0:
242,234,123372,2,0,B|267:242|265:275|265:275|243:254|200:266,1,90,10|0,0:0|0:0,0:0:0:0:
116,183,123543,6,0,B|83:133|12:157|4:232|4:232|57:213|95:232|111:289|71:317,1,323.999990112305,0|0,3:0|1:0,0:0:0:0:
58,314,124057,2,0,B|57:301|57:301|52:294|52:294|56:292|56:292|30:53,1,251.999992309571,10|2,0:0|3:2,0:0:0:0:
31,67,124486,1,0,3:0:0:0:
31,67,124572,1,0,1:0:0:0:
15,192,124743,6,0,P|39:223|71:230,1,62.9999980773926,8|0,0:0|0:0,0:0:0:0:
117,183,124914,2,0,B|200:164|200:164|264:220|264:220|312:206|312:206|321:148|321:148|376:128,1,323.999990112305,2|0,3:2|1:0,0:0:0:0:
172,49,125429,2,0,B|183:14|230:9|230:9|240:51|240:51|243:51|243:51|240:54|240:54|249:94,1,161.999995056153,8|0,0:0|3:0,0:0:0:0:
174,381,125772,6,0,B|191:390|214:374|211:363|207:369|225:349|244:351,1,72,0|0,1:0|3:0,0:0:0:0:
349,368,125943,1,0,1:0:0:0:
433,210,126114,6,0,B|447:162|399:115|318:122|297:212|353:252|353:252|397:289|375:342|327:362|271:334|289:265,1,432,10|0,0:0|1:0,0:0:0:0:
26,338,126800,1,10,0:0:0:0:
186,306,126972,2,0,P|197:333|234:351,1,72,0|0,3:0|3:0,0:0:0:0:
334,344,127143,6,0,B|298:383|298:383|424:357,1,161.999995056153,2|0,3:2|1:0,0:0:0:0:
512,337,127486,1,10,0:0:0:0:
441,287,127657,1,2,3:2:0:0:
419,283,127743,1,0,3:0:0:0:
397,279,127829,1,0,3:0:0:0:
203,237,128000,6,0,B|230:248|230:248|215:204,1,72,0|0,1:0|0:0,0:0:0:0:
129,151,128172,2,0,B|138:150|138:150|141:145|141:145|146:148|146:148|370:116,1,242.999992584229,8|0,0:0|3:0,0:0:0:0:
384,112,128514,2,0,B|393:52|393:52|391:47|391:47|394:47|394:47|398:27|398:27|431:-12|479:16,1,161.999995056153,4|0,1:2|3:0,0:0:0:0:
266,9,128857,6,0,L|331:324,1,242.999992584229,10|0,0:0|3:0,0:0:0:0:
339,311,129200,1,2,3:2:0:0:
361,312,129286,1,0,3:0:0:0:
383,314,129372,1,0,1:0:0:0:
502,277,129543,2,0,P|418:283|288:393,1,242.999992584229,10|0,0:0|3:0,0:0:0:0:
201,326,129886,6,0,B|155:320|155:320|134:348|134:348|133:347|133:347|131:353|131:353|112:378|112:378|64:368,1,161.999995056153,2|0,3:2|1:0,0:0:0:0:
0,361,130229,1,10,0:0:0:0:
140,384,130400,2,0,B|145:373|145:373|138:372|138:372|113:97,1,288,2|0,3:2|1:0,0:0:0:0:
0,23,130914,2,0,B|8:63|63:78|84:41|78:42|101:22|128:33,1,144,8|0,0:0|3:0,0:0:0:0:
259,91,131257,6,0,P|302:72|349:76,1,80.9999975280763,2|0,1:2|3:0,0:0:0:0:
397,145,131429,2,0,P|440:164|487:160,1,80.9999975280763,0|0,1:0|0:0,0:0:0:0:
426,8,131600,6,0,B|429:22|429:22|435:23|435:23|430:25|430:25|444:91,1,80.9999975280763,8|0,0:0|0:0,0:0:0:0:
422,235,131772,1,2,3:2:0:0:
512,263,131943,2,0,B|416:237|456:302|349:278,1,161.999995056153,2|2,3:2|1:2,0:0:0:0:
105,236,132286,2,0,B|113:238|113:238|116:236|116:236|116:239|116:239|193:251,1,80.9999975280763,10|0,0:0|0:0,0:0:0:0:
261,270,132457,6,0,B|259:289|259:289|226:318|173:286|174:220|223:178|278:206,1,216,2|0,3:2|3:0,0:0:0:0:
273,188,132800,2,0,B|285:263|285:263|283:267|283:267|296:343,1,144,2|8,1:2|0:0,0:0:0:0:
380,384,133143,6,0,P|418:364|420:321,1,90,2|0,3:2|3:0,0:0:0:0:
500,315,133314,2,0,P|512:273|483:242,1,90,2|0,3:2|3:0,0:0:0:0:
355,206,133486,1,2,1:2:0:0:
355,206,133572,1,0,1:0:0:0:
355,206,133657,6,0,B|300:284|208:227|208:227|228:184|228:184|228:179|228:179|231:178|231:178|243:154|243:154|235:121,1,270,8|0,0:0|3:0,0:0:0:0:
254,67,134000,6,0,B|261:45|261:45|267:38|267:38|266:31|266:31|270:16|270:16|193:-15|172:61,1,180,4|0,1:2|3:0,0:0:0:0:
25,34,134343,2,0,B|23:56|3:73|3:73|63:90,1,90,10|0,0:0|0:0,0:0:0:0:
1,156,134514,6,0,B|69:161|29:98|90:82|117:125|117:125|101:225|101:225|120:145|178:152,1,323.999990112305,0|0,3:0|1:0,0:0:0:0:
146,157,135029,2,0,B|83:167|83:167|79:171|79:171|5:182,1,125.999996154785,10|0,0:0|3:0,0:0:0:0:
56,321,135372,1,2,3:2:0:0:
72,324,135457,1,0,3:0:0:0:
88,327,135543,1,0,1:0:0:0:
208,253,135714,6,0,B|187:270|187:270|233:259,1,62.9999980773926,8|0,0:0|0:0,0:0:0:0:
285,292,135886,2,0,B|290:255|322:228|367:227|391:263|391:263|417:297|454:304|489:277|495:238|495:238|493:270|531:279,1,323.999990112305,2|0,3:2|1:0,0:0:0:0:
358,384,136400,2,0,B|356:374|356:374|358:369|358:369|355:368|355:368|327:206,1,161.999995056153,8|0,0:0|3:0,0:0:0:0:
216,17,136743,6,0,P|231:51|274:63,1,72,0|0,1:0|3:0,0:0:0:0:
377,11,136914,1,0,1:0:0:0:
340,128,137086,6,0,B|307:90|330:27|407:0|464:72|430:132|430:132|406:184|448:223|500:220|539:171|493:116,1,432,10|0,0:0|1:0,0:0:0:0:
344,140,137772,2,0,L|200:128,1,144,10|0,0:0|3:0,0:0:0:0:
117,36,138114,6,0,B|162:59|162:59|39:49,1,161.999995056153,2|0,3:2|1:0,0:0:0:0:
235,16,138457,1,10,0:0:0:0:
188,205,138629,1,2,3:2:0:0:
172,208,138714,1,0,3:0:0:0:
156,211,138800,1,0,3:0:0:0:
65,194,138972,6,0,B|53:166|53:166|36:221,1,72,2|0,1:2|0:0,0:0:0:0:
25,277,139143,2,0,P|115:287|231:402,1,242.999992584229,8|0,0:0|3:0,0:0:0:0:
387,345,139486,2,0,B|400:319|400:319|348:291|303:323|310:384,1,161.999995056153,4|0,1:2|0:0,0:0:0:0:
41,362,139829,6,0,B|54:390|95:399|131:377|134:335|134:335|137:302|164:276|214:287|219:318,1,242.999992584229,10|0,0:0|3:0,0:0:0:0:
284,303,140172,1,2,3:2:0:0:
305,305,140258,1,0,3:0:0:0:
327,309,140343,1,0,1:0:0:0:
499,370,140514,6,0,P|413:319|422:164,1,242.999992584229,10|0,0:0|3:0,0:0:0:0:
508,272,140857,2,0,B|505:287|505:287|485:291|459:276|460:249,1,80.9999975280763,2|0,3:2|3:0,0:0:0:0:
512,201,141029,1,0,1:0:0:0:
459,96,141200,6,0,B|472:91|483:91|482:92|490:100|511:81|498:48|470:54|467:80,1,80.9999975280763,10|0,0:0|0:0,0:0:0:0:
411,31,141372,2,0,B|272:12|272:12|325:157,1,288,2|0,3:2|1:0,0:0:0:0:
315,155,141886,2,0,B|258:139|258:139|218:162|218:162|174:151,1,144,8|0,0:0|3:0,0:0:0:0:
14,57,142229,6,0,P|47:83|57:130,1,80.9999975280763,2|0,1:2|3:0,0:0:0:0:
131,106,142400,2,0,P|135:147|109:188,1,80.9999975280763,0|0,1:0|0:0,0:0:0:0:
28,230,142572,1,8,0:0:0:0:
30,220,142743,5,2,3:2:0:0:
33,321,142914,2,0,P|110:308|164:363,1,144,2|2,3:2|1:2,0:0:0:0:
303,299,143257,1,10,0:0:0:0:
314,303,143429,2,0,B|304:243|304:243|304:231|262:191|237:240|239:253|239:253|248:312|248:312|246:319|246:319|260:392,1,288,2|2,3:2|1:2,0:0:0:0:
277,382,143943,6,0,B|322:398|357:372|349:358|343:369|374:326|425:354,1,144,8|2,0:0|3:2,0:0:0:0:
512,277,144286,1,2,3:2:0:0:
496,280,144371,1,0,3:0:0:0:
480,283,144457,1,2,1:2:0:0:
316,216,144629,6,0,L|300:137,1,80.9999975280763,10|0,0:0|0:0,0:0:0:0:
379,155,144800,2,0,L|363:76,1,80.9999975280763,0|0,1:0|0:0,0:0:0:0:
350,0,144972,5,4,1:2:0:0:
493,199,145486,1,0,1:0:0:0:
493,199,145657,2,0,P|446:205|451:260,1,90,10|0,0:0|1:0,0:0:0:0:
470,362,146172,2,0,P|354:372|279:248,1,270,0|0,1:0|1:0,0:0:0:0:
183,330,146857,5,2,1:2:0:0:
250,363,147029,2,0,L|305:354,1,45,10|0,0:2|0:0,0:0:0:0:
349,209,147372,5,2,1:2:0:0:
349,209,147543,1,10,0:2:0:0:
349,209,147714,2,0,B|185:171|270:280|93:240,1,270,2|2,1:2|1:2,0:0:0:0:
93,240,148400,5,10,0:0:0:0:
26,265,148572,2,0,P|48:306|99:309,1,90,0|2,1:0|3:2,0:0:0:0:
158,177,148914,1,2,1:2:0:0:
158,177,149086,2,0,B|147:94|147:94|149:91|149:91|136:-13,1,180,2|0,0:0|1:0,0:0:0:0:
24,118,149600,6,0,P|35:77|91:68,1,90,2|10,1:2|0:0,0:0:0:0:
226,97,150114,1,2,1:2:0:0:
226,97,150286,1,8,0:0:0:0:
226,97,150457,2,0,B|262:113|262:113|338:38|444:71|444:71|472:44,1,270,2|2,1:2|1:2,0:0:0:0:
327,4,151143,6,0,P|320:45|360:85,1,90,8|0,0:0|1:0,0:0:0:0:
384,206,151657,2,0,B|394:217|392:235|392:235|442:224|460:180|423:100|319:135|325:194|338:227,1,270,0|0,1:0|1:0,0:0:0:0:
470,281,152343,5,2,1:2:0:0:
403,314,152515,2,0,L|348:305,1,45,8|0,0:0|0:0,0:0:0:0:
32,269,152857,5,2,1:2:0:0:
32,269,153029,1,10,0:0:0:0:
32,269,153200,2,0,P|72:356|243:354,1,270,2|0,1:2|1:0,0:0:0:0:
236,290,153886,2,0,P|278:293|296:332,1,90,10|0,0:0|1:0,0:0:0:0:
104,376,154400,5,0,1:0:0:0:
104,376,154572,2,0,B|14:342|24:213|171:183|201:295|201:295|218:347|303:360|337:277|279:213|206:235|212:307,1,540,4|0,0:3|1:0,0:0:0:0:
126,305,155772,1,0,1:0:0:0:
328,72,156629,5,8,0:3:0:0:
357,32,156714,1,8,0:3:0:0:
400,68,156800,1,4,0:3:0:0:
435,26,156886,1,4,0:3:0:0:
470,62,156972,1,8,0:0:0:0:
256,192,157314,5,4,1:3:0:0:
25,37,168286,6,0,B|7:52|7:52|49:38,1,53.9999983520508,8|0,0:3|0:0,0:0:0:0:
107,12,168457,2,0,P|131:61|192:63,1,107.999996704102,4|0,0:3|3:0,0:0:0:0:
512,133,168972,6,0,B|520:119|508:109|508:109|461:124,1,53.9999983520508,4|4,0:3|0:3,0:0:0:0:
412,93,169143,2,0,P|390:140|339:149,1,107.999996704102,8|0,0:3|3:0,0:0:0:0:
173,0,169657,5,0,0:0:0:0:
173,0,169829,2,0,L|206:235,1,215.999993408203,2|0,0:0|0:0,0:0:0:0:
100,303,170343,2,0,B|221:263|183:344|315:303,1,215.999993408203,2|0,3:2|0:0,0:0:0:0:
496,243,171029,2,0,P|420:263|398:404,2,215.999993408203,0|2|2,3:0|0:0|0:0,0:0:0:0:
310,200,172057,6,0,L|202:214,1,107.999996704102,0|0,3:0|3:0,0:0:0:0:
317,193,172400,2,0,L|332:122,2,72,2|0|0,0:0|3:0|0:0,0:0:0:0:
295,360,173086,6,0,B|254:412|150:386|153:287|216:267|215:371,1,215.999993408203,2|2,0:0|0:0,0:0:0:0:
256,192,173772,12,2,175143,0:0:0:0:
256,192,175229,12,2,177886,0:0:0:0:
256,192,177972,12,0,179086,0:0:0:0:
498,71,179257,5,2,1:2:0:0:
406,83,179943,1,2,1:2:0:0:
340,139,180629,1,2,1:2:0:0:
299,218,181314,1,2,1:2:0:0:
251,25,181657,1,2,1:2:0:0:
54,230,182000,5,2,1:2:0:0:
140,237,182686,1,2,1:2:0:0:
201,299,183372,1,2,1:2:0:0:
225,381,184057,1,2,1:2:0:0:
299,218,184400,1,2,1:2:0:0:
494,265,184743,5,2,1:2:0:0:
470,333,185086,1,2,1:2:0:0:
401,340,185429,1,2,1:2:0:0:
401,340,185772,1,2,1:2:0:0:
299,218,186114,5,2,1:2:0:0:
232,185,186286,1,2,1:2:0:0:
170,229,186457,1,2,1:2:0:0:
178,300,186629,1,2,1:2:0:0:
173,320,186800,5,2,1:2:0:0:
143,342,186886,1,2,1:2:0:0:
108,336,186972,1,2,1:2:0:0:
95,304,187057,1,2,1:2:0:0:
108,272,187143,5,2,1:2:0:0:
141,247,187229,1,2,1:2:0:0:
190,247,187314,1,2,1:2:0:0:
237,285,187400,1,2,1:2:0:0:
237,304,187486,5,4,1:3:0:0:
212,42,188172,6,0,B|202:27|202:27|212:2,2,30,0|0|0,3:0|3:0|3:0,0:0:0:0:
256,100,188400,5,0,3:0:0:0:
256,100,188457,2,0,P|301:66|375:70,1,125.999996154785,0|0,3:0|3:0,0:0:0:0:
458,0,188857,2,0,B|474:42|474:42|441:92|441:92|466:149|466:149|500:152|500:152|515:175,1,216,2|0,0:0|0:0,0:0:0:0:
465,217,189200,6,0,P|432:218|404:187,1,72,8|8,0:3|0:3,0:0:0:0:
352,243,189372,2,0,P|327:220|330:178,1,72,4|4,0:3|0:3,0:0:0:0:
322,11,189543,6,0,B|339:22|339:22|357:86|290:123|236:91,1,161.999995056153,2|0,0:0|0:0,0:0:0:0:
138,124,189886,2,0,B|166:103|166:103|211:92|262:126|259:178,1,161.999995056153,2|0,0:0|0:0,0:0:0:0:
0,204,190229,6,0,B|2:186|27:171|49:171|63:191|63:191|78:212|107:211|115:185,1,135,6|0,1:2|0:0,0:0:0:0:
186,176,190572,1,2,3:2:0:0:
10,320,190743,2,0,P|60:370|209:365,1,215.999993408203,2|0,3:2|3:2,0:0:0:0:
267,270,191257,6,0,P|292:234|340:236,1,90,0|2,3:0|3:2,0:0:0:0:
512,265,191600,6,0,B|500:294|500:294|424:306|424:306|407:344,1,135,0|0,1:0|0:0,0:0:0:0:
353,379,191943,2,0,B|343:318|343:318|347:314|347:314|337:242,1,135,0|0,1:0|0:0,0:0:0:0:
472,369,192286,1,8,0:0:0:0:
453,29,192629,6,0,P|439:47|396:51,1,45,2|0,0:0|0:0,0:0:0:0:
353,25,192800,1,2,3:2:0:0:
281,140,192972,6,0,B|323:166|323:166|223:147,1,135,2|0,1:2|0:0,0:0:0:0:
75,132,193314,1,2,3:2:0:0:
130,13,193486,2,0,L|153:127,1,107.999996704102,2|8,3:2|0:0,0:0:0:0:
169,190,193829,1,0,0:0:0:0:
0,279,194000,6,0,P|10:318|70:333,1,90,2|2,3:2|3:2,0:0:0:0:
77,253,194343,6,0,L|129:264,1,53.9999983520508,0|0,1:0|0:0,0:0:0:0:
228,361,194600,6,0,L|291:347,1,53.9999983520508,0|2,1:0|3:2,0:0:0:0:
71,264,194857,6,0,L|79:199,1,53.9999983520508,2|0,1:2|0:0,0:0:0:0:
222,121,195029,6,0,B|205:132|205:132|187:196|254:233|308:201,1,161.999995056153,8|0,0:0|0:0,0:0:0:0:
471,187,195372,6,0,P|457:205|414:209,1,45,2|0,1:2|0:0,0:0:0:0:
387,169,195543,1,2,3:2:0:0:
219,27,195714,6,0,B|177:53|177:53|277:34,1,135,2|0,1:2|0:0,0:0:0:0:
339,27,196057,1,2,3:2:0:0:
476,0,196229,2,0,B|474:10|474:10|477:16|477:16|472:18|472:18|453:114,1,107.999996704102,2|8,3:2|0:0,0:0:0:0:
436,217,196572,1,0,3:0:0:0:
493,378,196743,6,0,B|513:354|513:354|507:323|474:304|444:325,1,107.999996704102,2|2,3:2|3:2,0:0:0:0:
297,295,197086,6,0,P|283:352|215:366,1,135,0|0,1:0|0:0,0:0:0:0:
135,313,197429,2,0,B|123:239|122:239|122:239|125:237|125:237|122:235|122:235|111:172,1,135,0|0,1:0|0:0,0:0:0:0:
149,383,197772,1,8,0:0:0:0:
199,15,198114,6,0,L|209:67,1,45,2|0,0:0|0:0,0:0:0:0:
222,131,198286,1,2,3:2:0:0:
42,171,198457,6,0,B|62:194|52:225|52:225|76:180|134:181,1,135,2|0,1:2|0:0,0:0:0:0:
180,215,198800,1,2,3:2:0:0:
35,86,198972,2,0,B|42:85|42:85|48:80|48:80|53:84|53:84|226:59,1,180,2|0,1:2|0:0,0:0:0:0:
386,67,199486,2,0,B|353:66|345:102|345:102|365:81|393:85,1,90,2|2,3:2|3:2,0:0:0:0:
466,43,199829,6,0,L|459:96,1,45,0|0,1:0|0:0,0:0:0:0:
451,157,200000,1,8,0:0:0:0:
444,213,200172,6,0,L|450:169,1,45,2|0,3:2|0:0,0:0:0:0:
460,87,200343,1,2,1:2:0:0:
423,373,200514,5,8,0:0:0:0:
507,303,200686,1,0,3:0:0:0:
354,317,200857,1,0,1:0:0:0:
346,325,201029,1,10,0:0:0:0:
184,351,201200,6,0,B|190:386|141:409|100:374|117:331|117:331|147:278|122:221|37:206|-14:278|37:333,1,377.999988464356,6|0,1:2|0:0,0:0:0:0:
32,328,201886,5,8,0:0:0:0:
217,383,202057,2,0,B|206:304|206:304|208:300|208:300|196:197,1,180,2|2,0:0|3:2,0:0:0:0:
68,60,202572,6,0,B|47:108|47:108|105:134|147:78,1,135,0|0,1:0|0:0,0:0:0:0:
189,62,202914,2,0,B|210:17|210:17|261:-5|292:35,1,135,0|0,1:0|0:0,0:0:0:0:
129,15,203257,1,8,0:0:0:0:
506,37,203600,6,0,P|489:58|463:65,1,45,2|0,3:2|0:0,0:0:0:0:
413,20,203772,1,2,3:2:0:0:
388,199,203943,2,0,L|274:222,1,90,2|2,1:2|3:2,0:0:0:0:
206,213,204286,6,0,P|219:244|248:254,1,45,2|0,3:2|0:0,0:0:0:0:
175,309,204457,2,0,P|206:321|233:308,1,45,2|0,3:2|0:0,0:0:0:0:
284,298,204629,1,8,0:0:0:0:
509,262,204972,6,0,P|503:285|481:303,1,45,0|0,3:0|0:0,0:0:0:0:
421,282,205143,1,2,3:2:0:0:
371,376,205314,6,0,L|358:314,1,53.9999983520508,0|0,1:0|0:0,0:0:0:0:
262,163,205572,6,0,L|276:101,1,53.9999983520508,0|0,1:0|0:0,0:0:0:0:
498,141,205829,6,0,L|436:155,1,53.9999983520508,0|0,1:0|0:0,0:0:0:0:
424,57,206000,6,0,B|412:23|412:23|353:11|353:11|341:48|302:51,1,161.999995056153,8|0,0:0|0:0,0:0:0:0:
220,40,206343,6,0,L|150:30,1,53.9999983520508,0|0,1:0|0:0,0:0:0:0:
96,24,206514,1,2,3:2:0:0:
13,187,206686,6,0,P|88:129|257:146,1,270,2|2,1:2|0:0,0:0:0:0:
263,150,207372,2,0,B|277:121|277:121|221:107|196:190|241:230,1,180,0|0,1:0|3:0,0:0:0:0:
86,323,208057,6,0,B|96:382|167:407|207:344|186:355|224:310|290:324|305:380,1,270,0|2,1:0|0:0,0:0:0:0:
322,374,208743,2,0,B|329:306|329:306|356:284,1,90,0|0,1:0|0:0,0:0:0:0:
457,336,209086,2,0,B|493:331|493:331|438:350,1,90,0|2,3:0|0:0,0:0:0:0:
348,282,209429,5,2,1:2:0:0:
287,224,209600,1,2,1:2:0:0:
203,244,209772,1,0,1:2:0:0:
175,328,209943,1,2,1:2:0:0:
185,338,210114,5,0,1:0:0:0:
210,351,210200,1,0,1:0:0:0:
244,339,210286,1,0,1:0:0:0:
261,311,210372,1,0,1:0:0:0:
260,263,210457,1,0,1:0:0:0:
287,224,210543,1,0,1:0:0:0:
341,214,210629,1,0,1:0:0:0:
389,259,210714,1,0,1:0:0:0:
367,322,210800,6,2,B|376:406|493:433|538:326|494:277|494:277|397:258|397:258|443:268|439:320|439:320|455:226|455:226|456:225|456:225|456:222|456:222|459:190,1,566.999982696534,2|0,1:2|0:0,0:1:0:0:
474,93,211486,5,8,0:3:0:0:
459,96,211572,1,8,0:3:0:0:
444,99,211657,1,4,0:3:0:0:
429,102,211743,1,4,0:3:0:0:
414,105,211829,5,8,1:2:0:0:
388,39,211943,5,0,1:0:0:0:
343,94,212057,5,0,1:0:0:0:
233,2,212172,6,0,B|207:51|270:98|270:98|283:54|283:54|287:54|287:54|283:53|283:53|295:20,1,180,4|0,1:2|0:0,0:0:0:0:
125,128,212686,2,0,B|142:149|124:193|124:193|167:147|167:147|171:147|171:147|171:146|171:146|217:99|217:99|262:156|218:227|218:227|241:241|261:224,1,360,2|0,0:0|0:0,0:0:0:0:
92,286,213543,6,0,B|141:278|169:319|145:378|145:378|119:371|119:371|116:374|116:374|110:368|110:368|93:364,1,180,2|0,0:0|0:0,0:0:0:0:
1,355,214057,2,0,B|111:250|252:336|252:336|275:312|275:312|248:320|223:300,1,360,2|0,0:0|0:0,0:0:0:0:
315,0,214914,6,0,B|295:38|337:95|383:66|355:63|433:74|416:126,1,180,2|0,0:0|0:0,0:0:0:0:
354,158,215429,2,0,B|400:169|428:142|402:142|441:108|495:138|495:138|482:242|482:242|417:261|417:261|397:219,1,360,2|0,0:0|0:0,0:0:0:0:
218,142,216286,6,0,P|181:152|219:143,1,180,2|0,0:0|0:0,0:0:0:0:
268,87,216800,2,0,B|244:27|182:16|141:64|141:64|116:111|60:113|37:66|37:66|36:43|36:43|8:38|-10:75,1,360,2|0,0:0|0:0,0:0:0:0:
25,268,217657,6,0,P|101:292|124:391,1,180,2|0,0:0|0:0,0:0:0:0:
54,359,218172,2,0,B|232:331|232:331|257:273|257:273|386:303,1,360,2|0,0:0|0:0,0:0:0:0:
478,371,219029,6,0,B|441:327|441:327|454:266|512:279|512:279|512:324,1,180,2|0,0:0|0:0,0:0:0:0:
421,384,219543,2,0,B|447:304|412:228|303:208|303:208|334:276|334:276|335:290|335:290|343:298|343:298|351:317,1,360,2|0,0:0|0:0,0:0:0:0:
479,34,220400,6,0,P|465:98|361:99,1,180,2|0,0:0|0:0,0:0:0:0:
182,94,220914,2,0,B|210:133|239:111|239:111|214:65|245:-1|340:6|363:65|336:121|336:121|323:164|366:190,1,360,2|0,0:0|0:0,0:0:0:0:
440,239,221772,6,0,B|335:213|373:282|240:254,1,180,2|0,0:0|0:0,0:0:0:0:
197,294,222286,2,0,B|220:304|220:304|247:269|215:208|164:234,1,135,2|0,0:0|0:0,0:0:0:0:
119,268,222629,6,0,L|30:276,2,90,2|0|0,0:0|0:0|0:0,0:0:0:0:
265,257,223143,5,6,0:0:0:0:
21,371,234114,6,0,P|59:299|147:309,1,161.999995056153,2|0,0:0|0:0,0:0:0:0:
171,359,234457,2,0,L|230:353,2,53.9999983520508,2|0|2,0:3|0:0|0:3,0:0:0:0:
97,366,234800,5,2,0:0:0:0:
141,188,234972,1,2,0:0:0:0:
203,228,235143,1,2,0:0:0:0:
317,319,235314,6,0,B|329:293|329:293|307:256|307:256|235:249|235:249|215:202|215:202|241:169,2,215.999993408203,2|2|2,0:0|0:0|0:0,0:0:0:0:
454,382,236172,2,0,L|440:315,1,62.9999980773926,2|0,0:3|0:0,0:0:0:0:
428,220,236343,6,0,B|403:254|403:254|474:240,1,107.999996704102,2|2,0:0|0:0,0:0:0:0:
484,237,236686,1,2,0:0:0:0:
397,112,236857,6,0,B|398:117|398:117|402:119|402:119|399:122|399:122|441:323,1,215.999993408203,2|2,0:0|0:0,0:0:0:0:
378,362,237372,1,2,0:0:0:0:
359,294,237543,2,0,B|299:307|339:332|263:355,2,107.999996704102,2|0|2,0:0|0:0|0:0,0:0:0:0:
439,64,238057,6,0,B|449:80|449:80|455:81|455:81|455:86|455:86|466:105|466:105|436:155|349:141|330:39|330:39|349:86|306:117,1,323.999990112305,2|2,0:0|0:0,0:0:0:0:
257,55,238743,2,0,B|174:39|174:39|172:35|172:35|168:37|168:37|150:34|150:34|212:138,1,215.999993408203,2|2,0:0|0:0,0:0:0:0:
109,198,239257,1,2,0:0:0:0:
29,168,239429,1,2,0:0:0:0:
32,257,239600,6,0,P|71:333|288:326,1,323.999990112305,2|0,0:3|0:0,0:0:0:0:
462,370,240286,2,0,B|384:333|316:378|316:378|381:415|437:299|437:299|371:270|312:301|312:301|365:277|364:221,1,540,0|0,0:3|0:0,0:0:0:0:
492,178,241486,5,2,0:0:0:0:
422,167,241657,2,0,L|368:161,2,53.9999983520508,2|0|0,0:0|0:0|0:0,0:0:0:0:
432,264,242000,6,0,P|416:310|362:327,1,107.999996704102,2|0,0:0|0:0,0:0:0:0:
333,384,242343,2,0,B|338:320|284:274|226:297|226:297|234:314|234:314|238:324|238:324|245:327|245:327|258:346,1,215.999993408203,0|2,0:0|0:0,0:0:0:0:
360,249,243029,1,2,0:0:0:0:
310,199,243200,1,0,0:0:0:0:
430,130,243372,6,0,B|353:222|226:185|201:61|201:61|241:145|343:122,1,431.999986816407,2|0,0:0|0:0,0:0:0:0:
385,77,245086,6,0,B|352:66|320:1|320:1|316:31|316:31|316:30|316:30|319:38|319:38|316:61|316:61|314:62|314:62|316:65|316:65|312:112|312:112|348:123|351:174,1,290.250004428864,6|0,1:2|3:0,0:0:0:0:
334,179,245429,2,0,B|330:179|330:179|328:181|328:181|325:179|325:179|256:172,1,72,8|0,0:0|0:0,0:0:0:0:
460,189,245600,1,2,3:2:0:0:
222,31,245772,6,0,B|199:40|190:61|190:61|45:49,1,161.999995056153,2|2,3:2|1:2,0:0:0:0:
10,177,246114,2,0,B|1:160|1:160|23:148|42:163|41:199,1,80.9999975280763,10|0,0:0|0:0,0:0:0:0:
46,276,246286,6,0,B|41:250|41:250|39:232|57:196|103:210|109:238|109:238|115:279|115:279|119:287|119:287|126:319|126:319|132:337|162:355|188:328|185:311|185:311|182:293,1,290.250004428864,2|0,3:2|3:0,0:0:0:0:
268,332,246629,2,0,B|285:282|285:282|225:263|206:325|235:350|235:350|244:362|244:390,1,193.500002952576,2|8,1:2|0:0,0:0:0:0:
11,384,246972,2,0,B|41:400|74:379|71:347|68:358|64:335|92:313|126:329,1,144,2|0,3:2|3:0,0:0:0:0:
372,378,247314,5,2,1:2:0:0:
367,357,247399,1,0,1:0:0:0:
362,336,247485,1,10,0:0:0:0:
322,163,247657,2,0,B|303:186|303:186|360:173,1,72,2|0,3:2|3:0,0:0:0:0:
444,169,247829,6,0,P|432:215|395:250,1,90,2|0,1:2|3:0,0:0:0:0:
426,315,248000,2,0,P|384:339|334:337,1,90,0|0,1:0|0:0,0:0:0:0:
268,332,248172,1,10,0:0:0:0:
229,13,248343,5,2,3:2:0:0:
248,68,248429,1,0,3:0:0:0:
291,91,248514,1,2,3:2:0:0:
340,95,248600,1,0,3:0:0:0:
400,73,248686,1,2,1:2:0:0:
483,14,248857,2,0,B|484:21|484:21|489:24|489:24|486:25|486:25|501:98,1,90,10|0,0:0|0:0,0:0:0:0:
434,168,249029,6,2,B|383:136|331:159|338:219|342:203|348:252|288:281|246:242,1,242.999992584229,2|0,1:2|0:0,0:1:0:0:
219,374,249372,2,2,B|220:359|220:359|216:359|216:359|220:357|220:357|236:122,1,242.999992584229,2|0,1:2|0:0,0:1:0:0:
187,76,249714,2,2,B|190:89|190:89|190:95|190:95|193:100|193:100|195:111|195:111|195:118|195:118|198:122|198:122|201:131|201:131|261:144|299:79|274:8|195:5,1,242.999992584229,2|0,1:2|0:0,0:1:0:0:
215,4,250057,1,2,1:2:0:0:
173,13,250143,1,0,1:0:0:0:
130,21,250229,1,8,0:0:0:0:
0,131,250400,6,0,L|77:137,1,72,2|0,3:2|3:0,0:0:0:0:
166,201,250572,6,0,B|142:159|68:145|19:220|19:220|49:254|90:238|90:238|59:235|51:199,1,290.250004428864,6|0,1:2|3:0,0:0:0:0:
62,224,250914,2,0,B|75:282|75:282|103:290,1,72,8|0,0:0|0:0,0:0:0:0:
248,244,251086,1,2,3:2:0:0:
176,378,251257,6,0,B|171:305|171:305|173:301|173:301|166:203,1,161.999995056153,0|2,3:0|1:2,0:0:0:0:
187,76,251600,2,0,B|163:96|163:96|213:82,1,80.9999975280763,10|0,0:0|0:0,0:0:0:0:
457,14,251772,6,0,P|357:51|324:226,1,290.250004428864,2|0,3:2|3:0,0:0:0:0:
385,192,252114,2,0,B|405:187|405:187|416:167|416:167|448:157,1,72,0|0,1:0|0:0,0:0:0:0:
372,265,252286,1,8,0:0:0:0:
512,59,252457,6,0,B|499:88|457:102|421:76|421:76|403:49|377:40|353:55,1,161.999995056153,2|0,3:2|3:0,0:0:0:0:
263,7,252800,5,0,1:0:0:0:
268,28,252886,1,0,1:0:0:0:
273,49,252971,1,10,0:0:0:0:
116,52,253143,2,0,L|192:40,1,72,0|0,3:0|3:0,0:0:0:0:
270,130,253314,6,0,B|275:129|275:129|277:129|277:129|277:124|277:124|279:128|279:128|359:115,2,90,2|0|0,1:2|3:0|1:0,0:0:0:0:
111,148,253657,2,0,B|96:144|80:161|80:161|46:186|-10:169|-24:121|31:67|31:67|73:140,1,270,10|0,0:0|3:0,0:0:0:0:
45,249,254000,2,0,B|55:256|45:271|26:262|22:239|31:251|24:234|6:225|-10:231|-1:253|12:253,1,72,2|0,3:2|3:0,0:0:0:0:
126,218,254172,1,0,1:0:0:0:
91,368,254343,6,0,B|83:329|113:301|151:306|170:337|170:337|192:373|237:369|257:342|250:311,1,242.999992584229,8|0,0:0|3:0,0:0:0:0:
250,239,254686,2,0,P|211:250|182:298,1,90,0|0,3:0|3:0,0:0:0:0:
337,287,254857,2,0,P|318:321|331:376,1,90,2|0,1:2|0:0,0:0:0:0:
324,213,255029,1,10,0:0:0:0:
504,257,255200,5,2,3:2:0:0:
503,303,255286,1,0,3:0:0:0:
476,335,255372,1,0,3:0:0:0:
439,354,255457,1,0,3:0:0:0:
386,338,255543,1,2,1:2:0:0:
452,87,255714,2,0,B|483:62|483:62|419:77,1,90,10|0,0:0|0:0,0:0:0:0:
366,7,255886,2,0,B|378:31|378:31|366:67|323:61,1,90,2|0,3:2|3:0,0:0:0:0:
253,91,256057,6,0,B|236:63|236:63|204:59|204:59|202:56|202:56|199:59|199:59|178:56|178:56|198:95|138:144|138:144|107:53,1,290.250004428864,6|0,1:2|3:0,0:0:0:0:
17,97,256400,2,0,B|11:83|11:83|31:76|52:95|51:115,1,72,8|0,0:0|0:0,0:0:0:0:
50,17,256572,1,0,3:0:0:0:
3,325,256743,6,0,B|-1:348|22:365|41:370|66:348|66:348|79:331|105:330|127:346|127:366,1,161.999995056153,2|2,3:2|1:2,0:0:0:0:
287,227,257086,2,0,B|309:229|321:218|321:218|310:248|254:239,1,80.9999975280763,10|0,0:0|0:0,0:0:0:0:
202,214,257257,6,0,B|210:248|210:248|214:257|227:265|253:259|253:259|287:252|300:259|303:277|303:277|308:299|308:299|312:310|305:323|273:328|273:328|252:334|242:342|246:362|246:362|249:386,1,290.250004428864,2|0,3:2|3:0,0:0:0:0:
227,378,257600,2,0,B|214:306|214:306|215:303|215:303|175:88,1,290.250004428864,2|0,1:2|0:0,0:0:0:0:
138,37,257943,2,0,B|120:66|120:66|175:91|211:63|186:49|210:34|237:49,1,144,2|0,3:2|3:0,0:0:0:0:
395,74,258286,5,2,1:2:0:0:
416,69,258371,1,0,1:0:0:0:
437,64,258457,1,10,0:0:0:0:
301,40,258629,2,0,B|319:16|319:16|305:73,1,72,2|0,3:2|0:0,0:0:0:0:
269,143,258800,6,0,P|296:180|346:194,1,90,2|0,1:2|3:0,0:0:0:0:
305,271,258972,2,0,P|350:278|395:252,1,90,0|0,1:0|0:0,0:0:0:0:
412,169,259143,1,10,0:0:0:0:
479,254,259314,5,2,3:2:0:0:
504,317,259399,1,0,3:0:0:0:
483,358,259485,1,2,3:2:0:0:
434,382,259571,1,0,3:0:0:0:
388,355,259656,1,2,1:2:0:0:
227,240,259829,2,0,B|232:231|232:231|201:242|201:242|201:246|201:246|173:255|173:255|181:238,1,90,10|0,0:0|0:0,0:0:0:0:
56,301,260000,6,2,B|58:275|58:275|44:261|44:261|23:382|23:382|32:380|32:380|37:358|37:358|65:334|104:355,1,242.999992584229,2|0,1:2|3:0,0:1:0:0:
139,338,260343,2,2,B|143:321|143:321|135:311|135:311|108:386|108:386|114:385|114:385|120:372|120:372|141:360|163:377,1,161.999995056153,2|8,1:2|0:0,0:1:0:0:
253,365,260686,2,2,B|242:295|242:295|245:290|245:290|231:194,1,161.999995056153,2|0,1:2|3:0,0:1:0:0:
160,11,261029,5,2,1:2:0:0:
158,23,261115,1,0,1:0:0:0:
194,28,261200,2,0,P|161:77|72:72,1,144,10|2,0:0|3:2,0:0:0:0:
423,53,261543,5,0,1:0:0:0:
423,53,261714,2,0,B|434:38|434:38|342:17|342:17|358:101,1,180,0|0,1:2|1:0,0:0:0:0:
494,251,262229,2,0,L|449:244,1,45,8|0,0:0|0:0,0:0:0:0:
209,213,262572,5,0,1:0:0:0:
209,213,262743,2,0,B|191:247|191:247|226:260|245:229,1,90,0|0,1:0|3:0,0:0:0:0:
383,303,263086,1,0,1:0:0:0:
383,303,263257,2,0,L|338:296,1,45,8|0,0:0|0:0,0:0:0:0:
104,256,263600,5,2,1:2:0:0:
104,256,263772,1,2,1:2:0:0:
104,256,263943,2,0,B|100:303|141:311|141:308|169:321|166:371|166:371|154:338|131:338,1,180,10|0,0:2|1:0,0:0:0:0:
21,340,264457,6,0,L|201:314,1,180,0|0,1:0|1:0,0:0:0:0:
268,304,264972,1,8,0:0:0:0:
277,314,265315,5,0,1:0:0:0:
277,314,265486,2,0,L|290:222,1,90,0|0,1:0|0:0,0:0:0:0:
494,251,265829,1,0,1:0:0:0:
494,251,266000,2,0,L|449:244,1,45,8|0,0:0|0:0,0:0:0:0:
112,233,267029,6,0,B|195:71|195:71|216:195|216:195|219:199|219:199|217:205|217:205|224:250|224:250|223:252|223:252|226:257|226:257|240:352|240:352|337:216,1,630,4|0,1:2|0:0,0:0:0:0:
323,130,267714,6,2,B|278:310|278:310|271:359|314:424|409:390|422:344|422:344|487:54|487:54|384:-27|273:61|392:177|207:206|124:151|124:53|124:53|198:71|198:71|104:-5|14:70|53:150|82:162,1,1480.49997740936,10|0,0:0|1:0,0:1:0:0:
66,148,269086,6,0,L|165:138,1,90,10|0,0:0|0:0,0:0:0:0:
230,135,269257,1,2,0:0:0:0:
120,352,269429,2,0,B|82:389|82:389|117:251,1,180,2|10,1:2|3:2,0:0:0:0:
152,32,269772,6,0,B|160:57|160:57|193:78|230:57,1,90,2|0,1:2|0:0,0:0:0:0:
240,39,269943,2,0,B|261:9|295:10|295:10|320:25,1,90,2|0,1:2|0:0,0:0:0:0:
377,66,270114,1,2,0:0:0:0:
512,36,270286,2,2,B|523:15|523:15|460:-11|424:80|466:131,1,180,2|8,1:2|0:0,0:1:0:0:
512,275,270629,6,2,B|486:246|447:244|416:276|422:317|422:317|433:354|415:391|363:399|330:353,1,270,2|0,1:2|3:0,0:1:0:0:
328,382,270972,2,2,B|312:308|312:308|313:304|313:304|303:244|303:244|297:223|268:216,1,180,2|0,1:2|3:0,0:1:0:0:
103,312,271314,2,2,B|81:332|81:332|144:320,1,90,2|0,1:2|0:0,0:1:0:0:
224,372,271486,2,2,B|212:304|212:304|210:303|210:303|200:238|200:238|239:322|307:308,1,270,0|0,1:0|0:0,0:1:0:0:
402,196,271829,6,0,P|395:229|346:244,1,90,10|0,0:0|0:0,0:0:0:0:
275,218,272000,1,0,1:0:0:0:
266,199,272086,1,0,1:0:0:0:
249,179,272172,1,0,1:0:0:0:
225,174,272257,1,0,1:0:0:0:
197,180,272343,1,8,0:0:0:0:
66,193,272514,6,0,B|61:178|61:178|92:170|103:208|86:231,1,90,4|0,1:2|0:0,0:0:0:0:
33,269,272686,5,2,3:2:0:0:
68,246,272772,1,2,3:2:0:0:
119,264,272858,1,2,3:2:0:0:
130,292,272944,1,2,3:2:0:0:
146,347,273029,1,2,3:2:0:0:
193,384,273115,1,2,3:2:0:0:
260,371,273201,1,10,0:0:0:0:
330,342,273372,6,2,B|276:217|276:217|459:270,1,310.500005922318,2|0,1:2|3:0,0:1:0:0:
382,170,273714,2,2,B|411:143|456:157|459:199|459:199|423:186|396:199|379:222|383:255,1,207.000003948212,2|0,1:2|3:0,0:1:0:0:
512,329,274057,6,0,L|424:344,1,90,2|0,3:2|0:0,0:0:0:0:
352,384,274229,2,2,B|366:303|281:277|281:277|310:339,1,180,2|0,3:2|1:0,0:1:0:0:
478,70,274572,6,2,P|451:38|392:41,1,90,10|0,0:0|0:0,0:1:0:0:
345,0,274743,2,2,P|305:14|288:70,1,90,2|0,0:0|0:0,0:1:0:0:
233,101,274914,2,2,P|233:142|280:178,1,90,2|0,1:2|0:0,0:1:0:0:
382,170,275086,1,10,0:0:0:0:
426,8,275257,6,2,L|231:39,1,180,2|2,1:0|3:2,0:1:0:0:
152,24,275514,2,2,B|134:1|134:1|104:100|104:100|117:99|117:99|122:101|122:101|125:98|125:98|149:94,1,180,2|2,1:2|3:2,0:1:0:0:
168,165,275772,2,2,L|70:180,1,90,2|0,1:2|0:0,0:1:0:0:
28,121,275943,1,10,0:0:0:0:
28,121,276114,5,2,1:2:0:0:
0,327,276286,2,0,P|23:366|70:378,1,90,2|0,3:2|0:0,0:0:0:0:
119,330,276457,2,0,P|146:298|193:295,1,90,2|0,1:2|3:0,0:0:0:0:
291,346,276629,1,2,1:2:0:0:
291,346,276800,6,0,B|275:258|275:258|278:252|278:252|261:161,2,180,2|2|2,3:2|1:2|3:2,0:0:0:0:
191,294,277314,1,0,1:0:0:0:
306,251,277486,1,0,1:0:0:0:
132,230,277657,1,8,0:0:0:0:
239,96,278000,6,2,B|252:75|252:75|258:72|258:72|256:71|256:71|264:57|264:57|269:52|269:52|269:51|269:51|281:24|281:24|157:9|139:109|190:193|190:193|281:163|281:163|256:231|256:231|313:242|313:242|281:302|281:302|311:334|311:334|270:382,1,724.500013818741,6|0,1:2|0:0,0:1:0:0:
288,377,278686,6,0,B|313:391|335:369|330:347|328:359|344:338|377:348,1,90,8|0,0:0|0:0,0:0:0:0:
510,378,278857,1,0,1:0:0:0:
449,187,279029,2,0,B|501:215|501:215|361:194,1,180,0|2,3:0|1:2,0:0:0:0:
390,124,279372,5,2,3:2:0:0:
369,83,279458,1,2,3:2:0:0:
327,53,279544,1,2,3:2:0:0:
276,60,279629,1,2,3:2:0:0:
244,98,279715,1,2,3:2:0:0:
219,161,279801,1,2,3:2:0:0:
181,123,279887,1,0,1:0:0:0:
151,145,279972,1,2,3:2:0:0:
87,113,280057,6,2,B|93:122|118:97|118:97|86:150|140:212|140:212|165:148|231:175,1,270,10|0,0:0|0:0,0:1:0:0:
175,286,280400,2,0,B|180:306|164:313|163:321|136:323|132:304|148:303|127:278|100:287,1,90,0|0,1:0|3:0,0:0:0:0:
33,313,280572,1,8,0:0:0:0:
294,384,280743,6,0,B|276:365|276:365|267:331|293:298,1,90,2|0,1:2|0:0,0:0:0:0:
323,196,280914,2,0,B|323:222|323:222|341:252|383:257,1,90,0|0,3:0|3:0,0:0:0:0:
512,284,281086,6,0,B|522:260|522:260|496:251|465:273|463:303,1,90,2|0,1:2|0:0,0:0:0:0:
430,361,281257,2,0,B|420:385|420:385|395:373|388:335|408:312,1,90,0|0,1:0|0:0,0:0:0:0:
438,214,281429,1,10,0:0:0:0:
447,26,281600,5,2,1:2:0:0:
444,61,281686,1,2,1:2:0:0:
411,89,281772,1,2,3:2:0:0:
359,92,281857,1,0,3:0:0:0:
312,51,281943,1,2,1:2:0:0:
208,15,282114,2,0,B|192:18|192:18|189:16|189:16|188:19|188:19|116:34,1,90,0|0,3:0|0:0,0:0:0:0:
51,26,282286,6,0,B|40:1|40:1|13:75,1,103.500001974106,0|0,1:0|0:0,0:1:0:0:
31,140,282457,2,0,L|133:117,1,103.500001974106,2|0,1:2|0:0,0:1:0:0:
288,304,282800,6,0,B|297:243|234:231|234:231|212:252|212:252|237:262|243:302,1,180,8|0,0:0|1:0,0:1:0:0:
159,365,283143,1,0,1:0:0:0:
112,373,283228,1,0,1:0:0:0:
68,376,283314,2,0,L|83:286,1,90,8|0,0:0|0:0,0:0:0:0:
13,247,283486,6,0,B|45:152|162:177|162:177|98:344|98:344|198:384|243:277,1,535.500010213852,0|0,1:0|3:0,0:0:0:0:
242,270,284172,1,2,1:2:0:0:
229,255,284257,1,0,0:0:0:0:
23,28,284514,5,0,3:0:0:0:
26,69,284600,1,0,3:0:0:0:
58,94,284686,1,0,3:0:0:0:
90,100,284772,1,0,3:0:0:0:
140,83,284857,2,0,L|240:64,1,90,2|0,1:2|0:0,0:0:0:0:
512,182,285200,5,0,3:0:0:0:
498,128,285286,1,0,3:0:0:0:
448,169,285372,1,0,3:0:0:0:
431,131,285457,1,0,3:0:0:0:
391,144,285543,2,0,L|291:125,1,90,2|0,1:2|0:0,0:0:0:0:
23,28,285886,5,0,3:0:0:0:
26,69,285972,1,0,3:0:0:0:
58,94,286058,1,0,3:0:0:0:
90,100,286144,1,0,3:0:0:0:
126,81,286229,5,2,1:2:0:0:
158,42,286314,1,2,3:2:0:0:
204,36,286400,1,2,3:2:0:0:
244,74,286486,1,2,3:2:0:0:
242,105,286572,5,2,1:2:0:0:
254,117,286657,2,0,L|354:98,2,76.5000014591217,2|2|2,3:2|3:2|3:2,0:0:0:0:
197,192,286914,5,2,1:2:0:0:
209,204,287000,2,0,L|309:185,2,76.5000014591217,2|2|2,3:2|3:2|3:2,0:0:0:0:
160,278,287257,5,2,1:2:0:0:
172,290,287343,2,0,L|272:271,2,76.5000014591217,2|2|2,3:2|3:2|3:2,0:0:0:0:
43,181,287600,5,2,1:0:0:0:
30,259,287714,1,0,1:0:0:0:
95,302,287829,1,0,1:0:0:0:
88,299,287943,5,0,1:0:0:0:
160,278,288057,1,0,1:0:0:0:
224,306,288172,1,0,1:0:0:0:
245,301,288286,5,0,1:0:0:0:
294,246,288400,1,0,1:0:0:0:
363,265,288514,1,0,1:0:0:0:
512,321,288629,6,0,P|387:212|400:396,1,414.000007896424,4|0,1:0|0:0,0:0:0:0:
