osu file format v14

[General]
AudioFilename: audio.mp3
AudioLeadIn: 0
PreviewTime: 244143
Countdown: 0
SampleSet: Soft
StackLeniency: 0.4
Mode: 0
LetterboxInBreaks: 0
WidescreenStoryboard: 0

[Editor]
Bookmarks: 44172
DistanceSpacing: 0.9
BeatDivisor: 4
GridSize: 4
TimelineZoom: 2.599999

[Metadata]
Title:Aquila
TitleUnicode:Aquila
Artist:EVO+
ArtistUnicode:EVO+
Creator:Bellicose
Version:Promise
Source:
Tags:toybot vikala rage quit Sunazuka Akira necho japanese rock electronic drum and bass dnb evolution NaturaLe Treow
BeatmapID:2960494
BeatmapSetID:1107531

[Difficulty]
HPDrainRate:6
CircleSize:4
OverallDifficulty:9
ApproachRate:9.4
SliderMultiplier:2
SliderTickRate:1

[Events]
//Background and Video events
0,0,"bg13413431.jpg",0,0
//Break Periods
2,34086,43632
2,157514,167746
2,223343,233574
//Storyboard Layer 0 (Background)
//Storyboard Layer 1 (Fail)
//Storyboard Layer 2 (Pass)
//Storyboard Layer 3 (Foreground)
//Storyboard Layer 4 (Overlay)
//Storyboard Sound Samples

[TimingPoints]
972,342.857142857143,4,2,4,45,1,0
11600,-100,4,2,7,60,0,0
11943,-95.2380952380952,4,2,1,65,0,0
14343,-95.2380952380952,4,2,4,65,0,0
14686,-95.2380952380952,4,2,1,65,0,0
20857,-95.2380952380952,4,2,1,45,0,0
21543,-95.2380952380952,4,2,1,50,0,0
22229,-95.2380952380952,4,2,1,60,0,0
22914,-76.9230769230769,4,2,1,70,0,0
33543,-76.9230769230769,4,2,1,60,0,0
44172,-76.9230769230769,4,2,1,55,0,0
44857,-100,4,2,1,50,0,0
54286,-83.3333333333333,4,2,1,60,0,0
54972,-100,4,2,1,65,0,0
55314,-100,4,2,1,70,0,0
55486,-66.6666666666667,4,2,1,70,0,0
55829,-71.4285714285714,4,2,1,75,0,1
57029,-66.6666666666667,4,2,1,75,0,1
58572,-71.4285714285714,4,2,1,75,0,1
59772,-66.6666666666667,4,2,1,75,0,1
60972,-62.5,4,2,1,75,0,1
61314,-71.4285714285714,4,2,1,75,0,1
62514,-66.6666666666667,4,2,1,75,0,1
64057,-71.4285714285714,4,2,1,75,0,1
65257,-66.6666666666667,4,2,1,75,0,1
65429,-66.6666666666667,4,2,1,70,0,0
66286,-71.4285714285714,4,2,1,50,0,0
66800,-100,4,2,1,50,0,0
76400,-100,4,2,1,40,0,0
76743,-111.111111111111,4,2,1,40,0,0
77772,-125,4,2,1,40,0,0
78457,-100,4,2,1,60,0,0
78800,-100,4,2,1,70,0,0
79143,-62.5,4,2,1,75,0,1
79486,-66.6666666666667,4,2,1,75,0,1
84629,-62.5,4,2,1,75,0,1
84972,-66.6666666666667,4,2,1,75,0,1
85143,-66.6666666666667,4,2,5,75,0,1
85657,-66.6666666666667,4,2,1,75,0,1
85829,-66.6666666666667,4,2,5,75,0,1
86172,-66.6666666666667,4,2,1,75,0,1
86514,-66.6666666666667,4,2,5,75,0,1
86857,-66.6666666666667,4,2,1,75,0,1
90114,-62.5,4,2,1,75,0,1
90457,-66.6666666666667,4,2,1,75,0,1
94057,-62.5,4,2,1,75,0,1
95086,-66.6666666666667,4,2,1,75,0,1
95600,-125,4,2,1,70,0,0
96286,-66.6666666666667,4,2,1,70,0,0
96800,-125,4,2,1,70,0,0
97314,-66.6666666666667,4,2,1,70,0,0
97657,-125,4,2,1,70,0,0
99029,-66.6666666666667,4,2,1,70,0,0
99543,-125,4,2,1,70,0,0
100057,-66.6666666666667,4,2,1,70,0,0
100400,-200,4,2,1,50,0,0
101086,-142.857142857143,4,2,1,60,0,0
101429,-62.5,4,2,1,60,0,0
101772,-71.4285714285714,4,2,1,60,0,0
101943,-71.4285714285714,4,2,1,60,0,0
102114,-62.5,4,2,1,60,0,0
102457,-71.4285714285714,4,2,1,60,0,0
103143,-66.6666666666667,4,2,1,60,0,0
107257,-64.5161290322581,4,2,1,60,0,0
107943,-71.4285714285714,4,2,1,60,0,0
112057,-76.9230769230769,4,2,1,60,0,0
112143,-400,4,2,1,5,0,0
114800,-333.333333333333,4,2,1,15,0,0
116172,-250,4,2,1,50,0,0
117543,-200,4,2,1,50,0,0
118914,-166.666666666667,4,2,1,50,0,0
120286,-142.857142857143,4,2,1,35,0,0
121657,-125,4,2,1,45,0,0
122172,-100,4,2,1,60,0,0
122514,-100,4,2,1,55,0,0
123029,-83.3333333333333,4,2,1,55,0,0
133143,-76.9230769230769,4,2,1,60,0,0
133657,-66.6666666666667,4,2,1,60,0,0
134000,-76.9230769230769,4,2,1,55,0,0
144972,-100,4,2,1,50,0,0
154914,-111.111111111111,4,2,1,40,0,0
155943,-125,4,2,1,50,0,0
157314,-125,4,2,5,50,0,0
168286,-100,4,2,4,60,0,0
179257,-100,4,2,1,55,0,0
181314,-83.3333333333333,4,2,1,55,0,0
182000,-100,4,2,1,55,0,0
184057,-83.3333333333333,4,2,1,55,0,0
186114,-83.3333333333333,4,2,1,60,0,0
187486,-83.3333333333333,4,2,5,60,0,0
188172,-83.3333333333333,4,2,2,50,0,0
188857,-71.4285714285714,4,2,1,50,0,0
189200,-83.3333333333333,4,2,1,60,0,0
189543,-71.4285714285714,4,2,1,60,0,0
190229,-90.9090909090909,4,2,1,65,0,0
201200,-83.3333333333333,4,2,1,65,0,0
206686,-100,4,2,1,60,0,0
209429,-83.3333333333333,4,2,1,60,0,0
210114,-83.3333333333333,4,2,1,55,0,0
210457,-83.3333333333333,4,2,1,60,0,0
210800,-58.8235294117647,4,2,1,65,0,0
211829,-58.8235294117647,4,2,1,55,0,0
212172,-142.857142857143,4,2,1,50,0,0
234114,-100,4,2,1,60,0,0
243372,-83.3333333333333,4,2,1,65,0,0
245086,-62.5,4,2,1,75,0,1
245429,-66.6666666666667,4,2,1,75,0,1
250572,-62.5,4,2,1,75,0,1
250914,-66.6666666666667,4,2,1,75,0,1
251086,-66.6666666666667,4,2,5,75,0,1
251600,-66.6666666666667,4,2,1,75,0,1
251772,-66.6666666666667,4,2,5,75,0,1
252114,-66.6666666666667,4,2,1,75,0,1
252457,-66.6666666666667,4,2,5,75,0,1
252800,-66.6666666666667,4,2,1,75,0,1
256057,-62.5,4,2,1,75,0,1
256400,-66.6666666666667,4,2,1,75,0,1
260000,-62.5,4,2,1,75,0,1
261029,-66.6666666666667,4,2,1,75,0,1
261543,-125,4,2,1,70,0,0
263257,-66.6666666666667,4,2,1,70,0,0
264286,-125,4,2,1,70,0,0
264972,-66.6666666666667,4,2,1,70,0,0
265486,-125,4,2,1,70,0,0
266000,-66.6666666666667,4,2,1,70,0,0
267029,-83.3333333333333,4,2,1,60,0,0
267714,-52.0833333333333,4,2,1,70,0,0
269086,-62.5,4,2,1,70,0,0
278000,-50,4,2,1,75,0,1
278686,-58.8235294117647,4,2,1,75,0,1
279200,-62.5,4,2,1,75,0,1
280057,-52.6315789473684,4,2,1,75,0,1
280400,-62.5,4,2,1,75,0,1
283486,-71.4285714285714,4,2,1,65,0,0
288629,-45.4545454545455,4,2,5,65,0,0

[Colours]
Combo1 : 226,143,243
Combo2 : 139,222,254
Combo3 : 253,206,240
Combo4 : 150,166,254

[HitObjects]
237,47,971,6,0,P|197:106|57:94,1,200,6|0,0:0|0:0,0:0:0:0:
74,24,1486,2,0,B|135:10|135:10|178:93|178:93|158:167,1,200,2|0,0:0|0:0,0:0:0:0:
222,223,2000,1,2,0:0:0:0:
222,223,2172,2,0,L|121:244,1,100,0|0,3:0|0:0,0:0:0:0:
45,312,2514,2,0,B|-15:236|-15:236|58:164,1,200,2|0,0:0|0:0,0:0:0:0:
124,243,3029,2,0,B|194:263|194:263|245:238|245:238|327:258,1,200,2|0,3:2|3:0,0:0:0:0:
512,38,3714,6,0,P|451:90|478:21,2,200,0|2|2,3:0|0:0|0:0,0:0:0:0:
512,38,4743,2,0,L|398:58,1,100,0|0,3:0|3:0,0:0:0:0:
386,154,5086,5,2,0:0:0:0:
482,132,5257,1,0,3:0:0:0:
454,234,5429,2,0,L|340:254,1,100,2|0,0:0|0:0,0:0:0:0:
454,234,5772,2,0,P|506:265|443:380,1,200,2|6,3:2|0:0,0:0:0:0:
229,135,6457,6,0,B|317:120|317:120|339:52|339:52|316:13,1,200,2|0,3:2|3:0,0:0:0:0:
209,32,6972,2,0,B|137:126|262:109|172:229,1,200,2|0,0:0|0:0,0:0:0:0:
316,208,7486,1,2,0:0:0:0:
316,208,7657,2,0,P|286:248|300:318,1,100,0|0,3:0|0:0,0:0:0:0:
392,327,8000,2,0,L|174:360,1,200,2|0,0:0|0:0,0:0:0:0:
117,269,8514,2,0,B|123:309|160:327|160:327|130:405|32:361,1,200,2|0,3:2|3:0,0:0:0:0:
84,42,9200,6,0,B|25:125|25:125|-1:28,2,200,0|2|2,3:0|0:0|0:0,0:0:0:0:
84,42,10229,2,0,L|199:20,1,100,0|0,3:0|3:0,0:0:0:0:
251,101,10572,5,2,0:0:0:0:
149,124,10743,1,0,3:0:0:0:
215,201,10914,2,0,L|196:299,1,100,0|0,3:0|3:0,0:0:0:0:
127,373,11257,2,0,B|86:347|86:347|26:370,1,100,0|0,3:0|3:0,0:0:0:0:
13,258,11600,1,2,0:3:0:0:
13,258,11686,1,2,0:3:0:0:
13,258,11772,1,2,0:3:0:0:
13,258,11857,1,2,0:3:0:0:
13,258,11943,6,0,P|83:318|194:271,1,209.999993591309,6|0,1:2|3:0,0:0:0:0:
302,179,12457,2,0,L|247:192,1,52.4999983978272,2|0,0:0|0:0,0:0:0:0:
281,268,12629,2,0,B|252:219|252:219|293:125|293:125|264:63,1,209.999993591309,2|0,3:2|3:0,0:0:0:0:
217,17,13143,1,2,0:0:0:0:
174,91,13314,5,0,1:0:0:0:
174,91,13486,2,0,B|265:39|265:39|373:72,1,209.999993591309,2|2,0:0|0:0,0:0:0:0:
508,22,14000,2,0,B|474:34|474:34|446:64|463:120,1,104.999996795654,2|0,3:2|0:0,0:0:0:0:
512,234,14343,1,0,3:0:0:0:
512,234,14429,1,0,3:0:0:0:
512,234,14514,1,0,3:0:0:0:
512,234,14600,1,0,3:0:0:0:
512,234,14686,6,0,B|484:260|484:260|432:275|368:235|377:159,2,209.999993591309,0|2|2,1:0|0:0|0:0,0:0:0:0:
512,234,15714,2,0,L|492:362,1,104.999996795654,2|0,3:2|3:0,0:0:0:0:
406,266,16057,5,2,1:2:0:0:
385,375,16229,1,0,3:0:0:0:
300,313,16400,2,0,L|196:329,1,104.999996795654,0|0,3:0|3:0,0:0:0:0:
93,377,16743,2,0,P|177:324|155:211,1,209.999993591309,2|2,3:2|0:0,0:0:0:0:
86,120,17257,2,0,L|34:130,1,52.4999983978272,2|0,0:0|0:0,0:0:0:0:
23,224,17429,6,0,B|163:198|163:198|227:230,1,209.999993591309,0|0,1:0|3:0,0:0:0:0:
412,72,18114,2,0,B|307:94|307:94|358:-24,1,209.999993591309,0|0,1:0|3:0,0:0:0:0:
512,240,18800,2,0,B|453:261|401:227|401:227|343:278|417:343,1,209.999993591309,0|0,1:0|3:0,0:0:0:0:
152,384,19486,2,0,B|174:298|174:298|109:263|109:263|86:187,1,209.999993591309,0|0,1:0|3:0,0:0:0:0:
367,41,20172,5,0,1:0:0:0:
343,150,20343,1,0,1:0:0:0:
148,109,20514,5,0,1:0:0:0:
172,0,20685,1,0,1:0:0:0:
272,78,20857,5,0,1:0:0:0:
282,75,20943,1,0,1:0:0:0:
289,67,21029,1,0,1:0:0:0:
292,57,21114,1,0,1:0:0:0:
290,46,21200,1,0,1:0:0:0:
283,37,21286,1,0,1:0:0:0:
272,33,21372,1,0,1:0:0:0:
262,36,21457,1,0,1:0:0:0:
254,43,21543,5,2,0:3:0:0:
289,67,21629,1,2,0:3:0:0:
330,73,21714,1,2,0:3:0:0:
369,59,21800,1,2,0:3:0:0:
398,28,21886,1,2,0:3:0:0:
439,21,21972,1,2,0:3:0:0:
479,32,22057,1,2,0:3:0:0:
506,63,22143,1,2,0:3:0:0:
510,104,22229,6,0,P|494:128|502:169,1,52.4999983978272,8|8,0:3|0:3,0:0:0:0:
397,216,22400,2,0,P|412:237|413:262,1,52.4999983978272,4|4,0:3|0:3,0:0:0:0:
494,361,22572,1,8,0:0:0:0:
494,361,22914,6,0,L|512:266,1,64.9999970245363,6|0,1:2|3:0,0:0:0:0:
413,262,23086,2,0,L|349:274,1,64.9999970245363,2|0,3:2|3:0,0:0:0:0:
281,327,23257,1,8,3:2:0:0:
110,379,23429,2,2,B|195:357|195:357|174:244|259:298|234:169,1,259.999988098145,2|2,3:2|1:2,0:1:0:0:
151,207,23943,1,8,0:0:0:0:
358,87,24114,6,2,B|299:122|299:122|253:85|253:85|196:116|196:116|148:63,1,259.999988098145,2|2,3:2|1:2,0:1:0:0:
268,0,24629,2,0,L|252:84,1,64.9999970245363,8|0,0:0|0:0,0:0:0:0:
339,193,24800,2,2,P|445:226|500:107,1,259.999988098145,2|2,3:2|1:2,0:1:0:0:
507,7,25314,2,0,P|473:7|446:27,1,64.9999970245363,10|0,0:0|0:0,0:0:0:0:
357,41,25486,2,0,P|339:67|339:99,1,64.9999970245363,2|0,3:2|3:0,0:0:0:0:
499,199,25657,6,0,L|419:183,1,64.9999970245363,2|0,1:2|3:0,0:0:0:0:
339,193,25829,2,0,L|275:205,1,64.9999970245363,2|0,1:2|0:0,0:0:0:0:
160,202,26000,1,10,0:0:0:0:
26,103,26172,2,2,B|70:147|70:147|39:192|39:192|46:200|46:200|5:258|5:258|49:302,1,259.999988098145,2|0,3:2|1:0,0:1:0:0:
123,368,26686,1,10,0:0:0:0:
0,384,26857,6,2,P|50:309|210:319,1,259.999988098145,2|0,3:2|1:0,0:1:0:0:
339,193,27372,2,0,L|275:205,1,64.9999970245363,10|0,0:0|0:0,0:0:0:0:
205,315,27543,2,0,B|265:378|334:355|334:355|354:282|441:297,1,259.999988098145,2|2,3:0|1:2,0:0:0:0:
447,332,27972,1,0,1:0:0:0:
489,345,28057,2,0,P|508:323|508:282,1,64.9999970245363,10|0,0:0|0:0,0:0:0:0:
498,200,28229,2,0,P|476:181|435:181,1,64.9999970245363,2|0,3:2|3:0,0:0:0:0:
320,320,28400,6,0,L|332:256,1,64.9999970245363,6|0,1:2|3:0,0:0:0:0:
308,171,28572,2,0,L|295:107,1,64.9999970245363,2|0,3:2|3:0,0:0:0:0:
322,14,28743,1,10,0:0:0:0:
215,123,28914,2,2,P|290:156|385:81,1,194.999991073609,2|0,3:2|3:0,0:1:0:0:
378,99,29257,2,2,B|405:71|461:75|461:75|517:108,1,129.999994049073,2|8,1:2|0:0,0:1:0:0:
322,14,29600,6,2,B|212:34|212:34|196:27|196:27|62:51,1,259.999988098145,2|2,3:2|1:2,0:1:0:0:
0,207,30114,2,0,L|17:118,1,64.9999970245363,8|0,0:0|0:0,0:0:0:0:
0,207,30286,2,2,B|46:166|112:190|112:190|117:202|117:202|185:226|244:180,1,259.999988098145,2|2,3:2|1:2,0:1:0:0:
327,238,30800,2,0,P|345:211|344:179,1,64.9999970245363,10|0,0:0|0:0,0:0:0:0:
396,99,30972,2,0,P|369:80|337:81,1,64.9999970245363,2|0,3:2|3:0,0:0:0:0:
197,29,31143,6,0,L|215:119,1,64.9999970245363,2|0,1:2|3:0,0:0:0:0:
237,184,31314,2,0,L|219:274,1,64.9999970245363,2|0,1:2|0:0,0:0:0:0:
211,350,31486,1,10,0:0:0:0:
337,356,31657,2,2,B|270:381|214:329|214:329|141:330|98:394,1,259.999988098145,2|0,3:2|1:0,0:1:0:0:
7,343,32172,1,10,0:0:0:0:
118,229,32343,5,2,3:1:0:0:
118,229,32514,1,0,1:0:0:0:
21,96,32686,5,2,0:1:0:0:
21,96,32857,1,0,1:0:0:0:
154,0,33029,5,2,0:1:0:0:
154,0,33200,1,0,1:0:0:0:
250,132,33372,5,2,1:0:0:0:
250,132,33543,1,0,1:0:0:0:
294,123,33629,1,0,1:0:0:0:
339,116,33714,1,0,1:0:0:0:
384,109,33800,1,0,1:0:0:0:
429,103,33886,1,4,1:2:0:0:
375,370,44172,6,0,P|386:336|374:296,1,64.9999970245363,2|8,0:3|0:3,0:0:0:0:
463,270,44343,2,0,P|452:239|457:207,1,64.9999970245363,4|4,0:3|0:3,0:0:0:0:
398,110,44514,1,0,1:0:0:0:
388,147,44600,1,0,1:0:0:0:
358,173,44686,1,0,1:0:0:0:
319,182,44772,1,0,1:0:0:0:
280,170,44857,6,0,B|270:119|215:115|215:115|196:186|135:189|135:189|127:134|55:124,1,300,4|0,1:2|3:0,0:0:0:0:
161,21,45543,1,8,0:0:0:0:
161,21,45714,2,0,L|268:4,1,100,0|0,1:0|3:0,0:0:0:0:
325,62,46057,1,0,1:0:0:0:
427,15,46229,6,0,P|366:82|510:153,1,300,2|0,3:2|1:0,0:0:0:0:
450,93,46914,2,0,P|419:174|419:323,1,200,8|0,0:0|1:0,0:0:0:0:
386,384,47429,1,8,0:0:0:0:
485,354,47600,1,0,1:0:0:0:
325,208,47943,6,0,P|293:248|235:237,1,100,0|0,1:0|1:0,0:0:0:0:
207,352,48286,1,8,0:0:0:0:
207,352,48457,2,0,B|159:304|100:289|100:289|71:319|-8:321,1,200,0|0,1:0|1:0,0:0:0:0:
96,384,48972,6,0,B|197:285|-19:214|214:222|151:101,1,300,2|0,3:2|1:0,0:0:0:0:
208,5,49657,2,0,P|169:62|40:51,1,200,8|0,0:0|1:0,0:0:0:0:
92,161,50172,1,8,0:0:0:0:
17,225,50343,2,0,L|232:190,1,200,0|2,1:0|0:3,0:0:0:0:
297,261,50857,1,0,1:0:0:0:
395,220,51029,2,0,P|410:174|380:128,1,100,8|0,0:0|1:0,0:0:0:0:
297,261,51372,2,0,P|282:307|312:353,1,100,0|0,3:0|1:0,0:0:0:0:
410,384,51714,1,2,3:2:0:0:
475,42,52057,5,0,1:0:0:0:
493,62,52142,1,0,1:0:0:0:
484,89,52229,1,0,1:0:0:0:
456,95,52315,1,0,1:0:0:0:
512,83,52400,2,0,B|419:103|464:34|367:46|367:46|403:32|417:-1,1,200,10|0,0:0|1:0,0:0:0:0:
512,83,52914,1,8,0:0:0:0:
380,137,53086,6,0,B|259:123|326:214|186:183,1,200,2|0,1:2|3:0,0:0:0:0:
232,96,53600,1,2,1:2:0:0:
195,29,53772,1,10,0:0:0:0:
157,21,53943,1,2,1:2:0:0:
136,28,54114,1,2,3:2:0:0:
58,121,54286,6,2,L|37:250,1,119.999996337891,2|0,1:2|0:0,0:1:0:0:
454,263,54629,6,2,L|475:134,1,119.999996337891,2|0,1:2|0:0,0:1:0:0:
270,18,54972,6,2,B|317:71|317:71|254:127,1,150,4|0,1:3|0:0,0:1:0:0:
185,216,55314,5,0,1:0:0:0:
259,203,55400,1,0,1:0:0:0:
334,188,55486,2,0,B|327:248|327:248|285:287|285:287|313:327|313:327|304:392,1,225.000008583069,8|0,0:0|0:0,0:0:0:0:
219,352,55829,6,2,L|80:382,1,139.999995727539,6|0,1:2|3:0,0:1:0:0:
0,333,56086,1,0,3:0:0:0:
0,333,56172,2,0,L|28:201,1,69.9999978637696,8|0,3:2|0:0,0:0:0:0:
82,381,56343,2,2,P|140:309|77:181,1,209.999993591309,2|0,3:2|3:0,0:1:0:0:
91,112,56686,1,2,1:2:0:0:
91,112,56772,1,0,1:0:0:0:
91,112,56857,2,0,P|56:116|31:144,1,69.9999978637696,8|0,0:0|0:0,0:0:0:0:
110,203,57029,6,2,B|268:231|268:231|333:187,1,225.000008583069,2|0,3:2|3:0,0:1:0:0:
407,262,57372,2,2,L|436:86,1,150.000005722046,2|8,1:2|0:0,0:1:0:0:
511,42,57629,1,0,3:0:0:0:
511,42,57714,2,2,P|433:84|338:1,1,225.000008583069,2|0,3:2|3:0,0:1:0:0:
233,10,58057,2,0,P|213:32|142:22,1,75.0000028610231,2|0,1:2|0:0,0:0:0:0:
107,69,58229,2,0,P|126:46|197:56,1,75.0000028610231,8|0,0:0|0:0,0:0:0:0:
321,194,58400,1,0,3:0:0:0:
321,194,58486,1,0,3:0:0:0:
321,194,58572,6,0,L|299:67,1,69.9999978637696,2|0,1:2|3:0,0:0:0:0:
201,202,58743,2,0,L|212:270,1,69.9999978637696,2|0,1:2|0:0,0:0:0:0:
290,375,58914,2,0,P|308:347|286:298,1,69.9999978637696,8|0,0:0|0:0,0:0:0:0:
212,270,59086,2,2,B|322:288|322:288|336:309|336:309|416:322,1,209.999993591309,2|0,3:2|3:0,0:1:0:0:
498,292,59429,2,0,L|509:223,1,69.9999978637696,2|0,1:2|0:0,0:0:0:0:
512,128,59600,2,0,L|500:59,1,69.9999978637696,8|0,0:0|0:0,0:0:0:0:
389,20,59772,6,2,B|307:92|307:92|405:212,1,225.000008583069,2|0,3:2|3:0,0:1:0:0:
512,128,60114,2,2,B|405:119|479:196|345:180,1,150.000005722046,2|8,1:2|0:0,0:1:0:0:
310,282,60372,1,0,3:0:0:0:
310,282,60457,2,2,P|236:220|102:253,1,225.000008583069,2|0,3:2|3:0,0:1:0:0:
3,204,60800,5,0,1:0:0:0:
12,128,60886,1,0,1:0:0:0:
21,52,60972,2,2,B|118:96|190:6|190:6|175:95|251:117,1,320,10|6,0:0|1:2,0:1:0:0:
438,28,61486,5,2,3:2:0:0:
438,28,61572,1,0,3:0:0:0:
438,28,61657,2,0,L|356:44,1,69.9999978637696,8|0,3:2|0:0,0:0:0:0:
238,112,61829,2,2,B|317:53|317:53|330:54|330:54|412:140,1,209.999993591309,2|0,3:2|3:0,0:1:0:0:
497,169,62172,1,2,1:2:0:0:
497,169,62257,1,0,1:0:0:0:
497,169,62343,2,0,L|510:100,1,69.9999978637696,8|0,0:0|0:0,0:0:0:0:
397,125,62514,6,2,B|350:254|492:196|414:360,1,225.000008583069,2|0,3:2|3:0,0:1:0:0:
313,384,62857,2,2,P|276:346|303:242,1,150.000005722046,2|8,1:2|0:0,0:1:0:0:
277,156,63114,1,0,3:0:0:0:
277,156,63200,2,2,B|254:96|171:104|171:104|153:173|64:143,1,225.000008583069,2|0,3:2|3:0,0:1:0:0:
0,262,63543,5,2,1:2:0:0:
71,231,63629,1,0,1:0:0:0:
9,186,63714,2,0,L|42:372,1,150.000005722046,8|0,0:0|3:0,0:0:0:0:
124,377,63972,1,0,3:0:0:0:
124,377,64057,6,0,P|149:358|197:368,1,69.9999978637696,2|0,1:2|3:0,0:0:0:0:
348,284,64229,2,0,L|219:307,1,69.9999978637696,2|0,1:2|0:0,0:0:0:0:
207,198,64400,2,0,P|188:223|198:278,1,69.9999978637696,8|0,0:0|0:0,0:0:0:0:
279,296,64572,2,2,B|328:197|328:197|287:102,1,209.999993591309,2|0,3:2|3:0,0:1:0:0:
164,38,64914,2,0,L|232:25,1,69.9999978637696,0|0,1:0|0:0,0:0:0:0:
327,0,65086,2,0,L|395:12,1,69.9999978637696,8|0,0:0|0:0,0:0:0:0:
512,70,65257,6,2,P|437:102|444:188,1,150.000005722046,2|0,3:2|1:0,0:1:0:0:
438,384,65600,6,0,B|494:370|527:283|478:180|284:172|227:312|347:421|421:273,1,450.000017166138,2|0,0:0|1:0,0:1:0:0:
429,162,66286,2,0,P|428:122|397:92,1,69.9999978637696,0|0,1:0|0:0,0:0:0:0:
313,47,66457,1,0,1:0:0:0:
264,57,66543,1,0,1:0:0:0:
234,96,66629,1,0,1:0:0:0:
232,144,66714,1,0,1:0:0:0:
257,186,66800,6,0,B|137:148|193:262|46:215,1,200,6|2,1:2|0:0,0:0:0:0:
0,141,67314,1,0,1:0:0:0:
48,32,67486,1,10,0:0:0:0:
48,32,67657,2,0,B|146:10|146:10|173:18|173:18|264:-5,1,200,0|0,1:0|1:0,0:0:0:0:
242,0,68343,2,0,L|222:115,1,100,2|0,3:2|3:0,0:0:0:0:
245,260,68686,5,2,1:2:0:0:
279,176,68857,1,10,0:2:0:0:
359,134,69029,1,2,0:2:0:0:
448,143,69200,1,2,1:2:0:0:
512,206,69372,1,10,0:2:0:0:
456,317,69543,6,0,B|405:362|405:362|434:213,1,200,2|0,1:2|1:0,0:0:0:0:
512,206,70057,1,2,1:2:0:0:
508,105,70229,2,0,B|464:132|464:132|392:115,1,100,10|0,0:0|1:0,0:0:0:0:
320,172,70572,1,2,3:2:0:0:
320,172,70743,2,0,P|384:131|360:19,1,200,2|0,1:2|1:0,0:0:0:0:
54,192,71429,6,0,B|-11:211|12:146|71:136|151:171|127:229,1,200,2|0,3:2|3:2,0:0:0:0:
218,285,71943,2,0,P|252:296|283:285,1,50,2|0,1:2|1:0,0:0:0:0:
287,217,72114,2,0,P|252:205|221:216,1,50,8|0,0:0|3:0,0:0:0:0:
128,223,72286,6,0,B|101:98|101:98|141:84|155:50,1,200,2|0,1:2|3:0,0:0:0:0:
75,2,72800,1,2,1:2:0:0:
3,105,72972,1,8,0:0:0:0:
3,105,73143,2,0,P|80:153|195:124,2,200,0|0|0,1:0|1:0|1:0,0:0:0:0:
170,326,74172,5,2,1:2:0:0:
88,383,74343,2,0,P|69:341|102:270,1,100,8|0,0:0|3:0,0:0:0:0:
164,230,74686,1,2,1:2:0:0:
81,290,74857,1,10,0:0:0:0:
170,326,75029,2,0,B|296:288|243:386|365:337,1,200,2|0,1:2|1:0,0:0:0:0:
512,128,75714,5,10,0:0:0:0:
512,128,75886,2,0,B|442:102|442:102|400:158|400:158|345:166,1,200,0|0,1:0|1:0,0:0:0:0:
276,109,76400,1,4,1:3:0:0:
512,128,76743,5,0,3:0:0:0:
512,128,76914,2,0,B|466:175|392:144|387:50|467:37|467:37|398:25|398:25,1,269.999991760254,2|8,0:0|0:3,0:0:0:0:
331,20,77600,1,4,0:3:0:0:
331,20,77772,6,0,P|294:44|239:32,1,80,2|2,0:0|0:0,0:0:0:0:
227,39,78029,2,0,L|238:-11,1,40,2|0,0:0|3:0,0:0:0:0:
340,207,78457,5,8,0:3:0:0:
363,214,78543,1,8,0:3:0:0:
383,186,78628,1,4,0:3:0:0:
337,172,78714,1,4,0:3:0:0:
343,244,78800,2,0,B|330:286|330:286|357:321|357:321|341:383,1,150,10|0,0:0|0:0,0:0:0:0:
447,282,79143,6,0,P|360:333|220:304,1,240,6|0,1:2|3:0,0:0:0:0:
154,241,79486,2,0,B|89:279|89:279|150:367,1,150.000005722046,8|0,0:0|3:0,0:0:0:0:
235,316,79743,1,0,3:0:0:0:
235,316,79829,2,0,L|251:225,1,75.0000028610231,2|0,3:2|3:0,0:0:0:0:
288,149,80000,2,0,L|272:58,1,75.0000028610231,2|0,1:2|0:0,0:0:0:0:
212,0,80172,1,10,0:0:0:0:
137,108,80343,6,0,B|110:172|48:183|-7:144|-7:144|23:129|33:84,1,225.000008583069,2|0,3:2|3:0,0:0:0:0:
97,19,80686,2,0,P|175:9|221:110,1,150.000005722046,2|8,1:2|0:0,0:0:0:0:
189,235,81029,2,0,P|290:145|393:188,1,225.000008583069,2|0,3:2|3:0,0:0:0:0:
390,259,81372,5,2,1:2:0:0:
434,251,81457,1,0,1:0:0:0:
478,244,81543,2,0,B|483:187|483:187|511:165|511:165|517:109,1,150.000005722046,10|2,0:0|3:2,0:0:0:0:
452,12,81800,1,0,3:0:0:0:
452,12,81886,6,0,P|415:38|428:89,1,75.0000028610231,2|0,1:2|3:0,0:0:0:0:
366,163,82057,2,0,L|272:179,1,75.0000028610231,0|0,1:0|0:0,0:0:0:0:
209,117,82229,1,10,0:0:0:0:
67,296,82400,1,2,3:2:0:0:
95,261,82486,1,0,3:0:0:0:
123,226,82572,1,2,3:2:0:0:
106,184,82657,1,0,3:0:0:0:
89,142,82743,1,2,1:2:0:0:
280,249,82914,2,0,L|292:175,1,75.0000028610231,10|0,0:0|0:0,0:0:0:0:
67,296,83086,6,2,B|224:295|105:388|294:380,1,225.000008583069,2|0,1:2|0:0,0:1:0:0:
356,350,83429,2,2,B|389:367|389:367|467:344|467:344|503:364,1,150.000005722046,2|0,1:2|3:0,0:1:0:0:
508,155,83772,2,2,P|419:134|430:-1,1,225.000008583069,2|0,1:2|0:0,0:1:0:0:
480,70,84114,5,2,1:2:0:0:
447,101,84200,1,0,1:0:0:0:
401,101,84286,1,8,0:0:0:0:
189,16,84457,6,0,L|276:2,1,75.0000028610231,2|0,3:2|3:0,0:0:0:0:
306,98,84629,6,0,B|279:262|279:262|212:302,1,240,6|0,1:2|3:0,0:0:0:0:
125,384,84972,2,0,P|108:349|134:301,1,75.0000028610231,8|0,0:0|0:0,0:0:0:0:
215,299,85143,2,0,P|140:221|34:268,1,225.000008583069,2|0,3:2|3:0,0:0:0:0:
0,144,85486,2,0,L|16:54,1,75.0000028610231,2|0,1:2|0:0,0:0:0:0:
133,17,85657,2,0,P|142:52|125:85,1,75.0000028610231,10|0,0:0|0:0,0:0:0:0:
41,256,85829,6,0,B|147:237|147:237|162:245|162:245|278:223,1,225.000008583069,2|0,3:2|3:0,0:0:0:0:
352,273,86172,1,0,1:0:0:0:
512,137,86343,1,8,0:0:0:0:
337,22,86514,2,0,B|442:-22|442:-22|411:94,1,225.000008583069,2|0,3:2|3:0,0:0:0:0:
341,147,86857,5,0,1:0:0:0:
296,140,86943,1,0,1:0:0:0:
251,134,87029,2,0,B|263:197|263:197|274:207|274:207|285:274|285:274|277:284|277:284|289:354,1,225.000008583069,10|0,0:0|3:0,0:0:0:0:
184,382,87372,6,0,B|168:346|168:346|199:288,1,75.0000028610231,2|0,1:2|3:0,0:0:0:0:
288,348,87543,2,0,L|385:363,1,75.0000028610231,0|0,1:0|0:0,0:0:0:0:
467,382,87714,2,0,P|501:288|383:221,1,225.000008583069,10|0,0:0|3:0,0:0:0:0:
310,259,88057,2,0,L|325:162,1,75.0000028610231,2|0,3:2|3:0,0:0:0:0:
415,216,88229,2,0,B|465:155|465:155|416:73,1,150.000005722046,0|8,1:0|0:0,0:0:0:0:
221,163,88572,6,0,B|155:114|198:34|198:34|242:25|272:0,1,225.000008583069,2|0,3:2|3:0,0:0:0:0:
366,15,88914,1,2,1:2:0:0:
221,163,89086,1,10,0:0:0:0:
12,117,89257,2,0,L|104:100,1,75.0000028610231,2|0,3:2|3:0,0:0:0:0:
181,65,89429,2,0,L|254:78,1,75.0000028610231,0|0,3:0|3:0,0:0:0:0:
426,111,89600,5,2,1:2:0:0:
382,120,89686,1,0,1:0:0:0:
339,129,89772,1,10,0:0:0:0:
504,255,89943,6,0,B|525:221|525:221|505:172,1,75.0000028610231,2|0,3:2|3:0,0:0:0:0:
421,18,90114,6,0,P|392:122|375:258,1,240,6|0,1:2|3:0,0:0:0:0:
331,383,90457,2,0,P|396:339|465:348,1,150.000005722046,8|0,0:0|3:0,0:0:0:0:
504,255,90714,1,0,3:0:0:0:
504,255,90800,2,0,P|522:222|500:178,1,75.0000028610231,2|0,3:2|3:0,0:0:0:0:
426,111,90972,2,0,L|291:135,1,75.0000028610231,2|0,1:2|0:0,0:0:0:0:
286,209,91143,1,10,0:0:0:0:
166,96,91314,6,0,B|179:33|260:18|296:48|296:48|261:65|257:113,1,225.000008583069,2|0,3:2|3:0,0:0:0:0:
286,209,91657,2,0,B|206:180|230:261|121:212,1,150.000005722046,2|8,1:2|0:0,0:0:0:0:
4,373,92000,2,0,P|39:274|26:108,1,225.000008583069,2|0,3:2|3:0,0:0:0:0:
1,55,92343,5,2,1:2:0:0:
32,22,92429,1,0,1:0:0:0:
76,22,92514,2,0,B|125:44|125:44|183:36|225:3,1,150.000005722046,10|2,0:0|3:2,0:0:0:0:
310,81,92772,1,0,3:0:0:0:
310,81,92857,6,0,P|323:118|295:156,1,75.0000028610231,2|0,1:2|3:0,0:0:0:0:
203,194,93029,2,0,P|189:228|205:261,1,75.0000028610231,0|0,1:0|0:0,0:0:0:0:
261,369,93200,1,10,0:0:0:0:
496,261,93372,1,2,3:2:0:0:
460,288,93457,1,0,3:0:0:0:
424,316,93543,1,2,3:2:0:0:
381,300,93629,1,0,3:0:0:0:
339,283,93714,1,2,1:2:0:0:
187,381,93886,2,0,L|330:357,1,75.0000028610231,10|0,0:0|0:0,0:0:0:0:
496,261,94057,6,2,B|428:195|428:195|485:134|485:134|463:75,1,240,2|0,1:2|0:0,0:1:0:0:
364,11,94400,2,2,B|287:-4|287:-4|209:47,1,160,2|8,1:2|0:0,0:1:0:0:
116,224,94743,2,2,B|155:206|163:156|163:156|266:125|215:226|354:144,1,240,2|0,1:2|3:0,0:1:0:0:
384,227,95086,6,0,P|406:186|401:152,1,75.0000028610231,2|0,1:2|1:0,0:0:0:0:
364,11,95257,2,0,P|342:52|347:86,1,75.0000028610231,10|0,0:0|0:0,0:0:0:0:
512,135,95429,5,2,3:2:0:0:
512,135,95514,1,0,3:0:0:0:
512,135,95600,1,0,1:0:0:0:
308,167,95772,6,0,L|163:189,1,120,0|0,1:0|0:0,0:0:0:0:
189,185,96114,1,0,1:0:0:0:
308,167,96286,6,0,B|208:105|208:105|250:298,1,300.000011444092,8|0,0:0|1:0,0:0:0:0:
47,344,96800,6,0,P|86:303|49:228,1,120,0|0,1:0|0:0,0:0:0:0:
74,245,97143,1,0,1:0:0:0:
47,344,97314,6,0,B|141:316|97:399|199:368,1,150.000005722046,8|0,0:0|0:0,0:0:0:0:
335,268,97657,5,2,1:2:0:0:
262,318,97829,1,2,1:2:0:0:
250,230,98000,1,10,0:0:0:0:
177,280,98172,1,2,0:3:0:0:
347,356,98343,1,0,1:0:0:0:
323,180,98514,6,0,L|304:61,1,120,0|0,1:0|0:0,0:0:0:0:
304,61,98857,1,0,1:0:0:0:
323,180,99029,6,0,B|219:124|219:124|407:64,1,300.000011444092,8|0,0:0|1:0,0:0:0:0:
512,194,99543,6,0,P|464:207|417:152,1,120,0|0,1:0|0:0,0:0:0:0:
418,161,99886,1,0,1:0:0:0:
512,194,100057,6,0,P|450:231|462:322,1,150.000005722046,8|0,0:0|0:0,0:0:0:0:
82,198,101086,6,0,L|12:209,1,69.9999978637696,4|0,1:2|0:0,0:0:0:0:
12,208,101429,2,0,B|52:172|52:172|132:209|132:209|131:252|131:252|214:291|214:291|245:260,1,320,2|8,0:3|0:0,0:0:0:0:
368,153,101943,1,0,1:0:0:0:
254,5,102114,2,2,B|223:12|223:12|218:24|218:24|180:34,3,80,0|0|0|0,3:0|3:0|3:0|3:0,0:1:0:0:
347,0,102457,6,0,P|367:22|369:61,1,69.9999978637696,2|0,3:2|0:0,0:0:0:0:
397,95,102629,2,0,P|395:124|369:153,1,69.9999978637696,2|0,3:2|0:0,0:0:0:0:
365,232,102800,2,0,P|343:252|303:254,1,69.9999978637696,2|0,3:2|3:0,0:0:0:0:
212,302,102972,2,0,P|182:300|153:274,1,69.9999978637696,2|0,1:2|3:0,0:0:0:0:
9,168,103143,6,0,P|33:145|77:143,1,75.0000028610231,10|0,0:0|0:0,0:0:0:0:
116,110,103315,2,0,P|149:111|182:141,1,75.0000028610231,2|0,0:0|0:0,0:0:0:0:
270,146,103486,2,0,P|292:170|294:214,1,75.0000028610231,2|0,1:2|3:0,0:0:0:0:
349,319,103658,2,0,P|347:352|317:385,1,75.0000028610231,10|0,0:0|0:0,0:0:0:0:
146,364,103829,6,2,P|142:297|224:239,1,150.000005722046,2|0,1:2|3:0,0:1:0:0:
295,210,104086,2,2,P|362:214|420:132,1,150.000005722046,0|0,1:0|0:0,0:1:0:0:
506,100,104343,2,2,P|514:55|454:-3,1,75.0000028610231,0|0,1:0|0:0,0:1:0:0:
383,0,104514,5,10,0:0:0:0:
349,29,104600,1,2,0:3:0:0:
361,72,104686,1,2,1:3:0:0:
327,101,104772,1,2,0:3:0:0:
282,107,104857,1,2,0:3:0:0:
253,73,104943,1,2,0:3:0:0:
210,85,105029,1,2,1:3:0:0:
181,51,105115,1,2,0:3:0:0:
132,73,105200,5,2,1:3:0:0:
132,73,105257,2,0,L|120:134,1,50.0000019073487,2|2,0:3|0:3,0:0:0:0:
124,58,105372,2,0,L|63:70,2,50.0000019073487,2|2|2,0:0|0:3|0:3,0:0:0:0:
0,49,105543,5,2,1:3:0:0:
0,49,105600,2,0,L|12:-12,1,50.0000019073487,2|2,0:3|0:3,0:0:0:0:
0,60,105715,2,0,L|61:48,2,50.0000019073487,2|2|2,0:0|0:3|0:3,0:0:0:0:
35,143,105886,5,10,0:0:0:0:
133,7,106057,5,2,1:2:0:0:
124,58,106143,1,2,1:2:0:0:
161,94,106229,1,2,1:2:0:0:
152,145,106315,1,2,1:2:0:0:
189,181,106400,1,10,0:2:0:0:
180,232,106486,1,10,0:2:0:0:
119,293,106572,5,2,1:3:0:0:
160,265,106657,1,2,0:3:0:0:
212,268,106743,1,2,0:3:0:0:
252,298,106829,1,2,0:3:0:0:
273,344,106914,1,2,0:3:0:0:
320,363,107000,1,2,0:3:0:0:
370,353,107086,2,0,L|385:258,1,75.0000028610231,2|0,1:3|0:0,0:0:0:0:
508,162,107257,6,2,B|469:200|407:183|407:183|301:150|319:263|208:231|208:231|94:196|139:319|-13:271,1,542.500004138947,10|0,0:0|3:0,0:1:0:0:
75,373,107943,6,0,P|121:313|101:231,1,139.999995727539,0|0,1:0|3:0,0:0:0:0:
43,188,108200,2,0,B|13:159|13:159|4:105|58:62,1,139.999995727539,0|0,1:0|3:0,0:0:0:0:
136,0,108457,2,0,L|148:68,1,69.9999978637696,0|0,1:0|3:0,0:0:0:0:
43,188,108629,6,2,P|118:154|203:226,1,139.999995727539,10|0,0:0|3:0,0:1:0:0:
261,119,108886,2,2,P|336:153|421:81,1,139.999995727539,2|0,0:0|3:0,0:1:0:0:
478,190,109143,2,2,L|465:258,1,69.9999978637696,2|0,0:0|3:0,0:1:0:0:
423,362,109314,6,2,B|341:313|341:313|325:311|325:311|227:350,2,209.999993591309,2|2|2,1:2|3:2|1:2,0:1:0:0:
478,190,110000,5,10,0:0:0:0:
478,190,110086,2,0,P|495:155|480:108,1,69.9999978637696,0|0,3:0|3:0,0:0:0:0:
336,169,110257,5,10,0:0:0:0:
336,169,110343,2,0,P|357:201|406:211,1,69.9999978637696,0|0,3:0|0:0,0:0:0:0:
417,52,110514,6,0,P|378:54|344:91,1,69.9999978637696,2|0,3:0|3:0,0:0:0:0:
275,11,110686,5,2,1:2:0:0:
275,11,110743,5,2,0:0:0:0:
275,11,110800,6,2,B|261:28|237:38|237:38|209:37|185:24,1,93.3333304850261,2|2,0:0|0:0,0:1:0:0:
97,183,111029,6,2,B|117:125|189:110|221:153|221:153|197:164|183:193,1,209.999993591309,2|0,1:2|0:0,0:1:0:0:
254,304,111372,5,10,0:3:0:0:
314,352,111486,5,10,0:3:0:0:
385,322,111600,5,10,0:3:0:0:
396,246,111714,5,6,0:3:0:0:
336,199,111829,5,6,0:3:0:0:
264,228,111943,5,2,1:3:0:0:
325,274,112057,6,0,B|394:338|505:312|537:208|537:208|314:266|468:128|213:135|184:264|162:366|162:366|144:238|211:137|322:73|455:85|455:85|313:-9|97:78|52:220|52:220|151:134|150:15|150:15|72:8|25:78|25:78,1,2079.99990478516,0|0,1:0|0:0,0:0:0:0:
256,192,116172,12,0,120114,0:0:0:0:
418,39,120286,6,0,P|361:76|285:65,1,139.999995727539,2|0,0:0|0:0,0:0:0:0:
212,22,120800,2,0,B|177:8|177:8|109:31|132:116,1,139.999995727539,2|0,0:0|0:0,0:0:0:0:
168,171,121314,2,0,B|221:160|221:160|248:179|248:179|319:167,1,139.999995727539,2|0,0:0|0:0,0:0:0:0:
410,220,121829,2,0,L|392:310,1,80,2|0,0:0|0:0,0:0:0:0:
294,365,122172,2,0,L|193:385,1,100,2|0,0:0|0:0,0:0:0:0:
43,345,122514,5,2,0:3:0:0:
82,342,122600,1,2,0:3:0:0:
112,310,122686,1,10,0:0:0:0:
118,262,122772,1,2,0:3:0:0:
150,222,122857,1,2,0:3:0:0:
205,212,122943,1,2,0:3:0:0:
258,243,123029,6,0,B|211:282|211:282|237:156,1,179.999994506836,4|0,1:2|3:0,0:0:0:0:
212,83,123372,2,0,P|267:133|443:124,1,239.999992675781,10|2,0:0|3:2,0:0:0:0:
490,73,123800,1,0,3:0:0:0:
490,73,123886,2,0,B|440:35|440:35|374:61,1,119.999996337891,0|10,1:0|0:0,0:0:0:0:
502,217,124229,1,0,3:0:0:0:
502,217,124314,1,0,3:0:0:0:
502,217,124400,6,0,B|445:251|445:251|384:235|384:235|319:269|325:351,1,239.999992675781,2|8,3:2|0:0,0:0:0:0:
454,368,124914,2,0,B|477:215|352:302|370:151,1,239.999992675781,2|0,3:2|1:0,0:0:0:0:
498,9,125429,2,0,P|409:67|290:39,1,179.999994506836,8|0,0:0|3:0,0:0:0:0:
276,5,125772,6,0,P|257:24|255:64,1,59.9999981689454,0|0,1:0|3:0,0:0:0:0:
290,135,125943,1,0,1:0:0:0:
238,270,126114,2,0,B|288:230|272:168|272:168|115:200,1,239.999992675781,10|0,0:0|3:0,0:0:0:0:
95,267,126543,1,0,3:0:0:0:
95,267,126629,2,0,P|27:262|12:351,1,119.999996337891,0|10,1:0|0:0,0:0:0:0:
60,155,126972,1,0,3:0:0:0:
60,155,127057,1,0,3:0:0:0:
60,155,127143,6,0,B|57:88|-7:63|-7:63|54:82|110:42,1,239.999992675781,2|10,3:2|0:0,0:0:0:0:
289,10,127657,2,0,P|205:58|212:157,1,179.999994506836,2|0,3:2|3:0,0:0:0:0:
227,214,128000,1,0,1:0:0:0:
305,109,128172,2,0,B|413:74|362:172|488:125,1,179.999994506836,8|0,0:0|3:0,0:0:0:0:
506,52,128514,6,0,L|477:256,1,179.999994506836,4|0,1:2|3:0,0:0:0:0:
490,325,128857,2,0,P|432:316|390:384,1,119.999996337891,10|0,0:0|3:0,0:0:0:0:
301,384,129114,1,0,3:0:0:0:
301,384,129200,2,0,B|261:337|261:337|315:265,1,119.999996337891,2|0,3:2|1:0,0:0:0:0:
403,162,129543,2,0,B|328:173|328:173|318:190|318:190|225:205,1,179.999994506836,10|0,0:0|3:0,0:0:0:0:
168,140,129886,6,0,L|192:-21,1,119.999996337891,2|0,3:2|1:0,0:0:0:0:
84,182,130229,1,10,0:0:0:0:
185,21,130400,2,0,B|57:-4|57:-4|18:70|92:109,1,239.999992675781,2|0,3:2|1:0,0:0:0:0:
215,240,130914,2,0,B|219:205|172:188|172:188|169:122|231:110,1,179.999994506836,8|0,0:0|3:0,0:0:0:0:
311,53,131257,6,0,P|330:89|305:139,1,59.9999981689454,2|0,1:2|3:0,0:0:0:0:
379,191,131429,2,0,P|360:227|385:277,1,59.9999981689454,0|0,1:0|0:0,0:0:0:0:
331,364,131600,2,0,P|289:332|216:347,1,119.999996337891,8|2,0:0|3:2,0:0:0:0:
132,330,131857,1,0,3:0:0:0:
132,330,131943,2,0,P|90:362|17:347,1,119.999996337891,2|2,3:2|1:2,0:0:0:0:
215,240,132286,1,10,0:0:0:0:
106,116,132457,2,0,B|76:96|76:96|22:111|22:111|-14:152|20:190,1,179.999994506836,2|0,3:2|3:0,0:0:0:0:
101,245,132800,2,0,B|144:235|144:235|168:250|168:250|215:239,1,119.999996337891,2|8,1:2|0:0,0:0:0:0:
452,178,133143,6,0,L|433:77,1,64.9999970245363,2|0,3:2|3:0,0:0:0:0:
199,83,133314,2,0,L|218:184,1,64.9999970245363,2|0,3:2|3:0,0:0:0:0:
354,270,133486,5,2,1:2:0:0:
354,270,133572,1,0,1:0:0:0:
354,270,133657,2,0,B|295:225|348:166|348:166|301:151|301:101|301:101|352:74|325:5,1,300.000011444092,8|4,0:0|1:2,0:0:0:0:
414,0,134086,5,0,3:0:0:0:
414,0,134172,2,0,P|442:17|495:3,1,64.9999970245363,0|0,3:0|3:0,0:0:0:0:
510,113,134343,2,0,B|329:137|329:137|280:206,1,259.999988098145,10|2,0:0|3:2,0:0:0:0:
354,270,134772,1,0,3:0:0:0:
354,270,134857,2,0,B|393:286|393:286|452:278|460:228,1,129.999994049073,0|10,1:0|0:0,0:0:0:0:
309,348,135200,1,0,3:0:0:0:
309,348,135286,1,0,3:0:0:0:
309,348,135372,6,0,B|133:323|273:249|95:224,1,259.999988098145,2|8,3:2|0:0,0:0:0:0:
284,200,135886,2,0,B|223:205|190:263|190:263|198:273|198:273|194:342|116:360,1,259.999988098145,2|0,3:2|1:0,0:0:0:0:
0,262,136400,2,0,B|10:181|10:181|28:166|28:166|38:75,1,194.999991073609,8|0,0:0|3:0,0:0:0:0:
103,9,136743,6,0,P|136:2|164:14,1,64.9999970245363,0|0,1:0|3:0,0:0:0:0:
244,63,136914,1,0,1:0:0:0:
155,189,137086,2,0,B|74:159|183:97|268:120|309:212|229:268,1,259.999988098145,10|2,0:0|3:2,0:0:0:0:
232,335,137514,1,0,3:0:0:0:
232,335,137600,2,0,P|268:291|366:317,1,129.999994049073,0|10,1:0|0:0,0:0:0:0:
500,377,137943,1,0,3:0:0:0:
500,377,138029,1,0,3:0:0:0:
500,377,138114,6,0,B|412:344|437:248|437:248|514:231|503:129,1,259.999988098145,2|10,3:2|0:0,0:0:0:0:
456,15,138629,2,0,B|383:51|383:51|366:129|424:159,1,194.999991073609,2|0,3:2|3:0,0:0:0:0:
501,181,138972,1,2,1:2:0:0:
385,278,139143,2,0,B|260:250|319:339|200:308,1,194.999991073609,8|0,0:0|3:0,0:0:0:0:
148,382,139486,6,0,L|181:162,1,194.999991073609,4|0,1:2|3:0,0:0:0:0:
279,171,139829,2,0,P|310:126|292:51,1,129.999994049073,10|0,0:0|3:0,0:0:0:0:
219,0,140086,1,0,3:0:0:0:
219,0,140172,2,0,B|172:12|172:12|160:41|160:41|111:54,1,129.999994049073,2|0,3:2|1:0,0:0:0:0:
16,203,140514,2,0,B|53:138|122:155|122:155|143:200|195:185,1,194.999991073609,10|0,0:0|3:0,0:0:0:0:
279,171,140857,6,0,L|421:146,1,129.999994049073,2|0,3:2|1:0,0:0:0:0:
268,288,141200,1,10,0:0:0:0:
407,148,141372,2,0,B|392:231|392:231|448:274|448:274|433:384,1,259.999988098145,2|0,3:2|1:0,0:0:0:0:
268,288,141886,2,0,B|139:311|139:311|133:351|98:362,1,194.999991073609,8|0,0:0|3:0,0:0:0:0:
7,375,142229,6,0,L|31:265,1,64.9999970245363,2|0,1:2|3:0,0:0:0:0:
73,235,142400,2,0,L|49:125,1,64.9999970245363,0|0,1:0|0:0,0:0:0:0:
4,49,142572,2,0,P|51:87|125:69,1,129.999994049073,8|2,0:0|3:2,0:0:0:0:
199,18,142829,1,0,3:0:0:0:
199,18,142914,2,0,P|261:6|310:45,1,129.999994049073,2|2,3:2|1:2,0:0:0:0:
387,217,143257,1,10,0:0:0:0:
231,127,143429,6,0,B|187:177|187:177|313:147,1,194.999991073609,2|0,3:2|3:0,0:0:0:0:
387,217,143772,2,0,B|425:157|425:157|401:98,1,129.999994049073,2|8,1:2|0:0,0:0:0:0:
246,265,144114,5,2,3:2:0:0:
246,265,144200,1,0,3:0:0:0:
246,265,144286,2,0,L|230:328,1,64.9999970245363,2|0,3:2|3:0,0:0:0:0:
312,383,144457,2,0,L|375:367,1,64.9999970245363,2|0,1:2|0:0,0:0:0:0:
479,270,144629,2,0,P|476:358|533:387,1,129.999994049073,10|0,0:0|1:0,0:0:0:0:
358,250,144972,6,0,B|427:148|306:164|374:66,1,200,4|2,1:2|0:0,0:0:0:0:
476,118,145486,1,0,1:0:0:0:
444,1,145657,1,10,0:0:0:0:
444,1,145829,2,0,B|374:18|374:18|347:10|347:10|249:32,1,200,0|0,1:0|1:0,0:0:0:0:
249,32,146514,2,0,P|275:75|237:146,1,100,2|0,3:2|1:0,0:0:0:0:
168,274,146857,5,2,1:2:0:0:
142,94,147029,1,10,0:2:0:0:
85,240,147200,5,2,0:2:0:0:
71,151,147371,1,2,1:2:0:0:
1,206,147543,5,10,0:2:0:0:
155,184,147714,2,0,L|357:155,1,200,2|0,1:2|3:0,0:0:0:0:
441,100,148229,1,2,1:2:0:0:
512,185,148400,2,0,B|478:223|478:223|497:282,1,100,10|0,0:0|1:0,0:0:0:0:
465,384,148743,1,2,3:2:0:0:
465,384,148914,2,0,P|393:327|178:331,1,300,2|0,1:2|1:0,0:0:0:0:
49,229,149600,5,2,1:2:0:0:
49,229,149772,2,0,P|145:221|176:119,1,200,10|2,0:0|1:2,0:0:0:0:
265,56,150286,1,8,0:0:0:0:
161,0,150457,2,0,B|93:45|9:23|9:23|106:76|76:163,1,300,2|2,1:2|1:2,0:0:0:0:
136,224,151143,1,8,0:0:0:0:
136,224,151314,2,0,P|39:308|79:382,1,200,0|0,1:0|1:0,0:0:0:0:
157,374,151829,6,0,B|227:358|227:358|271:378|271:378|362:359,1,200,2|0,0:0|1:0,0:0:0:0:
412,290,152343,1,2,1:2:0:0:
345,217,152514,1,8,0:0:0:0:
165,382,152857,5,2,1:2:0:0:
165,382,153029,1,10,0:0:0:0:
165,382,153200,2,0,L|195:178,1,200,2|2,1:2|0:0,0:0:0:0:
123,99,153714,1,0,1:0:0:0:
190,26,153885,1,10,0:0:0:0:
123,99,154057,2,0,P|199:162|315:131,1,200,0|0,1:0|1:0,0:0:0:0:
376,188,154572,1,4,0:3:0:0:
488,8,154914,5,0,3:0:0:0:
488,8,155086,2,0,B|415:154|552:105|475:272,1,269.999991760254,2|0,0:0|1:0,0:0:0:0:
394,323,155772,1,0,1:0:0:0:
394,323,155943,2,0,P|478:312|513:371,1,160,0|4,3:0|0:0,0:0:0:0:
399,207,156629,5,8,0:3:0:0:
364,214,156714,1,8,0:3:0:0:
328,221,156800,1,4,0:3:0:0:
292,228,156886,1,4,0:3:0:0:
256,235,156972,1,8,0:0:0:0:
408,83,157314,5,4,1:3:0:0:
283,26,168286,6,0,L|194:42,1,50,8|0,0:3|0:0,0:0:0:0:
182,130,168457,2,0,L|299:110,1,100,4|0,0:3|3:0,0:0:0:0:
382,306,168972,5,4,0:3:0:0:
382,306,169057,1,4,0:3:0:0:
382,306,169143,2,0,P|340:337|348:399,1,100,8|0,0:3|3:0,0:0:0:0:
137,383,169657,5,0,0:0:0:0:
137,383,169829,2,0,P|200:333|195:217,1,200,2|0,0:0|0:0,0:0:0:0:
115,172,170343,2,0,B|-8:203|-8:203|65:112,1,200,2|0,3:2|3:0,0:0:0:0:
273,140,171029,6,0,B|212:101|245:27|245:27|327:-3,2,200,0|2|2,3:0|0:0|0:0,0:0:0:0:
273,140,172057,2,0,P|332:137|369:91,1,100,0|0,3:0|3:0,0:0:0:0:
419,29,172400,5,2,0:0:0:0:
504,80,172572,1,0,3:0:0:0:
449,163,172743,2,0,L|434:276,1,100,0|0,0:0|0:0,0:0:0:0:
342,304,173086,2,0,B|437:262|437:262|509:327,1,200,2|2,0:0|0:0,0:0:0:0:
256,192,173772,12,2,175143,0:0:0:0:
256,192,175229,12,2,177886,0:0:0:0:
256,192,177972,12,0,179086,0:0:0:0:
156,367,179257,6,0,L|188:149,1,200,2|0,1:2|3:0,0:0:0:0:
150,98,179686,1,0,3:0:0:0:
150,98,179772,2,0,L|76:109,2,50,0|0|2,3:0|3:0|1:2,0:0:0:0:
33,160,180114,1,0,3:0:0:0:
33,160,180200,1,0,3:0:0:0:
33,160,180286,2,0,P|1:201|12:259,1,100,0|0,3:0|3:0,0:0:0:0:
55,317,180543,1,0,3:0:0:0:
55,317,180629,6,0,B|202:289|202:289|263:318,1,200,2|0,1:2|3:0,0:0:0:0:
314,369,181057,1,0,3:0:0:0:
314,369,181143,2,0,L|389:354,1,50,0|0,3:0|3:0,0:0:0:0:
194,384,181314,6,0,B|174:281|264:333|240:218,1,179.999994506836,2|0,1:2|3:0,0:0:0:0:
155,166,181657,2,0,B|96:97|96:97|157:20,1,179.999994506836,2|0,1:2|3:0,0:0:0:0:
243,1,182000,6,0,P|310:69|431:41,1,200,2|0,1:2|3:0,0:0:0:0:
501,40,182429,1,0,3:0:0:0:
501,40,182514,2,0,L|489:105,2,50,0|0|2,3:0|3:0|1:2,0:0:0:0:
429,155,182857,1,0,3:0:0:0:
429,155,182943,1,0,3:0:0:0:
429,155,183029,2,0,P|459:201|432:255,1,100,0|0,3:0|3:0,0:0:0:0:
366,276,183286,1,0,3:0:0:0:
366,276,183372,6,0,B|347:324|391:346|391:346|515:326,1,200,2|0,1:2|3:0,0:0:0:0:
454,248,183800,1,0,3:0:0:0:
454,248,183886,2,0,L|466:178,1,50,0|0,3:0|3:0,0:0:0:0:
512,89,184057,6,0,L|314:125,1,179.999994506836,2|0,1:2|3:0,0:0:0:0:
220,148,184400,2,0,B|186:110|186:110|177:64|230:28|271:40,1,179.999994506836,2|0,1:2|3:0,0:0:0:0:
334,121,184743,5,2,1:2:0:0:
46,340,185086,5,2,1:2:0:0:
300,374,185429,5,2,1:2:0:0:
80,87,185772,5,2,1:2:0:0:
262,281,186114,5,2,1:2:0:0:
245,155,186286,5,2,1:2:0:0:
118,172,186457,5,2,1:2:0:0:
135,298,186629,5,2,1:2:0:0:
28,210,186800,5,2,1:2:0:0:
86,200,186886,5,2,1:2:0:0:
142,220,186972,5,2,1:2:0:0:
201,210,187058,5,2,1:2:0:0:
256,230,187143,5,2,1:2:0:0:
316,220,187229,5,2,1:2:0:0:
370,240,187314,5,2,1:2:0:0:
431,230,187400,5,2,1:2:0:0:
484,250,187486,5,4,1:3:0:0:
256,60,188172,6,0,L|256:20,2,39.9999987792969,0|0|0,3:0|3:0|3:0,0:0:0:0:
200,128,188400,5,0,3:0:0:0:
200,128,188457,2,0,B|256:152|256:152|312:128,1,119.999996337891,0|0,3:0|3:0,0:0:0:0:
483,17,188857,6,0,B|460:30|460:30|447:26|447:26|397:51|375:112|412:175,1,209.999993591309,2|0,0:0|0:0,0:0:0:0:
499,184,189200,6,0,P|500:226|472:257,1,59.9999981689454,8|8,0:3|0:3,0:0:0:0:
496,331,189372,2,0,P|454:330|423:358,1,59.9999981689454,4|4,0:3|0:3,0:0:0:0:
344,361,189543,6,0,B|204:383|305:247|113:291,1,209.999993591309,2|0,0:0|0:0,0:0:0:0:
165,361,189886,2,0,B|306:383|205:247|397:291,1,209.999993591309,2|0,0:0|0:0,0:0:0:0:
410,172,190229,6,0,P|386:116|405:75,1,110.000003356934,6|2,1:2|3:2,0:1:0:0:
303,0,190572,1,2,3:2:0:0:
227,173,190743,2,2,B|284:117|284:117|141:146,1,220.000006713867,2|0,3:2|3:2,0:1:0:0:
146,144,191257,1,0,3:0:0:0:
11,48,191429,2,2,B|-11:91|-11:91|81:71|81:71|115:-1,1,220.000006713867,2|0,3:2|3:2,0:1:0:0:
114,0,191943,1,0,1:0:0:0:
251,107,192114,2,2,P|241:214|145:257,1,220.000006713867,2|0,3:2|3:0,0:1:0:0:
147,257,192629,2,2,B|156:295|156:295|141:322|141:322|152:367,1,110.000003356934,2|2,0:0|3:2,0:1:0:0:
18,211,192972,6,0,B|-12:167|-12:167|21:113,1,110.000003356934,2|2,1:2|3:2,0:0:0:0:
110,165,193314,1,2,3:2:0:0:
226,27,193486,2,2,B|249:166|249:166|230:128|181:107,1,220.000006713867,2|0,3:2|3:0,0:1:0:0:
192,112,194000,1,2,3:2:0:0:
374,159,194172,2,2,B|237:120|319:254|141:199,1,220.000006713867,2|0,3:2|3:0,0:1:0:0:
126,275,194600,1,0,1:0:0:0:
126,275,194686,1,2,3:2:0:0:
230,377,194857,2,2,B|277:341|365:337|365:337|392:372|442:377,1,220.000006713867,2|0,1:2|3:0,0:1:0:0:
429,375,195372,2,0,P|462:336|432:264,1,110.000003356934,2|2,1:2|3:2,0:0:0:0:
503,117,195714,6,0,L|363:141,1,110.000003356934,2|2,1:2|3:2,0:0:0:0:
319,236,196057,1,2,3:2:0:0:
146,155,196229,2,2,B|239:175|267:97|267:97|229:69|253:7,1,220.000006713867,2|0,3:2|3:0,0:1:0:0:
245,34,196743,1,2,3:2:0:0:
434,0,196914,2,2,B|452:75|452:75|415:115|415:115|439:202,1,220.000006713867,2|0,3:2|3:0,0:1:0:0:
438,200,197429,1,0,1:0:0:0:
483,346,197600,2,2,P|467:268|334:272,1,220.000006713867,2|0,3:2|3:0,0:1:0:0:
344,260,198114,2,2,P|286:289|230:268,1,110.000003356934,2|2,0:0|3:2,0:1:0:0:
137,160,198457,6,0,B|164:205|164:205|129:265,1,110.000003356934,2|2,1:2|3:2,0:0:0:0:
54,205,198800,1,2,3:2:0:0:
245,278,198972,2,2,B|90:303|90:303|52:360,1,220.000006713867,2|0,1:2|3:0,0:1:0:0:
55,355,199486,1,2,3:2:0:0:
259,381,199657,2,2,B|310:246|175:310|240:172,1,220.000006713867,2|8,3:2|0:0,0:1:0:0:
236,180,200172,1,2,3:2:0:0:
385,45,200343,2,2,B|426:28|462:119|304:128|272:53|299:8,1,220.000006713867,2|0,1:2|3:0,0:1:0:0:
294,17,200857,2,0,B|252:29|252:29|243:49|243:49|198:62,1,110.000003356934,0|10,1:0|0:0,0:0:0:0:
372,197,201200,6,0,B|448:189|402:248|512:231,1,119.999996337891,6|2,1:2|0:0,0:0:0:0:
480,234,201543,2,0,P|514:178|492:132,1,119.999996337891,2|2,0:0|0:0,0:0:0:0:
313,276,201886,2,2,B|254:339|254:339|267:272|267:272|259:261|259:261|276:175,1,239.999992675781,8|0,0:0|3:0,0:1:0:0:
392,99,202400,1,2,3:2:0:0:
306,9,202572,2,0,B|268:17|268:17|256:12|256:12|119:37,1,179.999994506836,0|0,1:0|0:0,0:0:0:0:
58,0,202914,1,0,1:0:0:0:
201,118,203086,1,2,3:2:0:0:
17,220,203257,2,0,B|90:155|90:155|38:147|22:88,1,179.999994506836,8|0,0:0|0:0,0:0:0:0:
17,220,203600,2,0,P|-8:282|32:336,1,119.999996337891,2|2,3:2|3:2,0:0:0:0:
191,384,203943,6,0,P|214:330|189:278,1,119.999996337891,2|2,1:2|3:2,0:0:0:0:
189,278,204286,2,0,L|317:254,1,119.999996337891,2|2,3:2|3:2,0:0:0:0:
448,384,204629,2,0,B|387:318|387:318|387:303|387:303|452:250|452:250|426:186,1,239.999992675781,8|0,0:0|3:0,0:0:0:0:
312,139,205143,1,2,3:2:0:0:
443,0,205314,2,0,P|501:19|502:93,1,119.999996337891,0|0,1:0|3:0,0:0:0:0:
431,118,205572,2,0,L|308:140,1,119.999996337891,0|0,1:0|0:0,0:0:0:0:
235,83,205829,2,0,L|253:-17,1,59.9999981689454,0|0,1:0|0:0,0:0:0:0:
312,139,206000,2,0,B|269:238|368:206|321:312,1,179.999994506836,8|0,0:0|0:0,0:0:0:0:
242,377,206343,2,0,P|211:328|229:269,1,119.999996337891,0|2,1:0|3:2,0:0:0:0:
323,307,206686,6,0,P|167:346|29:348,1,300,2|2,1:2|0:0,0:0:0:0:
28,347,207372,1,0,1:0:0:0:
125,135,207714,2,0,P|156:181|139:232,1,100,0|2,3:0|0:0,0:0:0:0:
6,245,208057,2,0,B|22:171|22:171|8:153|8:153|31:49,1,200,0|0,1:0|3:0,0:0:0:0:
29,53,208572,1,2,0:0:0:0:
141,0,208743,2,0,B|213:68|213:68|307:18,1,200,0|0,1:0|3:0,0:0:0:0:
302,20,209257,1,2,0:0:0:0:
450,206,209429,5,2,1:2:0:0:
309,27,209600,1,2,1:2:0:0:
474,58,209772,5,0,1:2:0:0:
277,177,209943,1,2,1:2:0:0:
423,339,210114,5,0,1:0:0:0:
395,370,210200,1,0,1:0:0:0:
354,382,210286,1,0,1:0:0:0:
313,370,210372,1,0,1:0:0:0:
283,340,210457,1,0,1:0:0:0:
269,293,210543,1,0,1:0:0:0:
228,267,210629,1,0,1:0:0:0:
180,269,210714,1,0,1:0:0:0:
143,299,210800,6,2,B|196:315|211:365|211:365|303:273|282:148|135:97|57:197|57:197|116:208|157:152|157:152,1,595.000011348725,2|0,1:2|0:0,0:1:0:0:
185,64,211486,1,8,0:3:0:0:
172,23,211572,1,8,0:3:0:0:
136,0,211657,1,4,0:3:0:0:
93,0,211743,1,4,0:3:0:0:
57,23,211829,5,8,1:2:0:0:
90,107,211943,5,0,1:0:0:0:
0,93,212057,5,0,1:0:0:0:
50,74,212172,5,4,1:2:0:0:
50,74,212686,2,0,B|165:153|165:153|260:48,1,279.999991455078,2|0,0:0|0:0,0:0:0:0:
330,0,213543,2,0,P|389:33|369:110,1,139.999995727539,2|0,0:0|0:0,0:0:0:0:
493,98,214057,2,0,P|460:176|435:373,1,279.999991455078,2|0,0:0|0:0,0:0:0:0:
475,269,214914,2,0,B|395:244|426:315|328:282,1,139.999995727539,2|0,0:0|0:0,0:0:0:0:
279,367,215429,2,0,B|334:333|321:235|272:205|272:205|260:272|200:270,1,279.999991455078,2|0,0:0|0:0,0:0:0:0:
119,253,216286,2,0,P|89:200|124:128,1,139.999995727539,2|0,0:0|0:0,0:0:0:0:
223,110,216800,2,0,B|406:78|406:78|348:77|317:33,1,279.999991455078,2|0,0:0|0:0,0:0:0:0:
210,0,217657,6,0,B|159:9|159:9|144:39|144:39|91:50,1,139.999995727539,2|0,0:0|0:0,0:0:0:0:
28,136,218172,2,0,B|-6:286|-6:286|7:333|73:347|103:309,1,279.999991455078,2|0,0:0|0:0,0:0:0:0:
178,384,219029,2,0,P|210:333|184:250,1,139.999995727539,2|0,0:0|0:0,0:0:0:0:
103,218,219543,2,0,B|170:209|170:209|189:220|189:220|286:206|286:206|300:193|300:193|375:183,1,279.999991455078,2|0,0:0|0:0,0:0:0:0:
469,128,220400,2,0,B|444:80|396:98|396:98|425:103|442:128,1,139.999995727539,2|0,0:0|0:0,0:0:0:0:
499,213,220914,2,0,B|465:262|465:262|498:314|498:314|481:369|409:396|357:355,1,279.999991455078,2|0,0:0|0:0,0:0:0:0:
251,384,221772,2,0,P|294:335|267:263,1,139.999995727539,2|0,0:0|0:0,0:0:0:0:
180,229,222286,2,0,B|199:184|199:184|317:166|317:166|354:201,1,209.999993591309,2|0,0:0|0:0,0:0:0:0:
251,22,223143,5,6,0:0:0:0:
116,370,234114,6,0,P|122:288|241:267,1,200,2|0,0:0|0:0,0:0:0:0:
443,371,234800,1,2,0:0:0:0:
509,309,234972,1,2,0:0:0:0:
430,264,235143,1,2,0:0:0:0:
364,325,235314,2,0,L|147:358,2,200,2|2|2,0:0|0:0|0:0,0:0:0:0:
496,147,236343,1,2,0:0:0:0:
496,147,236514,2,0,P|469:99|511:38,1,100,2|0,0:0|0:0,0:0:0:0:
383,9,236857,6,0,B|370:60|323:65|323:65|277:13|197:42,1,200,2|2,0:0|0:0,0:0:0:0:
156,115,237372,1,2,0:0:0:0:
234,176,237543,2,0,B|201:212|201:212|220:266,1,100,2|0,0:0|0:0,0:0:0:0:
306,222,237886,1,2,0:0:0:0:
116,213,238057,6,0,B|238:169|190:278|326:212,1,200,2|0,0:0|0:0,0:0:0:0:
398,181,238572,1,2,0:0:0:0:
389,286,238743,1,2,0:0:0:0:
116,213,239086,1,2,0:0:0:0:
125,108,239257,1,2,0:0:0:0:
134,3,239429,2,0,B|108:47|62:45|62:45|108:88|206:79|235:15|235:15|295:54|260:129,1,400,2|0,0:0|0:0,0:0:0:0:
316,245,240286,2,0,B|284:221|284:221|159:132|35:262|152:341|253:306|283:222|283:222|348:135|440:189,1,600
501,251,241486,5,2,0:0:0:0:
481,328,241657,1,0,0:0:0:0:
410,363,241829,1,0,0:0:0:0:
335,338,242000,1,0,0:0:0:0:
410,380,242172,5,2,0:0:0:0:
326,351,242343,1,0,0:0:0:0:
293,270,242515,1,0,0:0:0:0:
326,190,242686,1,0,0:0:0:0:
275,263,242857,5,2,0:0:0:0:
313,173,243028,1,0,0:0:0:0:
406,145,243200,1,0,0:0:0:0:
491,188,243372,2,0,B|316:236|408:51|188:120|188:120|276:108|327:193,1,479.999985351563,2|0,0:0|0:0,0:0:0:0:
59,15,245086,6,0,B|57:74|8:82|8:82|-1:123|38:149|38:149|-7:175|9:229,1,240,6|0,1:2|3:0,0:0:0:0:
29,306,245429,1,8,0:0:0:0:
301,187,245600,2,0,L|207:204,1,75.0000028610231,2|0,3:2|3:0,0:0:0:0:
141,145,245772,2,0,L|154:71,1,75.0000028610231,2|0,3:2|3:0,0:0:0:0:
225,0,245943,2,0,B|255:21|255:21|292:8,1,75.0000028610231,2|0,1:2|0:0,0:0:0:0:
370,70,246114,1,10,0:0:0:0:
227,200,246286,6,0,B|271:131|340:155|340:155|365:219|443:190,1,225.000008583069,2|0,3:2|3:0,0:0:0:0:
493,135,246629,2,0,B|529:201|529:201|479:270,1,150.000005722046,2|8,1:2|0:0,0:0:0:0:
348,370,246972,2,0,B|401:236|264:284|322:146,1,225.000008583069,2|0,3:2|3:0,0:0:0:0:
370,70,247314,5,2,1:2:0:0:
333,42,247400,1,0,1:0:0:0:
288,49,247486,2,0,B|264:64|247:85|247:85|187:93|135:42,1,150.000005722046,10|2,0:0|3:2,0:0:0:0:
68,119,247743,1,0,3:0:0:0:
68,119,247829,6,0,L|47:223,1,75.0000028610231,2|0,1:2|3:0,0:0:0:0:
153,256,248000,2,0,P|188:236|230:246,1,75.0000028610231,0|0,1:0|0:0,0:0:0:0:
315,163,248172,1,10,0:0:0:0:
471,333,248343,1,2,3:2:0:0:
434,304,248429,1,0,3:0:0:0:
388,301,248515,1,2,3:2:0:0:
350,323,248600,1,0,3:0:0:0:
331,363,248686,1,2,1:2:0:0:
220,240,248857,2,0,L|234:166,1,75.0000028610231,10|0,0:0|0:0,0:0:0:0:
427,209,249029,6,2,B|473:182|473:182|507:132|477:53|396:62,1,225.000008583069,2|0,1:2|0:0,0:1:0:0:
318,115,249372,2,2,B|282:49|282:49|338:-14,1,150.000005722046,2|0,1:2|3:0,0:1:0:0:
427,209,249714,2,2,B|300:175|366:287|218:239,1,225.000008583069,2|0,1:2|0:0,0:1:0:0:
172,144,250057,5,2,1:2:0:0:
136,116,250143,1,0,1:0:0:0:
93,130,250229,1,8,0:0:0:0:
0,301,250400,6,0,L|14:227,1,75.0000028610231,2|0,3:2|3:0,0:0:0:0:
19,105,250572,6,0,B|190:77|190:77|251:111,1,240,6|0,1:2|3:0,0:0:0:0:
284,205,250914,2,0,P|252:226|215:217,1,75.0000028610231,8|0,0:0|0:0,0:0:0:0:
248,109,251086,2,0,B|234:199|234:199|244:217|244:217|226:331,1,225.000008583069,2|0,3:2|3:0,0:0:0:0:
329,384,251429,2,0,L|403:370,1,75.0000028610231,2|0,1:2|0:0,0:0:0:0:
508,336,251600,2,0,P|518:300|503:267,1,75.0000028610231,10|0,0:0|0:0,0:0:0:0:
343,153,251772,6,0,B|390:228|512:181|499:75|429:93|433:122,1,225.000008583069,2|0,3:2|3:0,0:0:0:0:
512,36,252114,1,0,1:0:0:0:
397,269,252286,1,8,0:0:0:0:
165,126,252457,2,0,B|61:146|61:146|54:136|54:136|107:42,1,225.000008583069,2|0,3:2|3:0,0:0:0:0:
220,27,252800,5,0,1:0:0:0:
265,20,252886,1,0,1:0:0:0:
310,14,252972,2,0,B|336:68|296:103|296:103|276:107|276:107|230:149|256:205,1,225.000008583069,10|0,0:0|3:0,0:0:0:0:
338,310,253314,6,0,B|357:275|357:275|329:212,1,75.0000028610231,2|0,1:2|3:0,0:0:0:0:
255,203,253486,2,0,L|163:221,1,75.0000028610231,0|0,1:0|0:0,0:0:0:0:
38,346,253657,2,0,B|14:395|-66:303|55:220|117:292,1,225.000008583069,10|0,0:0|3:0,0:0:0:0:
172,381,254000,2,0,L|245:366,1,75.0000028610231,2|0,3:2|3:0,0:0:0:0:
338,310,254172,2,0,B|430:289|385:370|496:337,1,150.000005722046,0|8,1:0|0:0,0:0:0:0:
492,104,254514,6,0,B|459:81|459:81|388:96|388:96|343:153|396:204,1,225.000008583069,2|0,3:2|3:0,0:0:0:0:
464,259,254857,1,2,1:2:0:0:
277,99,255029,1,10,0:0:0:0:
126,295,255200,2,0,L|140:221,1,75.0000028610231,2|0,3:2|3:0,0:0:0:0:
70,152,255372,2,0,B|36:172|36:172|-6:158,1,75.0000028610231,0|0,3:0|3:0,0:0:0:0:
139,12,255543,5,2,1:2:0:0:
176,37,255629,1,0,1:0:0:0:
219,28,255714,1,10,0:0:0:0:
389,197,255886,6,0,L|375:271,1,75.0000028610231,2|0,3:2|3:0,0:0:0:0:
230,382,256057,6,0,B|261:347|230:310|230:310|279:296|280:255|280:255|230:215|264:138,1,240,6|0,1:2|3:0,0:0:0:0:
313,115,256400,2,0,B|252:125|252:125|240:148|240:148|172:160,1,150.000005722046,8|0,0:0|3:0,0:0:0:0:
105,81,256657,1,0,3:0:0:0:
105,81,256743,2,0,L|119:7,1,75.0000028610231,2|0,3:2|3:0,0:0:0:0:
13,141,256914,2,0,P|-6:171|25:235,1,75.0000028610231,2|0,1:2|0:0,0:0:0:0:
65,296,257086,1,10,0:0:0:0:
250,184,257257,6,0,B|247:241|297:261|297:261|282:357|173:328,1,225.000008583069,2|0,3:2|3:0,0:0:0:0:
137,265,257600,2,0,B|80:317|80:317|122:394,1,150.000005722046,2|8,1:2|0:0,0:0:0:0:
392,343,257943,2,0,B|490:325|490:325|499:317|499:317|518:239|449:213|449:213,1,225.000008583069,2|0,3:2|3:0,0:0:0:0:
363,152,258286,5,2,1:2:0:0:
351,108,258372,1,0,1:0:0:0:
374,69,258457,2,0,B|411:62|429:47|429:47|489:60|494:113,1,150.000005722046,10|2,0:0|3:2,0:0:0:0:
467,226,258714,1,0,3:0:0:0:
467,226,258800,6,0,L|367:244,1,75.0000028610231,2|0,1:2|3:0,0:0:0:0:
281,205,258972,2,0,L|207:191,1,75.0000028610231,0|0,1:0|0:0,0:0:0:0:
122,264,259143,1,10,0:0:0:0:
6,105,259314,1,2,3:2:0:0:
47,125,259400,1,0,3:0:0:0:
93,119,259486,1,2,3:2:0:0:
126,89,259571,1,0,3:0:0:0:
136,46,259657,1,2,1:2:0:0:
13,216,259829,2,0,L|0:289,1,75.0000028610231,10|0,0:0|0:0,0:0:0:0:
222,381,260000,6,2,B|222:286|156:349|156:254|156:254|218:235|206:146,1,240,2|0,1:2|3:0,0:1:0:0:
136,46,260343,2,2,P|210:97|307:50,1,160,2|8,1:2|0:0,0:1:0:0:
508,8,260686,2,2,B|478:27|478:27|445:19|445:19|383:29|355:102|402:165,1,240,2|0,1:2|3:0,0:1:0:0:
457,258,261029,5,2,1:2:0:0:
382,246,261115,1,0,1:0:0:0:
308,235,261200,1,10,0:0:0:0:
501,139,261372,5,2,3:2:0:0:
501,139,261457,1,0,3:0:0:0:
501,139,261543,1,0,1:0:0:0:
488,355,261714,5,2,1:2:0:0:
382,246,261886,1,0,3:0:0:0:
276,137,262057,1,0,1:0:0:0:
276,137,262229,1,8,0:0:0:0:
475,233,262400,5,2,0:0:0:0:
382,246,262572,1,0,1:0:0:0:
287,262,262743,1,0,1:0:0:0:
61,116,263086,5,0,1:0:0:0:
61,116,263257,2,0,P|115:169|202:142,1,150.000005722046,8|0,0:0|0:0,0:0:0:0:
333,52,263600,5,2,1:2:0:0:
260,102,263772,1,2,1:2:0:0:
345,140,263943,1,10,0:2:0:0:
418,90,264115,1,2,0:3:0:0:
248,14,264286,1,0,1:0:0:0:
272,190,264457,6,0,L|291:309,1,120,0|0,1:0|0:0,0:0:0:0:
290,308,264800,1,0,1:0:0:0:
272,190,264972,6,0,B|304:236|370:222|370:222|297:238|312:321|205:283,1,300.000011444092,8|0,0:0|1:0,0:0:0:0:
32,242,265486,6,0,P|80:199|140:220,1,120,0|0,1:0|0:0,0:0:0:0:
129,210,265829,1,0,1:0:0:0:
32,242,266000,6,0,B|46:292|46:292|24:327|24:327|38:382,1,150.000005722046,8|0,0:0|0:0,0:0:0:0:
357,91,267029,6,0,B|292:116|233:52|233:52|269:131|257:193|257:193|212:130|138:148,1,419.999987182618,4|0,1:2|0:0,0:0:0:0:
20,60,267714,6,2,L|427:-12|286:377|84:140|288:104|233:262,1,1440.00003515625,10|0,0:0|0:0,0:1:0:0:
395,146,269086,6,0,L|483:131,1,80,10|0,0:0|0:0,0:0:0:0:
512,223,269257,2,0,B|485:256|485:256|499:305,1,80,2|0,0:0|0:0,0:0:0:0:
441,384,269429,2,0,B|378:372|378:372|362:340|362:340|302:328,1,160,2|10,1:2|3:2,0:0:0:0:
208,380,269686,1,0,3:0:0:0:
208,380,269772,6,0,P|193:341|232:279,1,80,2|0,1:2|0:0,0:0:0:0:
298,229,269943,2,0,P|307:190|292:154,1,80,2|0,1:2|0:0,0:0:0:0:
199,94,270114,2,0,P|184:55|223:-6,1,80,2|0,0:0|0:0,0:0:0:0:
145,202,270286,2,2,B|49:180|104:270|-31:236,1,160,2|8,1:2|0:0,0:1:0:0:
193,19,270629,2,2,B|230:-15|273:1|273:1|289:52|351:44,1,160,2|0,1:2|3:0,0:1:0:0:
411,131,270886,1,0,3:0:0:0:
411,131,270972,2,2,P|466:56|446:-5,1,160,2|0,1:2|3:0,0:1:0:0:
292,154,271314,6,2,L|278:232,1,80,2|0,1:2|0:0,0:1:0:0:
348,321,271486,2,2,L|426:307,1,80,0|0,1:0|0:0,0:1:0:0:
494,230,271657,1,2,3:1:0:0:
259,363,271829,1,10,0:0:0:0:
119,253,272000,1,0,1:0:0:0:
154,220,272086,1,0,1:0:0:0:
197,241,272172,1,0,1:0:0:0:
234,211,272257,1,0,1:0:0:0:
277,232,272343,1,8,0:0:0:0:
187,138,272514,5,4,1:2:0:0:
19,293,272686,1,2,3:2:0:0:
2,247,272772,1,2,3:2:0:0:
9,200,272857,1,2,3:2:0:0:
48,170,272943,1,2,3:2:0:0:
90,146,273029,1,2,3:2:0:0:
106,101,273114,1,2,3:2:0:0:
89,55,273200,1,10,0:0:0:0:
271,50,273372,6,2,B|183:5|183:5|230:185,1,240,2|0,1:2|3:0,0:1:0:0:
119,253,273714,2,2,B|273:277|171:141|338:169,1,240,2|0,1:2|0:0,0:1:0:0:
410,95,274057,2,0,P|443:114|502:98,1,80,2|0,3:2|0:0,0:0:0:0:
509,267,274229,2,2,B|472:266|452:231|452:231|400:227|377:278,1,160,2|0,3:2|1:0,0:1:0:0:
298,356,274486,1,0,3:0:0:0:
298,356,274572,6,2,P|268:372|223:362,1,80,10|0,0:0|0:0,0:1:0:0:
178,383,274744,2,2,P|146:373|120:331,1,80,2|0,0:0|0:0,0:1:0:0:
32,295,274915,2,2,P|16:266|25:220,1,80,2|0,1:2|0:0,0:1:0:0:
0,110,275087,2,2,P|10:78|50:54,1,80,10|0,0:0|0:0,0:1:0:0:
184,16,275257,5,2,1:0:0:0:
24,221,275429,1,2,3:2:0:0:
72,202,275514,1,2,1:2:0:0:
106,161,275600,1,2,3:2:0:0:
152,186,275686,1,2,3:2:0:0:
205,190,275772,1,2,1:2:0:0:
350,273,275943,5,10,0:0:0:0:
215,101,276114,2,0,B|325:119|325:119|378:73,1,160,2|2,1:2|3:2,0:0:0:0:
470,85,276372,1,0,3:0:0:0:
470,85,276457,2,0,L|487:-10,1,80,2|0,1:2|3:0,0:0:0:0:
361,87,276629,2,0,L|346:165,1,80,2|0,1:2|0:0,0:0:0:0:
467,212,276800,2,0,P|488:243|473:289,1,80,2|0,3:2|0:0,0:0:0:0:
410,362,276972,2,0,L|331:376,1,80,2|0,1:2|0:0,0:0:0:0:
226,255,277143,2,0,B|325:211|287:305|398:256,1,160,2|0,3:2|1:0,0:0:0:0:
230,348,277486,1,0,1:0:0:0:
467,212,277657,1,8,0:0:0:0:
128,29,278000,6,2,B|59:20|6:79|6:79|21:3|97:-37|250:-56|139:97|271:56|344:6|344:6|277:65|330:125|226:211|143:128,1,800,6|8,1:2|0:0,0:1:0:0:
0,384,278857,2,2,P|25:275|168:273,1,255.000004863739,0|0,1:0|3:0,0:1:0:0:
246,352,279200,2,0,L|259:273,1,80,2|0,1:2|0:0,0:0:0:0:
318,175,279372,5,2,3:2:0:0:
307,125,279457,1,2,3:2:0:0:
263,98,279543,1,2,3:2:0:0:
274,49,279628,1,2,3:2:0:0:
242,7,279714,1,2,3:2:0:0:
193,18,279799,1,2,3:2:0:0:
165,62,279885,1,2,1:2:0:0:
116,51,279972,1,2,3:2:0:0:
42,74,280057,6,2,B|95:74|120:22|120:22|167:42|219:123|138:176,1,284.999992389679,10|0,0:0|0:0,0:1:0:0:
26,242,280400,2,0,P|15:202|44:160,1,80,0|0,1:0|3:0,0:0:0:0:
128,261,280572,2,0,P|139:301|110:343,1,80,8|0,0:0|3:0,0:0:0:0:
3,369,280743,6,2,B|80:354|80:354|89:360|89:360|252:331,1,240,2|0,1:2|3:0,0:1:0:0:
327,384,281086,1,2,1:2:0:0:
509,300,281257,2,0,P|475:329|441:325,1,80,0|0,1:0|0:0,0:0:0:0:
348,253,281429,2,2,L|377:89,1,160,10|2,0:0|1:2,0:1:0:0:
464,35,281686,1,2,1:2:0:0:
464,35,281772,2,0,P|486:78|463:116,1,80,2|0,3:2|3:0,0:0:0:0:
256,66,281943,6,2,B|181:33|181:33|341:6,1,240,2|0,1:2|0:0,0:1:0:0:
375,95,282286,2,2,L|357:193,1,80,0|0,1:0|0:0,0:1:0:0:
300,349,282457,2,2,B|288:352|271:369|271:369|270:293|338:256|401:269|401:269|422:338|491:315,1,320,2|8,1:2|0:0,0:1:0:0:
278,183,282972,1,0,1:0:0:0:
159,365,283143,1,0,1:0:0:0:
112,373,283228,1,0,1:0:0:0:
65,381,283314,2,0,L|79:302,1,80,8|0,0:0|0:0,0:0:0:0:
180,115,283486,6,0,B|210:118|292:163|218:293|128:252|104:206|113:157|113:157|96:137|64:142|64:142|99:175|88:225,1,419.999987182618,0|0,1:0|3:0,0:0:0:0:
1,209,284086,1,0,3:0:0:0:
1,209,284172,1,2,1:2:0:0:
225,7,284343,5,0,3:0:0:0:
219,48,284429,1,0,3:0:0:0:
186,74,284514,1,0,3:0:0:0:
180,115,284600,1,0,3:0:0:0:
221,121,284686,1,0,3:0:0:0:
247,154,284771,1,0,3:0:0:0:
288,160,284857,1,2,1:2:0:0:
512,262,285029,5,0,3:0:0:0:
479,236,285115,1,0,3:0:0:0:
473,194,285200,1,0,3:0:0:0:
440,169,285286,1,0,3:0:0:0:
415,201,285372,1,0,3:0:0:0:
373,207,285457,1,0,3:0:0:0:
347,240,285543,1,2,1:2:0:0:
150,384,285714,5,0,3:0:0:0:
189,368,285800,1,0,3:0:0:0:
228,384,285885,1,0,3:0:0:0:
266,368,285971,1,0,3:0:0:0:
251,330,286057,1,0,3:0:0:0:
267,291,286142,1,0,3:0:0:0:
251,252,286228,5,2,1:2:0:0:
204,235,286314,1,2,3:2:0:0:
172,197,286400,1,2,3:2:0:0:
167,148,286486,1,2,3:2:0:0:
189,104,286572,1,2,1:2:0:0:
231,80,286657,1,2,3:2:0:0:
251,35,286743,5,2,3:2:0:0:
264,82,286829,1,2,3:2:0:0:
246,127,286914,1,2,1:2:0:0:
202,149,287000,1,2,3:2:0:0:
154,137,287086,1,2,3:2:0:0:
121,100,287172,1,2,3:2:0:0:
72,96,287257,5,2,1:2:0:0:
26,115,287343,1,2,3:2:0:0:
4,159,287429,1,2,3:2:0:0:
13,206,287514,1,2,3:2:0:0:
45,242,287600,5,2,1:0:0:0:
125,220,287714,1,0,1:0:0:0:
187,276,287829,1,0,1:0:0:0:
329,312,287943,5,0,1:0:0:0:
269,253,288057,1,0,1:0:0:0:
287,172,288172,1,0,1:0:0:0:
243,28,288286,5,0,1:0:0:0:
221,109,288400,1,0,1:0:0:0:
142,134,288515,1,0,1:0:0:0:
45,242,288629,6,0,B|87:208|147:231|147:231|249:275|243:161|350:204|350:204|460:251|428:124|574:188,1,440.000013427735,4|0,1:0|0:0,0:0:0:0:
