osu file format v14

[General]
AudioFilename: audio.mp3
AudioLeadIn: 0
PreviewTime: 244143
Countdown: 0
SampleSet: Soft
StackLeniency: 0.3
Mode: 0
LetterboxInBreaks: 0
WidescreenStoryboard: 1

[Editor]
Bookmarks: 44172,144972,223143,234114,261543,267029,288629
DistanceSpacing: 0.6
BeatDivisor: 4
GridSize: 4
TimelineZoom: 2.799999

[Metadata]
Title:Aquila
TitleUnicode:Aquila
Artist:EVO+
ArtistUnicode:EVO+
Creator:Bellicose
Version:Necho's Reincarnation
Source:
Tags:toybot vikala rage quit Sunazuka Akira necho japanese rock electronic drum and bass dnb evolution NaturaLe Treow
BeatmapID:2948486
BeatmapSetID:1107531

[Difficulty]
HPDrainRate:6
CircleSize:4
OverallDifficulty:8.6
ApproachRate:9.5
SliderMultiplier:1.6
SliderTickRate:1

[Events]
//Background and Video events
0,0,"bg13413431.jpg",0,0
//Break Periods
2,34085,43647
2,157514,167761
2,169514,173247
2,223343,233589
//Storyboard Layer 0 (Background)
//Storyboard Layer 1 (Fail)
//Storyboard Layer 2 (Pass)
//Storyboard Layer 3 (Foreground)
//Storyboard Layer 4 (Overlay)
//Storyboard Sound Samples

[TimingPoints]
972,342.857142857143,4,2,4,45,1,0
11600,-100,4,2,7,60,0,0
11943,-66.6666666666667,4,2,1,65,0,0
12457,-100,4,2,1,65,0,0
12972,-80,4,2,1,65,0,0
13657,-66.6666666666667,4,2,1,65,0,0
14343,-100,4,2,4,65,0,0
14686,-66.6666666666667,4,2,1,65,0,0
15029,-80,4,2,1,65,0,0
15372,-100,4,2,1,65,0,0
16400,-80,4,2,1,65,0,0
17086,-66.6666666666667,4,2,1,65,0,0
17429,-100,4,2,1,65,0,0
20857,-66.6666666666667,4,2,1,45,0,0
21200,-100,4,2,1,50,0,0
21543,-100,4,2,1,50,0,0
22229,-100,4,2,1,60,0,0
22914,-66.6666666666667,4,2,1,70,0,0
24114,-50,4,2,1,70,0,0
33543,-100,4,2,1,60,0,0
44172,-100,4,2,1,55,0,0
44857,-100,4,2,1,50,0,0
54286,-66.6666666666667,4,2,1,60,0,0
54972,-66.6666666666667,4,2,1,65,0,0
55314,-100,4,2,1,70,0,0
55486,-66.6666666666667,4,2,1,70,0,0
55829,-50,4,2,1,75,0,0
57029,-50,4,2,1,75,0,0
58572,-50,4,2,1,75,0,0
59772,-50,4,2,1,75,0,0
60972,-50,4,2,1,75,0,0
61314,-50,4,2,1,75,0,0
62514,-50,4,2,1,75,0,0
64057,-50,4,2,1,75,0,0
65257,-100,4,2,1,75,0,0
65429,-100,4,2,1,70,0,0
66286,-100,4,2,1,50,0,0
66800,-100,4,2,1,50,0,0
76400,-100,4,2,1,40,0,0
76743,-100,4,2,1,40,0,0
77772,-100,4,2,1,40,0,0
78457,-100,4,2,1,60,0,0
78800,-100,4,2,1,70,0,0
79143,-50,4,2,1,75,0,0
79486,-50,4,2,1,75,0,0
81886,-100,4,2,1,75,0,0
82229,-50,4,2,1,75,0,0
84457,-100,4,2,1,75,0,0
84629,-50,4,2,1,75,0,0
84972,-50,4,2,1,75,0,0
85143,-50,4,2,1,75,0,0
85657,-100,4,2,1,75,0,0
85829,-50,4,2,1,75,0,0
86172,-100,4,2,1,75,0,0
86514,-100,4,2,1,75,0,0
86857,-100,4,2,1,75,0,0
87372,-100,4,2,1,75,0,0
87714,-50,4,2,1,75,0,0
88057,-100,4,2,1,75,0,0
88400,-50,4,2,1,75,0,0
90114,-50,4,2,1,75,0,0
90457,-50,4,2,1,75,0,0
92857,-100,4,2,1,75,0,0
93543,-50,4,2,1,75,0,0
94057,-50,4,2,1,75,0,0
95086,-50,4,2,1,75,0,0
95600,-100,4,2,1,70,0,0
96286,-100,4,2,1,70,0,0
96800,-100,4,2,1,70,0,0
97314,-100,4,2,1,70,0,0
97657,-100,4,2,1,70,0,0
99029,-100,4,2,1,70,0,0
99543,-100,4,2,1,70,0,0
100057,-100,4,2,1,70,0,0
100400,-50,4,2,1,50,0,0
100743,-100,4,2,1,50,0,0
101086,-40,4,2,1,60,0,0
101429,-100,4,2,1,60,0,0
101772,-133.333333333333,4,2,1,60,0,0
101943,-133.333333333333,4,2,1,60,0,0
102114,-133.333333333333,4,2,1,60,0,0
102457,-133.333333333333,4,2,1,60,0,0
103143,-133.333333333333,4,2,1,60,0,0
103829,-40,4,2,1,60,0,0
105200,-100,4,2,1,60,0,0
105543,-50,4,2,1,60,0,0
107257,-40,4,2,1,60,0,0
107943,-66.6666666666667,4,2,1,60,0,0
108286,-50,4,2,1,60,0,0
108629,-40,4,2,1,60,0,0
111029,-50,4,2,1,60,0,0
112057,-100,4,2,1,60,0,0
112143,-400,4,2,1,5,0,0
114800,-100,4,2,1,15,0,0
116172,-100,4,2,1,50,0,0
117543,-100,4,2,1,50,0,0
118914,-100,4,2,1,50,0,0
120286,-100,4,2,1,35,0,0
121657,-100,4,2,1,45,0,0
122172,-100,4,2,1,60,0,0
122514,-100,4,2,1,55,0,0
122686,-66.6666666666667,4,2,1,50,0,0
122857,-50,4,2,1,50,0,0
123029,-66.6666666666667,4,2,1,55,0,0
133143,-66.6666666666667,4,2,1,60,0,0
133657,-66.6666666666667,4,2,1,60,0,0
134000,-66.6666666666667,4,2,1,55,0,0
144972,-100,4,2,1,50,0,0
154914,-100,4,2,1,40,0,0
155943,-100,4,2,1,50,0,0
157314,-100,4,2,5,50,0,0
168286,-100,4,2,4,60,0,0
179257,-100,4,2,1,55,0,0
181314,-100,4,2,1,55,0,0
182000,-100,4,2,1,55,0,0
184057,-100,4,2,1,55,0,0
186114,-100,4,2,1,60,0,0
187486,-100,4,2,5,60,0,0
188172,-50,4,2,2,50,0,0
188629,-100,4,2,1,50,0,0
188857,-100,4,2,1,50,0,0
189200,-100,4,2,1,60,0,0
189543,-100,4,2,1,60,0,0
190229,-100,4,2,1,65,0,0
201200,-100,4,2,1,65,0,0
206686,-100,4,2,1,60,0,0
209429,-100,4,2,1,60,0,0
210114,-100,4,2,1,55,0,0
210457,-100,4,2,1,60,0,0
210800,-50,4,2,1,65,0,0
211829,-100,4,2,1,55,0,0
212172,-100,4,2,1,50,0,0
234114,-100,4,2,1,60,0,0
243372,-100,4,2,1,65,0,0
245086,-50,4,2,1,75,0,0
245429,-50,4,2,1,75,0,0
250572,-50,4,2,1,75,0,0
250914,-50,4,2,1,75,0,0
251086,-50,4,2,1,75,0,0
251600,-50,4,2,1,75,0,0
251772,-50,4,2,1,75,0,0
252114,-50,4,2,1,75,0,0
252457,-50,4,2,1,75,0,0
252800,-50,4,2,1,75,0,0
256057,-50,4,2,1,75,0,0
256400,-50,4,2,1,75,0,0
260000,-50,4,2,1,75,0,0
261029,-50,4,2,1,75,0,0
261543,-100,4,2,1,70,0,0
263257,-100,4,2,1,70,0,0
264286,-100,4,2,1,70,0,0
264972,-100,4,2,1,70,0,0
265486,-100,4,2,1,70,0,0
266000,-100,4,2,1,70,0,0
266343,-50,4,2,1,70,0,0
266686,-100,4,2,1,70,0,0
267029,-40,4,2,1,60,0,0
267714,-28.5714285714286,4,2,1,70,0,0
269086,-40,4,2,1,70,0,0
273714,-66.6666666666667,4,2,1,70,0,0
274229,-50,4,2,1,70,0,0
274572,-40,4,2,1,70,0,0
277314,-66.6666666666667,4,2,1,70,0,0
278000,-33.3333333333333,4,2,1,75,0,0
278686,-40,4,2,1,75,0,0
279029,-66.6666666666667,4,2,1,75,0,0
279200,-66.6666666666667,4,2,1,75,0,0
279800,-40,4,2,1,75,0,0
280057,-40,4,2,1,75,0,0
280400,-40,4,2,1,75,0,0
282286,-66.6666666666667,4,2,1,75,0,0
282629,-40,4,2,1,75,0,0
283486,-40,4,2,1,65,0,0
283829,-100,4,2,1,65,0,0
286229,-66.6666666666667,4,2,1,65,0,0
288629,-33.3333333333333,4,2,5,65,0,0

[Colours]
Combo1 : 226,143,243
Combo2 : 139,222,254
Combo3 : 253,206,240
Combo4 : 150,166,254

[HitObjects]
73,64,971,6,0,P|142:50|178:66,1,80,6|0,0:0|0:0,0:0:0:0:
253,108,1314,1,0,0:0:0:0:
182,151,1486,2,0,L|133:142,1,40,2|0,0:0|0:0,0:0:0:0:
129,140,1657,2,0,L|320:128,1,160,0|2,0:0|0:0,0:0:0:0:
410,186,2172,1,0,3:0:0:0:
369,91,2343,2,0,B|350:69|350:69|362:34|403:27,1,80,0|2,0:0|0:0,0:0:0:0:
402,27,2600,1,2,0:0:0:0:
421,21,2686,2,0,P|463:56|452:107,1,80
394,202,3029,6,0,L|521:185,1,120,2|0,3:2|0:0,0:0:0:0:
498,172,3372,2,0,L|444:305,1,120,0|0,3:0|0:0,0:0:0:0:
467,297,3714,5,0,3:0:0:0:
283,348,4057,1,2,0:0:0:0:
177,188,4400,1,2,0:0:0:0:
296,37,4743,1,0,3:0:0:0:
239,113,4914,1,0,3:0:0:0:
296,37,5086,6,0,P|358:33|385:62,1,80,2|0,0:0|3:0,0:0:0:0:
452,14,5429,2,0,B|459:47|424:55|424:55|394:15,1,80,2|0,0:0|0:0,0:0:0:0:
475,122,5772,6,0,P|469:206|426:234,1,120,2|0,3:2|0:0,0:0:0:0:
430,239,6114,2,0,L|351:112,1,120,6|0,0:0|0:0,0:0:0:0:
355,153,6457,6,0,B|260:156|309:194|205:200,2,160,2|0|0,3:2|3:0|0:0,0:0:0:0:
181,212,7486,5,2,0:0:0:0:
216,84,7657,1,0,3:0:0:0:
162,25,7829,2,0,P|134:79|144:117,1,80,0|2,0:0|0:0,0:0:0:0:
216,84,8172,5,0,0:0:0:0:
324,74,8343,1,0,0:0:0:0:
432,64,8514,2,0,B|465:78|465:78|464:107|421:126,1,80,2|0,3:2|0:0,0:0:0:0:
379,162,8857,6,0,L|359:306,1,120,0|0,3:0|0:0,0:0:0:0:
343,286,9200,6,0,P|347:322|359:337,2,40,0|0|0,3:0|0:0|0:0,0:0:0:0:
443,289,9543,5,2,0:0:0:0:
415,162,9714,2,0,P|400:195|403:214,1,40,0|0,0:0|0:0,0:0:0:0:
443,289,9886,2,0,L|497:279,3,40,2|0|0|0,0:0|0:0|0:0|0:0,0:0:0:0:
448,268,10229,2,0,L|502:258,3,40,0|0|0|0,3:0|0:0|3:0|0:0,0:0:0:0:
362,280,10572,5,2,0:0:0:0:
188,294,10743,1,0,3:0:0:0:
253,343,10914,5,0,3:0:0:0:
79,357,11085,1,0,3:0:0:0:
188,294,11257,5,0,3:0:0:0:
276,82,11429,1,0,3:0:0:0:
48,112,11600,6,0,L|-1:121,3,40,2|2|2|2,0:3|0:3|0:3|0:3,0:0:0:0:
31,99,11943,6,0,L|155:76,1,120.000004577637,6|0,1:2|0:0,0:0:0:0:
276,82,12286,2,0,P|239:78|234:39,1,60.0000022888184,0|0,3:0|0:0,0:0:0:0:
339,32,12457,2,0,B|382:7|382:7|476:29|446:144,1,200,2|0,0:0|0:0,0:0:0:0:
385,166,12972,2,0,B|370:187|342:191|342:191|318:178|312:151,1,100,0|2,3:0|0:0,0:0:0:0:
461,202,13314,5,0,1:0:0:0:
512,325,13486,1,2,0:0:0:0:
389,376,13657,2,0,L|305:366,1,60.0000022888184,0|0,0:0|0:0,0:0:0:0:
233,294,13829,2,0,B|157:351|157:351|128:326|135:291|135:291|131:245|90:237|90:237|115:266|107:304,1,300.000011444092,2|0,0:0|0:0,0:0:0:0:
30,297,14343,6,0,L|39:352,3,40,0|0|0|0,3:0|3:0|3:0|3:0,0:0:0:0:
14,356,14686,6,0,P|6:239|51:142,1,180.000006866455,0|0,1:0|0:0,0:0:0:0:
90,85,15029,6,0,P|177:127|228:200,1,150,2|0,0:0|0:0,0:0:0:0:
242,252,15372,6,0,P|175:296|101:303,1,120,2|0,0:0|0:0,0:0:0:0:
127,287,15714,5,2,3:2:0:0:
299,318,15886,1,0,3:0:0:0:
471,349,16057,6,0,P|441:271|446:223,1,120,2|0,1:2|0:0,0:0:0:0:
421,222,16400,2,0,P|437:102|477:40,1,150,0|0,3:0|0:0,0:0:0:0:
443,53,16743,5,2,3:2:0:0:
265,126,16914,1,0,0:0:0:0:
252,47,17086,2,0,P|299:52|321:68,2,60.0000022888184,2|0|2,0:0|0:0|0:0,0:0:0:0:
36,163,17429,5,0,1:0:0:0:
0,249,17772,2,0,P|57:242|96:246,1,80,0|0,3:0|0:0,0:0:0:0:
145,176,18114,5,0,1:0:0:0:
109,90,18457,2,0,P|166:97|205:93,1,80,0|0,3:0|0:0,0:0:0:0:
282,212,18800,5,0,1:0:0:0:
246,298,19143,2,0,P|303:291|342:295,1,80,0|0,3:0|0:0,0:0:0:0:
392,120,19486,5,0,1:0:0:0:
356,34,19829,2,0,P|413:41|452:37,1,80,0|0,3:0|0:0,0:0:0:0:
356,34,20172,5,0,1:0:0:0:
392,120,20343,1,0,1:0:0:0:
246,298,20514,5,0,1:0:0:0:
282,212,20685,1,0,1:0:0:0:
109,90,20857,6,0,L|175:76,1,60.0000022888184,0|0,1:0|1:0,0:0:0:0:
145,176,21029,2,0,L|210:162,1,60.0000022888184,0|0,1:0|1:0,0:0:0:0:
36,163,21201,5,0,1:0:0:0:
8,204,21286,1,0,1:0:0:0:
6,253,21372,1,0,1:0:0:0:
28,297,21458,1,0,1:0:0:0:
19,322,21543,6,0,L|86:326,1,40,2|2,0:3|0:3,0:0:0:0:
136,305,21714,2,0,L|203:309,1,40,2|2,0:3|0:3,0:0:0:0:
247,349,21886,6,0,L|314:353,1,40,2|2,0:3|0:3,0:0:0:0:
303,344,22057,2,0,L|370:348,1,40,2|2,0:3|0:3,0:0:0:0:
413,309,22229,5,8,0:3:0:0:
422,316,22314,1,8,0:3:0:0:
431,323,22400,2,0,L|441:382,1,40,4|4,0:3|0:3,0:0:0:0:
457,240,22572,1,8,0:0:0:0:
401,86,22915,6,0,P|388:132|357:163,1,60.0000022888184,6|0,1:2|3:0,0:0:0:0:
463,32,23086,2,0,P|487:74|487:117,1,60.0000022888184,2|0,3:2|3:0,0:0:0:0:
306,170,23257,1,8,3:2:0:0:
281,92,23429,2,2,P|239:42|125:40,1,180.000006866455,2|0,3:2|0:0,0:1:0:0:
58,88,23772,2,0,P|67:116|95:98,1,60.0000022888184,2|0,1:2|0:0,0:0:0:0:
118,28,23943,5,8,0:0:0:0:
306,170,24114,2,2,B|370:139|361:77|361:77|380:140|454:148,1,240,2|0,3:2|0:0,0:1:0:0:
468,158,24457,2,0,B|472:222|472:222|429:186,1,80,2|0,1:2|0:0,0:0:0:0:
385,173,24629,2,0,B|372:162|372:162|376:226,1,80,8|0,0:0|0:0,0:0:0:0:
451,59,24800,6,2,B|487:9|487:9|266:43,1,240,2|0,3:2|0:0,0:1:0:0:
253,94,25143,2,0,P|199:107|153:83,1,80,2|0,1:2|0:0,0:0:0:0:
37,52,25314,2,0,B|-3:57|-3:57|27:12,1,80,10|0,0:0|0:0,0:0:0:0:
174,88,25486,2,0,P|151:130|89:120,1,80,2|0,3:2|3:0,0:0:0:0:
21,178,25657,6,0,P|38:224|36:290,1,80,2|0,1:2|3:0,0:0:0:0:
196,214,25829,2,0,P|187:262|152:318,1,80,2|0,1:2|0:0,0:0:0:0:
345,282,26000,1,10,0:0:0:0:
345,282,26172,2,2,B|338:141|338:141|472:178|472:178|437:241,1,320,2|0,3:2|1:0,0:1:0:0:
444,221,26686,6,0,P|415:171|442:139,1,80,10|0,0:0|0:0,0:0:0:0:
359,25,26857,2,2,B|351:9|351:9|450:29|450:29|417:77,1,160,2|0,3:2|0:0,0:1:0:0:
426,65,27114,1,0,0:0:0:0:
426,65,27200,1,0,1:0:0:0:
191,91,27372,6,0,B|144:14|144:14|261:-11|282:88|282:88|265:116|265:116|270:132|270:132|264:138|264:138|265:146|265:146|261:158|261:158|255:164|255:164|256:173|256:173|233:257,1,400,10|0,0:0|0:0,0:0:0:0:
167,197,27886,1,2,1:2:0:0:
145,207,27972,1,0,1:0:0:0:
123,216,28057,1,10,0:0:0:0:
315,250,28229,1,2,3:2:0:0:
76,290,28400,6,0,P|6:306|37:383,1,160,6|2,1:2|3:2,0:0:0:0:
212,321,28743,2,0,B|236:305|236:305|227:275|187:278,1,80,10|0,0:0|0:0,0:0:0:0:
270,384,28914,2,2,B|376:351|376:351|402:277|328:236,1,240,2|0,3:2|3:0,0:1:0:0:
257,216,29257,2,2,B|245:175|245:175|236:140|279:124,1,80,2|0,1:2|0:0,0:0:0:0:
358,35,29429,1,8,0:0:0:0:
408,160,29600,6,2,B|479:171|479:171|516:166|527:118|488:99|488:99|420:89,1,240,2|0,3:2|0:0,0:1:0:0:
358,35,29943,2,0,B|326:61|326:61|350:117,1,80,2|0,1:2|0:0,0:0:0:0:
415,266,30114,2,0,B|479:257|479:257|439:226,1,80,8|0,0:0|0:0,0:0:0:0:
347,313,30286,6,2,B|281:361|209:300|244:232|244:232|280:222|280:222|269:267,1,240,2|0,3:2|0:0,0:1:0:0:
362,201,30629,2,0,B|377:163|377:163|355:116,1,80,2|0,1:2|0:0,0:0:0:0:
283,9,30800,1,10,0:0:0:0:
160,133,30972,1,2,3:2:0:0:
160,133,31057,1,0,3:0:0:0:
160,133,31143,2,0,L|300:152,1,80,2|0,1:2|3:0,0:0:0:0:
332,85,31314,2,0,L|472:104,1,80,2|0,1:2|0:0,0:0:0:0:
479,52,31486,1,10,0:0:0:0:
393,260,31657,6,2,B|419:290|419:290|428:220|428:220|372:146|372:146|389:67|389:67|436:127,1,320,2|0,3:2|1:0,0:1:0:0:
377,271,32172,2,0,L|283:259,1,80,10|0,0:0|0:0,0:0:0:0:
86,216,32343,6,0,B|100:209|96:188|74:185|53:208|58:233|96:243,2,80,2|0|0,3:1|0:0|1:0,0:0:0:0:
250,164,32686,2,0,B|237:154|221:168|228:189|259:195|278:179|268:141,2,80,2|0|0,0:1|0:0|1:0,0:0:0:0:
124,48,33029,2,0,B|122:63|142:70|156:53|146:23|122:15|95:43,2,80,2|0|0,0:1|0:0|1:0,0:0:0:0:
148,135,33372,6,0,B|129:147|129:147|142:166|142:166|160:153|160:153|150:137,1,80,2|0,1:0|0:0,0:0:0:0:
274,132,33543,5,0,1:0:0:0:
311,64,33628,1,0,1:0:0:0:
388,56,33714,1,0,1:0:0:0:
465,48,33800,1,0,1:0:0:0:
512,109,33885,1,4,1:2:0:0:
512,109,44172,5,2,0:3:0:0:
501,125,44257,1,8,0:3:0:0:
492,143,44343,1,4,0:3:0:0:
426,185,44429,5,4,0:3:0:0:
426,185,44514,2,0,L|437:256,1,40,0|0,1:0|1:0,0:0:0:0:
498,340,44686,5,0,1:0:0:0:
498,340,44772,1,0,1:0:0:0:
498,340,44857,2,0,P|408:301|354:308,1,120,4|0,1:2|0:0,0:0:0:0:
368,314,45200,2,0,B|375:286|354:272|354:272|312:310,1,80,2|0,0:0|3:0,0:0:0:0:
217,377,45543,6,0,P|234:343|239:320,1,40,8|0,0:0|0:0,0:0:0:0:
182,120,45714,2,0,P|182:189|246:263,1,160,0|0,1:0|1:0,0:0:0:0:
364,122,46229,2,0,B|418:137|418:137|415:207|352:223,1,160,2|0,3:2|0:0,0:0:0:0:
286,104,46743,1,0,1:0:0:0:
508,17,46914,2,0,B|499:55|499:55|455:82|420:43,1,120,8|0,0:0|0:0,0:0:0:0:
412,27,47257,5,0,1:0:0:0:
438,172,47429,1,8,0:0:0:0:
286,104,47600,2,0,P|189:76|147:74,1,120,0|0,1:0|0:0,0:0:0:0:
156,54,47943,6,0,L|95:61,1,40,0|0,1:0|0:0,0:0:0:0:
109,75,48114,2,0,L|48:82,1,40,0|0,1:0|0:0,0:0:0:0:
203,257,48286,1,8,0:0:0:0:
124,322,48457,2,0,B|63:335|63:335|71:275|96:225,1,160,0|0,1:0|1:0,0:0:0:0:
101,126,48972,6,0,L|72:392,1,240,2|0,3:2|1:0,0:0:0:0:
218,117,49657,2,0,P|254:125|227:190,1,120,8|0,0:0|0:0,0:0:0:0:
215,199,50000,5,0,1:0:0:0:
453,120,50172,1,8,0:0:0:0:
363,344,50343,6,0,P|447:332|505:294,1,120,0|0,1:0|0:0,0:0:0:0:
499,325,50686,2,0,B|515:335|515:335|532:291|498:272,1,80,2|0,0:3|1:0,0:0:0:0:
299,66,51029,2,0,P|292:88|292:120,1,40,8|0,0:0|0:0,0:0:0:0:
331,251,51200,2,0,B|376:263|376:263|400:190|342:142,1,160,0|0,1:0|1:0,0:0:0:0:
151,238,51714,2,0,P|114:155|72:111,1,120,2|0,3:2|0:0,0:0:0:0:
23,162,52057,5,0,1:0:0:0:
19,181,52142,1,0,1:0:0:0:
15,205,52229,2,0,L|31:281,1,40,0|0,1:0|1:0,0:0:0:0:
75,351,52400,6,0,B|46:325|46:325|85:303,1,80,10|0,0:0|0:0,0:0:0:0:
167,316,52743,2,0,B|196:342|196:342|157:364,1,80,0|8,1:0|0:0,0:0:0:0:
264,270,53086,6,0,B|284:274|302:262|302:262|331:292|388:286,1,120,2|0,1:2|0:0,0:0:0:0:
385,309,53429,2,0,P|435:300|445:268,1,80,0|2,3:0|1:2,0:0:0:0:
375,55,53772,6,0,L|360:95,1,40,10|0,0:0|0:0,0:0:0:0:
264,270,53943,1,2,1:2:0:0:
453,294,54114,5,2,3:2:0:0:
444,277,54286,6,0,B|411:323|411:323|434:390|519:380,1,180.000006866455,2|0,1:2|0:0,0:1:0:0:
494,347,54629,2,0,B|461:342|461:342|443:331|443:331|372:321|372:321|349:327|349:327|302:321,1,180.000006866455,2|0,1:2|0:0,0:1:0:0:
264,270,54972,2,0,B|280:290|285:311|285:311|364:310|372:219,1,180.000006866455,4|0,1:3|0:0,0:1:0:0:
319,165,55314,5,0,1:0:0:0:
397,155,55400,1,0,1:0:0:0:
475,145,55486,1,8,0:0:0:0:
243,51,55657,2,0,B|237:25|237:25|216:25|205:55,1,60.0000022888184,2|0,0:0|0:0,0:0:0:0:
87,121,55829,6,2,B|121:117|121:117|147:127|147:127|172:124|172:124|200:134|200:134|243:129,1,160,6|0,1:2|3:0,0:1:0:0:
475,145,56172,2,0,B|450:125|450:125|445:97|475:62,1,80,8|0,3:2|0:0,0:0:0:0:
466,0,56343,6,2,B|473:21|473:21|465:35|465:35|464:52|464:52|467:64|467:64|461:78|461:78|459:98|459:98|463:111|463:111|458:124|458:124|457:141|457:141|462:154|462:154|456:170|456:170|455:185|455:185|462:200|462:200|453:213|453:213|451:237,1,240,2|0,3:2|3:0,0:1:0:0:
392,282,56686,2,0,B|399:316|399:316|312:303,1,80,2|0,1:2|0:0,0:0:0:0:
209,322,56857,1,8,0:0:0:0:
209,322,56943,1,0,0:0:0:0:
209,322,57029,2,2,B|187:214|187:214|359:242,1,240,2|0,3:2|3:0,0:1:0:0:
323,132,57372,2,2,B|355:166|332:214|332:214|260:203,1,160,2|8,1:2|0:0,0:1:0:0:
248,182,57629,1,0,3:0:0:0:
237,161,57714,6,2,B|232:167|232:167|245:165|245:165|244:169|244:169|257:167|257:167|256:171|256:171|269:169|269:169|268:173|268:173|280:171|280:171|280:174|280:174|292:172|292:172|292:176|292:176|304:174|304:174|304:178|304:178|316:176|316:176|315:180|315:180|328:178|328:178|327:182|327:182|340:180|340:180|339:184|339:184|352:182|352:182|351:186|351:186|363:184|363:184|363:188|363:188|375:186|375:186|375:189|375:189|387:187|387:187|387:191|387:191|398:188|398:188|398:193,1,240,2|0,3:2|3:0,0:1:0:0:
409,214,58057,2,0,P|428:179|387:154,1,80,2|0,1:2|0:0,0:0:0:0:
393,8,58229,1,8,0:0:0:0:
194,86,58400,1,0,3:0:0:0:
194,86,58486,1,0,3:0:0:0:
194,86,58572,6,0,B|188:62|188:62|157:55|110:86,1,80,2|0,1:2|3:0,0:0:0:0:
55,74,58743,2,0,B|57:98|57:98|30:115|-23:102,1,80,2|0,1:2|0:0,0:0:0:0:
121,255,58914,1,8,0:0:0:0:
33,347,59086,6,2,B|50:299|50:299|101:358|182:315,1,160,2|0,3:2|0:0,0:1:0:0:
266,273,59429,2,0,B|308:269|308:269|319:298|297:312,1,80,2|0,1:2|0:0,0:0:0:0:
216,382,59600,1,8,0:0:0:0:
216,382,59686,1,0,0:0:0:0:
216,382,59772,6,2,B|217:368|217:368|226:355|226:355|219:340|219:340|220:325|220:325|226:309|226:309|221:296|221:296|222:279|222:279|227:266|227:266|223:253|223:253|225:233|225:233|231:219|231:219|228:207|228:207|229:190|229:190|237:176|237:176|230:155,1,240,2|0,3:2|3:0,0:1:0:0:
216,135,60114,2,0,P|252:162|212:203,1,80,2|0,1:2|0:0,0:0:0:0:
396,86,60286,1,8,0:0:0:0:
307,239,60457,2,2,P|323:126|232:58,1,240,2|0,3:2|3:0,0:1:0:0:
217,39,60800,2,0,B|194:59|194:59|126:55,1,80,0|0,1:0|1:0,0:0:0:0:
49,170,60972,2,2,B|3:129|14:75|14:75|186:88,1,240,10|0,0:0|0:0,0:1:0:0:
216,135,61314,6,0,B|242:159|242:159|392:164,1,160,6|2,1:2|3:2,0:0:0:0:
394,0,61657,2,0,B|376:24|376:24|372:52|415:62,1,80,8|0,3:2|0:0,0:0:0:0:
486,172,61829,2,2,B|499:111|405:75|405:75|410:124|370:146|370:146|361:186,1,240,2|0,3:2|3:0,0:1:0:0:
431,302,62172,2,0,B|448:337|448:337|460:281,1,80,2|0,1:2|0:0,0:0:0:0:
485,171,62343,1,8,0:0:0:0:
485,171,62429,1,0,0:0:0:0:
485,171,62514,6,2,B|452:194|443:223|443:223|403:221|374:188|374:188|260:201,1,240,2|0,3:2|3:0,0:1:0:0:
234,295,62857,2,2,B|264:299|281:277|281:277|292:218|292:218|181:234,1,160,2|8,1:2|0:0,0:1:0:0:
228,208,63114,1,0,3:0:0:0:
210,191,63200,2,2,B|172:122|235:63|235:63|272:83|272:83|341:75,1,240,2|0,3:2|3:0,0:1:0:0:
397,35,63543,1,2,1:2:0:0:
397,35,63629,1,0,1:0:0:0:
397,35,63714,2,0,B|417:13|417:13|457:5|500:47,1,80,8|0,0:0|0:0,0:0:0:0:
389,204,63886,1,0,3:0:0:0:
394,350,64057,6,0,B|400:294|400:294|422:271,1,80,2|0,1:2|3:0,0:0:0:0:
389,204,64229,2,0,B|405:186|405:186|411:130,1,80,2|0,1:2|0:0,0:0:0:0:
397,35,64400,1,8,0:0:0:0:
485,171,64572,6,2,B|512:259|512:259|318:235,1,240,2|0,3:2|3:0,0:1:0:0:
299,199,64914,1,0,1:0:0:0:
97,160,65086,6,0,P|73:190|106:215,1,80,8|0,0:0|0:0,0:0:0:0:
211,76,65257,1,2,3:2:0:0:
138,32,65429,6,0,B|146:13|146:13|114:0|86:22,1,80,0|2,1:0|0:0,0:0:0:0:
279,35,65772,6,0,B|291:51|291:51|318:30|313:-5,1,80,0|0,1:0|0:0,0:0:0:0:
205,155,66114,6,0,B|193:156|193:156|196:175|214:183,1,40,0|0,1:0|0:0,0:0:0:0:
207,257,66286,2,0,P|229:277|243:282,1,40,0|0,1:0|0:0,0:0:0:0:
387,233,66457,1,0,1:0:0:0:
380,194,66544,1,0,1:0:0:0:
341,201,66629,1,0,1:0:0:0:
348,240,66714,1,0,1:0:0:0:
451,154,66800,6,0,B|442:110|442:110|488:135|460:211|460:211|371:192,1,240,6|0,1:2|1:0,0:0:0:0:
261,356,67486,6,0,L|328:348,1,40,10|0,0:0|0:0,0:0:0:0:
379,193,67657,2,0,L|211:212,1,160,0|0,1:0|1:0,0:0:0:0:
380,53,68172,6,0,B|396:29|396:29|428:27|454:46,1,80,0|2,0:0|3:2,0:0:0:0:
310,91,68514,2,0,B|294:115|294:115|262:117|236:98,1,80,0|2,3:0|1:2,0:0:0:0:
495,369,68857,5,10,0:2:0:0:
388,263,69029,1,2,0:2:0:0:
426,117,69200,1,2,1:2:0:0:
425,268,69372,1,10,0:2:0:0:
295,343,69543,6,0,B|257:328|257:328|145:338,1,120,2|0,1:2|0:0,0:0:0:0:
150,359,69886,6,0,L|159:308,1,40,0|0,1:0|0:0,0:0:0:0:
146,300,70057,2,0,L|155:249,1,40,2|0,1:2|0:0,0:0:0:0:
283,111,70229,1,10,0:0:0:0:
340,250,70400,1,0,1:0:0:0:
176,266,70572,1,2,3:2:0:0:
12,282,70743,2,0,P|20:249|42:244,1,40,2|0,1:2|0:0,0:0:0:0:
176,266,70914,6,0,P|204:353|303:353,1,200,0|0,3:0|0:0,0:0:0:0:
223,344,71429,2,0,L|165:347,1,40,2|0,3:2|0:0,0:0:0:0:
340,250,71600,2,0,B|368:260|368:260|424:241|424:241|482:259,1,120,8|0,0:0|0:0,0:0:0:0:
499,217,71943,5,2,1:2:0:0:
500,245,72028,1,0,1:0:0:0:
502,273,72114,1,8,0:0:0:0:
412,27,72286,2,0,B|450:37|450:37|469:72|461:152|372:165,1,200,2|0,1:2|0:0,0:0:0:0:
369,143,72800,6,0,L|436:151,1,40,2|0,1:2|0:0,0:0:0:0:
298,28,72972,2,0,P|236:36|205:73,1,80,8|0,0:0|1:0,0:0:0:0:
75,171,73314,1,2,0:0:0:0:
75,171,73486,6,0,L|231:156,1,120,0|0,1:0|0:0,0:0:0:0:
289,159,73829,2,0,L|445:144,1,120,0|0,1:0|0:0,0:0:0:0:
423,142,74172,2,0,L|501:134,1,40,2|0,1:2|0:0,0:0:0:0:
348,351,74343,2,0,B|315:376|315:376|270:373|251:322,1,120,8|0,0:0|0:0,0:0:0:0:
224,338,74686,6,0,P|232:313|250:292,1,40,2|0,1:2|0:0,0:0:0:0:
224,264,74857,2,0,P|243:246|269:237,1,40,10|0,0:0|0:0,0:0:0:0:
498,303,75029,2,0,B|496:363|496:363|425:387,1,120,2|0,1:2|0:0,0:0:0:0:
417,308,75372,2,0,L|418:210,1,80,0|0,1:0|0:0,0:0:0:0:
497,25,75714,2,0,L|465:69,1,40,10|0,0:0|0:0,0:0:0:0:
341,189,75886,2,0,P|277:191|209:130,1,160,0|0,1:0|1:0,0:0:0:0:
0,290,76400,6,0,B|61:284|61:284|70:288|70:288|160:280|160:280|168:274|168:274|263:265,1,240,4|2,1:3|0:0,0:0:0:0:
452,67,77429,2,0,P|455:106|446:125,1,40,8|0,0:3|0:0,0:0:0:0:
488,139,77600,2,0,P|491:178|482:197,1,40,4|0,0:3|0:0,0:0:0:0:
348,321,77772,2,0,P|305:265|426:220,1,240,2|0,0:0|0:0,0:0:0:0:
512,275,78457,5,8,0:3:0:0:
496,351,78543,1,8,0:3:0:0:
444,313,78628,5,4,0:3:0:0:
461,340,78714,1,4,0:3:0:0:
422,340,78800,6,0,L|279:350,1,120,10|0,0:0|0:0,0:0:0:0:
314,259,79143,6,0,B|313:240|313:240|326:227|326:227|327:207|327:207|338:195|338:195|339:176|339:176|351:162|351:162|270:149|230:232,1,240,6|0,1:2|3:0,0:0:0:0:
232,298,79486,2,0,P|209:245|175:222,1,80,8|0,0:0|0:0,0:0:0:0:
21,346,79657,1,0,3:0:0:0:
21,150,79829,6,0,B|69:172|116:183|116:183|76:284,1,160,2|2,3:2|1:2,0:0:0:0:
232,298,80172,2,0,B|252:320|252:320|282:326|317:296,1,80,10|0,0:0|0:0,0:0:0:0:
195,377,80343,6,0,B|189:356|175:343|175:343|216:365|250:359|250:359|311:343|311:343|345:331|399:362,1,240,2|0,3:2|3:0,0:0:0:0:
482,322,80686,2,0,B|426:333|387:311|387:311|417:262|417:199,1,160,2|8,1:2|0:0,0:0:0:0:
433,21,81029,2,0,B|382:40|319:45|319:45|363:215,1,240,2|0,3:2|3:0,0:0:0:0:
383,136,81372,5,2,1:2:0:0:
430,142,81457,1,0,1:0:0:0:
477,149,81543,1,10,0:0:0:0:
211,212,81714,2,0,P|177:235|142:212,1,80,2|0,3:2|3:0,0:0:0:0:
98,93,81886,6,0,P|97:117|88:146,1,40,2|0,1:2|3:0,0:0:0:0:
79,147,82057,2,0,P|78:171|69:200,1,40,0|0,1:0|0:0,0:0:0:0:
73,15,82229,5,10,0:0:0:0:
246,134,82400,1,2,3:2:0:0:
293,125,82486,1,0,3:0:0:0:
335,102,82572,1,2,3:2:0:0:
379,119,82657,1,0,3:0:0:0:
426,123,82743,1,2,1:2:0:0:
488,296,82914,2,0,B|498:328|498:328|489:368|416:354,1,80,10|0,0:0|0:0,0:0:0:0:
426,123,83086,6,2,B|394:81|390:18|390:18|274:81,1,240,2|0,1:2|0:0,0:1:0:0:
286,156,83429,2,2,B|312:192|306:245|306:245|209:232,1,160,2|0,1:2|3:0,0:1:0:0:
49,27,83772,2,2,P|168:15|162:142,1,240,2|0,1:2|0:0,0:1:0:0:
142,110,84114,5,2,1:2:0:0:
159,154,84200,1,0,1:0:0:0:
164,201,84286,1,8,0:0:0:0:
43,352,84457,6,0,L|53:299,1,40,2|0,3:2|3:0,0:0:0:0:
128,345,84629,6,0,B|172:356|210:338|210:338|253:353|299:335|299:335|337:352|384:341,1,240,6|0,1:2|3:0,0:0:0:0:
441,357,84972,2,0,P|442:296|411:277,1,80,8|0,0:0|0:0,0:0:0:0:
333,107,85143,2,0,B|338:169|324:218|324:218|410:196|410:196|402:166|407:105,1,240,0|0,3:2|3:0,0:0:0:0:
417,82,85486,5,2,1:2:0:0:
245,236,85657,1,10,0:0:0:0:
98,29,85829,5,2,3:2:0:0:
66,64,85914,1,0,3:0:0:0:
57,111,86000,2,0,B|48:134|48:134|52:175|105:190,1,80,0|0,3:0|3:0,0:0:0:0:
230,145,86172,1,0,1:0:0:0:
327,20,86343,1,8,0:0:0:0:
405,157,86514,5,2,3:2:0:0:
415,203,86600,1,0,3:0:0:0:
445,239,86686,1,0,3:0:0:0:
417,278,86772,1,0,3:0:0:0:
405,326,86857,5,0,1:0:0:0:
405,326,86943,1,0,1:0:0:0:
416,345,87029,1,10,0:0:0:0:
334,242,87200,5,0,3:0:0:0:
334,242,87286,1,0,3:0:0:0:
317,224,87372,2,0,L|254:219,2,40,2|0|0,1:2|3:0|1:0,0:0:0:0:
449,78,87714,6,0,B|478:52|507:35|507:35|419:70|299:73,1,240,10|0,0:0|3:0,0:0:0:0:
314,55,88057,6,0,L|251:48,1,40,2|0,3:2|3:0,0:0:0:0:
206,11,88229,1,0,1:0:0:0:
103,194,88400,6,0,P|73:162|91:114,1,80,8|0,0:0|0:0,0:0:0:0:
61,105,88572,2,0,P|167:139|375:170,1,320,2|2,3:2|1:2,0:0:0:0:
507,35,89086,1,10,0:0:0:0:
459,282,89257,1,2,3:2:0:0:
469,234,89343,1,0,3:0:0:0:
489,190,89429,1,0,3:0:0:0:
465,148,89514,1,0,3:0:0:0:
446,103,89600,5,2,1:2:0:0:
446,103,89686,1,0,1:0:0:0:
449,78,89772,1,10,0:0:0:0:
372,169,89943,2,0,L|348:261,1,80,2|0,3:2|3:0,0:0:0:0:
373,271,90114,6,0,B|337:278|298:265|298:265|252:266|216:243|216:243|254:274|276:319,1,240,6|0,1:2|3:0,0:0:0:0:
194,339,90457,2,0,B|171:351|171:351|132:348|109:295,1,80,8|0,0:0|0:0,0:0:0:0:
73,158,90629,1,0,3:0:0:0:
18,255,90800,6,0,B|39:316|39:316|82:292|130:293,1,160,2|2,3:2|1:2,0:0:0:0:
231,142,91143,2,0,P|251:95|304:86,1,80,10|0,0:0|0:0,0:0:0:0:
162,183,91314,2,0,P|179:66|312:8,1,240,2|0,3:2|3:0,0:0:0:0:
343,46,91657,2,0,B|359:81|347:114|347:114|463:88,1,160,2|8,1:2|0:0,0:0:0:0:
512,223,92000,2,0,B|490:261|490:261|381:288|289:222,1,240,2|0,3:2|3:0,0:0:0:0:
260,207,92343,5,2,1:2:0:0:
276,252,92429,1,0,1:0:0:0:
291,296,92514,1,10,0:0:0:0:
325,152,92686,1,2,3:2:0:0:
227,356,92857,6,0,P|202:362|177:362,1,40,2|0,1:2|3:0,0:0:0:0:
171,374,93029,2,0,P|146:366|124:354,1,40,0|0,1:0|0:0,0:0:0:0:
65,240,93200,1,10,0:0:0:0:
225,103,93372,1,2,3:2:0:0:
65,240,93543,2,0,B|32:215|32:215|81:179|159:195,1,160,2|2,3:2|1:2,0:0:0:0:
497,293,93886,6,0,P|510:340|485:363,1,80,10|0,0:0|0:0,0:0:0:0:
480,383,94057,2,2,P|479:272|518:103,1,240,2|0,1:2|0:0,0:1:0:0:
420,27,94400,2,2,P|376:138|355:256,1,240,2|0,1:2|0:0,0:1:0:0:
220,384,94743,2,2,P|219:273|258:104,1,240,2|0,1:2|3:0,0:1:0:0:
263,114,95086,5,2,1:2:0:0:
271,161,95172,1,0,1:0:0:0:
279,207,95257,1,10,0:0:0:0:
91,301,95429,2,0,B|77:325|77:325|46:339|17:324,1,80,2|0,3:2|3:0,0:0:0:0:
5,352,95600,6,0,L|61:345,1,40,0|0,1:0|0:0,0:0:0:0:
175,313,95772,2,0,B|204:297|204:297|251:292|295:311|295:311|320:342,1,160,0|0,1:0|1:0,0:0:0:0:
437,208,96286,2,0,B|444:248|444:248|417:269|376:242,1,80,8|0,0:0|0:0,0:0:0:0:
215,7,96629,6,0,L|270:28,1,40,0|0,1:0|0:0,0:0:0:0:
265,145,96800,2,0,B|295:128|295:128|391:117|391:117|451:131,1,160,0|0,1:0|1:0,0:0:0:0:
492,346,97314,6,0,L|507:244,1,80,8|0,0:0|0:0,0:0:0:0:
290,384,97657,6,0,B|285:364|285:364|306:330,1,40,2|0,1:2|0:0,0:0:0:0:
301,308,97829,2,0,B|296:288|296:288|317:254,1,40,2|0,1:2|0:0,0:0:0:0:
501,338,98000,6,0,B|503:348|514:355|514:355|483:375|428:358,1,80,10|2,0:0|0:3,0:0:0:0:
322,254,98343,2,0,L|253:266,1,40,0|0,1:0|0:0,0:0:0:0:
122,384,98514,2,0,B|99:350|99:350|87:288|146:236,1,160,0|0,1:0|1:0,0:0:0:0:
32,87,99029,2,0,B|46:102|46:102|49:144|49:144|29:167,1,80,8|0,0:0|0:0,0:0:0:0:
212,18,99372,2,0,P|214:39|190:41,1,40,0|0,1:0|0:0,0:0:0:0:
207,196,99543,6,0,B|166:165|174:128|174:128|286:116,1,160,0|0,1:0|1:0,0:0:0:0:
417,9,100057,2,0,B|424:27|424:27|410:125,1,80,8|0,0:0|0:0,0:0:0:0:
431,373,100400,6,0,B|420:345|420:345|435:239|435:239|462:207,1,160,2|2,0:0|0:0,0:0:0:0:
429,200,100743,6,0,B|450:240|409:289|349:254,1,120,2|0,0:0|0:0,0:0:0:0:
278,276,101086,6,0,B|304:279|296:338|198:342|139:240|214:-118|588:-185|575:209|217:159,1,700,4|0,1:2|0:0,0:0:0:0:
258,149,101772,6,0,L|251:105,1,30.0000011444092,8|0,0:0|0:0,0:0:0:0:
175,138,101943,2,0,L|160:99,1,30.0000011444092,0|0,1:0|0:0,0:0:0:0:
261,168,102114,6,2,L|268:125,1,30.0000011444092,0|0,3:0|3:0,0:1:0:0:
360,134,102286,2,2,L|376:104,1,30.0000011444092,0|0,3:0|3:0,0:1:0:0:
240,205,102457,6,0,L|229:166,1,30.0000011444092,2|0,3:2|0:0,0:0:0:0:
146,164,102629,2,0,L|161:115,1,30.0000011444092,2|0,3:2|0:0,0:0:0:0:
272,236,102800,6,0,L|284:185,1,30.0000011444092,2|0,3:2|3:0,0:0:0:0:
371,179,102972,2,0,L|362:146,1,30.0000011444092,2|0,1:2|3:0,0:0:0:0:
189,301,103143,6,0,L|178:251,1,30.0000011444092,10|0,0:0|0:0,0:0:0:0:
78,249,103314,2,0,L|82:200,1,30.0000011444092,2|0,0:0|0:0,0:0:0:0:
358,349,103486,6,0,L|372:303,1,30.0000011444092,2|0,1:2|3:0,0:0:0:0:
470,288,103657,2,0,L|464:247,1,30.0000011444092,10|0,0:0|0:0,0:0:0:0:
314,63,103829,6,2,B|332:10|240:-41|161:30|213:184|253:110|351:115|296:197|263:178|265:154,2,300,2|0|0,1:2|1:0|1:0,0:1:0:0:
51,193,104514,5,10,0:0:0:0:
95,172,104600,1,2,0:3:0:0:
97,121,104686,1,2,1:3:0:0:
141,100,104772,1,2,0:3:0:0:
117,56,104857,5,2,0:3:0:0:
161,77,104943,1,2,0:3:0:0:
163,128,105029,1,2,1:3:0:0:
207,149,105115,1,2,0:3:0:0:
202,168,105200,5,2,1:3:0:0:
212,172,105257,2,0,P|222:186|228:204,1,26.6666666666667,2|2,0:3|0:3,0:0:0:0:
252,208,105372,2,0,P|253:225|249:243,2,26.6666666666667,2|2|2,0:0|0:3|0:3,0:0:0:0:
273,259,105543,5,2,1:3:0:0:
287,251,105600,2,0,P|302:229|310:201,1,53.3333333333333,2|2,0:3|0:3,0:0:0:0:
346,191,105715,2,0,P|347:164|342:136,2,53.3333333333333,2|2|2,0:0|0:3|0:3,0:0:0:0:
321,328,105886,5,10,0:0:0:0:
478,358,106057,5,2,1:2:0:0:
458,309,106143,1,2,1:2:0:0:
486,262,106229,1,2,1:2:0:0:
466,213,106315,1,2,1:2:0:0:
494,166,106400,1,10,0:2:0:0:
474,117,106486,1,10,0:2:0:0:
449,44,106572,5,2,1:3:0:0:
453,98,106657,1,2,0:3:0:0:
399,117,106743,1,2,0:3:0:0:
386,155,106828,1,2,0:3:0:0:
381,203,106914,5,2,0:3:0:0:
324,213,107000,1,2,0:3:0:0:
296,254,107086,1,2,1:3:0:0:
263,269,107172,1,0,0:0:0:0:
209,339,107257,6,2,B|153:305|160:212|232:190|232:190|162:126|167:-47|421:-53|458:76|408:203|374:209|297:216,1,700,10|0,0:0|3:0,0:1:0:0:
263,269,107943,6,0,B|272:296|272:296|326:275,1,60.0000022888184,0|0,1:0|0:0,0:0:0:0:
378,302,108114,2,0,B|387:275|387:275|441:296,1,60.0000022888184,0|0,3:0|1:0,0:0:0:0:
200,89,108286,6,0,B|218:109|218:109|254:117|301:75,1,80,0|0,0:0|3:0,0:0:0:0:
355,82,108457,2,0,B|373:62|373:62|409:54|456:96,1,80,0|0,1:0|3:0,0:0:0:0:
132,284,108629,6,2,B|162:271|165:222|131:210|131:210|157:130|43:90|2:189|52:226,2,300,10|2|2,0:0|0:0|0:0,0:1:0:0:
200,89,109314,2,2,B|200:114|225:121|225:121|284:95|328:132|328:132|362:155|402:132|402:132|432:114,1,200,2|0,1:2|0:0,0:1:0:0:
501,64,109572,2,2,B|478:51|460:70|460:70|453:133|399:153|399:153|362:171|362:217|362:217|362:252,1,200,2|0,3:2|0:0,0:1:0:0:
457,304,109829,2,2,B|476:289|476:289|480:251|434:225,1,100,2|0,1:2|0:0,0:1:0:0:
408,6,110000,5,10,0:0:0:0:
387,1,110086,2,0,B|368:16|368:16|364:54|410:80,1,100,0|0,3:0|3:0,0:0:0:0:
288,202,110257,5,10,0:0:0:0:
294,222,110343,2,0,B|316:230|316:230|351:215|350:162,1,100,0|0,3:0|0:0,0:0:0:0:
200,89,110514,2,0,B|168:84|168:84|138:114|138:114|103:105,1,100,2|0,3:0|3:0,0:0:0:0:
14,232,110686,6,0,P|5:268|35:265,1,66.6666666666667,2|2,1:2|0:0,0:0:0:0:
34,240,110800,2,2,B|61:191|61:191|110:188|157:246,1,133.333333333333,2|2,0:0|0:0,0:1:0:0:
167,301,111029,6,2,B|160:338|145:360|145:360|258:378|367:308,1,240,2|0,1:2|0:0,0:1:0:0:
340,252,111372,5,10,0:3:0:0:
433,278,111486,1,10,0:3:0:0:
479,361,111600,1,10,0:3:0:0:
439,215,111714,5,6,0:3:0:0:
475,281,111828,1,6,0:3:0:0:
454,355,111942,1,2,1:3:0:0:
439,215,112057,6,0,B|378:96|444:42|444:42|462:8|462:8|463:46|463:46|477:115|412:162|412:162|363:195|292:156|292:156|265:89|309:57|309:57|324:25|324:25|325:60|325:60|343:114|292:154|292:154|220:224|125:177|125:177|254:212|290:294|290:294|244:313|237:365,1,1280,0|0,1:0|0:0,0:0:0:0:
256,192,116172,12,0,120114,0:0:0:0:
327,258,120286,6,0,P|449:250|497:222,1,160,2|0,0:0|0:0,0:0:0:0:
467,154,120800,2,0,P|345:162|297:190,1,160,2|0,0:0|0:0,0:0:0:0:
256,120,121314,2,0,L|256:32,1,80,2|0,0:0|0:0,0:0:0:0:
185,258,121657,6,0,P|63:250|15:222,1,160,2|0,0:0|0:0,0:0:0:0:
82,161,122171,2,0,P|149:165|176:180,1,80,2|0,0:0|0:0,0:0:0:0:
256,192,122514,6,0,P|283:198|311:197,1,40,2|2,0:3|0:3,0:0:0:0:
369,176,122686,2,0,P|403:168|440:149,1,60.0000022888184,10|2,0:0|0:3,0:0:0:0:
473,94,122857,2,0,P|493:53|495:-3,1,80,2|2,0:3|0:3,0:0:0:0:
394,81,123029,6,0,P|320:104|235:106,1,120.000004577637,4|0,1:2|0:0,0:0:0:0:
75,23,123372,2,0,L|170:44,1,60.0000022888184,10|0,0:0|0:0,0:0:0:0:
132,247,123543,2,0,P|57:132|60:14,1,240.000009155274,0|0,3:0|1:0,0:0:0:0:
225,256,124057,2,0,B|271:240|271:240|280:304|213:304,1,120.000004577637,10|0,0:0|3:0,0:0:0:0:
426,114,124400,5,2,3:2:0:0:
437,117,124486,1,0,3:0:0:0:
448,120,124572,1,0,0:0:0:0:
391,324,124743,2,0,P|375:280|392:250,1,60.0000022888184,8|0,0:0|0:0,0:0:0:0:
448,120,124914,2,0,B|461:195|461:195|369:215|278:139,1,240.000009155274,2|0,3:2|1:0,0:0:0:0:
487,26,125429,6,0,L|342:47,1,120.000004577637,8|0,0:0|3:0,0:0:0:0:
285,19,125686,1,0,3:0:0:0:
291,5,125772,2,0,P|261:7|232:29,1,60.0000022888184,0|0,1:0|3:0,0:0:0:0:
226,167,125943,2,0,P|256:165|285:143,1,60.0000022888184,0|0,1:0|0:0,0:0:0:0:
168,84,126114,6,0,B|73:97|24:17|24:17|73:221,1,360.000013732911,10|0,0:0|1:0,0:0:0:0:
10,371,126800,5,10,0:0:0:0:
188,252,126972,2,0,P|228:253|238:295,1,60.0000022888184,0|0,3:0|3:0,0:0:0:0:
240,290,127143,2,0,P|339:264|443:275,1,180.000006866455,2|0,3:2|0:0,0:0:0:0:
424,259,127486,2,0,L|411:359,1,60.0000022888184,10|0,0:0|0:0,0:0:0:0:
334,186,127657,2,0,B|310:97|310:97|395:85|464:156,1,240.000009155274,2|0,3:2|1:0,0:0:0:0:
407,333,128172,5,8,0:0:0:0:
202,242,128343,2,0,P|219:274|205:313,1,60.0000022888184,0|0,3:0|3:0,0:0:0:0:
141,340,128514,2,0,B|69:364|69:364|64:311,1,120.000004577637,4|0,1:2|0:0,0:0:0:0:
35,64,128857,6,0,P|133:80|221:134,1,180.000006866455,10|0,0:0|3:0,0:0:0:0:
276,97,129200,1,2,3:2:0:0:
300,95,129286,1,0,3:0:0:0:
324,93,129372,1,0,1:0:0:0:
465,214,129543,2,0,B|390:227|390:227|386:153|435:82,1,180.000006866455,10|0,0:0|3:0,0:0:0:0:
405,45,129886,6,0,P|468:36|508:91,1,120.000004577637,2|0,3:2|1:0,0:0:0:0:
503,314,130229,2,0,L|414:291,1,60.0000022888184,10|0,0:0|0:0,0:0:0:0:
276,353,130400,2,0,B|163:342|232:397|34:378,1,240.000009155274,2|0,3:2|1:0,0:0:0:0:
110,184,130914,2,0,P|151:252|120:281,1,120.000004577637,8|0,0:0|3:0,0:0:0:0:
44,295,131172,1,0,3:0:0:0:
24,301,131257,6,0,P|26:259|41:238,1,60.0000022888184,2|0,1:2|3:0,0:0:0:0:
80,177,131429,2,0,P|92:150|90:120,1,60.0000022888184,0|0,1:0|0:0,0:0:0:0:
21,23,131600,6,0,B|25:56|25:56|63:51,1,60.0000022888184,8|0,0:0|0:0,0:0:0:0:
131,44,131772,1,2,3:2:0:0:
238,148,131943,2,0,L|368:136,1,120.000004577637,2|2,3:2|1:2,0:0:0:0:
485,76,132286,2,0,P|498:48|490:13,1,60.0000022888184,10|0,0:0|0:0,0:0:0:0:
411,34,132457,6,0,B|336:80|336:80|422:172,1,180.000006866455,2|0,3:2|3:0,0:0:0:0:
422,142,132800,2,0,B|410:177|410:177|458:193|508:167,1,120.000004577637,2|8,1:2|0:0,0:0:0:0:
448,300,133143,2,0,P|406:292|378:314,1,60.0000022888184,2|0,3:2|3:0,0:0:0:0:
314,331,133314,1,2,3:2:0:0:
269,332,133399,1,0,3:0:0:0:
224,334,133485,1,2,1:2:0:0:
179,336,133571,1,0,1:0:0:0:
134,337,133656,5,8,0:0:0:0:
32,179,133829,2,0,P|36:140|77:137,1,60.0000022888184,0|0,3:0|3:0,0:0:0:0:
63,153,134000,6,0,P|145:167|203:166,1,120.000004577637,4|0,1:2|3:0,0:0:0:0:
447,85,134343,2,0,L|432:6,1,60.0000022888184,10|0,0:0|0:0,0:0:0:0:
334,237,134514,2,0,B|290:211|290:211|257:100|361:36,1,240.000009155274,0|0,3:0|1:0,0:0:0:0:
453,281,135029,2,0,B|477:297|503:298|503:298|500:344|429:351,1,120.000004577637,10|0,0:0|3:0,0:0:0:0:
366,157,135372,5,2,3:2:0:0:
370,146,135458,1,0,3:0:0:0:
374,135,135543,1,0,1:0:0:0:
296,335,135714,2,0,P|250:334|207:302,1,60.0000022888184,8|0,0:0|0:0,0:0:0:0:
135,197,135886,2,0,B|118:169|118:169|251:155|251:155|211:273,1,240.000009155274,2|0,3:2|1:0,0:0:0:0:
29,362,136400,6,0,P|39:278|79:246,1,120.000004577637,8|0,0:0|3:0,0:0:0:0:
135,289,136657,1,0,3:0:0:0:
151,277,136743,2,0,P|151:314|133:341,1,60.0000022888184,0|0,1:0|3:0,0:0:0:0:
135,197,136914,2,0,P|135:160|153:133,1,60.0000022888184,0|0,1:0|0:0,0:0:0:0:
201,77,137086,2,0,P|258:77|338:57,1,120.000004577637,10|0,0:0|3:0,0:0:0:0:
484,101,137429,2,0,B|452:117|424:110|424:110|433:25,1,120.000004577637,2|0,3:2|1:0,0:0:0:0:
496,214,137772,6,0,B|516:249|516:249|522:295|481:327,1,120.000004577637,10|0,0:0|3:0,0:0:0:0:
415,290,138029,1,0,3:0:0:0:
421,274,138114,2,0,P|336:265|196:319,1,180.000006866455,2|0,3:2|0:0,0:0:0:0:
233,274,138457,2,0,P|212:310|231:331,1,60.0000022888184,10|0,0:0|0:0,0:0:0:0:
292,190,138629,2,0,B|326:104|326:104|267:55|178:74,1,240.000009155274,2|2,3:2|1:2,0:0:0:0:
6,26,139143,5,8,0:0:0:0:
29,138,139314,2,0,L|55:209,1,60.0000022888184,0|0,3:0|3:0,0:0:0:0:
36,220,139486,2,0,P|155:190|257:207,1,180.000006866455,4|0,1:2|3:0,0:0:0:0:
191,214,139829,2,0,B|178:277|178:277|222:285|274:255,1,120.000004577637,10|0,0:0|3:0,0:0:0:0:
430,126,140172,1,2,3:2:0:0:
441,124,140257,1,0,3:0:0:0:
452,122,140343,1,0,1:0:0:0:
386,327,140514,6,0,P|341:229|357:154,1,180.000006866455,10|0,0:0|3:0,0:0:0:0:
327,136,140857,2,0,P|339:96|301:74,1,60.0000022888184,2|0,3:2|0:0,0:0:0:0:
231,6,141029,1,0,1:0:0:0:
61,141,141200,2,0,P|45:112|45:70,1,60.0000022888184,10|0,0:0|0:0,0:0:0:0:
226,102,141372,6,0,B|232:154|192:184|192:184|94:165|94:165|78:149|84:118,1,240.000009155274,2|0,3:2|1:0,0:0:0:0:
23,325,141886,2,0,P|76:280|134:305,1,120.000004577637,8|0,0:0|3:0,0:0:0:0:
192,325,142143,1,0,3:0:0:0:
177,344,142229,2,0,P|233:342|256:328,1,60.0000022888184,2|0,1:2|3:0,0:0:0:0:
310,250,142400,2,0,P|339:243|368:246,1,60.0000022888184,0|0,1:0|0:0,0:0:0:0:
478,300,142572,1,8,0:0:0:0:
475,384,142743,6,0,P|453:350|475:323,1,60.0000022888184,2|0,3:2|3:0,0:0:0:0:
481,139,142914,2,0,L|469:283,1,120.000004577637,2|2,3:2|1:2,0:0:0:0:
369,84,143257,2,0,P|340:57|341:22,1,60.0000022888184,10|0,0:0|0:0,0:0:0:0:
367,20,143429,2,0,P|480:15|489:139,1,240.000009155274,2|2,3:2|1:2,0:0:0:0:
293,169,143943,2,0,B|314:198|323:219|323:219|348:201|419:200,1,120.000004577637,8|2,0:0|3:2,0:0:0:0:
376,329,144286,1,2,3:2:0:0:
358,323,144372,1,0,3:0:0:0:
340,317,144457,1,2,1:2:0:0:
227,249,144629,6,0,B|224:282|224:282|205:281|175:295,1,60.0000022888184,10|0,0:0|0:0,0:0:0:0:
130,326,144800,2,0,B|110:353|110:353|94:343|61:339,1,60.0000022888184,0|0,1:0|0:0,0:0:0:0:
64,216,144972,6,0,B|27:195|27:195|19:152|68:107,1,120,4|0,1:2|0:0,0:0:0:0:
50,82,145314,6,0,L|102:95,1,40,2|0,0:0|0:0,0:0:0:0:
104,70,145486,2,0,L|156:83,1,40,0|0,1:0|0:0,0:0:0:0:
350,8,145657,1,10,0:0:0:0:
237,219,145829,2,0,P|271:266|345:250,1,120,0|0,1:0|0:0,0:0:0:0:
367,334,146172,2,0,B|374:294|357:246|357:246|400:206|410:120,1,200,0|0,1:0|0:0,0:0:0:0:
465,87,146686,6,0,P|452:114|439:114,1,40,0|0,1:0|0:0,0:0:0:0:
341,96,146857,2,0,P|308:100|297:92,1,40,2|0,1:2|0:0,0:0:0:0:
398,36,147029,5,10,0:2:0:0:
512,177,147200,1,2,0:2:0:0:
431,353,147372,2,0,L|420:307,1,40,2|0,1:2|0:0,0:0:0:0:
508,325,147543,1,10,0:2:0:0:
378,245,147714,6,0,B|305:240|305:240|267:303|177:310,1,200,2|0,1:2|0:0,0:0:0:0:
174,316,148229,2,0,P|174:287|190:283,1,40,2|0,1:2|0:0,0:0:0:0:
298,357,148400,5,10,0:0:0:0:
89,322,148572,1,0,1:0:0:0:
282,371,148743,5,2,3:2:0:0:
221,68,148914,2,0,B|250:101|250:101|253:158|216:228|109:208,1,240,2|0,1:2|1:0,0:0:0:0:
125,34,149600,2,0,L|154:-14,1,40,2|0,1:2|0:0,0:0:0:0:
399,53,149772,2,0,B|442:61|442:61|396:77,1,80,10|0,0:0|0:0,0:0:0:0:
407,303,150114,5,2,1:2:0:0:
386,61,150286,2,0,L|392:10,1,40,8|0,0:0|0:0,0:0:0:0:
419,283,150457,6,0,B|397:260|386:224|386:224|284:211|260:322,1,240,2|2,1:2|1:2,0:0:0:0:
486,339,151143,2,0,L|546:349,1,40,8|0,0:0|0:0,0:0:0:0:
287,310,151314,1,0,1:0:0:0:
463,141,151486,2,0,P|491:184|474:215,1,80,2|0,0:0|1:0,0:0:0:0:
270,64,151829,2,0,B|266:38|271:14|271:14|234:28|183:31,1,120,2|0,0:0|0:0,0:0:0:0:
179,66,152172,6,0,P|150:62|130:55,1,40,0|0,1:0|0:0,0:0:0:0:
270,64,152343,2,0,P|299:68|319:75,1,40,2|0,1:2|0:0,0:0:0:0:
69,166,152514,2,0,B|91:229|91:229|107:211|138:203,1,120,8|0,0:0|0:0,0:0:0:0:
159,185,152857,6,0,L|217:180,1,40,2|0,1:2|0:0,0:0:0:0:
416,161,153029,1,10,0:0:0:0:
298,360,153200,2,0,B|266:362|266:362|256:305|308:257,1,120,2|0,1:2|0:0,0:0:0:0:
276,254,153543,2,0,B|342:242|342:242|331:272,1,80,2|0,0:0|1:0,0:0:0:0:
508,357,153886,6,0,L|455:366,1,40,10|0,0:0|0:0,0:0:0:0:
506,276,154057,1,0,1:0:0:0:
416,161,154229,2,0,P|413:101|443:73,1,80,2|0,0:0|1:0,0:0:0:0:
506,276,154572,2,0,B|509:232|509:232|428:224|332:276,1,200,4|0,0:3|0:0,0:0:0:0:
367,284,155086,2,0,P|303:331|292:233,1,200,2|0,0:0|0:0,0:0:0:0:
261,225,155600,6,0,P|259:200|269:170,1,40,0|0,1:0|0:0,0:0:0:0:
244,183,155772,2,0,P|252:155|247:128,1,40,0|0,1:0|0:0,0:0:0:0:
256,96,156629,5,8,0:3:0:0:
244,140,156714,1,8,0:3:0:0:
256,176,156800,1,4,0:3:0:0:
268,212,156887,1,4,0:3:0:0:
256,256,156972,5,8,0:0:0:0:
256,12,157314,5,4,1:3:0:0:
88,30,168286,6,0,P|84:52|105:59,1,40,8|0,0:3|0:0,0:0:0:0:
57,128,168457,2,0,B|48:166|48:166|71:184|109:166,1,80,4|0,0:3|3:0,0:0:0:0:
218,271,168972,6,0,P|215:300|206:315,1,40,4|4,0:3|0:3,0:0:0:0:
151,363,169143,2,0,B|139:382|139:382|66:374,1,80,8|0,0:3|3:0,0:0:0:0:
256,192,173772,12,0,174972,0:0:0:0:
256,192,175143,12,0,177714,0:0:0:0:
256,192,177886,12,0,179086,0:0:0:0:
212,327,179257,5,2,1:2:0:0:
300,327,179943,1,2,1:2:0:0:
140,275,180629,1,2,1:2:0:0:
371,275,181314,1,2,1:2:0:0:
113,191,181657,1,2,1:2:0:0:
398,192,182000,5,2,1:2:0:0:
140,108,182686,1,2,1:2:0:0:
371,108,183371,1,2,1:2:0:0:
212,56,184057,1,2,1:2:0:0:
300,56,184400,1,2,1:2:0:0:
225,238,184743,5,2,1:2:0:0:
210,161,185086,1,2,1:2:0:0:
287,146,185429,1,2,1:2:0:0:
302,223,185772,1,2,1:2:0:0:
230,213,186114,5,2,1:2:0:0:
234,166,186285,1,2,1:2:0:0:
281,170,186457,1,2,1:2:0:0:
277,217,186628,1,2,1:2:0:0:
238,200,186800,5,2,1:2:0:0:
247,174,186886,1,2,1:2:0:0:
273,183,186972,1,2,1:2:0:0:
264,209,187057,1,2,1:2:0:0:
244,188,187143,5,2,1:2:0:0:
259,180,187229,1,2,1:2:0:0:
267,195,187315,1,2,1:2:0:0:
252,203,187400,1,2,1:2:0:0:
256,192,187486,5,4,1:3:0:0:
256,192,188172,6,0,B|256:182|260:179|260:179|251:155|251:155|254:151|256:142,4,53.3333333333333,0|0|0|0|0,3:0|3:0|3:0|0:0|3:0,0:0:0:0:
237,265,188629,2,0,P|256:281|274:265,1,53.3333333333333,0|0,3:0|0:0,0:0:0:0:
256,192,188857,6,0,L|256:168,6,20,2|0|0|0|0|0|0,0:0|0:0|0:0|0:0|0:0|0:0|0:0,0:0:0:0:
340,176,189200,5,8,0:3:0:0:
372,184,189286,1,8,0:3:0:0:
407,200,189372,1,4,0:3:0:0:
439,208,189458,1,4,0:3:0:0:
476,192,189543,6,0,B|492:213|492:213|502:265|463:325,1,120,2|0,0:0|0:0,0:0:0:0:
456,380,189886,2,0,B|440:359|440:359|430:307|469:247,1,120,2|0,0:0|0:0,0:0:0:0:
284,291,190229,6,0,B|240:265|200:292|200:292|146:296,1,120,6|0,1:2|0:0,0:0:0:0:
145,293,190572,5,2,3:2:0:0:
260,70,190743,1,2,3:2:0:0:
501,86,190914,2,0,B|489:101|489:101|478:186,1,80,8|0,0:0|3:2,0:0:0:0:
508,321,191257,5,0,3:0:0:0:
485,69,191429,1,2,3:2:0:0:
246,186,191600,6,0,P|261:208|290:199,1,40,0|0,1:0|0:0,0:0:0:0:
344,174,191772,1,0,3:2:0:0:
143,252,191943,6,0,B|164:256|164:256|185:228,1,40,0|0,1:0|0:0,0:0:0:0:
386,98,192114,1,2,3:2:0:0:
53,364,192286,6,0,B|98:376|116:339|116:339|79:311,1,120,8|0,0:0|0:0,0:0:0:0:
59,299,192629,6,0,L|63:244,1,40,2|0,0:0|0:0,0:0:0:0:
131,34,192800,1,2,3:2:0:0:
143,252,192972,6,0,B|167:276|167:276|283:264,1,120,2|0,1:2|0:0,0:0:0:0:
272,265,193314,5,2,3:2:0:0:
460,64,193486,1,2,3:2:0:0:
437,345,193657,2,0,B|420:289|467:264|467:264|499:267,1,120,8|0,0:0|0:0,0:0:0:0:
506,247,194000,1,2,3:2:0:0:
303,108,194172,1,2,3:2:0:0:
358,343,194343,6,0,P|340:359|316:348,1,40,0|0,1:0|0:0,0:0:0:0:
335,28,194600,2,0,P|358:35|361:62,1,40,0|2,1:0|3:2,0:0:0:0:
74,204,194857,2,0,P|69:181|90:165,1,40,2|0,1:2|0:0,0:0:0:0:
153,224,195029,2,0,B|172:242|172:242|230:257|268:211,1,120,8|0,0:0|0:0,0:0:0:0:
273,202,195372,5,2,1:2:0:0:
91,16,195543,1,2,3:2:0:0:
207,327,195714,6,0,B|212:362|212:362|196:381|196:381|106:373,1,120,2|0,1:2|0:0,0:0:0:0:
120,358,196057,5,2,3:2:0:0:
255,121,196229,1,2,3:2:0:0:
453,306,196400,2,0,B|462:324|462:324|480:334|502:328|502:328|516:308,1,80,8|0,0:0|3:0,0:0:0:0:
207,327,196743,5,2,3:2:0:0:
460,284,196914,1,2,3:2:0:0:
357,378,197086,6,0,P|374:349|374:334,1,40,0|0,1:0|0:0,0:0:0:0:
306,299,197257,1,0,3:0:0:0:
148,248,197429,6,0,P|172:253|197:245,1,40,0|0,1:0|0:0,0:0:0:0:
490,196,197600,1,2,3:2:0:0:
72,310,197772,6,0,B|47:246|47:246|49:216|95:182,1,120,8|0,0:0|0:0,0:0:0:0:
83,181,198114,2,0,B|102:171|102:171|104:155|88:142,1,40,2|0,0:0|0:0,0:0:0:0:
45,2,198286,1,2,3:2:0:0:
63,325,198457,6,0,B|53:352|53:352|176:341,1,120,2|0,1:2|0:0,0:0:0:0:
167,341,198800,5,2,3:2:0:0:
267,109,198972,1,2,1:2:0:0:
421,283,199143,2,0,B|363:302|363:302|305:271,1,120,8|0,0:0|0:0,0:0:0:0:
292,289,199486,2,0,B|258:271|258:271|259:242|288:232,1,80,2|2,3:2|3:2,0:0:0:0:
486,18,199829,6,0,B|504:31|504:31|504:60|479:68,1,40,0|0,1:0|0:0,0:0:0:0:
460,119,200000,1,8,0:0:0:0:
454,281,200172,6,0,B|445:301|445:301|417:301,1,40,2|0,3:2|0:0,0:0:0:0:
277,236,200343,1,2,1:2:0:0:
498,202,200514,5,8,0:0:0:0:
225,93,200686,1,0,3:0:0:0:
184,207,200857,5,0,1:0:0:0:
457,98,201029,1,10,0:0:0:0:
138,116,201200,6,0,B|121:96|131:72|154:66|154:66|131:31|174:-35|265:-22|274:83|207:99,1,280,6|0,1:2|0:0,0:0:0:0:
239,111,201886,5,8,0:0:0:0:
430,262,202057,2,0,B|404:276|404:276|372:277|372:277|325:318|266:284,1,160,2|2,0:0|3:2,0:0:0:0:
367,45,202572,6,0,B|384:58|384:58|376:80,1,40,0|0,1:0|0:0,0:0:0:0:
397,151,202743,1,0,3:0:0:0:
313,214,202914,6,0,B|309:191|309:191|314:179|330:170,1,40,0|0,1:0|0:0,0:0:0:0:
444,0,203086,1,2,3:2:0:0:
430,262,203257,2,0,B|413:293|417:317|417:317|430:312|430:312|443:313|443:313|455:307|455:307|468:308|468:308|479:301|479:301|504:289,1,120,8|0,0:0|0:0,0:0:0:0:
498,309,203600,5,2,3:2:0:0:
377,75,203772,1,2,3:2:0:0:
343,356,203943,2,0,L|257:349,1,80,2|2,1:2|3:2,0:0:0:0:
114,30,204286,6,0,L|127:71,1,40,2|0,3:2|0:0,0:0:0:0:
151,76,204457,2,0,L|136:130,1,40,2|0,3:2|0:0,0:0:0:0:
14,228,204629,5,8,0:0:0:0:
250,371,204800,1,0,3:0:0:0:
341,104,204972,2,0,P|372:93|398:109,1,40,0|0,3:0|0:0,0:0:0:0:
424,163,205143,1,2,3:2:0:0:
402,326,205314,6,0,B|385:325|376:315|376:315|367:285,1,40,0|0,1:0|0:0,0:0:0:0:
66,251,205572,2,0,B|75:237|88:234|88:234|119:241,1,40,0|0,1:0|0:0,0:0:0:0:
299,0,205829,2,0,B|306:13|302:25|302:25|281:49,1,40,0|0,1:0|0:0,0:0:0:0:
239,95,206000,2,0,B|214:85|214:85|171:102|109:93,1,120,8|0,0:0|0:0,0:0:0:0:
98,97,206343,5,0,1:0:0:0:
361,85,206514,1,2,3:2:0:0:
227,220,206686,6,0,B|214:226|214:226|216:243|204:253,7,40,2|0|0|0|0|0|2|0,1:2|0:0|0:0|0:0|0:0|0:0|0:0|0:0,0:0:0:0:
285,164,207372,2,0,B|298:158|298:158|296:141|308:131,7,40,0|0|0|0|0|0|2|0,1:0|0:0|0:0|0:0|3:0|0:0|0:0|0:0,0:0:0:0:
228,163,208057,6,0,B|222:150|222:150|205:152|195:140,7,40,0|0|0|0|0|0|2|0,1:0|0:0|0:0|0:0|3:0|0:0|0:0|0:0,0:0:0:0:
284,221,208743,2,0,B|290:234|290:234|307:232|317:244,7,40,0|0|0|0|0|0|2|0,1:0|0:0|0:0|0:0|3:0|0:0|0:0|0:0,0:0:0:0:
144,201,209429,6,0,B|130:196|130:196|119:209|104:208,1,40,2|0,1:2|0:0,0:0:0:0:
368,183,209600,2,0,B|381:187|381:187|392:174|407:175,1,40,2|0,1:2|0:0,0:0:0:0:
265,304,209772,6,0,B|260:317|260:317|273:328|272:343,1,40,0|0,1:2|0:0,0:0:0:0:
247,80,209943,2,0,B|251:66|251:66|238:55|239:40,1,40,2|0,1:2|0:0,0:0:0:0:
158,37,210114,5,0,1:0:0:0:
181,46,210200,1,0,1:0:0:0:
204,48,210286,1,0,1:0:0:0:
228,45,210372,1,0,1:0:0:0:
254,35,210457,1,0,1:0:0:0:
285,19,210543,1,0,1:0:0:0:
325,15,210629,1,0,1:0:0:0:
372,22,210714,1,0,1:0:0:0:
420,43,210800,6,2,B|485:138|460:241|460:241|439:152|380:109|380:109|401:164|392:218|392:218|381:177|346:151,1,560,2|0,1:2|0:0,0:1:0:0:
305,228,211486,5,8,0:3:0:0:
296,275,211572,1,8,0:3:0:0:
257,302,211657,1,4,0:3:0:0:
208,298,211743,1,4,0:3:0:0:
168,270,211829,5,8,1:2:0:0:
74,193,211943,1,0,1:0:0:0:
56,312,212057,1,0,1:0:0:0:
102,384,212172,6,0,B|119:374|153:373|153:373|120:250,1,160,4|0,1:2|0:0,0:0:0:0:
67,158,212686,2,0,B|56:117|56:117|130:71|130:71|162:187|162:187|157:151|184:121,1,320,2|0,0:0|0:0,0:0:0:0:
246,177,213543,2,0,B|283:195|283:195|430:179,1,160,2|0,0:0|0:0,0:0:0:0:
489,74,214057,2,0,B|517:27|517:27|458:45|444:117|444:117|438:32|373:-3,1,320,2|0,0:0|0:0,0:0:0:0:
338,72,214914,6,0,B|363:92|359:132|359:132|250:125,1,160,2|0,0:0|0:0,0:0:0:0:
159,130,215429,2,0,B|197:82|197:28|197:28|16:9|16:9|36:67,1,320,2|0,0:0|0:0,0:0:0:0:
65,155,216286,6,0,B|47:257|93:204|66:342,1,160,2|0,0:0|0:0,0:0:0:0:
168,276,216800,2,0,B|160:231|160:231|332:256|332:256|281:366,1,320,2|0,0:0|0:0,0:0:0:0:
191,361,217657,6,0,P|168:312|198:357,1,160,2|0,0:0|0:0,0:0:0:0:
79,354,218172,2,0,P|130:245|284:315,1,320,2|0,0:0|0:0,0:0:0:0:
388,237,219029,6,0,P|411:188|381:233,1,160,2|0,0:0|0:0,0:0:0:0:
500,230,219544,2,0,P|449:121|295:191,1,320,2|0,0:0|0:0,0:0:0:0:
233,131,220400,6,0,B|218:159|218:179|218:179|105:159,1,160,2|0,0:0|0:0,0:0:0:0:
43,201,220914,2,0,B|16:133|18:59|18:59|217:34,1,320,2|0,0:0|0:0,0:0:0:0:
344,16,221772,6,0,B|386:52|386:52|389:110|342:153,1,160,2|0,0:0|0:0,0:0:0:0:
256,192,222286,2,0,B|256:262|256:262|320:305,1,120,2|0,0:0|0:0,0:0:0:0:
297,305,222629,6,0,B|332:325|332:325|390:319,2,80,2|0|0,0:0|0:0|0:0,0:0:0:0:
256,192,223143,5,6,0:0:0:0:
54,79,234114,6,0,B|82:70|82:70|141:66|141:66|173:75,1,120,2|0,0:0|0:0,0:0:0:0:
193,85,234457,2,0,B|200:52|200:52|225:43,1,40,2|0,0:3|0:0,0:0:0:0:
297,26,234629,2,0,B|291:28|291:28|284:61,1,40,2|0,0:3|0:0,0:0:0:0:
261,139,234800,2,0,B|252:168|252:168|317:192,2,80,2|2|2,0:0|0:0|0:0,0:0:0:0:
344,119,235314,6,0,B|441:130|385:170|489:181,2,160,2|2|2,0:0|0:0|0:0,0:0:0:0:
438,260,236172,2,0,B|442:273|442:273|425:298,1,40,2|0,0:3|0:0,0:0:0:0:
369,364,236343,6,0,L|332:269,1,80,2|2,0:0|0:0,0:0:0:0:
349,207,236686,1,2,0:0:0:0:
258,290,236857,2,0,B|270:319|270:319|214:335|157:295,1,120,2|0,0:0|0:0,0:0:0:0:
163,324,237200,2,0,B|143:332|143:332|162:239,1,80,2|2,0:0|0:0,0:0:0:0:
267,187,237543,2,0,L|175:199,2,80,2|0|2,0:0|0:0|0:0,0:0:0:0:
433,226,238057,6,0,B|467:59|467:59|429:131,1,240,2|2,0:0|0:0,0:0:0:0:
394,25,238743,2,0,B|379:54|379:54|319:97|238:54,1,160,2|2,0:0|0:0,0:0:0:0:
164,27,239257,6,0,B|153:16|136:14|136:14|123:20,1,40,2|0,0:0|0:0,0:0:0:0:
127,51,239429,2,0,B|119:54|119:54|102:52|91:41,1,40,2|0,0:0|0:0,0:0:0:0:
20,79,239600,6,0,B|47:73|47:73|122:100,1,80,2|0,0:3|0:0,0:0:0:0:
167,160,239943,2,0,B|182:174|182:174|187:152,1,40,2|0,0:3|0:0,0:0:0:0:
241,95,240114,1,0,0:0:0:0:
344,218,240286,6,0,B|371:224|371:224|420:206,1,80,0|0,0:3|0:0,0:0:0:0:
502,126,240629,2,0,P|472:126|465:152,1,40,2|0,0:3|0:0,0:0:0:0:
504,207,240800,1,0,0:0:0:0:
473,375,240972,6,0,B|503:329|483:288|483:288|441:277,1,120,0|0,0:0|0:0,0:0:0:0:
442,300,241314,2,0,B|394:306|423:329|362:336,1,80,0|2,0:0|0:0,0:0:0:0:
172,384,241657,2,0,B|156:349|156:349|209:312,1,80,2|0,0:0|0:0,0:0:0:0:
271,321,242000,2,0,B|304:290|304:290|294:178,1,120,2|0,0:0|0:0,0:0:0:0:
277,202,242343,2,0,B|260:184|260:184|265:151|293:119,1,80,0|0,0:0|0:0,0:0:0:0:
447,61,242686,6,0,B|462:87|462:87|359:76,1,120,2|0,0:0|0:0,0:0:0:0:
350,87,243029,2,0,B|333:69|333:69|338:36|366:4,1,80,2|0,0:0|0:0,0:0:0:0:
395,158,243372,6,0,B|410:184|410:184|307:173,1,120,2|0,0:0|0:0,0:0:0:0:
298,184,243715,2,0,B|287:157|287:157|251:131|205:139|205:139|185:159|154:155,1,160,0|0,0:0|0:0,0:0:0:0:
93,24,245086,6,0,B|8:76|-1:168|80:193|142:119,1,240,6|0,1:2|3:0,0:0:0:0:
151,97,245429,2,0,B|175:79|175:79|264:103,1,80,8|0,0:0|0:0,0:0:0:0:
320,214,245600,1,2,3:2:0:0:
430,4,245772,2,0,B|458:33|490:29|490:29|431:39|410:146,1,160,2|2,3:2|1:2,0:0:0:0:
462,357,246114,2,0,P|495:316|462:272,1,80,10|0,0:0|0:0,0:0:0:0:
409,294,246286,6,0,B|338:239|382:160|382:160|376:209|292:218,1,240,2|0,3:2|3:0,0:0:0:0:
293,253,246629,2,0,B|297:277|308:296|308:296|286:333|243:330|243:330|269:312|271:275,1,160,2|8,1:2|0:0,0:0:0:0:
104,53,246972,2,0,B|136:24|136:24|143:76,1,80,2|0,3:2|3:0,0:0:0:0:
194,124,247143,2,0,B|218:152|218:152|58:131,1,160,0|2,3:0|1:2,0:0:0:0:
44,112,247400,1,0,1:0:0:0:
53,159,247486,1,10,0:0:0:0:
253,65,247657,1,2,3:2:0:0:
253,65,247743,1,0,3:0:0:0:
253,65,247829,6,0,B|272:85|272:85|299:90|345:69,1,80,2|0,1:2|3:0,0:0:0:0:
394,37,248000,2,0,B|418:24|445:29|445:29|464:49,1,80,0|0,1:0|0:0,0:0:0:0:
508,146,248172,5,10,0:0:0:0:
436,237,248343,1,2,3:2:0:0:
388,228,248429,1,0,3:0:0:0:
348,201,248514,1,2,3:2:0:0:
308,229,248600,1,0,3:0:0:0:
263,247,248686,1,2,1:2:0:0:
140,354,248857,2,0,P|114:322|145:274,1,80,10|0,0:0|0:0,0:0:0:0:
182,28,249029,6,2,B|236:53|310:22|310:22|226:166,1,240,2|0,1:2|0:0,0:1:0:0:
209,128,249372,2,2,B|230:156|230:156|111:126|60:137,1,160,2|0,1:2|3:0,0:1:0:0:
381,315,249714,2,2,B|466:333|466:333|471:220|471:220|435:236,1,240,2|0,1:2|0:0,0:1:0:0:
391,224,250057,5,2,1:2:0:0:
395,176,250143,1,0,1:0:0:0:
400,128,250229,1,8,0:0:0:0:
274,347,250400,1,2,3:2:0:0:
301,172,250572,6,0,B|248:83|137:75|137:75|192:150|189:251|189:251|181:195|113:132,1,480,6|2,1:2|3:2,0:0:0:0:
75,133,251172,1,0,3:0:0:0:
64,144,251257,1,0,3:0:0:0:
53,155,251343,2,0,P|41:205|70:256,1,80,0|2,3:0|1:2,0:0:0:0:
279,368,251600,5,10,0:0:0:0:
233,289,251772,2,0,B|221:269|189:256|189:256|311:267|378:356|378:356|364:331|352:273,1,320,2|0,3:2|1:0,0:0:0:0:
484,158,252286,2,0,B|499:187|499:187|404:194,1,80,8|0,0:0|0:0,0:0:0:0:
424,101,252457,2,0,B|448:28|448:28|250:46,1,240,2|0,3:2|3:0,0:0:0:0:
261,8,252800,5,0,1:0:0:0:
254,55,252886,1,0,1:0:0:0:
248,102,252972,1,10,0:0:0:0:
393,250,253143,1,0,3:0:0:0:
126,158,253314,6,0,B|121:141|133:125|133:125|205:147,1,80,2|0,1:2|3:0,0:0:0:0:
91,235,253486,2,0,B|95:251|84:268|84:268|12:246,1,80,0|0,1:0|0:0,0:0:0:0:
176,6,253657,1,10,0:0:0:0:
289,179,253829,1,0,3:0:0:0:
333,162,253914,1,0,3:0:0:0:
365,126,254000,1,2,3:2:0:0:
409,144,254086,1,0,3:0:0:0:
457,146,254172,1,0,1:0:0:0:
503,304,254343,6,0,P|473:339|448:293,1,80,8|0,0:0|0:0,0:0:0:0:
333,162,254514,2,0,B|338:107|369:48|369:48|297:81|232:79|232:79|260:58|269:19,1,320,2|2,3:2|1:2,0:0:0:0:
493,0,255029,6,0,B|507:17|507:17|520:60|477:86,1,80,10|0,0:0|0:0,0:0:0:0:
457,146,255200,1,2,3:2:0:0:
477,189,255286,1,0,3:0:0:0:
451,229,255372,1,0,3:0:0:0:
292,335,255543,5,2,1:2:0:0:
292,335,255629,1,0,1:0:0:0:
292,335,255714,2,0,B|307:334|319:324|319:324|345:336|408:327,1,80,10|0,0:0|0:0,0:0:0:0:
457,146,255886,1,2,3:2:0:0:
307,242,256057,6,0,B|276:233|276:233|257:86|257:86|307:25,1,240,6|0,1:2|3:0,0:0:0:0:
337,61,256400,2,0,B|353:86|353:86|435:95|455:9,1,160,8|0,0:0|3:0,0:0:0:0:
492,249,256743,2,0,B|486:283|517:317|517:317|490:279|418:286,1,160,2|2,3:2|1:2,0:0:0:0:
292,335,257086,2,0,B|305:352|309:374|309:374|316:354|355:345,1,80,10|0,0:0|0:0,0:0:0:0:
307,242,257257,2,0,B|284:211|284:211|177:197|177:197|219:324,1,240,2|0,3:2|3:0,0:0:0:0:
165,260,257600,2,0,B|180:310|180:310|124:330|40:275,1,160,2|8,1:2|0:0,0:0:0:0:
86,13,257943,6,0,P|108:-5|95:20,1,80,2|0,3:2|3:0,0:0:0:0:
56,97,258114,2,0,B|46:122|46:122|211:102,1,160,0|2,3:0|1:2,0:0:0:0:
212,125,258372,1,0,1:0:0:0:
219,78,258457,1,10,0:0:0:0:
40,231,258629,1,2,3:2:0:0:
329,173,258800,6,0,B|316:202|316:202|280:208|271:171,1,80,2|0,1:2|3:0,0:0:0:0:
396,124,258972,2,0,B|427:120|427:120|450:148|423:175,1,80,0|0,1:0|0:0,0:0:0:0:
322,93,259143,1,10,0:0:0:0:
499,290,259314,1,2,3:2:0:0:
384,264,259486,2,0,B|385:304|397:342|397:342|306:328,1,160,2|2,3:2|1:2,0:0:0:0:
120,353,259829,2,0,P|168:352|180:297,1,80,10|0,0:0|0:0,0:0:0:0:
26,181,260000,6,2,B|4:90|4:90|76:125|197:147,1,240,2|0,1:2|3:0,0:1:0:0:
186,117,260343,2,2,B|216:84|222:44|222:44|247:85|298:102,1,160,2|8,1:2|0:0,0:1:0:0:
495,221,260686,2,2,B|513:254|513:254|394:272|302:216,1,240,2|0,1:2|3:0,0:1:0:0:
277,185,261029,5,2,1:2:0:0:
286,231,261114,1,0,1:0:0:0:
296,278,261200,1,10,0:0:0:0:
399,52,261372,1,2,3:2:0:0:
495,221,261543,6,0,L|508:174,1,40,0|0,1:0|0:0,0:0:0:0:
491,302,261714,2,0,B|480:328|480:328|436:361|380:343|380:343|365:318,1,160,2|0,1:2|1:0,0:0:0:0:
293,125,262229,2,0,B|269:129|261:151|261:151|285:203,1,80,8|2,0:0|0:0,0:0:0:0:
50,277,262572,2,0,L|25:234,1,40,0|0,1:0|0:0,0:0:0:0:
101,358,262743,2,0,B|87:347|87:347|208:320|208:320|193:306,1,160,0|0,1:0|1:0,0:0:0:0:
126,110,263257,2,0,B|133:130|133:130|113:216,1,80,8|0,0:0|0:0,0:0:0:0:
258,39,263600,6,0,L|306:34,1,40,2|0,1:2|0:0,0:0:0:0:
313,19,263772,2,0,L|361:14,1,40,2|0,1:2|0:0,0:0:0:0:
488,94,263943,2,0,B|506:84|506:84|493:157,1,80,10|2,0:2|0:3,0:0:0:0:
340,250,264286,6,0,L|327:191,1,40,0|0,1:0|0:0,0:0:0:0:
421,269,264457,2,0,B|467:266|504:241|504:241|487:329,1,160,0|0,1:0|1:0,0:0:0:0:
302,339,264972,2,0,B|283:329|259:335|278:354|249:360|229:349,1,80,8|0,0:0|0:0,0:0:0:0:
172,250,265314,6,0,L|185:191,1,40,0|0,1:0|0:0,0:0:0:0:
91,269,265486,2,0,B|43:282|43:282|8:241|8:241|89:244,1,160,0|0,1:0|1:0,0:0:0:0:
200,114,266000,2,0,B|226:113|226:113|208:134|208:134|183:127,1,80,8|0,0:0|0:0,0:0:0:0:
310,355,266343,6,0,P|312:232|377:181,1,160,2|2,0:0|0:0,0:0:0:0:
329,178,266686,6,0,B|326:231|326:231|359:242|426:210,1,120,2|0,0:0|0:0,0:0:0:0:
448,167,267029,6,0,B|322:272|103:458|0:190|137:111|401:211|462:254,1,700,4|0,1:2|0:0,0:0:0:0:
387,360,267714,6,2,B|483:244|460:2|460:2|450:177|327:249|327:249|398:126|378:14|378:14|342:124|263:139|263:139|311:84|303:19|303:19|273:74|215:82|215:82|238:48|237:19|237:19|220:42|194:51|194:51|203:29|199:8|199:8|176:40|176:40|168:14|168:14|159:40|159:40|147:19|147:19|143:42|143:42|130:24|130:24|129:47|129:47|115:30|115:30|117:51|117:51|103:37|103:37|107:56|107:56|93:45|93:45|99:63|99:63|83:51|83:51|90:70|90:70|75:58|75:58|81:76|81:76|67:66|67:66|74:81|74:81|61:75|61:75|68:88|68:88|54:83|54:83|61:96|61:96|49:92|49:92|55:103|55:103|44:100|44:100|50:109|50:109|41:107|41:107|47:115|47:115|39:113|39:113|43:120|43:120|37:119|37:119|40:125|40:125|36:124|36:124|37:171,1,2100.00002002716,10|0,0:0|0:0,0:1:0:0:
13,223,269086,6,0,B|26:250|26:250|67:257|114:229,1,100,10|0,0:0|0:0,0:0:0:0:
387,360,269257,1,2,0:0:0:0:
270,267,269429,2,0,B|227:280|227:280|283:103,1,200,2|10,1:2|3:2,0:0:0:0:
475,17,269772,6,0,B|492:37|511:43|511:43|442:32,1,100,2|0,1:2|0:0,0:0:0:0:
431,130,269943,2,0,B|414:110|395:104|395:104|464:115,1,100,2|0,1:2|0:0,0:0:0:0:
259,8,270114,1,2,0:0:0:0:
350,339,270286,2,2,B|298:337|259:367|259:367|246:317|270:267,1,200,2|8,1:2|0:0,0:1:0:0:
431,130,270629,6,2,B|474:226|474:226|221:164,1,300,2|0,1:2|3:0,0:1:0:0:
394,44,270972,2,2,B|439:48|479:13|479:13|488:93|415:141,1,200,2|0,1:2|3:0,0:1:0:0:
135,368,271314,2,2,P|138:296|193:287,1,100,2|0,1:2|0:0,0:1:0:0:
199,31,271486,2,2,B|237:-2|237:-2|270:107|270:107|64:137,1,300,0|0,1:0|0:0,0:1:0:0:
70,184,271829,6,0,P|145:191|176:239,1,100,10|0,0:0|0:0,0:0:0:0:
394,343,272000,5,0,1:0:0:0:
443,309,272086,1,0,1:0:0:0:
442,258,272172,5,0,1:0:0:0:
491,224,272258,1,0,1:0:0:0:
490,173,272343,5,8,0:0:0:0:
312,323,272514,2,0,P|255:352|206:316,1,100,4|0,1:2|0:0,0:0:0:0:
19,281,272686,5,2,3:2:0:0:
51,236,272772,1,2,3:2:0:0:
70,184,272857,1,2,3:2:0:0:
74,129,272943,1,2,3:2:0:0:
92,181,273029,1,2,3:2:0:0:
123,227,273115,1,2,3:2:0:0:
165,264,273200,6,0,B|151:296|151:296|190:308|263:263,1,100,10|0,0:0|0:0,0:0:0:0:
367,115,273372,2,2,B|281:74|175:80|175:80|200:147|213:276,1,300,2|0,1:2|3:0,0:1:0:0:
338,230,273714,6,2,B|288:256|288:256|269:217|300:165,1,120.000004577637,2|0,1:2|0:0,0:1:0:0:
480,267,274057,2,0,B|498:261|511:273|511:273|476:323,1,60.0000022888184,2|0,3:2|0:0,0:0:0:0:
424,205,274229,2,2,B|392:110|392:110|474:54,1,160,2|0,3:2|1:0,0:1:0:0:
424,332,274572,6,2,B|430:362|430:362|386:371|313:329,1,100,10|0,0:0|0:0,0:1:0:0:
270,329,274743,2,2,P|199:328|174:291,1,100,2|0,0:0|0:0,0:1:0:0:
92,286,274914,2,2,P|49:215|48:163,1,100,2|0,1:2|0:0,0:1:0:0:
3,68,275086,2,2,B|0:25|27:-7|27:-7|47:31,1,100,10|0,0:0|0:0,0:1:0:0:
3,301,275257,6,2,B|20:333|20:333|225:303,1,200,2|2,1:0|3:2,0:1:0:0:
242,249,275514,2,2,B|225:217|225:217|20:247,1,200,2|2,1:2|3:2,0:1:0:0:
270,329,275772,2,2,B|277:353|306:352|306:352|323:333|366:338,1,100,2|0,1:2|0:0,0:1:0:0:
413,100,275943,2,0,B|368:119|368:119|385:207,1,100,10|0,0:0|0:0,0:0:0:0:
472,364,276114,2,0,B|517:345|517:345|500:257,1,100,2|0,1:2|0:0,0:0:0:0:
512,79,276286,2,0,B|390:47|446:113|316:79,1,200,2|2,3:2|1:2,0:0:0:0:
180,16,276543,1,0,3:0:0:0:
198,1,276629,6,0,B|234:35|234:35|243:69|196:125,1,100,2|0,1:2|0:0,0:0:0:0:
98,228,276800,2,0,B|62:194|62:194|53:160|100:104,1,100,2|0,3:2|0:0,0:0:0:0:
313,240,276972,6,0,B|344:264|344:264|241:249,1,100,2|0,1:2|0:0,0:0:0:0:
97,336,277143,2,0,B|66:312|66:312|169:327,1,100,2|0,3:2|0:0,0:0:0:0:
228,384,277314,6,0,L|219:312,1,60.0000022888184,0|0,1:0|0:0,0:0:0:0:
204,313,277486,2,0,L|195:241,1,60.0000022888184,0|0,1:0|0:0,0:0:0:0:
160,34,277657,2,0,L|182:212,1,180.000006866455,8|0,0:0|0:0,0:0:0:0:
6,202,278000,6,2,B|28:56|189:28|189:28|172:118|238:193|238:193|262:101|432:65|432:65|355:88|316:168,1,840.000032043458,6|0,1:2|0:0,0:1:0:0:
393,206,278686,6,0,B|412:251|412:251|447:244|460:198,1,100,8|0,0:0|0:0,0:0:0:0:
487,0,278857,1,0,1:0:0:0:
471,206,279029,6,0,L|467:271,1,60.0000022888184,0|0,3:0|3:0,0:0:0:0:
485,268,279200,2,0,L|481:333,1,60.0000022888184,2|0,1:2|3:0,0:0:0:0:
347,358,279372,5,2,3:2:0:0:
308,312,279457,1,2,3:2:0:0:
292,253,279543,1,2,3:2:0:0:
233,266,279629,1,2,3:2:0:0:
173,258,279714,1,2,3:2:0:0:
152,278,279800,2,0,B|177:233|173:181|173:181|126:139|120:68,1,200,2|2,3:2|3:2,0:1:0:0:
131,17,280057,6,2,B|119:88|53:142|53:142|11:224|88:313,1,300,10|0,0:0|0:0,0:1:0:0:
111,352,280400,2,0,B|107:375|107:375|204:366,1,100,0|0,1:0|3:0,0:0:0:0:
336,179,280572,1,8,0:0:0:0:
512,384,280743,6,0,B|481:377|479:343|479:343|531:290,1,100,2|0,1:2|0:0,0:0:0:0:
417,213,280914,2,0,B|448:220|450:254|450:254|398:307,1,100,0|0,3:0|3:0,0:0:0:0:
183,367,281086,6,0,B|224:334|224:334|195:272,1,100,2|0,1:2|0:0,0:0:0:0:
257,145,281257,2,0,B|216:178|216:178|245:240,1,100,0|0,1:0|0:0,0:0:0:0:
446,60,281429,6,2,B|469:36|499:25|499:25|438:43|321:39,1,200,10|2,0:0|1:2,0:1:0:0:
328,12,281686,5,2,1:2:0:0:
275,42,281772,1,2,3:2:0:0:
217,25,281857,1,0,3:0:0:0:
161,49,281943,1,2,1:2:0:0:
315,168,282114,6,0,B|333:154|333:154|197:138,1,100,0|0,3:0|0:0,0:0:0:0:
66,111,282286,6,0,B|53:95|53:95|34:87|2:96,1,60.0000022888184,0|0,1:0|0:0,0:1:0:0:
236,220,282457,2,0,B|249:236|249:236|268:244|300:235,1,60.0000022888184,2|0,1:2|0:0,0:1:0:0:
4,111,282800,6,0,B|39:150|108:145|108:145|85:106|93:48,1,200,8|0,0:0|1:0,0:1:0:0:
193,18,283143,5,0,1:0:0:0:
249,39,283229,1,0,1:0:0:0:
308,32,283314,1,8,0:0:0:0:
364,53,283400,1,0,0:0:0:0:
423,46,283486,6,0,B|343:82|294:210|450:250|496:118|410:111|428:33,1,300,0|0,1:0|3:0,0:0:0:0:
463,194,283829,6,0,L|454:131,1,40,0|0,3:0|3:0,0:0:0:0:
481,166,284000,2,0,L|472:103,1,40,0|0,3:0|3:0,0:0:0:0:
499,7,284172,1,2,1:2:0:0:
316,238,284343,5,0,3:0:0:0:
305,225,284429,2,0,P|312:206|311:178,1,40,0|0,3:0|3:0,0:0:0:0:
290,175,284600,2,0,P|290:155|297:136,1,40,0|0,3:0|3:0,0:0:0:0:
272,42,284857,1,2,1:2:0:0:
427,375,285029,5,0,3:0:0:0:
439,367,285114,1,0,3:0:0:0:
451,359,285200,2,0,B|459:339|459:339|438:303,1,40,0|0,3:0|3:0,0:0:0:0:
432,286,285372,2,0,B|422:270|422:270|430:250,1,40,0|0,3:0|3:0,0:0:0:0:
475,126,285543,5,2,1:2:0:0:
73,364,285714,6,0,B|80:353|83:338|83:338|66:314,1,40,0|0,3:0|3:0,0:0:0:0:
60,246,285886,2,0,B|53:236|53:236|56:221|63:210,1,40,0|0,3:0|3:0,0:0:0:0:
66,126,286057,2,0,B|73:115|76:100|76:100|59:76,1,40,0|0,3:0|3:0,0:0:0:0:
379,350,286229,6,0,B|367:345|354:326|354:326|330:311|302:325,1,60.0000022888184,2|2,1:2|3:2,0:0:0:0:
133,34,286400,2,0,B|145:39|158:58|158:58|181:72|210:59,1,60.0000022888184,2|2,3:2|3:2,0:0:0:0:
414,69,286572,6,0,B|409:81|390:94|390:94|375:117|389:146,1,60.0000022888184,2|2,1:2|3:2,0:0:0:0:
98,315,286743,2,0,B|103:303|122:290|122:290|136:266|123:238,1,60.0000022888184,2|2,3:2|3:2,0:0:0:0:
278,191,286914,5,2,1:2:0:0:
260,189,287000,1,2,3:2:0:0:
255,214,287086,5,2,3:2:0:0:
257,196,287172,1,2,3:2:0:0:
232,191,287257,5,2,1:2:0:0:
250,193,287343,1,2,3:2:0:0:
255,168,287429,5,2,3:2:0:0:
253,186,287515,1,2,3:2:0:0:
177,230,287600,5,2,1:0:0:0:
328,239,287714,1,0,1:0:0:0:
261,104,287829,1,0,1:0:0:0:
249,278,287942,5,0,1:0:0:0:
182,142,288057,1,0,1:0:0:0:
334,153,288171,1,0,1:0:0:0:
159,239,288286,5,0,1:0:0:0:
345,251,288400,1,0,1:0:0:0:
262,83,288515,1,0,1:0:0:0:
256,360,288629,6,0,B|248:324|204:286|204:286|268:264|300:208|300:208|248:192|224:148|224:148|252:128|268:96|268:96|244:72|244:40|244:40|260:20|252:-12,1,480.000018310548,4|0,1:0|0:0,0:0:0:0:
