osu file format v14

[General]
AudioFilename: audio.mp3
AudioLeadIn: 0
PreviewTime: 244143
Countdown: 0
SampleSet: Soft
StackLeniency: 0.7
Mode: 0
LetterboxInBreaks: 0
WidescreenStoryboard: 0

[Editor]
Bookmarks: 44172
DistanceSpacing: 1.3
BeatDivisor: 4
GridSize: 4
TimelineZoom: 2.599999

[Metadata]
Title:Aquila
TitleUnicode:Aquila
Artist:EVO+
ArtistUnicode:EVO+
Creator:Bellicose
Version:Hard
Source:
Tags:toybot vikala rage quit Sunazuka Akira necho japanese rock electronic drum and bass dnb evolution NaturaLe Treow
BeatmapID:3061852
BeatmapSetID:1107531

[Difficulty]
HPDrainRate:5
CircleSize:3.6
OverallDifficulty:6
ApproachRate:8
SliderMultiplier:1.5
SliderTickRate:1

[Events]
//Background and Video events
0,0,"bg13413431.jpg",0,0
//Break Periods
2,34086,43422
2,157514,167536
2,212372,222393
2,223343,233364
//Storyboard Layer 0 (Background)
//Storyboard Layer 1 (Fail)
//Storyboard Layer 2 (Pass)
//Storyboard Layer 3 (Foreground)
//Storyboard Layer 4 (Overlay)
//Storyboard Sound Samples

[TimingPoints]
972,342.857142857143,4,2,4,45,1,0
11600,-100,4,2,7,60,0,0
11943,-100,4,2,1,60,0,0
14343,-100,4,2,4,65,0,0
14686,-100,4,2,1,65,0,0
20857,-100,4,2,1,45,0,0
21543,-100,4,2,1,50,0,0
22229,-100,4,2,1,60,0,0
22914,-95.2380952380952,4,2,1,70,0,0
33543,-95.2380952380952,4,2,1,60,0,0
33886,-100,4,2,1,60,0,0
44172,-100,4,2,1,55,0,0
44857,-100,4,2,1,50,0,0
54286,-100,4,2,1,60,0,0
54972,-100,4,2,1,65,0,0
55314,-100,4,2,1,70,0,0
55486,-100,4,2,1,70,0,0
55829,-95.2380952380952,4,2,1,75,0,1
57029,-95.2380952380952,4,2,1,75,0,1
58572,-95.2380952380952,4,2,1,75,0,1
59772,-95.2380952380952,4,2,1,75,0,1
60972,-95.2380952380952,4,2,1,75,0,1
61314,-95.2380952380952,4,2,1,75,0,1
62514,-95.2380952380952,4,2,1,75,0,1
64057,-95.2380952380952,4,2,1,75,0,1
65257,-95.2380952380952,4,2,1,75,0,1
65429,-100,4,2,1,70,0,0
66286,-100,4,2,1,50,0,0
66800,-100,4,2,1,50,0,0
76400,-100,4,2,1,40,0,0
76743,-111.111111111111,4,2,1,40,0,0
77772,-111.111111111111,4,2,1,40,0,0
78457,-100,4,2,1,60,0,0
78800,-100,4,2,1,70,0,0
79143,-90.9090909090909,4,2,1,75,0,1
79486,-90.9090909090909,4,2,1,75,0,1
84629,-90.9090909090909,4,2,1,75,0,1
84972,-90.9090909090909,4,2,1,75,0,1
85143,-90.9090909090909,4,2,5,75,0,1
85657,-90.9090909090909,4,2,1,75,0,1
85829,-90.9090909090909,4,2,5,75,0,1
86172,-90.9090909090909,4,2,1,75,0,1
86514,-90.9090909090909,4,2,5,75,0,1
86857,-90.9090909090909,4,2,1,75,0,1
90114,-90.9090909090909,4,2,1,75,0,1
90457,-90.9090909090909,4,2,1,75,0,1
94057,-90.9090909090909,4,2,1,75,0,1
95086,-90.9090909090909,4,2,1,75,0,1
95600,-100,4,2,1,70,0,0
96286,-100,4,2,1,70,0,0
96800,-100,4,2,1,70,0,0
97314,-100,4,2,1,70,0,0
97657,-100,4,2,1,70,0,0
99029,-100,4,2,1,70,0,0
99543,-100,4,2,1,70,0,0
100057,-100,4,2,1,70,0,0
100400,-100,4,2,1,50,0,0
101086,-100,4,2,1,60,0,0
101429,-100,4,2,1,60,0,0
101772,-100,4,2,1,60,0,0
101943,-100,4,2,1,60,0,0
102114,-100,4,2,1,60,0,0
102457,-100,4,2,1,60,0,0
103143,-100,4,2,1,60,0,0
107257,-100,4,2,1,60,0,0
107943,-100,4,2,1,60,0,0
112057,-100,4,2,1,60,0,0
114800,-100,4,2,1,15,0,0
116172,-100,4,2,1,50,0,0
117543,-100,4,2,1,50,0,0
118914,-100,4,2,1,50,0,0
120286,-111.111111111111,4,2,1,35,0,0
121657,-111.111111111111,4,2,1,45,0,0
122172,-100,4,2,1,60,0,0
122514,-100,4,2,1,55,0,0
123029,-100,4,2,1,55,0,0
133143,-100,4,2,1,60,0,0
133657,-100,4,2,1,60,0,0
134000,-100,4,2,1,55,0,0
144972,-100,4,2,1,50,0,0
154914,-111.111111111111,4,2,1,40,0,0
155943,-100,4,2,1,50,0,0
157314,-100,4,2,5,50,0,0
168286,-100,4,2,4,60,0,0
179257,-100,4,2,1,55,0,0
181314,-100,4,2,1,55,0,0
182000,-100,4,2,1,55,0,0
184057,-100,4,2,1,55,0,0
186114,-100,4,2,1,60,0,0
187486,-100,4,2,5,60,0,0
188172,-100,4,2,2,50,0,0
188857,-100,4,2,1,50,0,0
189200,-100,4,2,1,60,0,0
189543,-100,4,2,1,60,0,0
190229,-100,4,2,1,65,0,0
201200,-95.2380952380952,4,2,1,65,0,0
206686,-100,4,2,1,60,0,0
209429,-100,4,2,1,60,0,0
210114,-100,4,2,1,55,0,0
210457,-100,4,2,1,60,0,0
210800,-100,4,2,1,65,0,0
211829,-100,4,2,1,55,0,0
212172,-100,4,2,1,50,0,0
234114,-100,4,2,1,60,0,0
243372,-100,4,2,1,65,0,0
245086,-90.9090909090909,4,2,1,75,0,1
245429,-90.9090909090909,4,2,1,75,0,1
250572,-90.9090909090909,4,2,1,75,0,1
250914,-90.9090909090909,4,2,1,75,0,1
251086,-90.9090909090909,4,2,5,75,0,1
251600,-90.9090909090909,4,2,1,75,0,1
251772,-90.9090909090909,4,2,5,75,0,1
252114,-90.9090909090909,4,2,1,75,0,1
252457,-90.9090909090909,4,2,5,75,0,1
252800,-90.9090909090909,4,2,1,75,0,1
256057,-90.9090909090909,4,2,1,75,0,1
256400,-90.9090909090909,4,2,1,75,0,1
260000,-90.9090909090909,4,2,1,75,0,1
261029,-90.9090909090909,4,2,1,75,0,1
261543,-100,4,2,1,70,0,0
263257,-100,4,2,1,70,0,0
264286,-100,4,2,1,70,0,0
264972,-100,4,2,1,70,0,0
265486,-100,4,2,1,70,0,0
266000,-100,4,2,1,70,0,0
267029,-100,4,2,1,60,0,0
267714,-95.2380952380952,4,2,1,70,0,0
269086,-95.2380952380952,4,2,1,70,0,0
278000,-90.9090909090909,4,2,1,75,0,1
278686,-90.9090909090909,4,2,1,75,0,1
279200,-90.9090909090909,4,2,1,75,0,1
280057,-90.9090909090909,4,2,1,75,0,1
280400,-90.9090909090909,4,2,1,75,0,1
283486,-100,4,2,1,65,0,0
288629,-90.9090909090909,4,2,5,65,0,0

[Colours]
Combo1 : 226,143,243
Combo2 : 139,222,254
Combo3 : 253,206,240
Combo4 : 150,166,254

[HitObjects]
30,113,971,6,0,L|193:134,1,150,6|0,0:0|0:0,0:0:0:0:
256,193,1486,2,0,P|223:119|258:47,1,150,2|0,0:0|0:0,0:0:0:0:
328,5,2000,1,2,0:0:0:0:
506,96,2343,1,0,0:0:0:0:
506,96,2514,2,0,B|421:75|452:145|360:122,1,150,2|0,0:0|0:0,0:0:0:0:
306,201,3029,2,0,L|332:370,1,150,2|0,3:2|3:0,0:0:0:0:
133,355,3714,6,0,P|87:305|-3:328,2,150,0|2|2,3:0|0:0|0:0,0:0:0:0:
270,216,4743,2,0,L|254:107,1,75,0|0,3:0|3:0,0:0:0:0:
199,71,5086,1,2,0:0:0:0:
199,71,5257,1,0,3:0:0:0:
106,102,5429,2,0,L|31:91,1,75,2|0,0:0|0:0,0:0:0:0:
11,186,5772,2,0,L|169:210,1,150,2|6,3:2|0:0,0:0:0:0:
301,75,6457,6,0,P|351:118|320:204,1,150,2|0,3:2|3:0,0:0:0:0:
251,245,6972,2,0,B|235:295|235:295|258:333|258:333|242:388,1,150,2|0,0:0|0:0,0:0:0:0:
152,346,7486,1,2,0:0:0:0:
336,283,7829,1,0,0:0:0:0:
336,283,8000,2,0,B|395:332|395:332|472:298,1,150,2|0,0:0|0:0,0:0:0:0:
510,217,8514,2,0,L|485:61,1,150,2|0,3:2|3:0,0:0:0:0:
300,8,9200,6,0,B|274:88|361:64|318:173,2,150,0|2|2,3:0|0:0|0:0,0:0:0:0:
105,30,10229,2,0,L|182:42,1,75,0|0,3:0|3:0,0:0:0:0:
234,128,10572,1,2,0:0:0:0:
234,128,10743,1,0,3:0:0:0:
160,191,10914,2,0,L|172:268,1,75,0|0,3:0|3:0,0:0:0:0:
258,309,11257,2,0,L|270:386,1,75,0|0,3:0|3:0,0:0:0:0:
334,246,11600,2,0,L|397:233,3,37.5,2|2|2|2,0:3|0:3|0:3|0:3,0:0:0:0:
415,258,11943,6,0,P|446:188|392:125,1,150,6|0,1:2|3:0,0:0:0:0:
336,74,12457,1,2,0:0:0:0:
336,74,12629,2,0,L|186:104,1,150,2|0,3:2|3:0,0:0:0:0:
106,51,13143,1,2,0:0:0:0:
29,109,13314,1,0,1:0:0:0:
29,109,13486,2,0,B|15:158|64:179|64:179|78:211|49:250,1,150,2|2,0:0|0:0,0:0:0:0:
16,327,14000,2,0,L|92:342,1,75,2|0,3:2|0:0,0:0:0:0:
184,366,14343,2,0,L|170:297,3,37.5,0|0|0|0,3:0|3:0|3:0|3:0,0:0:0:0:
167,281,14686,6,0,P|225:321|305:299,2,150,0|2|2,1:0|0:0|0:0,0:0:0:0:
267,115,15714,1,2,3:2:0:0:
267,115,15886,1,0,3:0:0:0:
224,27,16057,2,0,L|132:43,1,75,2|0,1:2|3:0,0:0:0:0:
62,82,16400,2,0,L|46:174,1,75,0|0,3:0|3:0,0:0:0:0:
131,207,16743,2,0,L|204:194,1,75,2|0,3:2|0:0,0:0:0:0:
267,115,17086,1,2,0:0:0:0:
343,294,17429,6,0,L|368:118,1,150,0|0,1:0|3:0,0:0:0:0:
189,67,18114,2,0,P|228:116|189:205,1,150,0|0,1:0|3:0,0:0:0:0:
67,332,18800,2,0,L|215:310,1,150,0|0,1:0|3:0,0:0:0:0:
398,380,19486,2,0,P|359:331|398:242,1,150,0|0,1:0|3:0,0:0:0:0:
499,96,20172,5,0,1:0:0:0:
480,191,20343,1,0,1:0:0:0:
404,129,20514,2,0,L|303:145,1,75,0|0,1:0|1:0,0:0:0:0:
245,91,20857,2,0,L|258:23,3,37.5,0|0|0|0,1:0|1:0|1:0|1:0,0:0:0:0:
229,10,21200,2,0,L|192:17,3,37.5,0|0|0|0,1:0|1:0|1:0|1:0,0:0:0:0:
143,14,21543,2,0,B|54:147|223:132|104:324,1,300,2|8,0:3|0:3,0:0:0:0:
104,346,22314,1,8,0:3:0:0:
104,346,22400,2,0,L|57:355,1,37.5,4|4,0:3|0:3,0:0:0:0:
19,365,22572,1,8,0:0:0:0:
7,161,22914,6,0,L|101:173,1,78.7499975967408,6|0,1:2|3:2,0:0:0:0:
170,113,23257,1,8,3:2:0:0:
230,195,23429,2,0,P|290:144|370:161,1,157.499995193482,2|0,3:2|1:2,0:0:0:0:
441,221,23943,1,8,0:0:0:0:
512,155,24114,2,0,L|490:0,1,157.499995193482,2|0,3:2|1:2,0:0:0:0:
405,57,24629,1,8,0:0:0:0:
315,7,24800,2,0,B|216:1|265:58|160:57,1,157.499995193482,2|0,3:2|1:2,0:0:0:0:
72,84,25314,2,0,L|86:6,1,78.7499975967408,10|2,0:0|3:2,0:0:0:0:
144,150,25657,6,0,L|129:227,1,78.7499975967408,2|0,1:2|1:2,0:0:0:0:
221,273,26000,1,10,0:0:0:0:
164,358,26172,2,0,P|88:337|10:401,1,157.499995193482,2|0,3:2|1:0,0:0:0:0:
0,275,26686,1,10,0:0:0:0:
67,198,26857,2,0,L|249:171,1,157.499995193482,2|0,3:2|1:0,0:0:0:0:
314,223,27372,1,10,0:0:0:0:
403,173,27543,2,0,B|458:176|459:235|459:235|431:259|434:291,1,157.499995193482,2|0,3:0|1:2,0:0:0:0:
442,346,27972,1,0,1:0:0:0:
442,346,28057,2,0,L|360:334,1,78.7499975967408,10|2,0:0|3:2,0:0:0:0:
257,379,28400,6,0,P|243:332|267:294,1,78.7499975967408,6|0,1:2|3:2,0:0:0:0:
314,223,28743,1,10,0:0:0:0:
240,151,28914,2,0,L|255:49,1,78.7499975967408,2|0,3:2|0:0,0:0:0:0:
333,11,29257,2,0,B|366:31|366:31|408:20,1,78.7499975967408,2|8,1:2|0:0,0:0:0:0:
504,46,29600,2,0,P|517:115|427:147,1,157.499995193482,2|0,3:2|1:2,0:0:0:0:
353,120,30114,1,8,0:0:0:0:
282,194,30286,2,0,B|275:252|275:252|240:271|240:271|230:342,1,157.499995193482,2|0,3:2|1:2,0:0:0:0:
320,380,30800,2,0,L|405:367,1,78.7499975967408,10|2,0:0|3:2,0:0:0:0:
487,275,31143,6,0,L|499:353,1,78.7499975967408,2|2,1:2|1:2,0:0:0:0:
386,278,31486,1,10,0:0:0:0:
423,182,31657,2,0,P|377:233|275:212,1,157.499995193482,2|0,3:2|1:0,0:0:0:0:
203,176,32172,1,10,0:0:0:0:
267,96,32343,2,0,L|278:18,1,78.7499975967408,2|0,3:1|1:0,0:0:0:0:
177,1,32686,2,0,L|99:12,1,78.7499975967408,2|0,0:1|1:0,0:0:0:0:
23,82,33029,2,0,P|2:121|20:165,1,78.7499975967408,2|0,0:1|1:0,0:0:0:0:
74,232,33372,1,2,1:0:0:0:
162,181,33543,2,0,L|173:117,3,39.3749987983704,0|0|0|0,1:0|1:0|1:0|1:0,0:0:0:0:
142,101,33886,5,4,1:2:0:0:
322,43,44172,6,0,L|310:105,3,37.5,2|8|4|4,0:3|0:3|0:3|0:3,0:0:0:0:
293,122,44514,2,0,L|305:184,3,37.5,0|0|0|0,1:0|1:0|1:0|1:0,0:0:0:0:
327,199,44857,5,4,1:2:0:0:
469,332,45200,2,0,P|392:325|327:378,2,150,2|8|2,0:0|0:0|3:2,0:0:0:0:
508,242,46057,1,0,1:0:0:0:
508,242,46229,2,0,B|488:98|488:98|437:95|415:42,1,225,2|0,3:2|1:0,0:0:0:0:
334,17,46914,2,0,P|266:40|257:125,1,150,8|0,0:0|1:0,0:0:0:0:
312,186,47429,1,8,0:0:0:0:
407,169,47600,5,0,1:0:0:0:
261,299,47943,2,0,B|316:284|316:284|347:306|347:306|415:292,2,150,2|8|2,1:2|0:0|0:0,0:0:0:0:
189,365,48800,1,0,1:0:0:0:
189,365,48972,2,0,P|227:306|187:221,1,150,2|0,3:2|0:0,0:0:0:0:
127,173,49486,2,0,L|145:75,1,75,2|8,1:2|0:0,0:0:0:0:
56,49,49829,2,0,L|26:208,1,150,2|8,0:0|0:0,0:0:0:0:
7,291,50343,5,0,1:0:0:0:
184,371,50686,2,0,B|271:388|239:319|335:337,2,150,2|8|2,0:2|0:0|3:2,0:0:0:0:
90,381,51543,1,0,1:0:0:0:
90,381,51714,2,0,P|103:305|174:283,1,150,2|0,3:2|1:0,0:0:0:0:
206,255,52143,1,0,1:0:0:0:
206,255,52229,2,0,L|191:184,1,37.5,0|0,1:0|1:0,0:0:0:0:
166,181,52400,2,0,B|178:127|178:127|153:96|153:96|169:31,1,150,10|0,0:0|1:0,0:0:0:0:
255,2,52914,1,8,0:0:0:0:
332,62,53086,6,0,B|377:63|417:23|417:23|503:39|487:112,1,225,2|0,1:2|1:2,0:0:0:0:
473,207,53772,2,0,L|380:226,1,75,10|0,0:0|1:2,0:0:0:0:
323,161,54114,1,2,3:2:0:0:
244,219,54286,2,0,L|225:312,1,75,2|0,1:2|0:0,0:0:0:0:
323,384,54629,2,0,L|338:310,1,75,2|0,1:2|0:0,0:0:0:0:
228,292,54972,2,0,L|154:307,1,75,4|0,1:3|0:0,0:0:0:0:
37,375,55314,1,0,1:0:0:0:
37,375,55400,1,0,1:0:0:0:
37,375,55486,2,0,L|52:301,1,75,8|0,0:0|0:0,0:0:0:0:
109,210,55829,5,6,1:2:0:0:
32,141,56000,2,0,B|55:107|55:107|42:68,1,78.7499975967408,2|8,3:2|3:2,0:0:0:0:
135,26,56343,2,0,L|216:12,1,78.7499975967408,2|0,3:2|3:0,0:0:0:0:
265,30,56600,1,0,3:0:0:0:
265,30,56686,2,0,L|251:107,1,78.7499975967408,2|8,1:2|0:0,0:0:0:0:
197,194,57029,6,0,P|234:216|277:205,1,78.7499975967408,2|0,3:2|3:0,0:0:0:0:
319,231,57286,1,0,3:0:0:0:
319,231,57372,2,0,L|396:217,1,78.7499975967408,2|8,1:2|0:0,0:0:0:0:
492,251,57714,2,0,B|464:307|499:350|499:350|475:360|448:384,1,157.499995193482,2|0,3:2|1:2,0:0:0:0:
352,376,58229,2,0,P|315:351|268:364,1,78.7499975967408,8|0,0:0|3:0,0:0:0:0:
238,377,58486,1,0,3:0:0:0:
238,377,58572,5,2,1:2:0:0:
158,312,58743,2,0,L|171:234,1,78.7499975967408,2|8,1:2|0:0,0:0:0:0:
252,171,59086,2,0,B|285:193|285:193|342:176,1,78.7499975967408,2|0,3:2|3:0,0:0:0:0:
367,206,59343,1,0,3:0:0:0:
367,206,59429,2,0,P|412:184|458:204,1,78.7499975967408,2|8,1:2|0:0,0:0:0:0:
506,113,59772,6,0,L|493:35,1,78.7499975967408,2|0,3:2|3:0,0:0:0:0:
455,8,60029,1,0,3:0:0:0:
455,8,60114,2,0,P|422:28|383:24,1,78.7499975967408,2|8,1:2|0:0,0:0:0:0:
283,1,60457,2,0,B|254:21|251:60|251:60|304:80|302:149,1,157.499995193482,2|0,3:2|1:0,0:0:0:0:
292,177,60886,1,0,1:0:0:0:
292,177,60972,6,0,P|249:203|145:149,1,157.499995193482,10|6,0:0|1:2,0:0:0:0:
107,76,61486,2,0,L|120:-2,1,78.7499975967408,2|8,3:2|3:2,0:0:0:0:
19,130,61829,2,0,L|6:208,1,78.7499975967408,2|0,3:2|3:0,0:0:0:0:
4,262,62086,1,0,3:0:0:0:
4,262,62172,2,0,B|43:250|43:250|74:272,1,78.7499975967408,2|8,1:2|0:0,0:0:0:0:
106,368,62514,6,0,L|184:355,1,78.7499975967408,2|0,3:2|3:0,0:0:0:0:
238,366,62772,1,0,3:0:0:0:
238,366,62857,2,0,P|257:328|240:288,1,78.7499975967408,2|8,1:2|0:0,0:0:0:0:
170,226,63200,2,0,B|206:216|226:186|226:186|271:188|325:224,1,157.499995193482,2|2,3:2|1:2,0:0:0:0:
357,240,63629,1,0,1:0:0:0:
357,240,63714,2,0,L|370:162,1,78.7499975967408,8|0,0:0|3:0,0:0:0:0:
305,82,64057,5,2,1:2:0:0:
385,18,64229,2,0,B|423:28|423:28|459:8,1,78.7499975967408,2|8,1:2|0:0,0:0:0:0:
508,98,64572,2,0,L|495:176,1,78.7499975967408,2|0,3:2|3:0,0:0:0:0:
504,226,64829,1,0,3:0:0:0:
504,226,64914,2,0,P|453:219|422:243,1,78.7499975967408,0|8,1:0|0:0,0:0:0:0:
511,328,65257,2,0,P|476:343|439:334,1,78.7499975967408,2|0,3:2|1:0,0:0:0:0:
344,378,65600,5,2,0:0:0:0:
344,378,65772,2,0,B|292:308|385:305|309:215,1,150,0|0,1:0|1:0,0:0:0:0:
266,159,66286,1,0,1:0:0:0:
182,208,66457,2,0,L|116:219,3,37.5,0|0|0|0,1:0|1:0|1:0|1:0,0:0:0:0:
112,250,66800,5,6,1:2:0:0:
59,62,67143,2,0,P|112:104|207:89,2,150,2|8|2,0:0|0:0|0:0,0:0:0:0:
1,141,68000,1,2,1:2:0:0:
16,335,68343,2,0,B|71:320|71:320|105:342|105:342|162:327,1,150,2|2,3:2|1:2,0:0:0:0:
245,379,68857,1,10,0:2:0:0:
245,379,69029,2,0,P|259:335|247:297,1,75,2|2,0:2|1:2,0:0:0:0:
183,240,69372,1,10,0:2:0:0:
276,213,69543,6,0,L|294:47,1,150,2|0,1:2|1:0,0:0:0:0:
212,7,70057,1,2,1:2:0:0:
212,7,70229,2,0,L|123:22,1,75,10|0,0:0|1:0,0:0:0:0:
47,50,70572,1,2,3:2:0:0:
47,50,70743,2,0,P|11:88|36:188,1,150,2|0,1:2|1:0,0:0:0:0:
184,292,71429,2,0,B|141:262|148:216|148:216|187:196|185:148,1,150,2|0,3:2|3:2,0:0:0:0:
172,72,71943,2,0,L|103:84,2,37.5,2|0|8,1:2|1:0|0:0,0:0:0:0:
250,13,72286,6,0,P|292:61|384:43,1,150,2|0,1:2|3:0,0:0:0:0:
461,12,72800,2,0,L|496:193,1,150,2|0,1:2|1:0,0:0:0:0:
436,241,73314,1,2,0:0:0:0:
272,347,73657,2,0,B|361:331|327:394|426:381,1,150,2|0,0:0|0:0,0:0:0:0:
497,343,74172,2,0,P|501:276|429:241,1,150,2|0,1:2|3:0,0:0:0:0:
362,304,74686,1,2,1:2:0:0:
362,304,74857,1,10,0:0:0:0:
281,248,75029,6,0,L|300:72,2,150,2|0|10,1:2|1:0|0:0,0:0:0:0:
209,314,75886,2,0,B|120:295|120:295|94:320|56:324,1,150,0|0,1:0|1:0,0:0:0:0:
9,243,76400,1,4,1:3:0:0:
9,243,76914,2,0,B|-7:126|84:172|62:54,1,202.499993820191,2|8,0:0|0:3,0:0:0:0:
134,5,77600,1,4,0:3:0:0:
134,5,77772,2,0,B|187:46|187:46|254:18,1,134.999995880127,2|0,0:0|3:0,0:0:0:0:
379,165,78457,2,0,L|369:231,3,37.5,8|8|4|4,0:3|0:3|0:3|0:3,0:0:0:0:
394,246,78800,2,0,L|278:263,1,112.5,10|0,0:0|0:0,0:0:0:0:
243,299,79143,5,6,1:2:0:0:
175,215,79314,1,0,3:0:0:0:
175,215,79400,1,0,3:0:0:0:
175,215,79486,2,0,B|196:175|196:175|172:124,1,82.5000025177003,8|0,0:0|3:0,0:0:0:0:
234,48,79829,2,0,L|344:34,1,82.5000025177003,2|0,3:2|1:2,0:0:0:0:
407,93,80172,1,10,0:0:0:0:
504,49,80343,6,0,L|493:130,1,82.5000025177003,2|0,3:2|3:0,0:0:0:0:
438,223,80686,2,0,P|481:247|526:232,1,82.5000025177003,2|8,1:2|0:0,0:0:0:0:
350,170,81029,2,0,L|268:180,1,82.5000025177003,2|0,3:2|3:0,0:0:0:0:
354,275,81372,1,2,1:2:0:0:
354,275,81457,1,0,1:0:0:0:
354,275,81543,2,0,L|343:356,1,82.5000025177003,10|2,0:0|3:2,0:0:0:0:
254,281,81886,5,2,1:2:0:0:
206,376,82057,1,0,1:0:0:0:
122,308,82229,2,0,B|87:332|87:332|33:316,1,82.5000025177003,10|2,0:0|3:2,0:0:0:0:
69,215,82572,1,2,3:2:0:0:
172,189,82743,2,0,L|182:107,1,82.5000025177003,2|8,1:2|0:0,0:0:0:0:
128,14,83086,6,0,P|82:60|4:48,1,123.75000377655,2|0,1:2|0:0,0:0:0:0:
10,111,83429,2,0,L|20:192,1,82.5000025177003,2|0,1:2|3:0,0:0:0:0:
1,298,83772,2,0,B|63:309|63:309|82:344|82:344|154:354,1,165.000005035401,2|2,1:2|1:2,0:0:0:0:
199,368,84200,1,0,1:0:0:0:
199,368,84286,2,0,P|216:320|190:275,1,82.5000025177003,8|0,0:0|3:2,0:0:0:0:
121,184,84629,6,0,B|145:152|190:146|190:146|216:201|284:190,1,165.000005035401,6|8,1:2|0:0,0:0:0:0:
343,129,85143,2,0,L|332:47,1,82.5000025177003,2|0,3:2|3:0,0:0:0:0:
430,3,85486,1,2,1:2:0:0:
506,77,85657,1,10,0:0:0:0:
458,173,85829,2,0,B|429:265|506:241|474:331,1,165.000005035401,2|0,3:2|1:0,0:0:0:0:
378,376,86343,1,8,0:0:0:0:
283,326,86514,2,0,B|246:348|246:348|201:336,1,82.5000025177003,2|0,3:2|3:0,0:0:0:0:
194,240,86857,1,0,1:0:0:0:
194,240,86943,1,0,1:0:0:0:
194,240,87029,2,0,B|231:218|231:218|275:229,1,82.5000025177003,10|0,0:0|3:0,0:0:0:0:
356,164,87372,6,0,L|370:59,1,82.5000025177003,2|0,1:2|1:0,0:0:0:0:
285,13,87714,2,0,P|246:75|149:73,1,165.000005035401,10|0,0:0|3:2,0:0:0:0:
69,21,88229,1,0,1:0:0:0:
4,106,88400,1,8,0:0:0:0:
91,169,88572,2,0,B|107:264|22:223|49:335,1,165.000005035401,2|0,3:2|1:2,0:0:0:0:
134,379,89086,1,10,0:0:0:0:
223,319,89257,2,0,L|333:305,1,82.5000025177003,2|0,3:2|3:0,0:0:0:0:
352,206,89600,1,2,1:2:0:0:
352,206,89686,1,0,1:0:0:0:
352,206,89772,2,0,L|270:216,1,82.5000025177003,10|2,0:0|3:2,0:0:0:0:
173,149,90114,6,0,B|188:119|184:91|184:91|223:75|223:75|216:36|239:0,1,165.000005035401,6|8,1:2|0:0,0:0:0:0:
346,0,90629,1,0,3:0:0:0:
346,0,90714,1,0,3:0:0:0:
346,0,90800,2,0,P|379:20|432:3,1,82.5000025177003,2|2,3:2|1:2,0:0:0:0:
502,82,91143,1,10,0:0:0:0:
493,188,91314,6,0,L|411:177,1,82.5000025177003,2|0,3:2|3:0,0:0:0:0:
306,201,91657,2,0,B|289:163|289:163|313:129,1,82.5000025177003,2|8,1:2|0:0,0:0:0:0:
384,275,92000,2,0,P|397:330|373:362,1,82.5000025177003,2|0,3:2|3:0,0:0:0:0:
289,384,92343,1,2,1:2:0:0:
289,384,92429,1,0,1:0:0:0:
289,384,92514,2,0,L|278:302,1,82.5000025177003,10|2,0:0|3:2,0:0:0:0:
197,231,92857,5,2,1:2:0:0:
104,285,93029,1,0,1:0:0:0:
14,225,93200,2,0,P|0:184|22:145,1,82.5000025177003,10|2,0:0|3:2,0:0:0:0:
102,86,93543,1,2,3:2:0:0:
200,126,93714,2,0,L|189:44,1,82.5000025177003,2|8,1:2|0:0,0:0:0:0:
115,196,94057,6,0,L|134:346,1,123.75000377655,2|0,1:2|0:0,0:0:0:0:
136,372,94400,2,0,P|186:346|231:368,1,82.5000025177003,2|8,1:2|0:0,0:0:0:0:
314,372,94743,2,0,P|332:278|402:265,1,165.000005035401,2|2,1:2|1:2,0:0:0:0:
442,289,95172,1,0,1:0:0:0:
442,289,95257,2,0,L|452:370,1,82.5000025177003,10|2,0:0|3:2,0:0:0:0:
512,223,95600,5,0,1:0:0:0:
512,223,95772,2,0,B|466:139|541:160|502:75,1,150,0|0,1:0|1:0,0:0:0:0:
423,25,96286,1,8,0:0:0:0:
261,131,96629,1,0,1:0:0:0:
261,131,96800,2,0,L|430:110,1,150,0|0,1:0|1:0,0:0:0:0:
398,209,97314,1,8,0:0:0:0:
276,361,97657,2,0,B|296:328|296:328|278:281,1,75,2|0,1:2|1:2,0:0:0:0:
207,231,98000,2,0,L|121:245,1,75,10|2,0:0|0:3,0:0:0:0:
67,327,98343,5,0,1:0:0:0:
67,327,98514,2,0,P|21:273|63:181,1,150,0|0,1:0|1:0,0:0:0:0:
119,145,99029,1,8,0:0:0:0:
299,218,99372,1,0,1:0:0:0:
299,218,99543,2,0,B|285:169|285:169|311:134|311:134|294:62,1,150,0|0,1:0|1:0,0:0:0:0:
225,14,100057,2,0,P|187:33|144:20,1,75,8|0,0:0|0:0,0:0:0:0:
0,306,101086,6,0,L|13:222,1,75,4|0,1:2|0:0,0:0:0:0:
73,155,101429,2,0,B|99:130|140:126|140:126|156:175|217:176,1,150,2|8,0:3|0:0,0:0:0:0:
281,130,101943,1,0,1:0:0:0:
356,191,102114,2,0,L|347:261,3,37.5,2|0|0|0,3:2|3:0|3:0|3:0,0:0:0:0:
369,273,102457,2,0,L|286:286,1,75,2|0,3:2|3:2,0:0:0:0:
227,355,102800,2,0,L|144:368,1,75,2|0,3:2|1:2,0:0:0:0:
57,346,103143,1,10,0:0:0:0:
123,274,103314,1,2,0:0:0:0:
26,257,103486,2,0,L|37:182,1,75,2|8,1:2|0:0,0:0:0:0:
132,134,103829,6,0,P|119:80|158:32,2,112.5,2|0|0,1:2|1:0|1:0,0:0:0:0:
215,202,104514,1,10,0:0:0:0:
215,202,104600,1,2,0:3:0:0:
215,202,104686,2,0,L|289:190,1,75,2|2,1:3|0:3,0:0:0:0:
367,132,105029,1,2,1:3:0:0:
298,63,105200,6,0,L|305:14,3,37.5,2|0|2|0,1:3|0:0|0:0|0:0,0:0:0:0:
347,4,105543,2,0,L|384:-1,3,37.5,2|0|2|0,1:3|0:0|0:0|0:0,0:0:0:0:
427,21,105886,1,10,0:0:0:0:
511,88,106057,1,2,1:2:0:0:
511,88,106143,1,2,1:2:0:0:
511,88,106229,2,0,L|505:125,3,37.5,2|2|10|10,1:2|1:2|0:2|0:2,0:0:0:0:
501,173,106572,6,0,B|405:161|455:221|360:211|360:211,1,150,2|2,1:3|0:3,0:0:0:0:
278,158,107086,1,2,1:3:0:0:
208,226,107257,2,0,B|220:282|220:282|195:311|195:311|205:371,1,150,10|0,0:0|1:0,0:0:0:0:
253,384,107686,1,0,3:0:0:0:
253,384,107772,2,0,L|305:373,1,37.5,0|0,3:0|3:0,0:0:0:0:
320,338,107943,6,0,B|372:367|372:367|439:339,2,112.5,0|0|0,1:0|1:0|1:0,0:0:0:0:
326,240,108629,2,0,B|374:219|374:219|426:248,1,112.5,10|2,0:0|0:0,0:0:0:0:
473,235,108972,2,0,P|487:193|464:153,1,75,0|2,3:0|0:0,0:0:0:0:
386,128,109314,6,0,L|402:5,2,112.5,2|2|2,1:2|3:2|1:2,0:0:0:0:
296,88,110000,2,0,L|198:100,1,75,10|0,0:0|3:0,0:0:0:0:
176,104,110257,1,10,0:0:0:0:
176,104,110343,2,0,B|155:136|155:136|175:172,1,75,0|2,3:0|3:0,0:0:0:0:
258,215,110686,2,0,L|251:264,2,50,2|2|2,1:2|0:0|0:0,0:0:0:0:
277,299,111029,2,0,P|288:327|262:370,1,75,0|0,1:0|3:0,0:0:0:0:
176,384,111372,5,10,0:3:0:0:
156,367,111486,2,0,L|169:299,1,50,10|10,0:3|0:3,0:0:0:0:
77,310,111714,5,6,0:3:0:0:
60,290,111828,2,0,L|-8:303,1,50,6|2,0:3|1:3,0:0:0:0:
96,206,112057,5,0,1:0:0:0:
256,192,112143,12,0,114800,0:0:0:0:
256,192,116172,12,0,119943,0:0:0:0:
341,56,120286,6,0,P|302:98|207:85,1,134.999995880127,2|0,0:0|0:0,0:0:0:0:
150,58,120800,2,0,P|84:55|37:101,1,134.999995880127,2|0,0:0|0:0,0:0:0:0:
1,181,121314,1,2,0:0:0:0:
78,338,121657,2,0,L|93:246,1,67.4999979400635,0|2,0:0|0:0,0:0:0:0:
147,205,122000,1,0,0:0:0:0:
147,205,122172,2,0,B|232:175|199:252|300:222,1,150,2|2,0:0|0:3,0:0:0:0:
325,264,122600,1,2,0:3:0:0:
325,264,122686,2,0,L|319:317,3,37.5,10|2|2|2,0:0|0:3|0:3|0:3,0:0:0:0:
293,341,123029,5,4,1:2:0:0:
484,379,123372,2,0,P|438:322|467:232,1,150,10|2,0:0|3:2,0:0:0:0:
505,170,123886,1,0,1:0:0:0:
452,88,124057,2,0,L|358:102,1,75,10|0,0:0|3:0,0:0:0:0:
296,153,124400,2,0,P|342:96|313:6,1,150,2|8,3:2|0:0,0:0:0:0:
234,1,124914,2,0,L|82:23,1,150,2|0,3:2|1:0,0:0:0:0:
10,85,125429,1,8,0:0:0:0:
71,173,125600,1,0,3:0:0:0:
71,173,125686,1,0,3:0:0:0:
71,173,125772,6,0,B|100:148|100:148|134:159,1,75,0|0,1:0|1:0,0:0:0:0:
233,93,126114,2,0,L|211:245,1,150,10|0,0:0|3:0,0:0:0:0:
279,312,126629,1,0,1:0:0:0:
193,358,126800,2,0,P|153:369|115:348,1,75,10|0,0:0|3:0,0:0:0:0:
28,384,127143,2,0,B|41:289|41:289|6:283|-7:249,1,150,2|10,3:2|0:0,0:0:0:0:
2,162,127657,2,0,P|60:127|130:184,1,150,2|0,3:2|1:0,0:0:0:0:
149,260,128172,2,0,L|242:245,1,75,8|0,0:0|3:0,0:0:0:0:
266,269,128429,1,0,3:0:0:0:
266,269,128514,5,4,1:2:0:0:
439,180,128857,2,0,B|426:126|426:126|454:94|454:94|439:33,1,150,10|2,0:0|3:2,0:0:0:0:
351,3,129372,1,0,1:0:0:0:
263,45,129543,2,0,P|246:88|269:126,1,75,10|0,0:0|0:0,0:0:0:0:
340,196,129886,2,0,L|265:207,1,75,2|0,3:2|1:0,0:0:0:0:
191,270,130229,1,10,0:0:0:0:
209,365,130400,2,0,L|373:339,1,150,2|0,3:2|1:0,0:0:0:0:
446,380,130914,1,8,0:0:0:0:
510,308,131086,1,0,3:0:0:0:
510,308,131172,1,0,3:0:0:0:
510,308,131257,6,0,B|489:274|489:274|504:236,1,75,2|0,1:2|1:0,0:0:0:0:
421,185,131600,1,8,0:0:0:0:
342,243,131772,1,2,3:2:0:0:
261,188,131943,2,0,L|272:103,1,75,2|0,3:2|1:2,0:0:0:0:
351,58,132286,1,10,0:0:0:0:
272,1,132457,6,0,L|116:19,1,150,2|2,3:2|1:2,0:0:0:0:
62,96,132972,1,8,0:0:0:0:
152,178,133143,2,0,P|168:145|158:110,1,75,2|2,3:2|3:2,0:0:0:0:
52,194,133486,1,2,1:2:0:0:
52,194,133572,1,0,1:0:0:0:
52,194,133657,2,0,B|33:272|112:245|85:345,1,150,8|4,0:0|1:2,0:0:0:0:
277,379,134343,6,0,P|256:314|182:302,1,150,10|2,0:0|3:2,0:0:0:0:
88,331,134857,1,0,1:0:0:0:
6,276,135029,2,0,L|22:177,1,75,10|0,0:0|3:0,0:0:0:0:
49,109,135372,2,0,B|111:151|111:151|188:124,1,150,2|8,3:2|0:0,0:0:0:0:
259,185,135886,2,0,P|218:115|253:44,1,150,2|0,3:2|1:0,0:0:0:0:
322,0,136400,1,8,0:0:0:0:
413,58,136572,1,0,3:0:0:0:
413,58,136657,1,0,3:0:0:0:
413,58,136743,6,0,L|487:46,1,75,0|0,1:0|1:0,0:0:0:0:
510,140,137086,2,0,L|356:165,1,150,10|0,0:0|3:2,0:0:0:0:
273,123,137600,1,0,1:0:0:0:
211,199,137772,2,0,B|190:232|190:232|208:268,1,75,10|0,0:0|3:0,0:0:0:0:
250,366,138114,2,0,P|324:315|396:341,1,150,2|8,3:2|0:0,0:0:0:0:
463,376,138629,2,0,B|500:338|488:296|488:296|450:275|454:215,1,150,2|2,3:2|1:2,0:0:0:0:
500,159,139143,2,0,L|485:54,1,75,8|0,0:0|3:0,0:0:0:0:
463,43,139400,1,0,3:0:0:0:
463,43,139486,5,4,1:2:0:0:
272,0,139829,2,0,B|222:33|222:33|238:134,1,150,10|2,0:0|3:2,0:0:0:0:
324,80,140343,1,0,1:0:0:0:
389,151,140514,2,0,P|360:177|315:175,1,75,10|0,0:0|3:0,0:0:0:0:
269,273,140857,2,0,L|194:283,1,75,2|0,3:2|1:0,0:0:0:0:
124,216,141200,1,10,0:0:0:0:
62,296,141372,2,0,L|81:143,1,150,2|0,3:2|1:0,0:0:0:0:
23,68,141886,1,8,0:0:0:0:
100,8,142057,1,0,3:0:0:0:
100,8,142143,1,0,3:0:0:0:
100,8,142229,6,0,P|132:25|174:15,1,75,2|0,1:2|1:0,0:0:0:0:
246,77,142572,1,8,0:0:0:0:
180,148,142743,1,2,3:2:0:0:
239,224,142914,2,0,L|226:330,1,75,2|0,3:2|1:2,0:0:0:0:
171,376,143257,1,10,0:0:0:0:
65,383,143429,6,0,P|83:314|14:252,1,150,2|0,3:2|1:2,0:0:0:0:
0,166,143943,1,8,0:0:0:0:
96,179,144114,1,2,3:2:0:0:
60,87,144286,2,0,L|134:77,1,75,2|2,3:2|1:2,0:0:0:0:
214,134,144629,2,0,B|191:162|191:162|202:199,1,75,10|0,0:0|1:0,0:0:0:0:
179,294,144972,5,4,1:2:0:0:
364,352,145314,2,0,B|275:331|309:397|211:382,2,150,2|10|2,0:0|0:0|0:0,0:0:0:0:
437,286,146172,1,2,1:2:0:0:
248,238,146514,2,0,L|264:79,1,150,2|0,3:2|1:2,0:0:0:0:
329,16,147029,1,10,0:2:0:0:
329,16,147200,2,0,P|359:37|409:20,1,75,2|2,0:2|1:2,0:0:0:0:
492,19,147543,1,10,0:2:0:0:
511,117,147714,6,0,B|454:126|454:126|441:161|441:161|379:174,1,150,2|0,1:2|3:0,0:0:0:0:
299,125,148229,1,2,1:2:0:0:
299,125,148400,2,0,L|288:231,1,75,10|0,0:0|1:0,0:0:0:0:
216,261,148743,1,2,3:2:0:0:
216,261,148914,2,0,B|255:302|244:370|244:370|286:319|363:339,1,225,2|0,1:2|1:0,0:0:0:0:
429,375,149600,1,2,1:2:0:0:
501,309,149772,2,0,B|456:229|541:241|482:151,1,150,10|2,0:0|1:2,0:0:0:0:
412,108,150286,1,8,0:0:0:0:
348,190,150457,6,0,L|185:210,1,150,2|0,1:2|0:0,0:0:0:0:
134,133,150972,2,0,P|181:61|149:-12,1,150,2|0,1:2|1:0,0:0:0:0:
78,51,151486,1,2,0:0:0:0:
2,230,151829,2,0,L|22:393,1,150,2|0,0:0|1:0,0:0:0:0:
118,379,152343,2,0,B|157:376|171:339|171:339|221:329|258:364,1,150,2|0,1:2|0:0,0:0:0:0:
305,277,152857,1,2,1:2:0:0:
305,277,153029,1,10,0:0:0:0:
249,190,153200,6,0,P|196:234|99:212,1,150,2|0,1:2|0:0,0:0:0:0:
10,64,153886,2,0,L|173:84,1,150,10|0,0:0|0:0,0:0:0:0:
227,12,154400,1,0,1:0:0:0:
310,63,154572,1,4,0:3:0:0:
310,63,155086,2,0,B|326:180|235:134|257:252,1,202.499993820191,2|0,0:0|1:0,0:0:0:0:
198,324,155772,1,0,1:0:0:0:
198,324,155943,2,0,B|241:292|275:296|275:296|291:334|332:335,1,150,0|4,3:0|0:0,0:0:0:0:
508,266,156629,2,0,L|512:303,3,37.5,8|8|4|4,0:3|0:3|0:3|0:3,0:0:0:0:
498,349,156972,1,8,0:0:0:0:
395,183,157314,5,4,1:3:0:0:
64,325,168286,5,8,0:3:0:0:
64,325,168457,2,0,L|217:303,1,150,4|0,0:3|0:0,0:0:0:0:
318,318,168972,1,4,0:3:0:0:
318,318,169057,1,4,0:3:0:0:
318,318,169143,2,0,B|297:351|297:351|313:387,1,75,8|0,0:3|3:0,0:0:0:0:
235,209,169657,1,0,0:0:0:0:
235,209,169829,2,0,P|278:146|255:73,1,150,2|0,0:0|0:0,0:0:0:0:
335,16,170343,2,0,B|363:50|404:47|404:47|432:5|499:21,1,150,2|0,3:2|3:0,0:0:0:0:
508,207,171029,6,0,L|486:355,2,150,0|2|2,3:0|0:0|0:0,0:0:0:0:
340,106,172057,2,0,L|355:212,1,75,0|0,3:0|3:0,0:0:0:0:
410,263,172400,1,2,0:0:0:0:
410,263,172572,1,0,3:0:0:0:
357,345,172743,2,0,P|323:369|281:354,1,75,0|0,0:0|0:0,0:0:0:0:
207,314,173086,2,0,P|131:312|91:372,1,150,2|2,0:0|0:0,0:0:0:0:
256,192,173772,12,2,175143,0:0:0:0:
256,192,175229,12,2,177886,0:0:0:0:
256,192,177972,12,2,179257,1:2:0:0:
357,91,179600,6,0,L|367:31,3,37.5,0|0|0|0,3:0|3:0|3:0|3:0,0:0:0:0:
328,19,179943,2,0,P|270:54|163:39,1,150,2|0,1:2|3:0,0:0:0:0:
103,33,180457,1,0,3:0:0:0:
103,33,180543,1,0,3:0:0:0:
103,33,180629,2,0,L|118:195,1,150,2|0,1:2|3:0,0:0:0:0:
99,284,181143,1,0,3:0:0:0:
99,284,181229,1,0,3:0:0:0:
99,284,181314,2,0,P|145:283|183:247,1,75,2|8,1:2|0:0,0:0:0:0:
218,185,181657,2,0,P|250:167|287:170,1,75,2|0,1:2|3:0,0:0:0:0:
325,201,181914,1,0,3:0:0:0:
325,201,182000,6,0,L|419:185,1,75,2|0,1:2|3:0,0:0:0:0:
481,240,182343,2,0,L|471:295,3,37.5,0|0|0|0,3:0|3:0|3:0|3:0,0:0:0:0:
497,319,182686,2,0,B|406:312|456:369|347:352,1,150,2|0,1:2|3:0,0:0:0:0:
270,384,183200,1,0,3:0:0:0:
270,384,183286,1,0,3:0:0:0:
270,384,183372,2,0,P|317:324|287:251,1,150,2|0,1:2|3:0,0:0:0:0:
232,200,183886,1,0,3:0:0:0:
232,200,183972,1,0,3:0:0:0:
232,200,184057,2,0,B|198:219|198:219|145:204,1,75,2|8,1:2|0:0,0:0:0:0:
75,166,184400,2,0,B|56:200|56:200|65:234,1,75,2|0,1:2|3:0,0:0:0:0:
83,285,184657,1,0,3:0:0:0:
83,285,184743,5,2,1:2:0:0:
184,118,185086,1,2,1:2:0:0:
376,152,185429,1,2,1:2:0:0:
275,319,185772,1,2,1:2:0:0:
461,373,186114,6,0,L|448:282,1,75,2|2,1:2|1:2,0:0:0:0:
499,214,186457,2,0,L|486:123,1,75,2|2,1:2|1:2,0:0:0:0:
439,55,186800,2,0,L|377:47,3,37.5,2|2|2|2,1:2|1:2|1:2|1:2,0:0:0:0:
353,45,187143,2,0,L|357:82,3,37.5,2|2|2|2,1:2|1:2|1:2|1:2,0:0:0:0:
366,130,187486,5,4,1:3:0:0:
160,362,188857,2,0,L|261:345,1,75,2|0,0:0|0:0,0:0:0:0:
329,368,189200,2,0,L|340:303,3,37.5,8|8|4|4,0:3|0:3|0:3|0:3,0:0:0:0:
379,310,189543,2,0,P|410:247|373:172,1,150,2|2,0:0|0:0,0:0:0:0:
220,65,190229,6,0,L|206:171,1,75,6|0,1:2|3:2,0:0:0:0:
263,227,190572,1,0,3:2:0:0:
263,227,190743,2,0,B|208:233|208:233|182:268|182:268|118:275,1,150,2|0,3:2|3:2,0:0:0:0:
36,249,191257,1,0,3:0:0:0:
36,249,191429,2,0,L|65:76,1,150,2|0,3:2|3:2,0:0:0:0:
125,27,191943,1,0,1:0:0:0:
125,27,192114,2,0,P|170:64|269:37,1,150,2|0,3:2|3:0,0:0:0:0:
343,6,192629,2,0,P|357:60|341:91,1,75,2|2,0:0|3:2,0:0:0:0:
251,165,192972,6,0,L|346:178,1,75,2|0,1:2|3:2,0:0:0:0:
423,155,193314,1,0,3:2:0:0:
423,155,193486,2,0,B|420:242|486:186|477:303,1,150,2|0,3:2|3:0,0:0:0:0:
439,378,194000,1,0,3:2:0:0:
439,378,194172,2,0,P|381:337|277:352,1,150,2|0,3:2|3:0,0:0:0:0:
209,384,194686,1,0,3:2:0:0:
209,384,194857,2,0,L|231:217,1,150,2|0,1:2|3:0,0:0:0:0:
306,175,195372,2,0,B|324:142|324:142|311:106,1,75,2|2,1:2|3:2,0:0:0:0:
253,28,195714,6,0,L|152:40,1,75,2|0,1:2|3:2,0:0:0:0:
90,75,196057,1,0,3:2:0:0:
90,75,196229,2,0,B|97:121|145:131|145:131|106:153|94:191,1,150,2|0,3:2|3:0,0:0:0:0:
10,211,196743,1,0,3:2:0:0:
10,211,196914,2,0,L|30:364,1,150,2|0,3:2|3:0,0:0:0:0:
128,384,197429,1,0,1:0:0:0:
128,384,197600,2,0,P|173:331|141:248,1,150,2|0,3:2|3:0,0:0:0:0:
100,176,198114,2,0,L|190:160,1,75,2|2,0:0|3:2,0:0:0:0:
269,51,198457,6,0,B|248:84|248:84|268:125,1,75,2|0,1:2|3:2,0:0:0:0:
309,208,198800,1,0,3:2:0:0:
309,208,198972,2,0,P|264:261|296:344,1,150,2|0,1:2|3:0,0:0:0:0:
366,384,199486,1,0,3:2:0:0:
461,364,199657,2,0,L|484:190,1,150,2|8,3:2|0:0,0:0:0:0:
500,122,200172,1,2,3:2:0:0:
500,122,200343,2,0,B|406:102|453:177|334:151,1,150,2|0,1:2|3:0,0:0:0:0:
278,101,200857,2,0,L|291:8,1,75,0|10,1:0|0:0,0:0:0:0:
360,155,201200,6,0,B|335:334|335:334|282:268|282:268|261:293|218:298,1,314.999990386963,6|8,1:2|0:0,0:0:0:0:
143,317,202057,1,0,3:0:0:0:
143,317,202229,2,0,B|127:354|127:354|152:387,1,78.7499975967408,0|2,3:0|3:2,0:0:0:0:
176,217,202572,2,0,P|91:214|40:278,1,157.499995193482,0|0,1:0|1:0,0:0:0:0:
0,161,203086,1,2,3:2:0:0:
90,113,203257,2,0,B|52:65|98:20|98:20|128:42|170:30,1,157.499995193482,8|0,0:0|3:2,0:0:0:0:
248,12,203772,1,2,3:2:0:0:
324,88,203943,6,0,B|296:128|240:122|240:122|269:140|279:174,1,157.499995193482,2|0,1:2|3:2,0:0:0:0:
182,209,204457,1,2,3:2:0:0:
224,302,204629,2,0,L|399:273,1,157.499995193482,8|0,0:0|3:0,0:0:0:0:
442,195,205143,1,2,3:2:0:0:
510,270,205314,2,0,B|496:311|496:311|517:337|517:337|501:399,2,118.124996395111,0|0|0,1:0|1:0|1:0,0:0:0:0:
442,195,206000,2,0,P|491:133|450:51,1,157.499995193482,8|0,0:0|1:0,0:0:0:0:
382,8,206514,1,2,3:2:0:0:
305,69,206686,6,0,B|274:108|295:154|295:154|238:209|167:147,1,225,2|2,1:2|0:0,0:0:0:0:
112,77,207372,1,0,1:0:0:0:
0,361,208057,2,0,P|32:282|179:292,1,225,0|2,1:0|0:0,0:0:0:0:
227,341,208743,1,0,1:0:0:0:
495,238,209429,6,0,L|393:251,1,75,2|2,1:2|1:2,0:0:0:0:
345,310,209772,2,0,L|332:412,1,75,0|2,1:2|1:2,0:0:0:0:
268,246,210114,2,0,L|279:182,3,37.5,0|0|0|0,1:0|1:0|1:0|1:0,0:0:0:0:
241,172,210457,2,0,L|204:178,3,37.5,0|0|0|0,1:0|1:0|1:0|1:0,0:0:0:0:
158,196,210800,2,0,B|110:144|120:56|190:31|190:31|227:63|227:63|288:41,1,300,2|8,1:2|0:3,0:0:0:0:
317,72,211572,1,8,0:3:0:0:
317,72,211657,2,0,L|329:134,1,37.5,4|4,0:3|0:3,0:0:0:0:
350,150,211829,6,0,L|335:236,2,50,8|0|0,1:2|1:0|1:0,0:0:0:0:
423,120,212172,5,4,1:2:0:0:
256,188,223143,5,6,0:0:0:0:
334,32,234114,6,0,P|294:81|192:54,1,150,2|0,0:0|0:0,0:0:0:0:
321,238,234800,2,0,L|409:224,1,75,2|2,0:0|0:0,0:0:0:0:
487,188,235143,1,2,0:0:0:0:
487,188,235314,2,0,B|535:266|444:254|499:351,2,150,2|2|2,0:0|0:0|0:0,0:0:0:0:
379,24,236343,1,2,0:0:0:0:
379,24,236514,2,0,L|302:38,1,75,2|0,0:0|0:0,0:0:0:0:
408,113,236857,6,0,L|250:141,1,150,2|0,0:0|0:0,0:0:0:0:
175,88,237372,1,2,0:0:0:0:
175,88,237543,2,0,L|190:3,2,75,2|0|0,0:0|0:0|0:0,0:0:0:0:
111,168,238057,2,0,P|192:230|167:350,1,225,2|2,0:0|0:0,0:0:0:0:
86,382,238743,1,2,0:0:0:0:
1,206,239086,2,0,L|16:121,1,75,2|0,0:0|0:0,0:0:0:0:
0,295,239429,2,0,B|184:313|81:177|279:201,1,300,2|0,0:0|0:0,0:0:0:0:
256,192,240200,12,0,241486,0:0:0:0:
455,61,242000,6,0,B|380:-1|321:73|321:73|413:109|382:214,1,300,2|0,0:0|0:0,0:0:0:0:
474,233,242857,2,0,P|455:264|464:319,1,75,2|0,0:0|0:0,0:0:0:0:
380,363,243200,1,0,0:0:0:0:
380,363,243372,2,0,B|302:260|182:282|182:282|143:384|38:361,1,375,2|0,0:0|0:0,0:0:0:0:
272,126,245086,6,0,B|245:169|201:180|201:180|167:145|113:150,1,165.000005035401,6|8,1:2|0:0,0:0:0:0:
48,213,245600,1,2,3:2:0:0:
1,116,245772,1,2,3:2:0:0:
83,47,245943,2,0,L|192:29,1,82.5000025177003,2|10,1:2|0:0,0:0:0:0:
230,118,246286,6,0,L|216:199,1,82.5000025177003,2|0,3:2|3:0,0:0:0:0:
140,275,246629,2,0,P|122:321|144:362,1,82.5000025177003,2|8,1:2|0:0,0:0:0:0:
234,383,246972,2,0,B|266:358|266:358|312:381,1,82.5000025177003,2|0,3:2|3:0,0:0:0:0:
408,341,247314,1,2,1:2:0:0:
408,341,247400,1,0,1:0:0:0:
408,341,247486,2,0,L|421:259,1,82.5000025177003,10|2,0:0|3:2,0:0:0:0:
511,199,247829,5,2,1:2:0:0:
441,118,248000,1,0,1:0:0:0:
349,174,248172,2,0,B|317:199|317:199|271:176,1,82.5000025177003,10|2,0:0|3:2,0:0:0:0:
201,107,248514,1,2,3:2:0:0:
272,26,248686,2,0,L|353:12,1,82.5000025177003,2|8,1:2|0:0,0:0:0:0:
491,21,249029,6,0,P|443:58|448:132,1,123.75000377655,2|0,1:2|0:0,0:0:0:0:
484,148,249372,2,0,L|470:229,1,82.5000025177003,2|0,1:2|3:0,0:0:0:0:
476,336,249714,2,0,B|399:320|416:379|312:360,1,165.000005035401,2|2,1:2|1:2,0:0:0:0:
266,367,250143,1,0,1:0:0:0:
266,367,250229,2,0,B|286:328|286:328|272:290,1,82.5000025177003,8|2,0:0|3:2,0:0:0:0:
162,310,250572,6,0,B|125:268|161:219|161:219|204:219|220:181,1,165.000005035401,6|8,1:2|0:0,0:0:0:0:
322,201,251086,2,0,L|309:99,1,82.5000025177003,2|0,3:2|3:0,0:0:0:0:
389,45,251429,1,2,1:2:0:0:
291,0,251600,1,10,0:0:0:0:
210,71,251772,2,0,B|105:92|105:92|86:63|41:49,1,165.000005035401,2|0,3:2|1:0,0:0:0:0:
112,187,252286,1,8,0:0:0:0:
18,143,252457,2,0,B|-6:180|-6:180|9:218,1,82.5000025177003,2|0,3:2|3:0,0:0:0:0:
92,299,252800,1,0,1:0:0:0:
92,299,252886,1,0,1:0:0:0:
92,299,252972,2,0,L|195:281,1,82.5000025177003,10|0,0:0|3:0,0:0:0:0:
256,217,253314,6,0,L|270:135,1,82.5000025177003,2|0,1:2|1:0,0:0:0:0:
229,36,253657,2,0,P|288:93|381:72,1,165.000005035401,10|0,0:0|3:2,0:0:0:0:
460,32,254172,1,0,1:0:0:0:
511,125,254343,1,8,0:0:0:0:
421,183,254514,2,0,B|408:239|408:239|436:280|436:280|419:350,1,165.000005035401,2|0,3:2|1:2,0:0:0:0:
324,383,255029,1,10,0:0:0:0:
241,316,255200,2,0,P|207:342|147:320,1,82.5000025177003,2|0,3:2|3:0,0:0:0:0:
73,299,255543,1,2,1:2:0:0:
73,299,255629,1,0,1:0:0:0:
73,299,255714,2,0,L|57:397,1,82.5000025177003,10|2,0:0|3:2,0:0:0:0:
158,232,256057,6,0,B|194:182|158:137|158:137|129:164|79:156,1,165.000005035401,6|8,1:2|0:0,0:0:0:0:
2,202,256572,1,0,3:0:0:0:
2,202,256657,1,0,3:0:0:0:
2,202,256743,2,0,P|-11:159|9:118,1,82.5000025177003,2|2,3:2|1:2,0:0:0:0:
101,157,257086,1,10,0:0:0:0:
183,88,257257,6,0,L|196:6,1,82.5000025177003,2|0,3:2|3:0,0:0:0:0:
282,130,257600,2,0,B|297:169|297:169|269:203,1,82.5000025177003,2|8,1:2|0:0,0:0:0:0:
169,235,257943,2,0,B|149:264|149:264|152:297|197:316,1,82.5000025177003,2|0,3:2|3:0,0:0:0:0:
262,381,258286,1,2,1:2:0:0:
262,381,258372,1,0,1:0:0:0:
262,381,258457,2,0,L|343:367,1,82.5000025177003,10|2,0:0|3:2,0:0:0:0:
469,344,258800,5,2,1:2:0:0:
385,276,258972,1,0,1:0:0:0:
484,236,259143,2,0,L|497:154,1,82.5000025177003,10|2,0:0|3:2,0:0:0:0:
430,70,259486,1,2,3:2:0:0:
345,135,259657,2,0,B|310:158|310:158|260:142,1,82.5000025177003,2|8,1:2|0:0,0:0:0:0:
173,226,260000,6,0,L|150:65,1,123.75000377655,2|0,1:2|3:0,0:0:0:0:
133,54,260343,2,0,P|167:28|219:42,1,82.5000025177003,2|8,1:2|0:0,0:0:0:0:
330,6,260686,2,0,B|291:24|296:72|296:72|351:87|343:151,1,165.000005035401,2|2,1:2|1:2,0:0:0:0:
393,167,261114,1,0,1:0:0:0:
393,167,261200,2,0,L|379:248,1,82.5000025177003,10|0,0:0|3:2,0:0:0:0:
453,341,261543,5,0,1:0:0:0:
453,341,261714,2,0,B|364:331|395:386|296:376,1,150,0|0,1:2|1:0,0:0:0:0:
238,311,262229,1,8,0:0:0:0:
57,379,262572,1,0,1:0:0:0:
57,379,262743,2,0,P|121:328|115:253,1,150,0|0,1:0|1:0,0:0:0:0:
206,217,263257,1,8,0:0:0:0:
296,44,263600,2,0,L|315:144,1,75,2|0,1:2|1:2,0:0:0:0:
212,0,263943,2,0,B|180:20|180:20|118:8,1,75,10|2,0:2|0:3,0:0:0:0:
55,74,264286,5,0,1:0:0:0:
55,74,264457,2,0,B|44:131|44:131|13:146|13:146|-3:224,1,150,0|0,1:0|1:0,0:0:0:0:
38,293,264972,1,8,0:0:0:0:
196,179,265314,1,0,1:0:0:0:
196,179,265486,2,0,B|243:216|243:216|274:169|350:177,1,150,0|0,1:0|1:0,0:0:0:0:
406,222,266000,1,8,0:0:0:0:
170,379,267029,6,0,B|153:323|204:295|204:295|201:269|179:243|179:243|245:205|209:128,1,262.5,4|0,1:2|0:0,0:0:0:0:
195,110,267714,1,10,0:0:0:0:
262,32,267886,2,0,P|304:40|340:12,1,78.7499975967408,2|0,1:2|3:0,0:0:0:0:
418,79,268229,2,0,B|451:57|451:57|494:71,1,78.7499975967408,2|0,1:2|3:0,0:0:0:0:
511,169,268572,2,0,B|423:159|469:223|348:200,1,157.499995193482,2|0,3:2|1:0,0:0:0:0:
276,147,269086,2,0,L|265:225,1,78.7499975967408,10|0,0:0|0:0,0:0:0:0:
191,295,269429,1,2,1:2:0:0:
246,380,269600,1,10,3:2:0:0:
324,314,269772,6,0,L|402:303,1,78.7499975967408,2|0,1:2|1:2,0:0:0:0:
487,359,270114,1,2,0:0:0:0:
507,258,270286,2,0,B|487:225|487:225|504:184,1,78.7499975967408,2|8,1:2|0:0,0:0:0:0:
422,123,270629,2,0,L|343:133,1,78.7499975967408,2|0,1:2|3:0,0:0:0:0:
276,211,270972,2,0,P|242:231|197:221,1,78.7499975967408,2|0,1:2|3:0,0:0:0:0:
119,168,271314,1,2,1:2:0:0:
102,269,271486,1,2,1:2:0:0:
20,207,271657,2,0,L|30:128,1,78.7499975967408,2|8,3:1|0:0,0:0:0:0:
71,30,272000,1,0,1:0:0:0:
71,30,272086,1,0,1:0:0:0:
71,30,272172,2,0,L|2:41,2,39.3749987983704,0|0|8,1:0|1:0|0:0,0:0:0:0:
176,3,272514,6,0,B|172:71|230:115|230:115|156:117|131:191,1,236.249992790222,4|0,1:2|3:2,0:0:0:0:
229,220,273200,1,10,0:0:0:0:
158,295,273372,2,0,L|53:311,1,78.7499975967408,2|0,1:2|0:0,0:0:0:0:
233,367,273714,2,0,B|333:378|280:311|404:321,1,157.499995193482,2|2,1:2|3:2,0:0:0:0:
479,303,274229,2,0,L|495:408,1,78.7499975967408,2|0,3:2|1:0,0:0:0:0:
412,222,274572,1,10,0:0:0:0:
509,207,274743,1,2,0:0:0:0:
448,125,274914,2,0,L|436:47,1,78.7499975967408,2|10,1:2|0:0,0:0:0:0:
324,1,275257,5,2,1:0:0:0:
257,79,275429,1,2,3:2:0:0:
257,79,275514,1,2,1:2:0:0:
257,79,275600,2,0,P|219:100|167:81,1,78.7499975967408,2|2,3:2|1:2,0:0:0:0:
340,150,275943,2,0,B|317:184|317:184|333:225,1,78.7499975967408,10|2,0:0|1:2,0:0:0:0:
381,308,276286,1,2,3:2:0:0:
302,373,276457,6,0,L|224:384,1,78.7499975967408,2|2,1:2|1:2,0:0:0:0:
133,336,276800,2,0,L|144:258,1,78.7499975967408,2|2,3:2|1:2,0:0:0:0:
223,192,277143,1,2,3:2:0:0:
126,157,277314,2,0,L|48:168,1,78.7499975967408,0|0,1:0|1:0,0:0:0:0:
205,85,277657,1,8,0:0:0:0:
383,225,278000,6,0,B|314:202|322:113|322:113|385:99|403:37|403:37|401:82|438:107,1,330.000010070801,6|8,1:2|0:0,0:0:0:0:
512,173,278857,2,0,L|499:255,1,82.5000025177003,0|0,1:0|3:0,0:0:0:0:
450,350,279200,1,2,1:2:0:0:
354,320,279372,1,2,3:2:0:0:
354,320,279457,1,2,3:2:0:0:
354,320,279543,2,0,L|302:331,1,41.2500012588501,2|2,3:2|3:2,0:0:0:0:
272,363,279714,2,0,L|231:354,3,41.2500012588501,2|2|2|2,3:2|3:2|1:2|3:2,0:0:0:0:
181,373,280057,2,0,B|193:313|193:313|164:276|164:276|179:212,1,165.000005035401,10|0,0:0|1:0,0:0:0:0:
269,163,280572,1,8,0:0:0:0:
227,57,280743,6,0,P|150:76|96:7,1,165.000005035401,2|0,1:2|1:2,0:0:0:0:
7,76,281257,1,0,1:0:0:0:
79,155,281429,2,0,L|57:247,1,82.5000025177003,10|2,0:0|1:2,0:0:0:0:
30,281,281686,1,2,1:2:0:0:
30,281,281772,1,2,3:2:0:0:
88,370,281943,6,0,B|123:346|123:346|144:366|188:365,1,82.5000025177003,2|0,1:2|3:0,0:0:0:0:
251,308,282286,1,2,1:2:0:0:
330,379,282457,2,0,P|364:321|331:232,1,165.000005035401,2|8,1:2|0:0,0:0:0:0:
244,172,282972,1,0,1:0:0:0:
154,230,283143,2,0,L|142:300,2,41.2500012588501,0|0|8,1:0|1:0|0:0,0:0:0:0:
244,172,283486,6,0,B|274:87|185:107|236:10,1,150,0|0,1:0|3:0,0:0:0:0:
322,12,284000,1,0,3:0:0:0:
322,12,284086,1,0,3:0:0:0:
322,12,284172,2,0,B|351:32|351:32|392:16,1,75,2|0,1:2|3:0,0:0:0:0:
479,49,284514,2,0,L|468:109,3,37.5,0|0|0|0,3:0|3:0|3:0|3:0,0:0:0:0:
492,130,284857,6,0,B|455:155|431:162|431:162|390:120|326:135,1,150,2|0,1:2|3:0,0:0:0:0:
273,171,285372,1,0,3:0:0:0:
273,171,285457,1,0,3:0:0:0:
273,171,285543,2,0,P|248:201|260:249,1,75,2|0,1:2|3:0,0:0:0:0:
322,301,285886,2,0,L|315:337,3,37.5,0|0|0|0,3:0|3:0|3:0|3:0,0:0:0:0:
347,374,286229,6,0,B|379:353|379:353|425:374,1,75,2|2,1:2|3:2,0:0:0:0:
503,332,286572,1,2,1:2:0:0:
455,248,286743,1,2,3:2:0:0:
455,248,286829,1,2,3:2:0:0:
455,248,286914,2,0,L|470:156,1,75,2|2,1:2|3:2,0:0:0:0:
400,102,287257,2,0,L|325:114,1,75,2|2,1:2|3:2,0:0:0:0:
250,175,287600,6,0,L|243:224,2,50,2|0|0,1:0|1:0|1:0,0:0:0:0:
187,276,287943,6,0,L|123:285,2,50,0|0|0,1:0|1:0|1:0,0:0:0:0:
72,327,288286,6,0,L|65:376,2,50,0|0|0,1:0|1:0|1:0,0:0:0:0:
1,259,288629,6,0,B|47:228|45:180|45:180|-6:167|0:111,1,165.000005035401,4|0,1:0|0:0,0:0:0:0:
