osu file format v14

[General]
AudioFilename: audio.mp3
AudioLeadIn: 0
PreviewTime: 43144
Countdown: 0
SampleSet: Soft
StackLeniency: 0.3
Mode: 0
LetterboxInBreaks: 0
WidescreenStoryboard: 0

[Editor]
Bookmarks: 3083,8937,20644,32352,44059,67474,73327,85035,86498,96742,102596,108449,131864,143571,155279,161132,168449,173937,191864
DistanceSpacing: 5.5
BeatDivisor: 8
GridSize: 4
TimelineZoom: 5.099997

[Metadata]
Title:[A]ddiction
TitleUnicode:[A]ddiction
Artist:EVO+
ArtistUnicode:EVO+
Creator:rui
Version:Mad Love
Source:
Tags:giga reol addiction
BeatmapID:1885070
BeatmapSetID:902958

[Difficulty]
HPDrainRate:5
CircleSize:4
OverallDifficulty:8.5
ApproachRate:9.2
SliderMultiplier:1.6
SliderTickRate:1

[Events]
//Background and Video events
Video,0,"[A]ddiction2.mp4"
0,0,"BG.png",0,0
//Break Periods
2,132064,143001
//Storyboard Layer 0 (Background)
//Storyboard Layer 1 (Fail)
//Storyboard Layer 2 (Pass)
//Storyboard Layer 3 (Foreground)
//Storyboard Sound Samples

[TimingPoints]
3084,365.853658536585,4,2,2,50,1,0
3084,-83.3333333333333,4,2,2,50,0,0
3449,-100,4,2,2,50,0,0
3815,-125,4,2,2,50,0,0
4181,-166.666666666667,4,2,2,50,0,0
4913,-100,4,2,2,50,0,0
6010,-83.3333333333333,4,2,2,50,0,0
6376,-100,4,2,2,50,0,0
6742,-125,4,2,2,50,0,0
7108,-166.666666666667,4,2,2,50,0,0
7474,-100,4,2,2,50,0,0
8205,-90.9090909090909,4,2,2,50,0,0
8937,-66.6666666666667,4,2,1,50,0,0
9303,-100,4,2,1,50,0,0
13693,-100,4,2,5,50,0,0
14425,-100,4,2,1,50,0,0
14791,-66.6666666666667,4,2,1,50,0,0
15157,-100,4,2,1,50,0,0
19913,-55.5555555555556,4,2,1,50,0,0
20644,-100,4,2,3,50,0,0
26498,-55.5555555555556,4,2,3,50,0,0
26864,-100,4,2,3,50,0,0
32352,-100,4,2,1,45,0,0
38205,-100,4,2,2,45,0,0
38571,-133.333333333333,4,2,2,45,0,0
42596,-133.333333333333,4,2,2,40,0,0
43327,-66.6666666666667,4,2,4,55,0,0
43693,-58.8235294117647,4,2,4,55,0,0
44059,-50,4,2,1,65,0,1
44425,-58.8235294117647,4,2,4,65,0,1
44791,-66.6666666666667,4,2,4,65,0,1
46620,-58.8235294117647,4,2,4,65,0,1
46986,-50,4,2,4,65,0,1
47352,-66.6666666666667,4,2,4,65,0,1
49547,-58.8235294117647,4,2,4,65,0,1
49913,-50,4,2,4,65,0,1
51010,-58.8235294117647,4,2,4,65,0,1
51376,-50,4,2,4,65,0,1
52840,-50,4,2,4,65,0,1
53205,-66.6666666666667,4,2,4,65,0,1
55035,-66.6666666666667,4,2,4,65,0,1
55401,-58.8235294117647,4,2,4,65,0,1
55675,-66.6666666666667,4,2,4,65,0,0
55766,-50,4,2,4,65,0,1
56132,-66.6666666666667,4,2,4,65,0,1
58327,-58.8235294117647,4,2,4,65,0,1
58693,-50,4,2,4,65,0,1
59059,-66.6666666666667,4,2,4,65,0,1
61254,-58.8235294117647,4,2,4,65,0,1
61620,-50,4,2,4,65,0,1
62718,-58.8235294117647,4,2,4,65,0,1
63083,-50,4,2,4,65,0,1
64913,-66.6666666666667,4,2,4,65,0,1
67474,-66.6666666666667,4,2,2,65,0,0
67840,-100,4,2,2,50,0,0
68205,-125,4,2,2,50,0,0
68571,-166.666666666667,4,2,2,50,0,0
68937,-100,4,2,2,50,0,0
71132,-125,4,2,2,50,0,0
71498,-166.666666666667,4,2,2,50,0,0
71864,-100,4,2,2,50,0,0
72596,-90.9090909090909,4,2,2,50,0,0
73327,-66.6666666666667,4,2,1,50,0,0
73693,-100,4,2,1,50,0,0
78449,-90.9090909090909,4,2,4,40,0,0
78815,-76.9230769230769,4,2,4,40,0,0
79181,-66.6666666666667,4,2,1,50,0,0
79547,-100,4,2,1,50,0,0
83571,-100,4,2,1,55,0,0
84303,-100,4,2,1,60,0,0
85035,-66.6666666666667,4,2,3,50,0,0
85401,-83.3333333333333,4,2,3,50,0,0
90888,-66.6666666666667,4,2,3,50,0,0
91620,-133.333333333333,4,2,1,50,0,0
92352,-66.6666666666667,4,2,3,50,0,0
93083,-133.333333333333,4,2,1,40,0,0
93449,-133.333333333333,4,2,1,35,0,0
93815,-66.6666666666667,4,2,3,50,0,0
94181,-100,4,2,3,50,0,0
96742,-100,4,2,1,45,0,0
102596,-100,4,2,2,45,0,0
102962,-133.333333333333,4,2,2,45,0,0
106986,-133.333333333333,4,2,2,40,0,0
107718,-66.6666666666667,4,2,1,55,0,0
108083,-58.8235294117647,4,2,1,55,0,0
108449,-50,4,2,4,65,0,1
108815,-58.8235294117647,4,2,4,65,0,1
109181,-66.6666666666667,4,2,4,65,0,1
111010,-58.8235294117647,4,2,4,65,0,1
111376,-50,4,2,4,65,0,1
111742,-66.6666666666667,4,2,4,65,0,1
113937,-58.8235294117647,4,2,4,65,0,1
114303,-50,4,2,4,65,0,1
115401,-58.8235294117647,4,2,4,65,0,1
115766,-50,4,2,4,65,0,1
117596,-66.6666666666667,4,2,4,65,0,1
118693,-58.8235294117647,4,2,4,65,0,1
119425,-66.6666666666667,4,2,4,65,0,1
119791,-58.8235294117647,4,2,4,65,0,1
120157,-50,4,2,4,65,0,1
120523,-66.6666666666667,4,2,4,65,0,1
122718,-58.8235294117647,4,2,4,65,0,1
123083,-50,4,2,4,65,0,1
123449,-66.6666666666667,4,2,4,65,0,1
125644,-58.8235294117647,4,2,4,65,0,1
126010,-50,4,2,4,65,0,1
126376,-66.6666666666667,4,2,4,65,0,1
127108,-58.8235294117647,4,2,4,65,0,1
127474,-50,4,2,4,65,0,1
129303,-66.6666666666667,4,2,4,65,0,1
131864,-50,4,2,1,50,0,0
143571,-66.6666666666667,4,2,2,50,0,0
143937,-100,4,2,2,50,0,0
146315,-100,4,2,1,50,0,0
146498,-100,4,2,2,50,0,0
148876,-100,4,2,1,50,0,0
149425,-66.6666666666667,4,2,2,50,0,0
149791,-100,4,2,2,50,0,0
151803,-100,4,2,1,50,0,0
152352,-100,4,2,2,50,0,0
153998,-100,4,2,1,50,0,0
155279,-100,4,2,2,45,0,0
161498,-133.333333333333,4,2,2,45,0,0
166254,-133.333333333333,4,2,1,40,0,0
166437,-133.333333333333,4,2,1,30,0,0
166620,-133.333333333333,4,2,1,20,0,0
166986,-333.333333333333,4,2,1,10,0,0
167535,-100,4,2,1,50,0,0
167718,-66.6666666666667,4,2,1,55,0,0
168083,-58.8235294117647,4,2,1,55,0,0
168449,-50,4,2,1,65,0,1
168815,-66.6666666666667,4,2,4,65,0,1
171010,-58.8235294117647,4,2,4,65,0,1
171376,-50,4,2,4,65,0,1
171742,-66.6666666666667,4,2,4,65,0,1
173937,-58.8235294117647,4,2,4,65,0,1
174303,-50,4,2,4,65,0,1
175401,-58.8235294117647,4,2,4,65,0,1
175766,-50,4,2,4,65,0,1
177596,-66.6666666666667,4,2,4,65,0,1
179791,-58.8235294117647,4,2,4,65,0,1
180157,-50,4,2,4,65,0,1
180523,-66.6666666666667,4,2,4,65,0,1
182718,-58.8235294117647,4,2,4,65,0,1
183083,-50,4,2,4,65,0,1
183449,-66.6666666666667,4,2,4,65,0,1
185644,-58.8235294117647,4,2,4,65,0,1
186010,-50,4,2,4,65,0,1
187108,-58.8235294117647,4,2,4,65,0,1
187474,-50,4,2,4,65,0,1
187474,-50,4,2,4,65,0,1
189303,-66.6666666666667,4,2,4,65,0,1
190949,-66.6666666666667,4,2,1,65,0,1
191864,-66.6666666666667,4,2,2,50,0,0

[Colours]
Combo1 : 255,128,64
Combo2 : 255,255,128
Combo3 : 255,0,0
Combo4 : 0,64,128
Combo5 : 128,255,0
Combo6 : 128,0,255
Combo7 : 128,255,255
Combo8 : 255,128,255

[HitObjects]
78,266,3083,6,0,L|64:188,1,80,4|0,0:0|0:0,0:0:0:0:
42,70,3449,6,0,P|83:67|121:79,1,80,8|0,0:0|0:0,0:0:0:0:
216,84,3815,6,0,P|196:116|181:149,1,64,8|0,0:0|0:0,0:0:0:0:
147,232,4181,6,0,P|177:233|205:240,1,47.9999985351563,8|0,0:0|0:0,0:0:0:0:
268,329,4547,5,8,0:0:0:0:
303,168,4730,1,0,0:0:0:0:
300,160,4821,1,0,0:0:0:0:
296,148,4913,1,8,0:0:0:0:
391,246,5096,1,0,0:0:0:0:
186,180,5279,2,0,P|179:140|188:101,1,80,8|0,0:0|0:0,0:0:0:0:
395,72,5644,2,0,P|364:46|326:35,1,80,8|0,0:0|0:0,0:0:0:0:
94,81,6010,6,0,L|188:101,1,95.9999970703126,4|0,0:0|0:0,0:0:0:0:
343,291,6376,6,0,P|332:253|308:222,1,80,8|0,0:0|0:3,0:3:0:0:
269,133,6742,6,0,P|250:158|228:181,1,64,8|0,0:0|0:3,0:3:0:0:
133,208,7108,6,0,P|146:228|155:250,1,47.9999985351563,8|0,0:0|0:3,0:3:0:0:
276,352,7474,5,8,0:0:0:0:
72,272,7657,1,0,0:0:0:0:
147,369,7840,1,8,0:0:0:0:
228,181,8023,1,0,0:0:0:0:
85,67,8205,6,0,P|47:87|8:108,1,88.000002685547,8|0,0:0|0:0,0:0:0:0:
368,132,8571,2,0,P|324:126|281:118,1,88.000002685547,8|0,0:0|0:0,0:0:0:0:
176,28,8937,6,0,L|192:156,1,120.000004577637,4|0,0:0|0:0,0:0:0:0:
280,268,9303,5,8,0:0:0:0:
88,204,9486,1,8,0:0:0:0:
88,204,9852,1,2,0:0:0:0:
312,144,10035,1,8,0:0:0:0:
212,319,10218,1,8,0:0:0:0:
312,144,10401,6,0,L|288:24,1,120,2|0,0:0|0:0,0:0:0:0:
312,0,10766,1,8,0:0:0:0:
288,228,10949,1,8,0:0:0:0:
288,228,11315,1,2,0:0:0:0:
184,153,11498,1,8,0:0:0:0:
415,90,11681,1,8,0:0:0:0:
198,34,11864,6,0,L|182:174,1,120,2|0,0:0|0:0,0:0:0:0:
152,176,12230,1,8,0:0:0:0:
415,90,12413,1,8,0:0:0:0:
415,90,12779,1,2,0:0:0:0:
193,36,12962,1,8,0:0:0:0:
317,6,13144,1,8,0:0:0:0:
160,232,13327,2,0,L|86:200,1,80,2|0,0:0|0:0,0:0:0:0:
48,32,13693,6,0,P|49:71|57:111,1,80,2|0,0:0|0:0,0:0:0:0:
47,31,14059,2,0,P|24:86|26:146,1,120,2|0,0:0|0:0,0:0:0:0:
52,172,14425,2,0,P|40:204|20:248,1,80,8|0,0:0|0:0,0:0:0:0:
195,345,14791,6,0,L|158:231,1,120.000004577637,4|0,0:0|0:0,0:0:0:0:
116,108,15157,1,8,0:0:0:0:
280,262,15340,1,8,0:0:0:0:
280,262,15705,1,2,0:0:0:0:
80,196,15887,1,8,0:0:0:0:
184,40,16071,1,8,0:0:0:0:
280,262,16254,6,0,P|225:281|160:311,1,120,2|0,0:0|0:0,0:0:0:0:
136,323,16620,1,8,0:0:0:0:
366,322,16803,1,8,0:0:0:0:
366,322,17169,1,2,0:0:0:0:
188,185,17352,1,8,0:0:0:0:
168,306,17535,1,8,0:0:0:0:
380,112,17718,6,0,P|392:70|396:27,1,80,2|0,0:0|0:0,0:0:0:0:
276,48,18083,1,8,0:0:0:0:
408,228,18266,1,8,0:0:0:0:
408,228,18632,1,2,0:0:0:0:
282,217,18815,1,8,0:0:0:0:
152,210,18998,1,8,0:0:0:0:
10,310,19181,5,4,0:0:0:0:
169,261,19364,1,4,0:0:0:0:
335,216,19547,1,4,0:0:0:0:
492,154,19730,1,4,0:0:0:0:
424,292,19913,6,0,B|396:326|396:326|404:256|416:198|416:198|388:160,1,215.999993408203,8|0,0:0|0:0,0:0:0:0:
371,30,20279,2,0,B|325:47|318:109|318:109|359:59|424:76,1,215.999993408203,8|0,0:0|0:0,0:0:0:0:
492,154,20644,5,4,0:0:0:0:
439,224,20827,1,0,0:0:0:0:
400,302,21010,1,0,0:0:0:0:
330,172,21193,5,0,0:0:0:0:
216,133,21376,1,0,0:0:0:0:
295,93,21559,1,2,0:0:0:0:
255,211,21742,2,0,L|255:292,1,80,0|0,0:0|0:0,0:0:0:0:
342,349,22108,5,2,0:0:0:0:
157,257,22291,1,0,0:0:0:0:
157,257,22382,1,0,0:0:0:0:
157,257,22474,1,0,0:0:0:0:
357,156,22657,2,0,P|320:139|282:119,1,80
54,23,23023,5,2,0:0:0:0:
26,106,23205,1,0,0:0:0:0:
19,193,23388,1,0,0:0:0:0:
117,85,23571,6,0,P|109:125|102:164,1,80,2|0,0:0|0:0,0:0:0:0:
211,148,23937,1,0,0:0:0:0:
83,253,24120,1,0,0:0:0:0:
117,85,24303,5,0,0:0:0:0:
213,28,24486,1,2,0:0:0:0:
289,111,24669,1,0,0:0:0:0:
355,201,24852,1,0,0:0:0:0:
463,173,25035,5,2,0:0:0:0:
389,307,25218,1,0,0:0:0:0:
389,307,25309,1,0,0:0:0:0:
389,307,25401,1,0,0:0:0:0:
392,100,25583,2,0,P|405:59|416:17,1,80
470,147,25949,5,2,0:0:0:0:
496,231,26132,1,0,0:0:0:0:
511,317,26315,1,0,0:0:0:0:
317,354,26498,6,0,B|303:304|303:304|337:203,1,143.999995605469,4|0,0:0|0:0,0:0:0:0:
362,132,26864,1,0,0:0:0:0:
115,235,27047,1,0,0:0:0:0:
178,173,27230,1,0,0:0:0:0:
115,235,27413,1,2,0:0:0:0:
144,318,27596,1,0,0:0:0:0:
225,285,27779,1,0,0:0:0:0:
57,335,27962,6,0,P|37:298|24:261,1,80,2|0,0:0|0:0,0:0:0:0:
29,225,28236,1,0,0:0:0:0:
29,225,28327,1,0,0:0:0:0:
240,279,28510,1,0,0:0:0:0:
293,349,28693,1,0,0:0:0:0:
240,279,28876,1,2,0:0:0:0:
328,175,29059,1,0,0:0:0:0:
185,102,29242,1,0,0:0:0:0:
321,17,29425,6,0,P|303:51|282:91,1,80,2|0,0:0|0:0,0:0:0:0:
160,190,29791,1,0,0:0:0:0:
296,273,29974,1,0,0:0:0:0:
452,239,30157,1,0,0:0:0:0:
501,86,30340,1,2,0:0:0:0:
379,190,30523,1,0,0:0:0:0:
222,220,30705,1,0,0:0:0:0:
399,82,30888,5,2,0:0:0:0:
235,60,31071,1,0,0:0:0:0:
235,60,31163,1,0,0:0:0:0:
235,60,31254,1,0,0:0:0:0:
319,272,31437,1,0,0:0:0:0:
162,137,31620,1,0,0:0:0:0:
328,10,31803,1,2,0:0:0:0:
199,255,31986,1,0,0:0:0:0:
319,272,32169,1,0,0:0:0:0:
132,56,32352,6,0,P|80:105|93:191,1,160,2|0,0:3|0:0,0:0:0:0:
169,293,32901,2,0,B|217:310|217:310|330:267,1,160,2|0,0:3|0:0,0:0:0:0:
445,124,33449,2,0,L|372:154,1,80,2|0,0:3|0:0,0:0:0:0:
182,302,33815,6,0,P|106:318|49:267,1,160,2|0,0:3|0:0,0:0:0:0:
280,178,34364,2,0,L|130:233,1,160,2|0,0:3|0:0,0:0:0:0:
253,77,34913,2,0,P|296:77|337:91,1,80,2|0,0:3|0:0,0:0:0:0:
441,261,35279,6,0,P|366:218|310:153,1,160,2|0,0:3|0:0,0:0:0:0:
252,76,35827,2,0,P|198:134|129:174,1,160,2|0,0:3|0:0,0:0:0:0:
327,7,36376,2,0,P|345:43|355:82,1,80,2|0,0:3|0:0,0:0:0:0:
73,321,36742,6,0,P|92:244|129:173,1,160,2|0,0:3|0:0,0:0:0:0:
205,69,37291,1,2,0:3:0:0:
242,191,37474,1,2,0:3:0:0:
261,317,37657,1,2,0:3:0:0:
307,103,37840,2,0,L|318:86,4,20,2|0|2|0|2,0:3|0:0|0:3|0:0|0:3,0:0:0:0:
115,287,38205,6,0,L|191:262,1,80,8|0,0:0|0:0,0:0:0:0:
451,73,38571,2,0,P|423:83|397:96,1,60.0000022888184,8|0,0:0|0:0,0:0:0:0:
452,224,38937,2,0,P|457:194|458:164,1,60.0000022888184,8|0,0:0|0:0,0:0:0:0:
320,148,39303,2,0,P|342:167|368:183,1,60.0000022888184,8|0,0:0|0:0,0:0:0:0:
408,288,39669,5,8,0:0:0:0:
336,256,39852,1,2,0:3:0:0:
272,304,40035,5,8,0:0:0:0:
244,168,40218,1,2,0:3:0:0:
200,272,40401,5,8,0:0:0:0:
133,313,40584,1,2,0:3:0:0:
164,168,40766,2,0,P|168:144|180:108,1,60.0000022888184,8|0,0:0|0:0,0:0:0:0:
260,20,41132,6,0,P|276:44|297:66,1,60.0000022888184,8|0,0:0|0:0,0:0:0:0:
404,192,41498,2,0,P|387:166|375:139,1,60.0000022888184,8|0,0:0|0:0,0:0:0:0:
421,9,41864,2,0,P|399:29|380:52,1,60.0000022888184,8|0,0:0|0:0,0:0:0:0:
260,205,42230,2,0,P|254:176|243:148,1,60.0000022888184,8|0,0:0|0:0,0:0:0:0:
120,0,42596,5,2,0:3:0:0:
121,61,42687,1,2,0:3:0:0:
146,106,42779,1,2,0:3:0:0:
168,142,42870,1,2,0:3:0:0:
169,178,42962,1,2,0:3:0:0:
161,196,43053,1,2,0:3:0:0:
156,206,43144,1,2,0:3:0:0:
151,208,43236,1,2,0:3:0:0:
144,214,43327,6,0,P|127:243|112:281,1,60.0000022888184,0|0,1:0|0:0,0:0:0:0:
203,347,43510,2,0,P|226:367|251:384,1,60.0000022888184,0|0,1:0|0:0,0:0:0:0:
232,251,43693,6,0,P|301:214|292:304,1,204.000003890991,0|0,1:0|0:0,0:0:0:0:
279,306,44059,2,0,B|321:302|330:258|330:258|363:94,1,240,4|0,1:0|0:0,0:0:0:0:
340,27,44425,6,0,B|407:6|407:6|429:71,1,136.000002593994,8|8,0:0|0:0,0:0:0:0:
471,129,44699,1,0,0:0:0:0:
481,138,44791,2,0,L|469:206,1,60.0000022888184
451,279,44974,2,0,P|421:264|401:247,1,60.0000022888184,2|0,0:0|0:0,0:0:0:0:
281,88,45157,6,0,L|299:146,1,60.0000022888184,8|0,0:0|0:0,0:0:0:0:
273,280,45340,2,0,L|255:338,1,60.0000022888184
198,91,45523,6,0,P|203:61|217:35,1,60.0000022888184,10|0,0:0|0:0,0:0:0:0:
222,247,45705,1,0,0:0:0:0:
222,247,45797,1,0,0:0:0:0:
222,247,45888,2,0,L|273:280,1,60.0000022888184,8|0,0:0|0:0,0:0:0:0:
40,68,46071,5,8,0:0:0:0:
19,250,46254,2,0,P|46:244|77:234,1,60.0000022888184
117,105,46437,2,0,L|127:46,1,60.0000022888184,2|0,0:0|0:0,0:0:0:0:
158,205,46620,6,0,B|196:252|202:328|202:328|220:256,1,204.000003890991,8|0,0:0|0:0,0:0:0:0:
344,132,46986,2,0,B|376:152|384:184|384:184|396:136|432:116|432:116|408:76|424:32,1,240,4|0,1:0|0:0,0:0:0:0:
504,68,47352,6,0,P|512:104|520:144,1,60.0000022888184,8|0,0:0|0:0,0:0:0:0:
484,204,47535,2,0,P|466:236|452:256,1,60.0000022888184,8|0,0:0|0:0,0:0:0:0:
303,274,47718,6,0,P|299:245|292:216,1,60.0000022888184
261,64,47901,2,0,P|248:91|240:120,1,60.0000022888184,2|0,0:0|0:0,0:0:0:0:
288,356,48083,6,0,P|318:354|348:348,1,60.0000022888184,8|0,0:0|0:0,0:0:0:0:
240,120,48266,2,0,P|211:128|184:141,1,60.0000022888184
84,40,48449,6,0,P|66:64|54:92,1,60.0000022888184,2|0,0:0|0:0,0:0:0:0:
164,240,48632,1,0,0:0:0:0:
164,240,48723,1,0,0:0:0:0:
164,240,48815,2,0,P|181:264|193:292,1,60.0000022888184,8|0,0:0|0:0,0:0:0:0:
347,348,48998,1,2,0:0:0:0:
302,199,49181,6,0,P|331:206|362:219,1,60.0000022888184,8|0,0:0|0:0,0:0:0:0:
480,124,49364,2,0,P|453:135|428:152,1,60.0000022888184,2|0,0:0|0:0,0:0:0:0:
491,289,49547,6,0,P|504:257|504:224,1,68.0000012969971,8|0,0:0|0:0,0:0:0:0:
347,348,49730,2,0,P|320:325|306:294,1,68.0000012969971
334,104,49913,2,0,B|352:76|380:60|380:60|204:104,1,240,4|0,1:0|0:0,0:0:0:0:
256,256,50279,5,8,0:0:0:0:
60,48,50462,1,8,0:0:0:0:
237,252,50644,1,0,0:0:0:0:
124,0,50827,1,2,0:0:0:0:
160,216,51010,6,0,B|140:264|172:308|172:308|112:344|112:344|116:304,1,204.000003890991,8|0,0:0|0:0,0:0:0:0:
152,96,51376,2,0,B|134:124|106:140|106:140|282:96,1,240,4|0,1:0|0:0,0:0:0:0:
288,284,51742,5,8,0:0:0:0:
502,56,51925,1,8,0:0:0:0:
308,279,52107,1,0,0:0:0:0:
432,3,52290,1,2,0:0:0:0:
432,3,52382,1,2,0:3:0:0:
432,3,52474,6,0,L|416:52,3,40,2|0|2|0,0:3|0:0|0:3|0:0,0:0:0:0:
444,124,52657,2,0,L|460:173,3,40,2|0|2|0,0:3|0:0|0:3|0:0,0:0:0:0:
488,240,52840,6,0,B|456:252|456:252|336:212,1,160,4|0,1:0|0:0,0:0:0:0:
164,59,53114,1,0,0:0:0:0:
172,49,53205,2,0,P|204:37|235:29,1,60.0000022888184,8|0,0:0|0:0,0:0:0:0:
336,212,53388,2,0,P|330:241|317:267,1,60.0000022888184,8|0,0:0|0:0,0:0:0:0:
185,176,53571,6,0,P|209:194|237:206,1,60.0000022888184
313,25,53754,2,0,P|333:49|346:74,1,60.0000022888184,2|0,0:0|0:0,0:0:0:0:
266,300,53937,6,0,P|293:287|316:268,1,60.0000022888184,8|0,0:0|0:0,0:0:0:0:
430,74,54120,2,0,P|423:103|409:129,1,60.0000022888184
328,345,54303,5,2,0:0:0:0:
283,375,54394,1,2,0:3:0:0:
228,370,54486,1,2,0:3:0:0:
193,328,54577,1,2,0:3:0:0:
193,273,54669,1,2,0:3:0:0:
215,224,54760,1,2,0:3:0:0:
221,170,54852,1,2,0:0:0:0:
212,117,54943,1,2,0:3:0:0:
183,70,55035,6,0,P|170:95|161:128,1,60.0000022888184
271,242,55218,2,0,P|241:237|215:224,1,60.0000022888184,2|0,0:0|0:0,0:0:0:0:
383,158,55401,6,0,B|413:77|487:81|515:123|494:164|444:164,1,204.000003890991,8|0,0:0|0:0,0:0:0:0:
455,169,55766,2,0,B|501:161|517:116|472:82|430:99|430:99|388:119|334:83,1,240,4|0,1:0|0:0,0:0:0:0:
276,12,56132,6,0,B|251:36|245:63|245:63|216:63|184:84,1,120.000004577637,8|8,0:0|0:0,0:0:0:0:
184,178,56407,1,0,0:0:0:0:
196,183,56498,2,0,L|243:146,1,60.0000022888184
112,26,56681,6,0,P|101:55|93:94,1,60.0000022888184,2|0,0:0|0:0,0:0:0:0:
14,238,56864,2,0,P|44:233|82:220,1,60.0000022888184,8|0,0:0|0:0,0:0:0:0:
244,232,57047,2,0,P|224:207|194:181,1,60.0000022888184
36,67,57230,6,0,L|93:82,1,60.0000022888184,2|0,0:0|0:0,0:0:0:0:
260,315,57413,1,0,0:0:0:0:
260,315,57504,1,0,0:0:0:0:
260,315,57596,2,0,L|308:280,1,60.0000022888184,8|0,0:0|0:0,0:0:0:0:
479,32,57779,5,8,0:0:0:0:
362,216,57962,2,0,P|380:242|389:270,1,60.0000022888184
173,300,58144,2,0,P|182:272|200:248,1,60.0000022888184,2|0,0:0|0:0,0:0:0:0:
417,160,58327,6,0,B|371:136|371:136|325:146|325:146|280:127|280:127|224:140,1,204.000003890991,8|0,0:0|0:0,0:0:0:0:
95,309,58693,2,0,B|88:363|88:363|22:292|28:226|49:190,1,240,4|0,1:0|0:0,0:0:0:0:
202,51,59059,6,0,P|175:63|152:86,1,60.0000022888184,8|0,0:0|0:0,0:0:0:0:
154,249,59242,2,0,P|171:274|178:303,1,60.0000022888184,8|0,0:0|0:0,0:0:0:0:
374,282,59425,6,0,P|371:311|358:338,1,60.0000022888184
266,181,59608,2,0,P|241:163|224:139,1,60.0000022888184,2|0,0:0|0:0,0:0:0:0:
449,212,59791,6,0,P|466:237|474:266,1,60.0000022888184,8|0,0:0|0:0,0:0:0:0:
328,48,59974,2,0,P|311:73|304:102,1,60.0000022888184
373,281,60157,6,0,P|344:274|320:257,1,60.0000022888184,2|0,0:0|0:0,0:0:0:0:
140,163,60340,1,0,0:0:0:0:
140,163,60431,1,0,0:0:0:0:
140,163,60523,2,0,P|115:180|87:188,1,60.0000022888184,8|0,0:0|0:0,0:0:0:0:
332,47,60705,1,2,0:0:0:0:
374,233,60888,6,0,P|347:247|319:256,1,60.0000022888184,8|0,0:0|0:0,0:0:0:0:
138,75,61071,2,0,P|167:83|195:96,1,60.0000022888184,2|0,0:0|0:0,0:0:0:0:
441,175,61254,6,0,P|413:155|374:144,1,68.0000012969971,8|0,0:0|0:0,0:0:0:0:
174,31,61437,2,0,P|179:64|194:94,1,68.0000012969971
319,256,61620,2,0,B|301:320|301:320|267:279|217:271|181:288|181:288|156:256,1,240,4|0,1:0|0:0,0:0:0:0:
18,22,61986,5,8,0:0:0:0:
297,104,62169,1,8,0:0:0:0:
29,37,62351,1,0,0:0:0:0:
332,47,62534,1,2,0:0:0:0:
55,192,62718,6,0,B|108:183|146:219|146:219|173:189|173:189|195:223|224:232,1,204.000003890991,8|0,0:0|0:0,0:0:0:0:
222,379,63083,2,0,B|228:338|228:338|268:336|307:305|318:258|318:258|342:288|377:308,1,240,4|0,1:0|0:0,0:0:0:0:
495,95,63449,5,8,0:0:0:0:
220,230,63632,1,8,0:0:0:0:
485,112,63814,1,0,0:0:0:0:
173,178,63997,1,2,0:0:0:0:
173,178,64090,1,2,0:3:0:0:
173,178,64181,6,0,L|126:200,3,40,2|0|2|0,0:3|0:0|0:3|0:0,0:0:0:0:
51,182,64364,2,0,L|0:172,3,40,2|0|2|0,0:3|0:0|0:3|0:0,0:0:0:0:
51,95,64547,6,0,B|121:112|121:112|164:96|164:96|210:109,1,160,4|0,1:0|0:0,0:0:0:0:
419,25,64821,1,0,0:0:0:0:
429,33,64913,6,0,P|439:61|445:91,1,60.0000022888184,8|0,0:0|0:0,0:0:0:0:
252,242,65096,2,0,P|266:215|275:187,1,60.0000022888184,8|0,0:0|0:0,0:0:0:0:
451,169,65279,6,0,P|423:167|394:152,1,60.0000022888184
300,329,65462,2,0,P|273:343|244:346,1,60.0000022888184,2|0,0:0|0:0,0:0:0:0:
161,149,65644,6,0,P|180:126|204:107,1,60.0000022888184,8|0,0:0|0:0,0:0:0:0:
392,256,65827,2,0,P|387:285|376:313,1,60.0000022888184
285,75,66010,5,2,0:0:0:0:
247,35,66102,1,2,0:3:0:0:
194,23,66193,1,2,0:3:0:0:
145,47,66285,1,2,0:3:0:0:
123,96,66376,1,2,0:3:0:0:
102,145,66467,1,2,0:3:0:0:
54,171,66559,1,2,0:3:0:0:
6,146,66650,1,2,0:3:0:0:
38,86,66742,6,0,P|47:57|65:31,1,60.0000022888184,8|2,0:0|0:3,0:0:0:0:
209,113,66925,2,0,P|217:141|234:166,1,60.0000022888184,2|2,0:0|0:3,0:0:0:0:
369,192,67108,6,0,P|386:217|395:246,1,60.0000022888184,2|2,0:3|0:3,0:0:0:0:
172,349,67291,2,0,P|189:324|198:295,1,60.0000022888184,8|2,0:0|0:3,0:0:0:0:
502,16,67474,5,4,0:0:0:0:
502,16,67840,6,0,P|491:56|484:100,1,80,8|0,0:0|0:0,0:0:0:0:
382,93,68205,6,0,P|390:129|406:163,1,64,8|0,0:0|0:0,0:0:0:0:
325,216,68571,6,0,P|348:234|371:246,1,47.9999985351563,8|0,0:0|0:0,0:0:0:0:
485,244,68937,5,8,0:0:0:0:
296,313,69120,1,0,0:0:0:0:
287,326,69212,1,0,0:0:0:0:
278,339,69303,1,8,0:0:0:0:
450,355,69486,1,0,0:0:0:0:
338,129,69669,6,0,P|299:132|263:154,1,80,8|0,0:0|0:0,0:0:0:0:
69,190,70035,2,0,P|103:210|143:214,1,80,8|0,0:0|0:0,0:0:0:0:
168,43,70401,6,0,P|150:79|138:116,1,80,8|0,0:0|0:0,0:0:0:0:
210,292,70766,6,0,P|234:257|246:214,1,80,8|0,0:0|0:0,0:0:0:0:
342,243,71132,6,0,P|342:206|334:169,1,64,8|0,0:0|0:0,0:0:0:0:
425,135,71498,6,0,P|406:112|386:95,1,47.9999985351563,8|0,0:0|0:0,0:0:0:0:
294,28,71864,5,8,0:0:0:0:
244,221,72047,1,0,0:0:0:0:
137,116,72230,1,8,0:0:0:0:
322,351,72413,1,0,0:0:0:0:
392,99,72596,6,0,P|421:131|438:171,1,88.000002685547,8|0,0:0|0:0,0:0:0:0:
168,197,72962,2,0,P|138:230|121:273,1,88.000002685547,8|0,0:0|0:0,0:0:0:0:
457,289,73327,6,0,L|438:171,1,120.000004577637,4|0,0:0|0:0,0:0:0:0:
506,24,73693,1,8,0:0:0:0:
333,84,73876,2,0,P|311:117|302:161,1,80,8|0,0:0|0:0,0:0:0:0:
381,346,74242,1,2,0:0:0:0:
217,263,74425,1,8,0:0:0:0:
437,170,74608,1,8,0:0:0:0:
489,283,74791,6,0,L|413:257,1,80
217,262,75157,2,0,P|205:297|191:338,1,80,8|8,0:0|0:0,0:0:0:0:
117,267,75523,1,0,0:0:0:0:
315,228,75705,1,2,0:0:0:0:
295,330,75888,1,8,0:0:0:0:
167,170,76071,1,8,0:0:0:0:
396,167,76254,6,0,P|409:203|412:257,1,80,2|0,0:0|0:0,0:0:0:0:
405,280,76529,1,0,0:0:0:0:
405,280,76620,1,8,0:0:0:0:
444,87,76803,1,8,0:0:0:0:
495,274,76986,1,0,0:0:0:0:
314,115,77169,5,2,0:0:0:0:
198,269,77352,1,8,0:0:0:0:
392,179,77535,1,8,0:0:0:0:
407,182,77626,1,0,0:0:0:0:
422,184,77718,2,0,L|343:197,1,80,2|0,0:0|0:0,0:0:0:0:
183,132,78083,1,8,0:0:0:0:
254,356,78266,1,8,0:0:0:0:
109,175,78449,6,0,P|102:154|99:133,1,44.0000013427735,2|0,0:0|0:0,0:0:0:0:
209,260,78632,2,0,P|190:249|174:235,1,44.0000013427735,2|0,0:0|0:0,0:0:0:0:
50,241,78815,2,0,P|21:166|19:82,1,155.999992858887,2|0,0:0|0:0,0:0:0:0:
96,23,79181,6,0,P|159:33|218:52,1,120.000004577637,4|0,0:0|0:0,0:0:0:0:
389,27,79547,1,8,0:0:0:0:
230,136,79730,1,8,0:0:0:0:
428,123,79913,2,0,P|411:161|386:189,1,80,0|2,0:0|0:0,0:0:0:0:
290,329,80279,1,8,0:0:0:0:
230,136,80462,1,8,0:0:0:0:
439,280,80644,6,0,P|399:278|360:270,1,80,2|0,0:0|0:0,0:0:0:0:
329,249,80919,1,0,0:0:0:0:
301,226,81010,2,0,P|263:240|224:249,1,80,8|8,0:0|0:0,0:0:0:0:
28,158,81376,1,0,0:0:0:0:
158,311,81559,1,2,0:0:0:0:
113,135,81742,1,8,0:0:0:0:
73,334,81925,1,8,0:0:0:0:
165,198,82108,6,0,P|186:166|191:123,1,80,2|0,0:0|0:0,0:0:0:0:
384,225,82474,1,8,0:0:0:0:
177,304,82657,1,8,0:0:0:0:
190,38,82840,2,0,P|149:51|111:84,1,80,0|2,0:0|0:0,0:0:0:0:
107,267,83205,2,0,P|139:291|177:304,1,80,8|8,0:0|0:0,0:0:0:0:
310,211,83571,5,2,0:0:0:0:
440,276,83754,1,0,0:0:0:0:
422,157,83937,1,8,0:0:0:0:
343,308,84120,1,8,0:0:0:0:
249,126,84303,5,0,0:0:0:0:
45,343,84486,1,2,0:0:0:0:
131,54,84669,1,8,0:0:0:0:
176,303,84852,1,8,0:0:0:0:
59,84,85035,6,0,B|49:64|53:36|53:36|31:65|27:102,1,120.000004577637,4|0,0:0|0:0,0:0:0:0:
12,263,85401,1,0,0:0:0:0:
163,158,85583,1,0,0:0:0:0:
88,335,85766,2,0,B|52:368|-6:367,1,95.9999970703126,0|2,0:0|0:0,0:0:0:0:
157,34,86132,2,0,B|210:34|246:67,1,95.9999970703126
349,219,86498,5,2,0:0:0:0:
165,148,86681,1,0,0:0:0:0:
165,148,86772,1,0,0:0:0:0:
165,148,86864,1,0,0:0:0:0:
222,281,87047,1,0,0:0:0:0:
400,151,87230,2,0,P|426:190|434:238,1,95.9999970703126,0|2,0:0|0:0,0:0:0:0:
167,354,87596,2,0,P|141:315|133:267,1,95.9999970703126
196,41,87962,5,2,0:0:0:0:
256,160,88144,1,0,0:0:0:0:
298,287,88327,1,0,0:0:0:0:
342,76,88510,1,0,0:0:0:0:
219,247,88693,1,0,0:0:0:0:
156,167,88876,1,2,0:0:0:0:
422,238,89059,2,0,P|421:190|401:141,1,95.9999970703126
206,50,89425,5,2,0:0:0:0:
251,223,89608,1,0,0:0:0:0:
251,223,89699,1,0,0:0:0:0:
251,223,89791,1,0,0:0:0:0:
126,21,89974,2,0,P|121:64|153:118,1,95.9999970703126
305,284,90340,2,0,B|262:306|262:306|213:299,2,95.9999970703126,2|0|0,0:0|0:0|0:0,0:0:0:0:
495,154,90888,6,0,B|454:163|454:163|420:129|420:129|372:144|332:113,1,180.000006866455,4|0,0:0|0:0,0:0:0:0:
251,223,91254,1,0,0:0:0:0:
393,33,91437,1,0,0:0:0:0:
393,33,91620,6,0,B|429:14|466:30|474:94|399:95|406:151|421:192,1,210.000008010865
449,233,92352,6,0,B|410:241|410:241|329:212,1,120.000004577637,4|0,0:0|0:0,0:0:0:0:
265,146,92626,1,0,0:0:0:0:
265,146,92718,1,0,0:0:0:0:
99,293,92901,1,0,0:0:0:0:
196,363,93083,6,0,L|183:317,1,30.0000011444092
262,255,93266,2,0,L|249:209,1,30.0000011444092
290,80,93449,2,0,B|316:66|321:32|293:14|272:40,1,90.0000034332277
246,82,93815,6,0,B|235:119|235:119|206:131|206:131|202:155|183:174,1,120.000004577637,4|0,0:0|0:0,0:0:0:0:
51,267,94181,1,0,0:0:0:0:
187,350,94364,1,0,0:0:0:0:
343,316,94547,1,0,0:0:0:0:
392,163,94730,1,2,0:0:0:0:
270,267,94913,1,0,0:0:0:0:
113,297,95095,1,0,0:0:0:0:
290,159,95279,5,2,0:0:0:0:
96,77,95462,1,0,0:0:0:0:
96,77,95554,1,0,0:0:0:0:
96,77,95644,1,0,0:0:0:0:
192,283,95827,1,0,0:0:0:0:
330,4,96010,1,0,0:0:0:0:
133,186,96193,1,2,0:0:0:0:
383,219,96376,1,0,0:0:0:0:
192,283,96559,1,0,0:0:0:0:
377,72,96742,6,0,B|391:57|401:32|401:32|414:94|424:143,1,160,2|0,0:3|0:0,0:0:0:0:
506,241,97291,2,0,B|408:262|408:262|353:236,1,160,2|0,0:3|0:0,0:0:0:0:
251,109,97840,2,0,P|291:122|323:145,1,80,2|0,0:3|0:0,0:0:0:0:
347,343,98205,6,0,B|300:334|278:308|278:308|247:342|202:342,1,160,2|0,0:3|0:0,0:0:0:0:
47,269,98754,2,0,B|94:269|121:291|121:291|144:255|189:244,1,160,2|0,0:3|0:0,0:0:0:0:
390,267,99303,2,0,P|417:296|431:334,1,80,2|0,0:3|0:0,0:0:0:0:
374,163,99669,6,0,B|413:164|442:177|442:177|451:131|469:90,1,160,2|0,0:3|0:0,0:0:0:0:
311,235,100218,2,0,B|285:207|282:171|282:171|238:193|194:203,1,160,2|0,0:3|0:0,0:0:0:0:
60,103,100766,2,0,P|96:120|135:131,1,80,2|0,0:3|0:0,0:0:0:0:
368,35,101132,6,0,P|294:62|229:109,1,160,2|0,0:3|0:0,0:0:0:0:
165,221,101681,1,2,0:3:0:0:
281,169,101864,1,2,0:3:0:0:
405,136,102047,1,2,0:3:0:0:
250,294,102230,2,0,L|221:291,4,20,2|0|2|0|2,0:3|0:0|0:3|0:0|0:3,0:0:0:0:
487,339,102596,6,0,P|449:320|420:294,1,80,8|0,0:0|0:0,0:0:0:0:
234,48,102962,2,0,P|209:64|187:84,1,60.0000022888184,8|0,0:0|0:0,0:0:0:0:
273,193,103328,2,0,P|270:162|263:133,1,60.0000022888184,8|0,0:0|0:0,0:0:0:0:
126,153,103694,2,0,P|152:165|181:174,1,60.0000022888184,8|0,0:0|0:0,0:0:0:0:
182,292,104059,5,8,0:0:0:0:
257,267,104242,1,2,0:3:0:0:
316,322,104425,5,8,0:0:0:0:
358,189,104608,1,2,0:3:0:0:
391,297,104791,5,8,0:0:0:0:
453,345,104974,1,2,0:3:0:0:
444,193,105157,2,0,P|437:162|426:131,1,60.0000022888184,8|0,0:0|0:0,0:0:0:0:
265,31,105523,6,0,P|246:62|234:98,1,60.0000022888184,8|0,0:0|0:0,0:0:0:0:
219,199,105888,2,0,P|208:172|192:147,1,60.0000022888184,8|0,0:0|0:0,0:0:0:0:
108,42,106254,2,0,P|132:61|159:75,1,60.0000022888184,8|0,0:0|0:0,0:0:0:0:
292,255,106620,2,0,P|268:273|241:287,1,60.0000022888184,8|0,0:0|0:0,0:0:0:0:
64,251,106986,5,2,0:3:0:0:
51,191,107077,1,2,0:3:0:0:
65,141,107169,1,2,0:3:0:0:
78,101,107260,1,2,0:3:0:0:
71,66,107352,1,2,0:3:0:0:
59,50,107443,1,2,0:3:0:0:
52,42,107534,1,2,0:3:0:0:
47,41,107626,1,2,0:3:0:0:
42,37,107718,6,0,P|23:62|10:91,1,60.0000022888184,0|0,1:0|0:0,0:0:0:0:
51,191,107901,2,0,P|74:209|101:221,1,60.0000022888184,0|0,1:0|0:0,0:0:0:0:
228,71,108083,6,0,B|197:111|209:182|209:182|181:140|149:118,1,204.000003890991,0|0,1:0|0:0,0:0:0:0:
134,123,108449,2,0,B|170:141|205:194|205:194|264:155|338:148,1,240,4|0,1:0|0:0,0:0:0:0:
390,80,108815,6,0,B|428:111|428:111|412:206,1,136.000002593994,8|8,0:0|0:0,0:0:0:0:
478,261,109090,1,0,0:0:0:0:
466,267,109181,2,0,P|439:278|409:283,1,60.0000022888184
257,191,109364,2,0,P|278:210|304:226,1,60.0000022888184,2|0,0:0|0:0,0:0:0:0:
251,353,109547,6,0,P|240:325|235:295,1,60.0000022888184,8|0,0:0|0:0,0:0:0:0:
363,71,109730,2,0,P|348:96|338:125,1,60.0000022888184
289,321,109913,6,0,P|260:311|235:295,1,60.0000022888184,2|0,0:0|0:0,0:0:0:0:
158,60,110096,1,0,0:0:0:0:
158,60,110187,1,0,0:0:0:0:
158,60,110279,2,0,P|162:89|172:117,1,60.0000022888184,8|0,0:0|0:0,0:0:0:0:
146,342,110462,5,8,0:0:0:0:
330,244,110644,2,0,P|353:263|369:289,1,60.0000022888184
156,202,110827,2,0,P|186:203|215:194,1,60.0000022888184,2|0,0:0|0:0,0:0:0:0:
297,58,111010,6,0,B|345:38|381:59|381:59|385:21|385:21|422:33|465:26,1,204.000003890991,8|0,0:0|0:0,0:0:0:0:
339,134,111376,2,0,B|307:141|307:141|257:146|227:108|227:108|192:130|154:125|154:125|129:90,1,240,4|0,1:0|0:0,0:0:0:0:
59,29,111742,6,0,P|43:59|36:95,1,60.0000022888184,8|0,0:0|0:0,0:0:0:0:
86,194,111925,2,0,P|115:210|151:217,1,60.0000022888184,8|0,0:0|0:0,0:0:0:0:
296,58,112108,6,0,P|325:48|355:46,1,60.0000022888184
130,92,112291,2,0,P|157:103|181:121,1,60.0000022888184,2|0,0:0|0:0,0:0:0:0:
347,165,112474,6,0,P|319:177|296:195,1,60.0000022888184,8|0,0:0|0:0,0:0:0:0:
181,346,112657,2,0,P|208:334|232:316,1,60.0000022888184
432,163,112840,6,0,P|426:193|413:220,1,60.0000022888184,2|0,0:0|0:0,0:0:0:0:
251,372,113023,1,0,0:0:0:0:
251,372,113114,1,0,0:0:0:0:
251,372,113205,2,0,P|237:345|231:315,1,60.0000022888184,8|0,0:0|0:0,0:0:0:0:
274,93,113388,5,2,0:0:0:0:
147,252,113571,2,0,P|134:279|128:313,1,60.0000022888184,8|0,0:0|0:0,0:0:0:0:
337,299,113754,2,0,P|326:271|309:247,1,60.0000022888184,2|0,0:0|0:0,0:0:0:0:
274,92,113937,6,0,P|259:123|254:157,1,68.0000012969971,8|0,0:0|0:0,0:0:0:0:
413,360,114120,2,0,P|428:329|433:295,1,68.0000012969971
437,37,114303,6,0,B|398:30|358:51|342:100|342:100|316:165|254:157,1,240,4|0,1:0|0:0,0:0:0:0:
66,41,114669,5,8,0:0:0:0:
264,76,114852,1,8,0:0:0:0:
45,124,115035,1,0,0:0:0:0:
272,318,115218,1,2,0:0:0:0:
30,205,115401,6,0,B|67:228|102:217|128:199|128:199|88:241|96:294,1,204.000003890991,8|0,0:0|0:0,0:0:0:0:
198,276,115766,2,0,B|217:240|259:223|307:242|307:242|371:259|413:211,1,240,4|0,1:0|0:0,0:0:0:0:
478,41,116132,5,8,0:0:0:0:
280,76,116315,1,8,0:0:0:0:
499,124,116498,1,0,0:0:0:0:
272,318,116681,1,2,0:0:0:0:
272,318,116773,1,2,0:3:0:0:
272,318,116864,6,0,L|233:306,3,40,2|0|2|0,0:3|0:0|0:3|0:0,0:0:0:0:
157,254,117047,2,0,L|185:226,3,40,2|0|2|0,0:3|0:0|0:3|0:0,0:0:0:0:
270,189,117230,6,0,B|280:230|280:230|302:175|270:110,1,160,4|0,1:0|0:0,0:0:0:0:
174,8,117504,1,0,0:0:0:0:
166,17,117596,6,0,P|168:53|179:84,1,60.0000022888184,8|0,0:0|0:0,0:0:0:0:
375,200,117779,2,0,P|375:163|369:135,1,60.0000022888184,8|0,0:0|0:0,0:0:0:0:
92,108,117962,6,0,P|112:138|137:159,1,60.0000022888184
375,200,118145,2,0,P|354:231|329:252,1,60.0000022888184,2|0,0:0|0:0,0:0:0:0:
68,249,118327,6,0,P|96:262|130:266,1,60.0000022888184,8|0,0:0|0:0,0:0:0:0:
392,317,118510,2,0,P|364:330|330:334,1,60.0000022888184
204,144,118693,102,0,B|173:131|280:51|216:39|183:-15|141:49|141:49|66:29|79:91|40:143|173:131|199:223,1,476.00000907898,2|0,0:0|0:0,0:0:0:0:
263,292,119425,6,0,P|272:321|275:351,1,60.0000022888184
125,308,119608,2,0,P|151:323|180:333,1,60.0000022888184,2|0,0:0|0:0,0:0:0:0:
31,330,119791,6,0,B|14:287|40:230|71:243|81:181|48:119,1,204.000003890991,8|0,0:0|0:0,0:0:0:0:
54,120,120157,2,0,B|65:188|133:205|197:122|116:42,1,240,4|0,1:0|0:0,0:0:0:0:
240,75,120523,6,0,P|246:106|225:190,1,120.000004577637,8|8,0:0|0:0,0:0:0:0:
158,288,120797,1,0,0:0:0:0:
166,300,120888,2,0,P|193:312|222:316,1,60.0000022888184
387,229,121071,6,0,P|359:240|332:254,1,60.0000022888184,2|0,0:0|0:0,0:0:0:0:
218,377,121254,2,0,P|222:347|223:317,1,60.0000022888184,8|0,0:0|0:0,0:0:0:0:
175,156,121437,2,0,P|198:174|224:190,1,60.0000022888184
365,49,121620,6,0,P|349:75|331:99,1,60.0000022888184,2|0,0:0|0:0,0:0:0:0:
128,309,121803,1,0,0:0:0:0:
128,309,121894,1,0,0:0:0:0:
128,309,121986,2,0,P|113:282|102:254,1,60.0000022888184,8|0,0:0|0:0,0:0:0:0:
1,44,122169,5,8,0:0:0:0:
195,99,122352,2,0,P|184:124|174:157,1,60.0000022888184
265,268,122535,2,0,P|237:279|208:288,1,60.0000022888184,2|0,0:0|0:0,0:0:0:0:
423,328,122718,6,0,B|452:340|474:349|474:349|508:273|465:205,1,204.000003890991,8|0,0:0|0:0,0:0:0:0:
462,191,123083,2,0,B|477:213|485:234|485:234|401:156|440:61,1,240,4|0,1:0|0:0,0:0:0:0:
368,10,123449,6,0,B|354:34|346:72,1,60.0000022888184,8|0,0:0|0:0,0:0:0:0:
279,254,123632,2,0,B|273:222|259:198,1,60.0000022888184,8|0,0:0|0:0,0:0:0:0:
154,86,123815,6,0,P|191:96|223:110,1,60.0000022888184
320,299,123998,2,0,P|302:276|281:255,1,60.0000022888184,2|0,0:0|0:0,0:0:0:0:
81,241,124181,6,0,P|110:233|138:222,1,60.0000022888184,8|0,0:0|0:0,0:0:0:0:
279,35,124364,2,0,P|260:58|239:79,1,60.0000022888184
16,141,124547,6,0,P|47:146|81:154,1,60.0000022888184,2|0,0:0|0:0,0:0:0:0:
272,314,124730,1,0,0:0:0:0:
272,314,124821,1,0,0:0:0:0:
272,314,124913,2,0,L|284:234,1,60.0000022888184,8|0,0:0|0:0,0:0:0:0:
368,84,125096,5,2,0:0:0:0:
176,262,125279,2,0,P|166:291|165:325,1,60.0000022888184,8|0,0:0|0:0,0:0:0:0:
361,253,125462,2,0,P|351:217|330:191,1,60.0000022888184,2|0,0:0|0:0,0:0:0:0:
272,314,125644,6,0,P|264:346|269:383,1,68.0000012969971,8|0,0:0|0:0,0:0:0:0:
208,97,125827,2,0,P|224:122|235:161,1,68.0000012969971
360,344,126010,6,0,B|417:322|417:322|437:284|437:284|483:269|483:269|513:227,1,200,4|0,1:0|0:0,0:0:0:0:
149,163,126376,5,8,0:0:0:0:
487,40,126559,1,8,0:0:0:0:
191,245,126742,1,0,0:0:0:0:
480,30,126925,1,2,0:0:0:0:
397,279,127108,6,0,B|436:329|436:329|285:296,1,204.000003890991,8|0,0:0|0:0,0:0:0:0:
185,165,127474,2,0,B|128:187|128:187|108:225|108:225|62:240|62:240|32:282,1,200,4|0,1:0|0:0,0:0:0:0:
407,155,127840,5,8,0:0:0:0:
96,335,128023,1,8,0:0:0:0:
352,81,128206,1,0,0:0:0:0:
105,343,128389,1,2,0:0:0:0:
105,343,128480,1,2,0:3:0:0:
105,343,128571,6,0,L|150:331,3,40,2|0|2|0,0:3|0:0|0:3|0:0,0:0:0:0:
182,258,128754,2,0,L|129:245,3,40,2|0|2|0,0:3|0:0|0:3|0:0,0:0:0:0:
62,254,128937,6,0,B|75:211|75:211|49:93,1,160,4|0,1:0|0:0,0:0:0:0:
235,26,129212,1,0,0:0:0:0:
243,33,129303,6,0,P|231:65|221:95,1,60.0000022888184,8|0,0:0|0:0,0:0:0:0:
249,182,129486,2,0,P|251:215|261:246,1,60.0000022888184,8|0,0:0|0:0,0:0:0:0:
488,347,129669,6,0,P|464:328|441:309,1,60.0000022888184
330,92,129852,2,0,P|340:120|351:148,1,60.0000022888184,2|0,0:0|0:0,0:0:0:0:
235,329,130035,6,0,P|264:329|294:324,1,60.0000022888184,8|0,0:0|0:0,0:0:0:0:
446,156,130218,2,0,P|434:187|410:222,1,60.0000022888184
161,258,130401,5,2,0:0:0:0:
130,213,130492,1,2,0:3:0:0:
129,159,130583,1,2,0:3:0:0:
160,114,130675,1,2,0:3:0:0:
178,63,130766,1,2,0:3:0:0:
153,14,130858,1,2,0:3:0:0:
100,2,130949,1,2,0:0:0:0:
52,28,131041,1,2,0:3:0:0:
6,83,131132,6,0,P|35:98|70:111,1,60.0000022888184,8|2,0:0|0:3,0:0:0:0:
288,162,131315,2,0,P|261:175|234:187,1,60.0000022888184,2|2,0:0|0:3,0:0:0:0:
42,335,131498,6,0,P|60:312|76:286,1,60.0000022888184,2|2,0:3|0:3,0:0:0:0:
241,27,131681,2,0,P|231:55|219:82,1,60.0000022888184,8|2,0:0|0:3,0:0:0:0:
405,352,131864,5,4,0:0:0:0:
405,352,143571,6,0,L|384:221,1,120,4|0,0:0|0:0,0:0:0:0:
340,152,143846,1,0,0:0:0:0:
333,157,143937,2,0,P|310:190|297:229,1,80,8|0,0:0|0:0,0:0:0:0:
133,342,144303,2,0,P|108:310|76:288,1,80,8|8,0:0|0:3,0:0:0:0:
116,212,144577,1,0,0:0:0:0:
108,209,144669,2,0,L|81:160,1,40,8|0,0:0|0:0,0:0:0:0:
0,94,144852,2,0,L|8:133,1,40
109,63,145035,6,0,L|200:41,1,80,4|0,0:0|0:0,0:0:0:0:
272,64,145309,1,0,0:0:0:0:
266,69,145401,2,0,L|357:47,1,80,8|0,0:0|0:0,0:0:0:0:
486,154,145766,1,8,0:0:0:0:
469,190,145858,1,0,0:0:0:0:
436,212,145949,1,8,0:3:0:0:
395,215,146041,1,0,0:0:0:0:
364,160,146132,2,0,L|357:200,1,40,8|0,0:0|0:0,0:0:0:0:
262,213,146315,2,0,L|272:245,3,20,2|0|2|0,0:3|0:0|0:3|0:0,0:0:0:0:
301,293,146498,6,0,L|222:283,1,80,4|0,0:0|0:0,0:0:0:0:
95,215,146864,2,0,L|113:163,1,40,8|0,0:0|0:0,0:0:0:0:
184,124,147047,2,0,L|202:176,1,40
106,339,147230,2,0,L|185:349,1,80,8|8,0:0|0:3,0:0:0:0:
381,346,147596,1,0,0:0:0:0:
392,307,147687,1,0,0:0:0:0:
392,266,147779,1,0,0:0:0:0:
371,231,147870,1,0,0:0:0:0:
339,205,147962,6,0,P|298:197|252:210,1,80,8|0,0:3|0:0,0:0:0:0:
190,275,148236,1,0,0:0:0:0:
184,269,148327,2,0,L|143:257,1,40,8|0,0:0|0:0,0:0:0:0:
221,134,148510,2,0,P|241:125|262:122,1,40
365,24,148693,2,0,P|345:15|324:12,1,40,8|0,0:0|0:0,0:0:0:0:
173,67,148876,6,0,L|153:77,3,20,2|0|2|0,0:3|0:0|0:3|0:0,0:0:0:0:
108,37,149059,2,0,L|96:56,3,20,2|0|2|0,0:3|0:0|0:3|0:0,0:0:0:0:
41,28,149242,2,0,L|40:50,3,20,2|0|2|0,0:3|0:0|0:3|0:0,0:0:0:0:
26,120,149425,6,0,P|84:124|139:149,1,120.000004577637,4|0,0:0|0:0,0:0:0:0:
295,73,149791,2,0,L|330:35,2,40,8|0|0,0:0|0:0|0:0,0:0:0:0:
202,299,150157,2,0,P|205:259|216:221,1,80,8|8,0:0|0:3,0:0:0:0:
189,83,150523,2,0,L|215:122,1,40,8|0,0:0|0:0,0:0:0:0:
105,259,150705,2,0,P|109:238|115:212,1,40
309,171,150888,6,0,P|322:209|327:248,1,80,4|0,0:0|0:0,0:0:0:0:
385,125,151163,1,0,0:0:0:0:
393,129,151254,6,0,P|406:167|412:187,1,40,8|0,0:0|0:0,0:0:0:0:
431,266,151437,2,0,L|420:312,1,40
321,335,151620,2,0,L|330:373,1,40,8|0,0:0|0:0,0:0:0:0:
243,263,151803,2,0,L|248:235,4,20,2|0|2|0|2,0:3|0:0|0:3|0:0|0:3,0:0:0:0:
346,25,152169,2,0,L|342:47,3,20,2|0|2|0,0:3|0:0|0:3|0:0,0:0:0:0:
389,93,152352,6,0,L|295:104,1,80,4|0,0:0|0:0,0:0:0:0:
241,52,152626,1,0,0:0:0:0:
234,58,152718,2,0,L|140:69,1,80
2,140,153083,1,8,0:0:0:0:
234,149,153266,1,8,0:3:0:0:
50,254,153449,2,0,P|85:236|123:223,1,80,8|0,0:0|0:0,0:0:0:0:
208,231,153724,1,0,0:0:0:0:
211,239,153815,5,4,0:0:0:0:
382,305,153998,1,2,0:3:0:0:
386,281,154090,1,2,0:3:0:0:
390,257,154181,1,2,0:3:0:0:
285,76,154364,1,2,0:3:0:0:
289,100,154455,1,2,0:3:0:0:
293,124,154547,1,2,0:3:0:0:
487,92,154730,1,2,0:3:0:0:
447,100,154822,1,2,0:3:0:0:
415,124,154913,1,2,0:3:0:0:
389,154,155004,1,2,0:3:0:0:
363,184,155096,1,2,0:3:0:0:
331,208,155187,1,2,0:3:0:0:
291,216,155279,6,0,B|248:224|248:224|133:192,1,160,2|0,0:3|0:0,0:0:0:0:
33,101,155827,2,0,P|101:61|182:70,1,160,2|0,0:3|0:0,0:0:0:0:
343,58,156376,2,0,P|317:88|294:121,1,80,2|0,0:3|0:0,0:0:0:0:
133,270,156742,6,0,B|172:265|195:238|195:238|200:284|234:318,1,160,2|0,0:3|0:0,0:0:0:0:
321,223,157291,2,0,B|356:212|379:180|379:180|416:207|467:200,1,160,2|0,0:3|0:0,0:0:0:0:
293,120,157840,2,0,P|258:102|231:73,1,80,2|0,0:3|0:0,0:0:0:0:
64,166,158205,6,0,B|55:204|39:226|39:226|129:192,1,160,2|0,0:3|0:0,0:0:0:0:
231,73,158754,2,0,B|256:55|269:26|269:26|296:128,1,160,2|0,0:3|0:0,0:0:0:0:
339,298,159303,2,0,P|302:281|264:273,1,80,2|0,0:3|0:0,0:0:0:0:
115,34,159669,6,0,P|112:113|128:191,1,160,2|0,0:3|0:0,0:0:0:0:
249,148,160218,1,2,0:3:0:0:
180,255,160401,1,2,0:3:0:0:
127,371,160584,1,2,0:3:0:0:
281,241,160767,2,0,L|274:218,4,20,2|0|2|0|2,0:3|0:0|0:3|0:0|0:3,0:0:0:0:
412,39,161132,6,0,P|393:63|375:112,1,80,8|0,0:0|0:0,0:0:0:0:
124,329,161498,2,0,P|152:319|178:306,1,60.0000022888184,8|0,0:0|0:0,0:0:0:0:
123,178,161864,2,0,P|118:208|117:238,1,60.0000022888184,8|0,0:0|0:0,0:0:0:0:
255,254,162230,2,0,P|233:235|207:219,1,60.0000022888184,8|0,0:0|0:0,0:0:0:0:
167,114,162596,5,8,0:0:0:0:
239,146,162779,1,2,0:3:0:0:
303,98,162962,5,8,0:0:0:0:
250,225,163145,1,2,0:3:0:0:
351,173,163328,5,8,0:0:0:0:
321,245,163511,1,2,0:3:0:0:
413,126,163693,2,0,P|423:154|427:183,1,60.0000022888184,8|0,0:0|0:0,0:0:0:0:
264,301,164059,6,0,P|234:296|206:287,1,60.0000022888184,8|0,0:0|0:0,0:0:0:0:
46,216,164425,2,0,P|75:211|104:202,1,60.0000022888184,8|0,0:0|0:0,0:0:0:0:
253,99,164791,2,0,P|242:127|227:153,1,60.0000022888184,8|0,0:0|0:0,0:0:0:0:
130,376,165157,2,0,P|114:350|104:323,1,60.0000022888184,8|0,0:0|0:0,0:0:0:0:
329,60,165523,5,2,0:3:0:0:
334,120,165614,1,2,0:3:0:0:
316,168,165706,1,2,0:3:0:0:
299,207,165797,1,2,0:3:0:0:
302,242,165889,1,2,0:3:0:0:
312,259,165980,1,2,0:3:0:0:
318,268,166071,1,2,0:3:0:0:
323,269,166163,1,2,0:3:0:0:
328,274,166254,5,2,0:3:0:0:
382,196,166437,1,2,0:3:0:0:
389,136,166620,1,2,0:3:0:0:
382,100,166986,5,2,0:3:0:0:
382,100,167535,6,0,L|319:114,1,40
369,11,167718,6,0,P|398:15|430:25,1,60.0000022888184,0|0,1:0|0:0,0:0:0:0:
494,92,167901,2,0,P|489:121|480:153,1,60.0000022888184,0|0,1:0|0:0,0:0:0:0:
354,183,168083,6,0,P|273:131|305:37,1,204.000003890991,0|0,1:0|0:0,0:0:0:0:
305,26,168449,2,0,B|266:56|256:89|263:142|263:142|216:123|150:140,1,240,4|0,1:0|0:0,0:0:0:0:
97,61,168815,6,0,P|67:101|63:170,1,120.000004577637,8|8,0:0|0:0,0:0:0:0:
131,237,169090,1,0,0:0:0:0:
139,239,169181,2,0,P|168:235|201:225,1,60.0000022888184
263,125,169364,2,0,P|263:94|272:64,1,60.0000022888184,2|0,0:0|0:0,0:0:0:0:
302,292,169547,5,8,0:0:0:0:
321,322,169638,1,0,0:0:0:0:
338,354,169730,2,0,P|308:355|278:359,1,60.0000022888184
82,321,169913,6,0,P|111:311|139:300,1,60.0000022888184,2|0,0:0|0:0,0:0:0:0:
404,232,170096,1,0,0:0:0:0:
404,232,170187,1,0,0:0:0:0:
404,232,170279,2,0,P|377:217|349:207,1,60.0000022888184,8|0,0:0|0:0,0:0:0:0:
120,100,170462,6,0,P|112:131|108:161,1,60.0000022888184,8|0,0:0|0:0,0:0:0:0:
233,56,170644,2,0,P|236:87|242:117,1,60.0000022888184
333,22,170827,2,0,P|346:50|363:76,1,60.0000022888184,2|0,0:0|0:0,0:0:0:0:
493,236,171010,6,0,B|487:271|471:291|471:291|487:330|481:366|481:366|427:325,1,204.000003890991,8|0,0:0|0:0,0:0:0:0:
277,171,171376,2,0,B|237:175|210:210|210:210|195:126|236:45,1,240,4|0,1:0|0:0,0:0:0:0:
340,115,171742,6,0,P|354:147|359:174,1,60.0000022888184,8|0,0:0|0:0,0:0:0:0:
259,329,171925,2,0,P|281:309|298:285,1,60.0000022888184,8|0,0:0|0:0,0:0:0:0:
340,115,172108,6,0,P|341:85|347:55,1,60.0000022888184
426,324,172291,2,2,P|415:296|400:271,1,60.0000022888184,2|0,0:0|0:0,0:0:0:0:
232,55,172474,6,0,P|220:82|212:111,1,60.0000022888184,8|0,0:0|0:0,0:0:0:0:
135,364,172657,2,0,P|117:339|97:317,1,60.0000022888184
15,68,172840,5,2,0:0:0:0:
52,53,172931,1,0,0:0:0:0:
92,48,173023,1,0,0:0:0:0:
130,57,173114,1,0,0:0:0:0:
160,81,173205,2,0,P|187:93|212:110,1,60.0000022888184,8|0,0:0|0:0,0:0:0:0:
320,255,173388,5,2,0:0:0:0:
383,54,173571,2,0,P|402:67|430:88,1,60.0000022888184,8|0,0:0|0:0,0:0:0:0:
480,313,173754,2,0,P|488:284|498:255,1,60.0000022888184,2|0,0:0|0:0,0:0:0:0:
492,61,173937,6,0,P|460:73|430:89,1,68.0000012969971,8|0,0:0|0:0,0:0:0:0:
313,322,174120,2,0,P|317:288|319:254,1,68.0000012969971
131,56,174303,6,0,B|86:38|86:38|120:133|124:224,1,240,4|0,1:0|0:0,0:0:0:0:
313,322,174669,5,8,0:0:0:0:
37,224,174852,1,8,0:0:0:0:
282,354,175035,1,0,0:0:0:0:
27,121,175218,1,2,0:0:0:0:
352,254,175401,6,0,B|366:266|379:289|379:289|414:188|414:188|392:203|365:211,1,204.000003890991,8|0,0:0|0:0,0:0:0:0:
126,79,175766,2,0,B|176:117|219:97|219:97|266:129|266:129|304:114|348:111,1,240,4|0,1:0|0:0,0:0:0:0:
510,267,176132,5,8,0:0:0:0:
235,369,176315,1,8,0:0:0:0:
507,310,176498,1,0,0:0:0:0:
161,296,176681,1,2,0:0:0:0:
161,296,176773,1,0,0:0:0:0:
161,296,176864,6,0,L|112:283,3,40,2|0|2|0,0:3|0:0|0:3|0:0,0:0:0:0:
47,255,177047,2,0,L|82:219,3,40,2|0|2|0,0:3|0:0|0:3|0:0,0:0:0:0:
154,212,177230,6,0,B|212:226|212:226|309:193,1,160,4|0,1:0|0:0,0:0:0:0:
412,27,177504,1,0,0:0:0:0:
418,37,177595,2,0,P|418:71|415:103,1,60.0000022888184,8|0,0:0|0:0,0:0:0:0:
209,136,177778,2,0,P|183:120|163:99,1,60.0000022888184,8|0,0:0|0:0,0:0:0:0:
294,6,177961,6,0,P|268:22|248:44,1,60.0000022888184
364,179,178144,2,0,P|334:189|306:193,1,60.0000022888184,2|0,0:0|0:0,0:0:0:0:
150,40,178327,6,0,P|152:69|162:97,1,60.0000022888184,8|0,0:0|0:0,0:0:0:0:
255,303,178510,2,0,P|230:286|210:264,1,60.0000022888184
57,13,178693,5,2,0:0:0:0:
13,45,178784,1,2,0:3:0:0:
0,98,178876,1,2,0:3:0:0:
26,145,178967,1,2,0:3:0:0:
78,164,179059,1,2,0:3:0:0:
132,160,179150,1,2,0:3:0:0:
184,173,179242,1,2,0:0:0:0:
231,199,179333,1,2,0:3:0:0:
265,243,179425,6,0,P|261:273|254:306,1,60.0000022888184
147,356,179608,2,0,P|122:337|97:314,1,60.0000022888184,2|0,0:0|0:0,0:0:0:0:
162,48,179791,6,0,P|257:120|233:129,1,204.000003890991,8|0,0:0|0:0,0:0:0:0:
278,99,180157,2,0,B|301:63|280:31|280:31|202:72|198:175,1,240,4|0,1:0|0:0,0:0:0:0:
199,268,180523,6,0,P|253:248|295:194,1,120.000004577637,8|8,0:0|0:0,0:0:0:0:
377,115,180797,1,0,0:0:0:0:
386,108,180888,2,0,P|372:134|369:164,1,60.0000022888184
358,319,181071,6,0,P|329:314|301:304,1,60.0000022888184,2|0,0:0|0:0,0:0:0:0:
197,167,181254,2,0,P|169:177|140:183,1,60.0000022888184,8|0,0:0|0:0,0:0:0:0:
62,352,181437,2,0,P|88:336|112:318,1,60.0000022888184
261,39,181620,6,0,P|271:67|277:97,1,60.0000022888184,2|0,0:0|0:0,0:0:0:0:
206,269,181803,1,0,0:0:0:0:
206,269,181894,1,0,0:0:0:0:
206,269,181986,2,0,P|195:297|190:326,1,60.0000022888184,8|0,0:0|0:0,0:0:0:0:
353,341,182169,6,0,P|325:332|296:327,1,60.0000022888184,8|0,0:0|0:0,0:0:0:0:
397,245,182352,2,0,P|373:226|348:211,1,60.0000022888184
441,132,182534,2,0,P|425:107|407:84,1,60.0000022888184,2|0,0:0|0:0,0:0:0:0:
240,220,182718,6,0,B|221:243|207:268|207:268|162:249|162:249|149:153,1,204.000003890991,8|0,0:0|0:0,0:0:0:0:
336,136,183083,2,0,B|384:133|412:170|412:170|421:93|458:21,1,240,4|0,1:0|0:0,0:0:0:0:
344,44,183449,6,0,P|310:51|284:64,1,60.0000022888184,8|0,0:0|0:0,0:0:0:0:
239,219,183632,2,0,P|268:224|296:237,1,60.0000022888184,8|0,0:0|0:0,0:0:0:0:
185,112,183815,6,0,P|169:138|149:160,1,60.0000022888184
258,361,183998,2,0,P|253:332|241:305,1,60.0000022888184,2|0,0:0|0:0,0:0:0:0:
70,224,184181,6,0,P|98:234|122:251,1,60.0000022888184,8|0,0:0|0:0,0:0:0:0:
282,113,184364,2,0,P|310:102|334:85,1,60.0000022888184
391,240,184547,6,0,P|383:210|372:182,1,60.0000022888184,2|0,0:0|0:0,0:0:0:0:
122,35,184730,1,0,0:0:0:0:
122,35,184821,1,0,0:0:0:0:
122,35,184913,2,0,P|114:63|103:91,1,60.0000022888184,8|0,0:0|0:0,0:0:0:0:
58,309,185096,5,2,0:0:0:0:
161,148,185279,2,0,P|189:137|219:131,1,60.0000022888184,8|0,0:0|0:0,0:0:0:0:
332,10,185462,2,0,P|363:17|396:31,1,60.0000022888184,2|0,0:0|0:0,0:0:0:0:
386,170,185644,6,0,P|361:148|333:130,1,68.0000012969971,8|0,0:0|0:0,0:0:0:0:
103,91,185827,2,0,P|74:109|49:132,1,68.0000012969971
232,249,186010,6,0,B|265:247|298:232|298:232|325:247|346:268|346:268|385:245|432:245|432:245|421:266,1,240,4|0,1:0|0:0,0:0:0:0:
243,355,186376,1,8,0:0:0:0:
389,27,186559,1,8,0:0:0:0:
259,361,186742,1,0,0:0:0:0:
100,15,186925,1,2,0:0:0:0:
352,244,187108,6,0,B|332:273|318:301|318:301|293:281|260:276|260:276|225:297|183:301,1,204.000003890991,8|0,0:0|0:0,0:0:0:0:
0,111,187474,2,0,B|32:115|67:106|67:106|91:125|108:149|108:149|150:134|196:142|196:142|184:159,1,240,4|0,1:0|0:0,0:0:0:0:
269,355,187840,1,8,0:0:0:0:
147,34,188023,1,8,0:0:0:0:
253,361,188206,1,0,0:0:0:0:
412,15,188389,1,2,0:0:0:0:
412,15,188480,1,0,0:0:0:0:
412,15,188571,6,0,L|426:60,3,40,2|0|2|0,0:3|0:0|0:3|0:0,0:0:0:0:
503,66,188754,2,0,L|489:111,3,40,2|0|2|0,0:3|0:0|0:3|0:0,0:0:0:0:
415,139,188937,6,0,B|364:162|364:162|333:155|333:155|302:175|263:180,1,160,4|0,1:0|0:0,0:0:0:0:
142,220,189212,1,0,0:0:0:0:
144,235,189303,6,0,P|160:262|189:284,1,60.0000022888184,8|0,0:0|0:0,0:0:0:0:
309,307,189486,2,0,P|331:287|347:262,1,60.0000022888184,8|0,0:0|0:0,0:0:0:0:
235,87,189669,6,0,P|208:101|186:121,1,60.0000022888184
342,202,189852,2,0,P|340:231|346:261,1,60.0000022888184,2|0,0:0|0:0,0:0:0:0:
174,362,190035,6,0,P|145:352|121:336,1,60.0000022888184,8|0,0:0|0:0,0:0:0:0:
66,56,190218,2,0,P|85:78|99:105,1,60.0000022888184
276,297,190401,5,2,0:0:0:0:
313,335,190492,1,2,0:3:0:0:
366,340,190583,1,2,0:3:0:0:
408,306,190675,1,2,0:3:0:0:
420,253,190766,1,2,0:3:0:0:
397,203,190858,1,2,0:3:0:0:
381,151,190949,1,4,0:0:0:0:
383,96,191041,1,2,0:3:0:0:
413,51,191132,6,0,P|426:79|439:117,1,60.0000022888184,4|0,0:0|0:0,0:0:0:0:
276,297,191315,2,0,P|253:277|228:260,1,60.0000022888184,4|0,0:0|0:0,0:0:0:0:
39,93,191498,6,0,P|41:123|49:163,1,60.0000022888184
253,352,191681,2,0,P|262:323|276:295,1,60.0000022888184
403,84,191864,6,0,B|450:46|450:46|312:52|312:96|184:76|184:76|256:31,1,390.00001487732,4|0,0:0|0:0,0:0:0:0:
