osu file format v14

[General]
AudioFilename: owo.mp3
AudioLeadIn: 0
PreviewTime: 107574
Countdown: 0
SampleSet: Soft
StackLeniency: 0.7
Mode: 3
LetterboxInBreaks: 0
SpecialStyle: 0
WidescreenStoryboard: 0

[Editor]
Bookmarks: 143427,155135
DistanceSpacing: 1.2
BeatDivisor: 4
GridSize: 4
TimelineZoom: 1.7

[Metadata]
Title:[A]ddiction
TitleUnicode:[A]ddiction
Artist:EVO+
ArtistUnicode:EVO+
Creator:Remuring
Version:[I]nfatuation
Source:
Tags:giga reol
BeatmapID:1875631
BeatmapSetID:892701

[Difficulty]
HPDrainRate:7
CircleSize:7
OverallDifficulty:7
ApproachRate:5
SliderMultiplier:1.4
SliderTickRate:1

[Events]
//Background and Video events
0,0,"BG.png",0,0
//Break Periods
//Storyboard Layer 0 (Background)
//Storyboard Layer 1 (Fail)
//Storyboard Layer 2 (Pass)
//Storyboard Layer 3 (Foreground)
//Storyboard Sound Samples

[TimingPoints]
2940,365.853658536585,4,2,0,0,1,0
166293,461.538461538462,4,2,0,0,1,0
166293,-79.3650793650794,4,2,0,0,0,0
166523,645.161290322581,4,2,0,0,1,0
166523,-56.8181818181818,4,2,0,0,0,0
167383,365.853658536585,4,2,0,0,1,0
167383,-100,4,2,0,0,0,0
168297,365.853658536585,4,2,0,0,1,0

[HitObjects]
36,192,2939,5,0,0:0:0:0:
182,192,2939,1,0,0:0:0:0:
329,192,3305,128,0,3397:0:0:0:0:
182,192,3305,1,0,0:0:0:0:
36,192,3305,1,0,0:0:0:0:
402,192,3488,128,0,3580:0:0:0:0:
329,192,3671,128,0,3763:0:0:0:0:
182,192,3671,1,0,0:0:0:0:
36,192,3671,1,0,0:0:0:0:
402,192,3854,128,0,3946:0:0:0:0:
329,192,4037,128,0,4403:0:0:0:0:
182,192,4037,1,0,0:0:0:0:
36,192,4037,1,0,0:0:0:0:
36,192,4403,1,0,0:0:0:0:
182,192,4403,1,0,0:0:0:0:
475,192,4403,128,0,4494:0:0:0:0:
402,192,4586,128,0,4677:0:0:0:0:
329,192,4677,128,0,4769:0:0:0:0:
182,192,4769,1,0,0:0:0:0:
36,192,4769,1,0,0:0:0:0:
475,192,4769,128,0,4860:0:0:0:0:
329,192,4952,128,0,5043:0:0:0:0:
182,192,5135,1,0,0:0:0:0:
475,192,5135,128,0,5226:0:0:0:0:
36,192,5135,128,0,5318:0:0:0:0:
402,192,5318,128,0,5409:0:0:0:0:
182,192,5500,1,0,0:0:0:0:
329,192,5500,128,0,5592:0:0:0:0:
36,192,5500,128,0,5683:0:0:0:0:
256,192,5683,128,0,5866:0:0:0:0:
329,192,5866,1,0,0:0:0:0:
475,192,5866,1,0,0:0:0:0:
109,192,5866,128,0,5958:0:0:0:0:
36,192,6049,128,0,6141:0:0:0:0:
182,194,6232,128,0,6324:0:0:0:0:
329,192,6232,1,0,0:0:0:0:
475,192,6232,1,0,0:0:0:0:
109,194,6415,128,0,6507:0:0:0:0:
182,194,6598,128,0,6689:0:0:0:0:
329,192,6598,1,0,0:0:0:0:
475,192,6598,1,0,0:0:0:0:
109,194,6781,128,0,6872:0:0:0:0:
182,194,6964,128,0,7330:0:0:0:0:
475,192,6964,1,0,0:0:0:0:
329,192,6964,1,0,0:0:0:0:
36,194,7330,128,0,7421:0:0:0:0:
329,192,7330,1,0,0:0:0:0:
475,192,7330,1,0,0:0:0:0:
109,194,7513,128,0,7604:0:0:0:0:
182,192,7604,128,0,7696:0:0:0:0:
36,194,7696,128,0,7787:0:0:0:0:
329,192,7696,1,0,0:0:0:0:
475,192,7696,1,0,0:0:0:0:
182,194,7879,128,0,7970:0:0:0:0:
36,194,8061,128,0,8153:0:0:0:0:
329,192,8061,1,0,0:0:0:0:
475,192,8061,128,0,8244:0:0:0:0:
109,192,8244,128,0,8336:0:0:0:0:
182,194,8427,128,0,8519:0:0:0:0:
329,192,8427,128,0,8793:0:0:0:0:
475,192,8427,128,0,8610:0:0:0:0:
402,192,8793,128,0,8976:0:0:0:0:
475,192,8793,128,0,8976:0:0:0:0:
109,192,8793,128,0,8976:0:0:0:0:
36,192,8793,128,0,8976:0:0:0:0:
256,192,8793,128,0,8976:0:0:0:0:
329,192,9159,128,0,9220:0:0:0:0:
36,192,9159,1,0,0:0:0:0:
109,192,9205,1,0,0:0:0:0:
329,192,9342,128,0,9403:0:0:0:0:
36,192,9525,1,0,0:0:0:0:
109,192,9571,1,0,0:0:0:0:
402,192,9708,1,0,0:0:0:0:
475,192,9708,1,0,0:0:0:0:
256,192,9708,1,0,0:0:0:0:
329,192,9891,128,0,9952:0:0:0:0:
36,192,9891,1,0,0:0:0:0:
109,192,9936,1,0,0:0:0:0:
36,192,10257,1,0,0:0:0:0:
402,192,10257,1,0,0:0:0:0:
475,192,10257,1,0,0:0:0:0:
256,192,10257,1,0,0:0:0:0:
109,192,10302,1,0,0:0:0:0:
329,192,10622,128,0,10683:0:0:0:0:
36,192,10622,1,0,0:0:0:0:
109,192,10668,1,0,0:0:0:0:
329,192,10805,128,0,10866:0:0:0:0:
36,192,10988,1,0,0:0:0:0:
109,192,11034,1,0,0:0:0:0:
402,192,11171,1,0,0:0:0:0:
475,192,11171,1,0,0:0:0:0:
256,192,11171,1,0,0:0:0:0:
329,192,11354,128,0,11415:0:0:0:0:
36,192,11354,1,0,0:0:0:0:
109,192,11400,1,0,0:0:0:0:
36,192,11720,1,0,0:0:0:0:
402,192,11720,1,0,0:0:0:0:
475,192,11720,1,0,0:0:0:0:
256,192,11720,1,0,0:0:0:0:
109,192,11766,1,0,0:0:0:0:
329,192,12086,128,0,12147:0:0:0:0:
36,192,12086,1,0,0:0:0:0:
109,192,12132,1,0,0:0:0:0:
329,192,12269,128,0,12330:0:0:0:0:
36,192,12452,1,0,0:0:0:0:
109,192,12497,1,0,0:0:0:0:
475,192,12635,1,0,0:0:0:0:
402,192,12635,1,0,0:0:0:0:
256,192,12635,1,0,0:0:0:0:
329,192,12818,128,0,12879:0:0:0:0:
36,192,12818,1,0,0:0:0:0:
109,192,12863,1,0,0:0:0:0:
36,192,13183,1,0,0:0:0:0:
402,192,13183,1,0,0:0:0:0:
475,192,13183,1,0,0:0:0:0:
256,192,13183,1,0,0:0:0:0:
109,192,13229,1,0,0:0:0:0:
329,192,13549,128,0,13610:0:0:0:0:
36,192,13549,1,0,0:0:0:0:
109,192,13595,1,0,0:0:0:0:
329,192,13732,128,0,13793:0:0:0:0:
36,192,13915,1,0,0:0:0:0:
109,192,13961,1,0,0:0:0:0:
402,192,14098,1,0,0:0:0:0:
475,192,14098,1,0,0:0:0:0:
256,192,14098,1,0,0:0:0:0:
329,192,14281,128,0,14342:0:0:0:0:
36,192,14281,1,0,0:0:0:0:
109,192,14327,1,0,0:0:0:0:
109,192,14647,128,0,14830:0:0:0:0:
36,192,14647,128,0,14830:0:0:0:0:
256,192,14647,128,0,14830:0:0:0:0:
402,192,14647,128,0,14830:0:0:0:0:
475,192,14647,128,0,14830:0:0:0:0:
182,192,15013,128,0,15074:0:0:0:0:
475,192,15013,1,0,0:0:0:0:
402,192,15058,1,0,0:0:0:0:
182,192,15196,128,0,15257:0:0:0:0:
475,192,15379,1,0,0:0:0:0:
402,192,15424,1,0,0:0:0:0:
109,192,15561,1,0,0:0:0:0:
36,192,15561,1,0,0:0:0:0:
256,192,15561,1,0,0:0:0:0:
182,192,15744,128,0,15805:0:0:0:0:
475,192,15744,1,0,0:0:0:0:
402,192,15790,1,0,0:0:0:0:
475,192,16110,1,0,0:0:0:0:
109,192,16110,1,0,0:0:0:0:
36,192,16110,1,0,0:0:0:0:
256,192,16110,1,0,0:0:0:0:
402,192,16156,1,0,0:0:0:0:
182,192,16476,128,0,16537:0:0:0:0:
475,192,16476,1,0,0:0:0:0:
402,192,16522,1,0,0:0:0:0:
182,192,16659,128,0,16720:0:0:0:0:
475,192,16842,1,0,0:0:0:0:
402,192,16888,1,0,0:0:0:0:
109,192,17025,1,0,0:0:0:0:
36,192,17025,1,0,0:0:0:0:
256,192,17025,1,0,0:0:0:0:
182,192,17208,128,0,17269:0:0:0:0:
475,192,17208,1,0,0:0:0:0:
402,192,17254,1,0,0:0:0:0:
475,192,17574,1,0,0:0:0:0:
109,192,17574,1,0,0:0:0:0:
36,192,17574,1,0,0:0:0:0:
256,192,17574,1,0,0:0:0:0:
402,192,17619,1,0,0:0:0:0:
182,192,17939,128,0,18000:0:0:0:0:
475,192,17939,1,0,0:0:0:0:
402,192,17985,1,0,0:0:0:0:
182,192,18122,128,0,18183:0:0:0:0:
475,192,18305,1,0,0:0:0:0:
402,192,18351,1,0,0:0:0:0:
36,192,18488,1,0,0:0:0:0:
109,192,18488,1,0,0:0:0:0:
256,192,18488,1,0,0:0:0:0:
182,192,18671,128,0,18732:0:0:0:0:
475,192,18671,1,0,0:0:0:0:
402,192,18717,1,0,0:0:0:0:
256,192,19037,1,0,0:0:0:0:
329,192,19037,1,0,0:0:0:0:
475,192,19037,1,0,0:0:0:0:
109,192,19037,1,0,0:0:0:0:
36,192,19037,1,0,0:0:0:0:
109,192,19220,1,0,0:0:0:0:
36,192,19220,1,0,0:0:0:0:
256,192,19220,1,0,0:0:0:0:
329,192,19220,1,0,0:0:0:0:
475,192,19220,1,0,0:0:0:0:
182,192,19403,1,0,0:0:0:0:
256,192,19403,1,0,0:0:0:0:
402,192,19403,1,0,0:0:0:0:
475,192,19403,1,0,0:0:0:0:
36,192,19403,1,0,0:0:0:0:
182,192,19586,1,0,0:0:0:0:
256,192,19586,1,0,0:0:0:0:
402,192,19586,1,0,0:0:0:0:
475,192,19586,1,0,0:0:0:0:
36,192,19586,1,0,0:0:0:0:
182,192,19769,1,0,0:0:0:0:
475,192,19769,1,0,0:0:0:0:
109,192,19830,1,0,0:0:0:0:
402,192,19830,1,0,0:0:0:0:
329,192,19891,1,0,0:0:0:0:
36,192,19891,1,0,0:0:0:0:
256,192,19952,1,0,0:0:0:0:
475,192,20135,1,0,0:0:0:0:
36,192,20135,1,0,0:0:0:0:
402,192,20196,1,0,0:0:0:0:
109,192,20196,1,0,0:0:0:0:
329,192,20257,1,0,0:0:0:0:
182,192,20257,1,0,0:0:0:0:
256,192,20318,1,0,0:0:0:0:
36,192,20318,1,0,0:0:0:0:
329,192,20379,1,0,0:0:0:0:
109,192,20379,1,0,0:0:0:0:
182,192,20439,1,0,0:0:0:0:
402,192,20439,1,0,0:0:0:0:
475,192,20500,1,0,0:0:0:0:
256,192,20500,1,0,0:0:0:0:
329,192,20500,1,0,0:0:0:0:
109,192,20500,1,0,0:0:0:0:
36,192,20500,1,0,0:0:0:0:
475,192,20683,1,0,0:0:0:0:
329,192,20866,128,0,20927:0:0:0:0:
36,192,20866,1,0,0:0:0:0:
475,192,20866,1,0,0:0:0:0:
109,192,20912,1,0,0:0:0:0:
329,192,21049,128,0,21110:0:0:0:0:
475,192,21049,1,0,0:0:0:0:
36,192,21232,1,0,0:0:0:0:
475,192,21232,1,0,0:0:0:0:
109,192,21278,1,0,0:0:0:0:
402,192,21415,1,0,0:0:0:0:
475,192,21415,1,0,0:0:0:0:
256,192,21415,1,0,0:0:0:0:
329,192,21598,128,0,21659:0:0:0:0:
36,192,21598,1,0,0:0:0:0:
475,192,21598,1,0,0:0:0:0:
109,192,21644,1,0,0:0:0:0:
475,192,21781,1,0,0:0:0:0:
36,192,21964,1,0,0:0:0:0:
402,192,21964,1,0,0:0:0:0:
475,192,21964,1,0,0:0:0:0:
256,192,21964,1,0,0:0:0:0:
109,192,22010,1,0,0:0:0:0:
475,192,22147,1,0,0:0:0:0:
402,192,22238,1,0,0:0:0:0:
329,192,22330,128,0,22391:0:0:0:0:
36,192,22330,1,0,0:0:0:0:
475,192,22330,1,0,0:0:0:0:
109,192,22375,1,0,0:0:0:0:
329,192,22513,128,0,22574:0:0:0:0:
475,192,22513,1,0,0:0:0:0:
36,192,22696,1,0,0:0:0:0:
475,192,22696,1,0,0:0:0:0:
109,192,22741,1,0,0:0:0:0:
402,192,22879,1,0,0:0:0:0:
475,192,22879,1,0,0:0:0:0:
256,192,22879,1,0,0:0:0:0:
329,192,23061,128,0,23122:0:0:0:0:
36,192,23061,1,0,0:0:0:0:
475,192,23061,1,0,0:0:0:0:
109,192,23107,1,0,0:0:0:0:
402,192,23244,1,0,0:0:0:0:
475,192,23427,1,0,0:0:0:0:
109,192,23427,1,0,0:0:0:0:
36,192,23427,1,0,0:0:0:0:
256,192,23427,1,0,0:0:0:0:
402,192,23473,1,0,0:0:0:0:
36,192,23610,1,0,0:0:0:0:
182,192,23793,128,0,23854:0:0:0:0:
475,192,23793,1,0,0:0:0:0:
36,192,23793,1,0,0:0:0:0:
402,192,23839,1,0,0:0:0:0:
182,192,23976,128,0,24037:0:0:0:0:
36,192,23976,1,0,0:0:0:0:
475,192,24159,1,0,0:0:0:0:
36,192,24159,1,0,0:0:0:0:
402,192,24205,1,0,0:0:0:0:
36,192,24342,1,0,0:0:0:0:
109,192,24342,1,0,0:0:0:0:
256,192,24342,1,0,0:0:0:0:
182,192,24525,128,0,24586:0:0:0:0:
475,192,24525,1,0,0:0:0:0:
36,192,24525,1,0,0:0:0:0:
402,192,24571,1,0,0:0:0:0:
36,192,24708,1,0,0:0:0:0:
475,192,24891,1,0,0:0:0:0:
109,192,24891,1,0,0:0:0:0:
36,192,24891,1,0,0:0:0:0:
256,192,24891,1,0,0:0:0:0:
402,192,24936,1,0,0:0:0:0:
36,192,25074,1,0,0:0:0:0:
109,192,25165,1,0,0:0:0:0:
182,192,25257,128,0,25318:0:0:0:0:
475,192,25257,1,0,0:0:0:0:
36,192,25257,1,0,0:0:0:0:
402,192,25302,1,0,0:0:0:0:
182,192,25439,128,0,25500:0:0:0:0:
36,192,25439,1,0,0:0:0:0:
475,192,25622,1,0,0:0:0:0:
36,192,25622,1,0,0:0:0:0:
402,192,25668,1,0,0:0:0:0:
109,192,25805,1,0,0:0:0:0:
36,192,25805,1,0,0:0:0:0:
256,192,25805,1,0,0:0:0:0:
182,192,25988,128,0,26049:0:0:0:0:
475,192,25988,1,0,0:0:0:0:
36,192,25988,1,0,0:0:0:0:
402,192,26034,1,0,0:0:0:0:
109,192,26171,1,0,0:0:0:0:
256,192,26354,1,0,0:0:0:0:
402,192,26354,1,0,0:0:0:0:
475,192,26354,1,0,0:0:0:0:
182,192,26354,1,0,0:0:0:0:
36,192,26354,1,0,0:0:0:0:
36,192,26537,1,0,0:0:0:0:
182,192,26720,128,0,26781:0:0:0:0:
475,192,26720,1,0,0:0:0:0:
36,192,26720,1,0,0:0:0:0:
402,192,26766,1,0,0:0:0:0:
182,192,26903,128,0,26964:0:0:0:0:
36,192,26903,1,0,0:0:0:0:
475,192,27086,1,0,0:0:0:0:
36,192,27086,1,0,0:0:0:0:
402,192,27132,1,0,0:0:0:0:
109,192,27269,1,0,0:0:0:0:
36,192,27269,1,0,0:0:0:0:
256,192,27269,1,0,0:0:0:0:
182,192,27452,128,0,27513:0:0:0:0:
475,192,27452,1,0,0:0:0:0:
36,192,27452,1,0,0:0:0:0:
402,192,27497,1,0,0:0:0:0:
36,192,27635,1,0,0:0:0:0:
475,192,27818,1,0,0:0:0:0:
109,192,27818,1,0,0:0:0:0:
36,192,27818,1,0,0:0:0:0:
256,192,27818,1,0,0:0:0:0:
402,192,27863,1,0,0:0:0:0:
36,192,28000,1,0,0:0:0:0:
109,192,28092,1,0,0:0:0:0:
182,192,28183,128,0,28244:0:0:0:0:
475,192,28183,1,0,0:0:0:0:
36,192,28183,1,0,0:0:0:0:
402,192,28229,1,0,0:0:0:0:
182,192,28366,128,0,28427:0:0:0:0:
36,192,28366,1,0,0:0:0:0:
475,192,28549,1,0,0:0:0:0:
36,192,28549,1,0,0:0:0:0:
402,192,28595,1,0,0:0:0:0:
109,192,28732,1,0,0:0:0:0:
36,192,28732,1,0,0:0:0:0:
256,192,28732,1,0,0:0:0:0:
182,192,28915,128,0,28976:0:0:0:0:
475,192,28915,1,0,0:0:0:0:
36,192,28915,1,0,0:0:0:0:
402,192,28961,1,0,0:0:0:0:
109,192,29098,1,0,0:0:0:0:
36,192,29281,1,0,0:0:0:0:
402,192,29281,1,0,0:0:0:0:
475,192,29281,1,0,0:0:0:0:
256,192,29281,1,0,0:0:0:0:
109,192,29327,1,0,0:0:0:0:
475,192,29464,1,0,0:0:0:0:
329,192,29647,128,0,29708:0:0:0:0:
36,192,29647,1,0,0:0:0:0:
475,192,29647,1,0,0:0:0:0:
109,192,29693,1,0,0:0:0:0:
329,192,29830,128,0,29891:0:0:0:0:
475,192,29830,1,0,0:0:0:0:
36,192,30013,1,0,0:0:0:0:
475,192,30013,1,0,0:0:0:0:
109,192,30058,1,0,0:0:0:0:
475,192,30196,1,0,0:0:0:0:
402,192,30196,1,0,0:0:0:0:
256,192,30196,1,0,0:0:0:0:
329,192,30379,128,0,30439:0:0:0:0:
36,192,30379,1,0,0:0:0:0:
475,192,30379,1,0,0:0:0:0:
109,192,30424,1,0,0:0:0:0:
475,192,30561,1,0,0:0:0:0:
36,192,30744,1,0,0:0:0:0:
402,192,30744,1,0,0:0:0:0:
475,192,30744,1,0,0:0:0:0:
256,192,30744,1,0,0:0:0:0:
109,192,30790,1,0,0:0:0:0:
475,192,30927,1,0,0:0:0:0:
402,192,31019,1,0,0:0:0:0:
329,192,31110,128,0,31171:0:0:0:0:
36,192,31110,1,0,0:0:0:0:
475,192,31110,1,0,0:0:0:0:
109,192,31156,1,0,0:0:0:0:
329,192,31293,128,0,31354:0:0:0:0:
475,192,31293,1,0,0:0:0:0:
36,192,31476,1,0,0:0:0:0:
475,192,31476,1,0,0:0:0:0:
109,192,31522,1,0,0:0:0:0:
402,192,31659,1,0,0:0:0:0:
475,192,31659,1,0,0:0:0:0:
256,192,31659,1,0,0:0:0:0:
329,192,31842,128,0,31903:0:0:0:0:
36,192,31842,1,0,0:0:0:0:
475,192,31842,1,0,0:0:0:0:
182,192,31842,1,0,0:0:0:0:
109,192,31888,1,0,0:0:0:0:
402,192,32025,1,0,0:0:0:0:
109,192,32208,1,0,0:0:0:0:
36,192,32208,1,0,0:0:0:0:
256,192,32208,1,0,0:0:0:0:
475,192,32208,128,0,35135:0:0:0:0:
109,192,32757,1,0,0:0:0:0:
36,192,32757,1,0,0:0:0:0:
36,192,33305,1,0,0:0:0:0:
109,192,33305,1,0,0:0:0:0:
36,192,33671,1,0,0:0:0:0:
109,192,33671,1,0,0:0:0:0:
36,192,34220,1,0,0:0:0:0:
109,192,34220,1,0,0:0:0:0:
36,192,34769,1,0,0:0:0:0:
109,192,34769,1,0,0:0:0:0:
36,192,35135,128,0,38061:0:0:0:0:
109,192,35135,1,0,0:0:0:0:
402,192,35135,1,0,0:0:0:0:
256,192,35135,1,0,0:0:0:0:
402,192,35683,1,0,0:0:0:0:
475,192,35683,1,0,0:0:0:0:
402,192,36232,1,0,0:0:0:0:
475,192,36232,1,0,0:0:0:0:
402,192,36598,1,0,0:0:0:0:
475,192,36598,1,0,0:0:0:0:
402,192,37147,1,0,0:0:0:0:
475,192,37147,1,0,0:0:0:0:
402,192,37330,1,0,0:0:0:0:
475,192,37330,1,0,0:0:0:0:
402,192,37513,1,0,0:0:0:0:
475,192,37513,1,0,0:0:0:0:
109,192,37696,1,0,0:0:0:0:
182,192,37726,1,0,0:0:0:0:
256,192,37757,1,0,0:0:0:0:
475,192,37787,1,0,0:0:0:0:
402,192,37818,1,0,0:0:0:0:
329,192,37848,1,0,0:0:0:0:
256,192,37879,1,0,0:0:0:0:
475,192,38061,1,0,0:0:0:0:
402,192,38061,1,0,0:0:0:0:
182,192,38061,1,0,0:0:0:0:
109,192,38061,1,0,0:0:0:0:
256,192,38427,1,0,0:0:0:0:
109,192,38610,1,0,0:0:0:0:
402,192,38610,1,0,0:0:0:0:
256,192,38793,1,0,0:0:0:0:
402,192,39159,1,0,0:0:0:0:
109,192,39159,1,0,0:0:0:0:
256,192,39159,1,0,0:0:0:0:
256,192,39525,1,0,0:0:0:0:
36,192,39525,1,0,0:0:0:0:
475,192,39525,1,0,0:0:0:0:
475,192,39708,1,0,0:0:0:0:
36,192,39708,1,0,0:0:0:0:
256,192,39891,1,0,0:0:0:0:
109,192,40074,1,0,0:0:0:0:
402,192,40074,1,0,0:0:0:0:
256,192,40257,1,0,0:0:0:0:
36,192,40439,1,0,0:0:0:0:
475,192,40439,1,0,0:0:0:0:
256,192,40622,1,0,0:0:0:0:
475,192,40622,1,0,0:0:0:0:
36,192,40622,1,0,0:0:0:0:
182,192,40988,128,0,41354:0:0:0:0:
402,192,40988,128,0,41171:0:0:0:0:
36,192,41171,128,0,41354:0:0:0:0:
329,192,41354,128,0,41720:0:0:0:0:
109,192,41354,128,0,41537:0:0:0:0:
475,192,41537,128,0,41720:0:0:0:0:
182,192,41720,128,0,42086:0:0:0:0:
402,192,41720,128,0,41903:0:0:0:0:
36,192,41903,128,0,42086:0:0:0:0:
329,192,42086,128,0,42452:0:0:0:0:
109,192,42086,128,0,42269:0:0:0:0:
475,192,42269,128,0,42452:0:0:0:0:
36,192,42452,1,0,0:0:0:0:
109,192,42452,1,0,0:0:0:0:
182,192,42497,1,0,0:0:0:0:
256,192,42543,1,0,0:0:0:0:
329,192,42635,1,0,0:0:0:0:
36,192,42635,1,0,0:0:0:0:
402,192,42726,1,0,0:0:0:0:
109,192,42726,1,0,0:0:0:0:
475,192,42818,1,0,0:0:0:0:
182,192,42818,1,0,0:0:0:0:
109,192,42909,1,0,0:0:0:0:
402,192,42909,1,0,0:0:0:0:
329,192,43000,1,0,0:0:0:0:
36,192,43000,1,0,0:0:0:0:
182,192,43092,1,0,0:0:0:0:
475,192,43092,1,0,0:0:0:0:
109,192,43183,128,0,43366:0:0:0:0:
36,192,43183,128,0,43366:0:0:0:0:
402,192,43183,128,0,43366:0:0:0:0:
329,192,43183,128,0,43366:0:0:0:0:
256,192,43366,128,0,43549:0:0:0:0:
182,192,43549,128,0,43732:0:0:0:0:
109,192,43549,128,0,43732:0:0:0:0:
402,192,43549,128,0,43732:0:0:0:0:
475,192,43549,128,0,43732:0:0:0:0:
109,192,43915,1,0,0:0:0:0:
36,192,43915,1,0,0:0:0:0:
256,192,43915,1,0,0:0:0:0:
402,192,43915,1,0,0:0:0:0:
475,192,43915,1,0,0:0:0:0:
182,192,44007,1,0,0:0:0:0:
109,192,44098,1,0,0:0:0:0:
329,192,44098,1,0,0:0:0:0:
256,192,44189,1,0,0:0:0:0:
182,192,44281,1,0,0:0:0:0:
36,192,44281,1,0,0:0:0:0:
402,192,44281,1,0,0:0:0:0:
475,192,44281,1,0,0:0:0:0:
329,192,44372,1,0,0:0:0:0:
109,192,44464,1,0,0:0:0:0:
256,192,44464,1,0,0:0:0:0:
402,192,44464,1,0,0:0:0:0:
475,192,44555,1,0,0:0:0:0:
329,192,44647,1,0,0:0:0:0:
182,192,44647,1,0,0:0:0:0:
36,192,44647,1,0,0:0:0:0:
109,192,44647,1,0,0:0:0:0:
402,192,44738,1,0,0:0:0:0:
475,192,44830,1,0,0:0:0:0:
256,192,44830,1,0,0:0:0:0:
36,192,44830,1,0,0:0:0:0:
329,192,44921,1,0,0:0:0:0:
402,192,45013,1,0,0:0:0:0:
109,192,45013,1,0,0:0:0:0:
36,192,45013,1,0,0:0:0:0:
475,192,45013,1,0,0:0:0:0:
182,192,45104,1,0,0:0:0:0:
256,192,45196,1,0,0:0:0:0:
475,192,45196,1,0,0:0:0:0:
36,192,45196,1,0,0:0:0:0:
329,192,45287,1,0,0:0:0:0:
402,192,45379,1,0,0:0:0:0:
475,192,45379,1,0,0:0:0:0:
182,192,45379,1,0,0:0:0:0:
36,192,45379,1,0,0:0:0:0:
109,192,45470,1,0,0:0:0:0:
329,192,45470,1,0,0:0:0:0:
36,192,45561,1,0,0:0:0:0:
256,192,45561,1,0,0:0:0:0:
475,192,45561,1,0,0:0:0:0:
402,192,45653,1,0,0:0:0:0:
182,192,45653,1,0,0:0:0:0:
256,192,45744,1,0,0:0:0:0:
36,192,45744,1,0,0:0:0:0:
475,192,45744,1,0,0:0:0:0:
329,192,45744,1,0,0:0:0:0:
109,192,45836,1,0,0:0:0:0:
182,192,45927,1,0,0:0:0:0:
402,192,45927,1,0,0:0:0:0:
329,192,46019,1,0,0:0:0:0:
109,192,46110,128,0,46202:0:0:0:0:
36,192,46110,128,0,46202:0:0:0:0:
256,192,46110,128,0,46202:0:0:0:0:
475,192,46110,128,0,46202:0:0:0:0:
402,192,46202,128,0,46293:0:0:0:0:
329,192,46293,128,0,46385:0:0:0:0:
182,192,46293,128,0,46385:0:0:0:0:
36,192,46293,128,0,46385:0:0:0:0:
402,192,46385,128,0,46476:0:0:0:0:
475,192,46476,128,0,46568:0:0:0:0:
109,192,46476,128,0,46568:0:0:0:0:
256,192,46476,128,0,46568:0:0:0:0:
329,192,46568,128,0,46659:0:0:0:0:
402,192,46659,128,0,46750:0:0:0:0:
182,192,46659,128,0,46750:0:0:0:0:
109,192,46705,128,0,46750:0:0:0:0:
329,192,46750,128,0,46842:0:0:0:0:
256,192,46796,128,0,46842:0:0:0:0:
402,192,46842,1,0,0:0:0:0:
475,192,46842,1,0,0:0:0:0:
109,192,46842,1,0,0:0:0:0:
36,192,46842,1,0,0:0:0:0:
329,192,46933,1,0,0:0:0:0:
402,192,47025,1,0,0:0:0:0:
182,192,47025,1,0,0:0:0:0:
109,192,47116,1,0,0:0:0:0:
329,192,47208,1,0,0:0:0:0:
475,192,47208,1,0,0:0:0:0:
36,192,47208,1,0,0:0:0:0:
182,192,47208,1,0,0:0:0:0:
256,192,47299,1,0,0:0:0:0:
475,192,47391,1,0,0:0:0:0:
329,192,47391,1,0,0:0:0:0:
182,192,47391,1,0,0:0:0:0:
109,192,47482,1,0,0:0:0:0:
256,192,47574,1,0,0:0:0:0:
402,192,47574,1,0,0:0:0:0:
475,192,47574,1,0,0:0:0:0:
36,192,47574,1,0,0:0:0:0:
182,192,47665,1,0,0:0:0:0:
109,192,47757,1,0,0:0:0:0:
256,192,47757,1,0,0:0:0:0:
475,192,47757,1,0,0:0:0:0:
329,192,47848,1,0,0:0:0:0:
182,192,47939,1,0,0:0:0:0:
402,192,47939,1,0,0:0:0:0:
36,192,47939,1,0,0:0:0:0:
475,192,47939,1,0,0:0:0:0:
329,192,48031,1,0,0:0:0:0:
256,192,48122,1,0,0:0:0:0:
109,192,48122,1,0,0:0:0:0:
402,192,48122,1,0,0:0:0:0:
182,192,48214,1,0,0:0:0:0:
109,192,48305,1,0,0:0:0:0:
36,192,48305,1,0,0:0:0:0:
329,192,48305,1,0,0:0:0:0:
475,192,48305,1,0,0:0:0:0:
402,192,48397,1,0,0:0:0:0:
182,192,48397,1,0,0:0:0:0:
475,192,48488,1,0,0:0:0:0:
256,192,48488,1,0,0:0:0:0:
36,192,48488,1,0,0:0:0:0:
109,192,48580,1,0,0:0:0:0:
329,192,48580,1,0,0:0:0:0:
256,192,48671,1,0,0:0:0:0:
475,192,48671,1,0,0:0:0:0:
36,192,48671,1,0,0:0:0:0:
182,192,48671,1,0,0:0:0:0:
402,192,48763,1,0,0:0:0:0:
329,192,48854,1,0,0:0:0:0:
109,192,48854,1,0,0:0:0:0:
182,192,48946,1,0,0:0:0:0:
402,192,49037,128,0,49129:0:0:0:0:
475,192,49037,128,0,49129:0:0:0:0:
256,192,49037,128,0,49129:0:0:0:0:
36,192,49037,128,0,49129:0:0:0:0:
109,192,49129,128,0,49220:0:0:0:0:
182,192,49220,128,0,49311:0:0:0:0:
329,192,49220,128,0,49311:0:0:0:0:
475,192,49220,128,0,49311:0:0:0:0:
109,192,49311,128,0,49403:0:0:0:0:
36,192,49403,128,0,49494:0:0:0:0:
402,192,49403,128,0,49494:0:0:0:0:
256,192,49403,128,0,49494:0:0:0:0:
475,192,49449,128,0,49494:0:0:0:0:
182,192,49494,128,0,49586:0:0:0:0:
109,192,49586,128,0,49677:0:0:0:0:
329,192,49586,128,0,49677:0:0:0:0:
402,192,49632,128,0,49677:0:0:0:0:
182,192,49677,128,0,49769:0:0:0:0:
402,192,49769,1,0,0:0:0:0:
475,192,49769,1,0,0:0:0:0:
109,192,49769,1,0,0:0:0:0:
36,192,49769,1,0,0:0:0:0:
182,192,49860,1,0,0:0:0:0:
256,192,49952,1,0,0:0:0:0:
329,192,49952,1,0,0:0:0:0:
402,192,50043,1,0,0:0:0:0:
475,192,50135,1,0,0:0:0:0:
109,192,50135,1,0,0:0:0:0:
36,192,50135,1,0,0:0:0:0:
256,192,50135,1,0,0:0:0:0:
329,192,50226,1,0,0:0:0:0:
109,192,50318,1,0,0:0:0:0:
182,192,50318,1,0,0:0:0:0:
402,192,50318,1,0,0:0:0:0:
329,192,50363,1,0,0:0:0:0:
256,192,50409,1,0,0:0:0:0:
182,192,50455,1,0,0:0:0:0:
329,192,50500,1,0,0:0:0:0:
475,192,50500,1,0,0:0:0:0:
109,192,50500,1,0,0:0:0:0:
36,192,50500,1,0,0:0:0:0:
256,192,50592,1,0,0:0:0:0:
182,192,50683,1,0,0:0:0:0:
402,192,50683,1,0,0:0:0:0:
475,192,50683,1,0,0:0:0:0:
329,192,50775,1,0,0:0:0:0:
256,192,50866,1,0,0:0:0:0:
475,192,50866,1,0,0:0:0:0:
36,192,50866,1,0,0:0:0:0:
109,192,50958,1,0,0:0:0:0:
182,192,51049,1,0,0:0:0:0:
475,192,51049,1,0,0:0:0:0:
402,192,51049,1,0,0:0:0:0:
329,192,51141,1,0,0:0:0:0:
256,192,51232,1,0,0:0:0:0:
475,192,51232,1,0,0:0:0:0:
109,192,51232,1,0,0:0:0:0:
36,192,51232,1,0,0:0:0:0:
402,192,51324,1,0,0:0:0:0:
329,192,51415,1,0,0:0:0:0:
182,192,51415,1,0,0:0:0:0:
109,192,51507,1,0,0:0:0:0:
36,192,51598,1,0,0:0:0:0:
256,192,51598,1,0,0:0:0:0:
402,192,51598,1,0,0:0:0:0:
182,192,51689,1,0,0:0:0:0:
329,192,51781,1,0,0:0:0:0:
475,192,51781,1,0,0:0:0:0:
109,192,51781,1,0,0:0:0:0:
182,192,51827,1,0,0:0:0:0:
256,192,51872,1,0,0:0:0:0:
329,192,51918,1,0,0:0:0:0:
402,192,51964,1,0,0:0:0:0:
475,192,51964,1,0,0:0:0:0:
109,192,51964,1,0,0:0:0:0:
36,192,51964,1,0,0:0:0:0:
182,192,52055,1,0,0:0:0:0:
256,192,52147,1,0,0:0:0:0:
475,192,52147,1,0,0:0:0:0:
36,192,52147,1,0,0:0:0:0:
329,192,52238,1,0,0:0:0:0:
402,192,52330,1,0,0:0:0:0:
475,192,52330,1,0,0:0:0:0:
109,192,52330,1,0,0:0:0:0:
36,192,52330,1,0,0:0:0:0:
182,192,52375,1,0,0:0:0:0:
256,192,52421,1,0,0:0:0:0:
329,192,52467,1,0,0:0:0:0:
402,192,52513,1,0,0:0:0:0:
109,192,52513,1,0,0:0:0:0:
36,192,52513,1,0,0:0:0:0:
475,192,52513,1,0,0:0:0:0:
182,192,52558,1,0,0:0:0:0:
256,192,52604,1,0,0:0:0:0:
329,192,52650,1,0,0:0:0:0:
402,192,52696,1,0,0:0:0:0:
475,192,52696,1,0,0:0:0:0:
109,192,52696,1,0,0:0:0:0:
182,192,52696,1,0,0:0:0:0:
36,192,52787,1,0,0:0:0:0:
329,192,52787,1,0,0:0:0:0:
182,192,52879,1,0,0:0:0:0:
475,192,52879,1,0,0:0:0:0:
256,192,52879,1,0,0:0:0:0:
109,192,52970,1,0,0:0:0:0:
402,192,52970,1,0,0:0:0:0:
36,192,53061,1,0,0:0:0:0:
256,192,53061,1,0,0:0:0:0:
475,192,53061,1,0,0:0:0:0:
182,192,53153,1,0,0:0:0:0:
402,192,53153,1,0,0:0:0:0:
109,192,53244,1,0,0:0:0:0:
329,192,53244,1,0,0:0:0:0:
36,192,53244,1,0,0:0:0:0:
182,192,53290,1,0,0:0:0:0:
256,192,53336,1,0,0:0:0:0:
329,192,53382,1,0,0:0:0:0:
402,192,53427,1,0,0:0:0:0:
475,192,53427,1,0,0:0:0:0:
182,192,53427,1,0,0:0:0:0:
109,192,53427,1,0,0:0:0:0:
36,192,53519,1,0,0:0:0:0:
256,192,53519,1,0,0:0:0:0:
109,192,53610,1,0,0:0:0:0:
329,192,53610,1,0,0:0:0:0:
475,192,53610,1,0,0:0:0:0:
182,192,53702,1,0,0:0:0:0:
402,192,53702,1,0,0:0:0:0:
256,192,53793,1,0,0:0:0:0:
475,192,53793,1,0,0:0:0:0:
36,192,53793,1,0,0:0:0:0:
109,192,53885,1,0,0:0:0:0:
329,192,53885,1,0,0:0:0:0:
182,192,53976,1,0,0:0:0:0:
402,192,53976,1,0,0:0:0:0:
36,192,53976,1,0,0:0:0:0:
256,192,54068,1,0,0:0:0:0:
475,192,54068,1,0,0:0:0:0:
329,192,54159,1,0,0:0:0:0:
402,192,54159,1,0,0:0:0:0:
182,192,54159,1,0,0:0:0:0:
109,192,54159,1,0,0:0:0:0:
109,192,54342,1,0,0:0:0:0:
402,192,54342,1,0,0:0:0:0:
329,192,54433,1,0,0:0:0:0:
182,192,54433,1,0,0:0:0:0:
256,192,54525,1,0,0:0:0:0:
475,192,54525,1,0,0:0:0:0:
36,192,54525,1,0,0:0:0:0:
109,192,54708,1,0,0:0:0:0:
402,192,54708,1,0,0:0:0:0:
182,192,54754,1,0,0:0:0:0:
329,192,54754,1,0,0:0:0:0:
256,192,54799,1,0,0:0:0:0:
402,192,54891,128,0,55074:0:0:0:0:
475,192,54891,128,0,55074:0:0:0:0:
109,192,54891,128,0,55074:0:0:0:0:
182,192,54891,128,0,55074:0:0:0:0:
256,192,55074,128,0,55257:0:0:0:0:
329,192,55074,128,0,55257:0:0:0:0:
109,192,55257,128,0,55439:0:0:0:0:
36,192,55257,128,0,55439:0:0:0:0:
402,192,55257,128,0,55439:0:0:0:0:
475,192,55257,128,0,55439:0:0:0:0:
182,192,55439,128,0,55622:0:0:0:0:
475,192,55622,128,0,55897:0:0:0:0:
402,192,55622,128,0,55805:0:0:0:0:
329,192,55622,128,0,55714:0:0:0:0:
36,192,55622,128,0,55897:0:0:0:0:
256,192,55622,128,0,55897:0:0:0:0:
109,192,55714,128,0,55897:0:0:0:0:
182,192,55805,128,0,55897:0:0:0:0:
36,192,55988,128,0,56263:0:0:0:0:
182,192,55988,128,0,56080:0:0:0:0:
402,192,55988,128,0,56080:0:0:0:0:
475,192,55988,128,0,56080:0:0:0:0:
329,192,55988,128,0,56080:0:0:0:0:
256,192,56080,128,0,56171:0:0:0:0:
109,192,56171,128,0,56446:0:0:0:0:
329,192,56171,128,0,56263:0:0:0:0:
475,192,56171,128,0,56263:0:0:0:0:
402,192,56263,128,0,56354:0:0:0:0:
182,192,56354,128,0,56629:0:0:0:0:
475,192,56354,128,0,56446:0:0:0:0:
256,192,56354,128,0,56446:0:0:0:0:
329,192,56446,128,0,56537:0:0:0:0:
109,192,56537,128,0,56811:0:0:0:0:
402,192,56537,128,0,56629:0:0:0:0:
475,192,56537,128,0,56629:0:0:0:0:
329,192,56629,128,0,56720:0:0:0:0:
36,192,56720,128,0,56994:0:0:0:0:
256,192,56720,128,0,56811:0:0:0:0:
475,192,56720,128,0,56811:0:0:0:0:
402,192,56811,128,0,56903:0:0:0:0:
182,192,56903,128,0,57177:0:0:0:0:
329,192,56903,128,0,56994:0:0:0:0:
109,192,56903,128,0,56994:0:0:0:0:
256,192,56994,128,0,57086:0:0:0:0:
36,192,57086,128,0,57360:0:0:0:0:
475,192,57086,128,0,57177:0:0:0:0:
402,192,57086,128,0,57177:0:0:0:0:
329,192,57177,128,0,57269:0:0:0:0:
109,192,57269,128,0,57726:0:0:0:0:
256,192,57269,128,0,57360:0:0:0:0:
475,192,57269,128,0,57360:0:0:0:0:
402,192,57360,128,0,57452:0:0:0:0:
182,192,57360,128,0,57452:0:0:0:0:
36,192,57452,128,0,57726:0:0:0:0:
329,192,57452,128,0,57543:0:0:0:0:
475,192,57452,128,0,57543:0:0:0:0:
256,192,57452,128,0,57543:0:0:0:0:
256,192,57635,128,0,57818:0:0:0:0:
329,192,57635,128,0,57818:0:0:0:0:
475,192,57635,128,0,57818:0:0:0:0:
402,192,57818,128,0,58000:0:0:0:0:
36,192,57818,128,0,58000:0:0:0:0:
109,192,57818,128,0,58000:0:0:0:0:
182,192,57818,128,0,58000:0:0:0:0:
256,192,58000,128,0,58183:0:0:0:0:
109,192,58183,128,0,58366:0:0:0:0:
402,192,58183,128,0,58366:0:0:0:0:
475,192,58183,128,0,58366:0:0:0:0:
329,192,58183,128,0,58366:0:0:0:0:
182,192,58366,1,0,0:0:0:0:
256,192,58412,1,0,0:0:0:0:
329,192,58458,1,0,0:0:0:0:
402,192,58504,1,0,0:0:0:0:
475,192,58549,128,0,58824:0:0:0:0:
256,192,58549,128,0,58824:0:0:0:0:
109,192,58549,128,0,58732:0:0:0:0:
36,192,58549,128,0,58824:0:0:0:0:
182,192,58549,128,0,58641:0:0:0:0:
402,192,58641,128,0,58824:0:0:0:0:
329,192,58732,128,0,58824:0:0:0:0:
475,192,58915,128,0,59189:0:0:0:0:
329,192,58915,128,0,59007:0:0:0:0:
109,192,58915,128,0,59007:0:0:0:0:
36,192,58915,128,0,59007:0:0:0:0:
182,192,58915,128,0,59007:0:0:0:0:
256,192,59007,128,0,59098:0:0:0:0:
402,192,59098,128,0,59372:0:0:0:0:
182,192,59098,128,0,59189:0:0:0:0:
36,192,59098,128,0,59189:0:0:0:0:
109,192,59189,128,0,59281:0:0:0:0:
329,192,59281,128,0,59555:0:0:0:0:
36,192,59281,128,0,59372:0:0:0:0:
256,192,59281,128,0,59372:0:0:0:0:
182,192,59372,128,0,59464:0:0:0:0:
402,192,59464,128,0,59738:0:0:0:0:
109,192,59464,128,0,59555:0:0:0:0:
36,192,59464,128,0,59555:0:0:0:0:
182,192,59555,128,0,59647:0:0:0:0:
475,192,59647,128,0,59921:0:0:0:0:
256,192,59647,128,0,59738:0:0:0:0:
36,192,59647,128,0,59738:0:0:0:0:
109,192,59738,128,0,59830:0:0:0:0:
329,192,59830,128,0,60104:0:0:0:0:
182,192,59830,128,0,59921:0:0:0:0:
402,192,59830,128,0,59921:0:0:0:0:
256,192,59921,128,0,60013:0:0:0:0:
475,192,60013,128,0,60287:0:0:0:0:
36,192,60013,128,0,60104:0:0:0:0:
109,192,60013,128,0,60104:0:0:0:0:
182,192,60104,128,0,60196:0:0:0:0:
402,192,60196,128,0,60653:0:0:0:0:
256,192,60196,128,0,60287:0:0:0:0:
36,192,60196,128,0,60287:0:0:0:0:
109,192,60287,128,0,60379:0:0:0:0:
329,192,60287,128,0,60379:0:0:0:0:
475,192,60379,128,0,60653:0:0:0:0:
182,192,60379,128,0,60470:0:0:0:0:
36,192,60379,128,0,60470:0:0:0:0:
256,192,60379,128,0,60470:0:0:0:0:
256,192,60561,128,0,60653:0:0:0:0:
182,192,60561,128,0,60653:0:0:0:0:
36,192,60561,128,0,60653:0:0:0:0:
109,192,60744,128,0,60927:0:0:0:0:
36,192,60744,128,0,60927:0:0:0:0:
402,192,60744,128,0,60927:0:0:0:0:
329,192,60744,128,0,60927:0:0:0:0:
256,192,60927,128,0,61110:0:0:0:0:
182,192,60927,128,0,61110:0:0:0:0:
475,192,61110,128,0,61293:0:0:0:0:
109,192,61110,128,0,61293:0:0:0:0:
402,192,61110,128,0,61293:0:0:0:0:
36,192,61110,128,0,61293:0:0:0:0:
329,192,61293,128,0,61476:0:0:0:0:
475,192,61476,128,0,61750:0:0:0:0:
256,192,61476,128,0,61750:0:0:0:0:
109,192,61476,128,0,61659:0:0:0:0:
36,192,61476,128,0,61750:0:0:0:0:
182,192,61476,128,0,61568:0:0:0:0:
402,192,61568,128,0,61750:0:0:0:0:
329,192,61659,128,0,61750:0:0:0:0:
182,192,61842,128,0,61933:0:0:0:0:
256,192,61842,128,0,61933:0:0:0:0:
475,192,61842,128,0,61933:0:0:0:0:
329,192,61842,128,0,61933:0:0:0:0:
36,192,61842,128,0,61933:0:0:0:0:
109,192,61933,128,0,62025:0:0:0:0:
256,192,62025,128,0,62116:0:0:0:0:
402,192,62025,128,0,62116:0:0:0:0:
475,192,62025,128,0,62116:0:0:0:0:
182,192,62116,128,0,62208:0:0:0:0:
109,192,62208,128,0,62299:0:0:0:0:
36,192,62208,128,0,62299:0:0:0:0:
329,192,62208,128,0,62299:0:0:0:0:
475,192,62208,128,0,62299:0:0:0:0:
256,192,62299,128,0,62391:0:0:0:0:
182,192,62391,128,0,62482:0:0:0:0:
402,192,62391,128,0,62482:0:0:0:0:
329,192,62482,128,0,62574:0:0:0:0:
109,192,62574,128,0,62848:0:0:0:0:
256,192,62574,128,0,62665:0:0:0:0:
475,192,62574,128,0,62665:0:0:0:0:
36,192,62574,128,0,62848:0:0:0:0:
402,192,62665,128,0,62757:0:0:0:0:
182,192,62665,128,0,62848:0:0:0:0:
329,192,62757,128,0,62848:0:0:0:0:
475,192,62939,128,0,63214:0:0:0:0:
329,192,62939,128,0,63031:0:0:0:0:
256,192,62939,128,0,63214:0:0:0:0:
36,192,62939,128,0,63214:0:0:0:0:
402,192,62939,128,0,63122:0:0:0:0:
109,192,63031,128,0,63214:0:0:0:0:
182,192,63122,128,0,63214:0:0:0:0:
329,192,63305,128,0,63397:0:0:0:0:
256,192,63305,128,0,63397:0:0:0:0:
36,192,63305,128,0,63397:0:0:0:0:
182,192,63305,128,0,63397:0:0:0:0:
475,192,63305,128,0,63397:0:0:0:0:
402,192,63397,128,0,63488:0:0:0:0:
36,192,63488,128,0,63580:0:0:0:0:
109,192,63488,128,0,63580:0:0:0:0:
256,192,63488,128,0,63580:0:0:0:0:
329,192,63580,128,0,63671:0:0:0:0:
182,192,63671,128,0,63763:0:0:0:0:
36,192,63671,128,0,63763:0:0:0:0:
402,192,63671,128,0,63763:0:0:0:0:
475,192,63671,128,0,63763:0:0:0:0:
256,192,63763,128,0,63854:0:0:0:0:
329,192,63854,128,0,63946:0:0:0:0:
109,192,63854,128,0,63946:0:0:0:0:
182,192,63946,128,0,64037:0:0:0:0:
402,192,64037,128,0,64129:0:0:0:0:
109,192,64037,128,0,64129:0:0:0:0:
36,192,64037,128,0,64129:0:0:0:0:
475,192,64037,128,0,64129:0:0:0:0:
329,192,64083,128,0,64174:0:0:0:0:
256,192,64129,128,0,64220:0:0:0:0:
182,192,64174,128,0,64266:0:0:0:0:
402,192,64220,128,0,64311:0:0:0:0:
475,192,64220,128,0,64311:0:0:0:0:
109,192,64220,128,0,64311:0:0:0:0:
36,192,64220,128,0,64311:0:0:0:0:
329,192,64266,128,0,64357:0:0:0:0:
256,192,64311,128,0,64403:0:0:0:0:
182,192,64357,128,0,64403:0:0:0:0:
475,192,64403,128,0,64586:0:0:0:0:
402,192,64403,128,0,64586:0:0:0:0:
36,192,64403,128,0,64952:0:0:0:0:
109,192,64403,128,0,64769:0:0:0:0:
329,192,64586,128,0,64769:0:0:0:0:
475,192,64769,128,0,64860:0:0:0:0:
402,192,64769,128,0,64860:0:0:0:0:
182,192,64769,128,0,65135:0:0:0:0:
256,192,64769,128,0,64952:0:0:0:0:
402,192,64952,128,0,65043:0:0:0:0:
475,192,64952,128,0,65043:0:0:0:0:
109,192,64952,128,0,65318:0:0:0:0:
402,192,65135,128,0,65318:0:0:0:0:
475,192,65135,128,0,65318:0:0:0:0:
36,192,65135,128,0,65500:0:0:0:0:
256,192,65135,128,0,65318:0:0:0:0:
182,192,65318,128,0,65866:0:0:0:0:
329,192,65318,128,0,65500:0:0:0:0:
109,192,65500,128,0,65866:0:0:0:0:
475,192,65500,128,0,65592:0:0:0:0:
402,192,65500,128,0,65592:0:0:0:0:
36,192,65683,128,0,65866:0:0:0:0:
402,192,65866,128,0,66232:0:0:0:0:
256,192,65866,128,0,66232:0:0:0:0:
475,192,66049,128,0,66415:0:0:0:0:
182,192,66049,128,0,66415:0:0:0:0:
36,192,66232,128,0,67147:0:0:0:0:
329,192,66232,128,0,66415:0:0:0:0:
109,192,66415,128,0,66598:0:0:0:0:
256,192,66415,128,0,66598:0:0:0:0:
402,192,66415,128,0,66598:0:0:0:0:
182,192,66598,128,0,66781:0:0:0:0:
475,192,66598,128,0,67147:0:0:0:0:
329,192,66598,128,0,66781:0:0:0:0:
109,192,66781,128,0,66964:0:0:0:0:
256,192,66781,128,0,66964:0:0:0:0:
402,192,66781,128,0,66964:0:0:0:0:
329,192,66964,128,0,67147:0:0:0:0:
182,192,66964,128,0,67147:0:0:0:0:
109,192,67147,128,0,67330:0:0:0:0:
256,192,67147,128,0,67330:0:0:0:0:
402,192,67147,128,0,67330:0:0:0:0:
182,192,67330,1,0,0:0:0:0:
329,192,67330,1,0,0:0:0:0:
475,192,67330,1,0,0:0:0:0:
36,192,67330,1,0,0:0:0:0:
329,192,67696,128,0,67787:0:0:0:0:
36,192,67696,1,0,0:0:0:0:
402,192,67879,128,0,67970:0:0:0:0:
475,192,68061,128,0,68153:0:0:0:0:
36,192,68061,1,0,0:0:0:0:
402,192,68244,128,0,68336:0:0:0:0:
329,192,68427,128,0,68519:0:0:0:0:
36,192,68427,1,0,0:0:0:0:
475,192,68793,128,0,68885:0:0:0:0:
36,192,68793,128,0,68976:0:0:0:0:
182,192,68976,128,0,69159:0:0:0:0:
329,192,68976,128,0,69068:0:0:0:0:
402,192,69068,128,0,69159:0:0:0:0:
475,192,69159,128,0,69250:0:0:0:0:
36,192,69159,1,0,0:0:0:0:
402,192,69342,128,0,69433:0:0:0:0:
182,192,69342,128,0,69525:0:0:0:0:
329,192,69525,128,0,69616:0:0:0:0:
36,192,69525,128,0,69708:0:0:0:0:
402,192,69708,128,0,69799:0:0:0:0:
475,192,69891,128,0,69982:0:0:0:0:
36,192,69891,1,0,0:0:0:0:
182,192,69891,128,0,70257:0:0:0:0:
329,192,70257,128,0,70348:0:0:0:0:
36,192,70257,1,0,0:0:0:0:
402,192,70439,128,0,70531:0:0:0:0:
475,192,70622,128,0,70714:0:0:0:0:
36,192,70622,1,0,0:0:0:0:
402,192,70805,128,0,70897:0:0:0:0:
329,192,70988,128,0,71080:0:0:0:0:
36,192,70988,1,0,0:0:0:0:
402,192,71171,128,0,71263:0:0:0:0:
475,192,71354,128,0,71446:0:0:0:0:
36,192,71354,1,0,0:0:0:0:
475,192,71720,128,0,71811:0:0:0:0:
36,192,71720,1,0,0:0:0:0:
329,192,71903,128,0,71994:0:0:0:0:
402,192,71994,128,0,72086:0:0:0:0:
475,192,72086,128,0,72177:0:0:0:0:
36,192,72086,1,0,0:0:0:0:
329,192,72269,128,0,72360:0:0:0:0:
475,192,72452,128,0,72543:0:0:0:0:
36,192,72452,1,0,0:0:0:0:
402,192,72635,128,0,72726:0:0:0:0:
329,192,72818,128,0,72909:0:0:0:0:
36,192,72818,1,0,0:0:0:0:
256,192,73183,1,0,0:0:0:0:
402,192,73183,1,0,0:0:0:0:
475,192,73183,1,0,0:0:0:0:
109,192,73183,1,0,0:0:0:0:
36,192,73183,1,0,0:0:0:0:
36,192,73549,1,0,0:0:0:0:
475,192,73549,1,0,0:0:0:0:
402,192,73549,1,0,0:0:0:0:
109,192,73641,1,0,0:0:0:0:
329,192,73641,1,0,0:0:0:0:
182,192,73732,1,0,0:0:0:0:
475,192,73732,1,0,0:0:0:0:
402,192,73732,1,0,0:0:0:0:
109,192,73824,1,0,0:0:0:0:
329,192,73824,1,0,0:0:0:0:
36,192,73915,1,0,0:0:0:0:
475,192,73915,1,0,0:0:0:0:
402,192,73915,1,0,0:0:0:0:
109,192,74007,1,0,0:0:0:0:
329,192,74007,1,0,0:0:0:0:
182,192,74098,1,0,0:0:0:0:
36,192,74098,1,0,0:0:0:0:
402,192,74098,1,0,0:0:0:0:
475,192,74098,1,0,0:0:0:0:
402,192,74281,1,0,0:0:0:0:
475,192,74281,1,0,0:0:0:0:
109,192,74281,1,0,0:0:0:0:
256,192,74281,1,0,0:0:0:0:
402,192,74464,1,0,0:0:0:0:
475,192,74464,1,0,0:0:0:0:
182,192,74464,1,0,0:0:0:0:
329,192,74464,1,0,0:0:0:0:
36,192,74647,1,0,0:0:0:0:
329,192,74647,1,0,0:0:0:0:
182,192,74647,1,0,0:0:0:0:
109,192,74647,1,0,0:0:0:0:
402,192,74830,1,0,0:0:0:0:
256,192,74830,1,0,0:0:0:0:
475,192,75013,1,0,0:0:0:0:
36,192,75013,1,0,0:0:0:0:
109,192,75013,1,0,0:0:0:0:
329,192,75013,1,0,0:0:0:0:
256,192,75196,1,0,0:0:0:0:
182,192,75196,1,0,0:0:0:0:
109,192,75379,1,0,0:0:0:0:
36,192,75379,1,0,0:0:0:0:
329,192,75379,1,0,0:0:0:0:
402,192,75379,1,0,0:0:0:0:
329,192,75561,1,0,0:0:0:0:
109,192,75561,1,0,0:0:0:0:
36,192,75561,1,0,0:0:0:0:
402,192,75744,1,0,0:0:0:0:
475,192,75744,1,0,0:0:0:0:
182,192,75744,1,0,0:0:0:0:
256,192,75744,1,0,0:0:0:0:
329,192,75927,1,0,0:0:0:0:
109,192,75927,1,0,0:0:0:0:
182,192,75927,1,0,0:0:0:0:
256,192,76110,1,0,0:0:0:0:
402,192,76110,1,0,0:0:0:0:
109,192,76110,1,0,0:0:0:0:
36,192,76110,1,0,0:0:0:0:
475,192,76293,1,0,0:0:0:0:
182,192,76293,1,0,0:0:0:0:
402,192,76385,1,0,0:0:0:0:
256,192,76385,1,0,0:0:0:0:
475,192,76476,1,0,0:0:0:0:
182,192,76476,1,0,0:0:0:0:
256,192,76659,1,0,0:0:0:0:
109,192,76659,1,0,0:0:0:0:
402,192,76842,1,0,0:0:0:0:
475,192,76842,1,0,0:0:0:0:
36,192,76842,1,0,0:0:0:0:
182,192,76842,1,0,0:0:0:0:
329,192,77025,1,0,0:0:0:0:
256,192,77025,1,0,0:0:0:0:
109,192,77025,1,0,0:0:0:0:
475,192,77208,1,0,0:0:0:0:
256,192,77208,1,0,0:0:0:0:
36,192,77208,1,0,0:0:0:0:
329,192,77208,1,0,0:0:0:0:
109,192,77391,1,0,0:0:0:0:
182,192,77391,1,0,0:0:0:0:
182,192,77482,1,0,0:0:0:0:
109,192,77482,1,0,0:0:0:0:
256,192,77574,1,0,0:0:0:0:
36,192,77574,1,0,0:0:0:0:
329,192,77574,1,0,0:0:0:0:
475,192,77574,1,0,0:0:0:0:
182,192,77757,128,0,77939:0:0:0:0:
475,192,77939,1,0,0:0:0:0:
329,192,77939,1,0,0:0:0:0:
36,192,77939,128,0,78122:0:0:0:0:
475,192,78122,1,0,0:0:0:0:
329,192,78122,1,0,0:0:0:0:
182,192,78122,128,0,78305:0:0:0:0:
475,192,78305,1,0,0:0:0:0:
36,192,78305,1,0,0:0:0:0:
402,192,78397,1,0,0:0:0:0:
109,192,78397,1,0,0:0:0:0:
329,192,78488,1,0,0:0:0:0:
182,192,78488,1,0,0:0:0:0:
402,192,78580,1,0,0:0:0:0:
109,192,78580,1,0,0:0:0:0:
475,192,78671,128,0,78946:0:0:0:0:
256,192,78671,128,0,78946:0:0:0:0:
36,192,78671,128,0,78946:0:0:0:0:
329,192,78854,1,0,0:0:0:0:
182,192,78854,1,0,0:0:0:0:
36,192,79037,1,0,0:0:0:0:
256,192,79037,1,0,0:0:0:0:
109,192,79037,1,0,0:0:0:0:
402,192,79037,1,0,0:0:0:0:
475,192,79037,1,0,0:0:0:0:
256,192,79220,1,0,0:0:0:0:
402,192,79403,1,0,0:0:0:0:
109,192,79403,1,0,0:0:0:0:
36,192,79403,1,0,0:0:0:0:
329,192,79494,1,0,0:0:0:0:
182,192,79494,1,0,0:0:0:0:
475,192,79586,1,0,0:0:0:0:
36,192,79586,1,0,0:0:0:0:
109,192,79586,1,0,0:0:0:0:
402,192,79677,1,0,0:0:0:0:
182,192,79677,1,0,0:0:0:0:
329,192,79769,1,0,0:0:0:0:
36,192,79769,1,0,0:0:0:0:
109,192,79769,1,0,0:0:0:0:
475,192,79860,1,0,0:0:0:0:
182,192,79860,1,0,0:0:0:0:
402,192,79952,1,0,0:0:0:0:
256,192,79952,1,0,0:0:0:0:
109,192,79952,1,0,0:0:0:0:
36,192,79952,1,0,0:0:0:0:
329,192,80135,1,0,0:0:0:0:
475,192,80135,1,0,0:0:0:0:
109,192,80135,1,0,0:0:0:0:
182,192,80135,1,0,0:0:0:0:
402,192,80318,1,0,0:0:0:0:
109,192,80318,1,0,0:0:0:0:
36,192,80318,1,0,0:0:0:0:
256,192,80318,1,0,0:0:0:0:
475,192,80500,1,0,0:0:0:0:
109,192,80500,1,0,0:0:0:0:
182,192,80500,1,0,0:0:0:0:
329,192,80500,1,0,0:0:0:0:
402,192,80683,1,0,0:0:0:0:
256,192,80683,1,0,0:0:0:0:
329,192,80775,1,0,0:0:0:0:
182,192,80775,1,0,0:0:0:0:
109,192,80866,1,0,0:0:0:0:
402,192,80866,1,0,0:0:0:0:
256,192,80866,1,0,0:0:0:0:
475,192,81049,1,0,0:0:0:0:
329,192,81049,1,0,0:0:0:0:
109,192,81049,1,0,0:0:0:0:
36,192,81232,1,0,0:0:0:0:
256,192,81232,1,0,0:0:0:0:
182,192,81232,1,0,0:0:0:0:
402,192,81232,1,0,0:0:0:0:
329,192,81415,1,0,0:0:0:0:
182,192,81415,1,0,0:0:0:0:
109,192,81415,1,0,0:0:0:0:
256,192,81598,1,0,0:0:0:0:
475,192,81598,1,0,0:0:0:0:
109,192,81598,1,0,0:0:0:0:
36,192,81598,1,0,0:0:0:0:
402,192,81781,1,0,0:0:0:0:
329,192,81781,1,0,0:0:0:0:
182,192,81781,1,0,0:0:0:0:
256,192,81964,1,0,0:0:0:0:
475,192,81964,1,0,0:0:0:0:
36,192,81964,128,0,82055:0:0:0:0:
109,192,81964,128,0,82055:0:0:0:0:
329,192,82147,1,0,0:0:0:0:
402,192,82147,1,0,0:0:0:0:
36,192,82147,128,0,82238:0:0:0:0:
109,192,82147,128,0,82238:0:0:0:0:
256,192,82330,1,0,0:0:0:0:
475,192,82330,1,0,0:0:0:0:
109,192,82330,128,0,82421:0:0:0:0:
182,192,82330,128,0,82421:0:0:0:0:
329,192,82513,1,0,0:0:0:0:
475,192,82513,1,0,0:0:0:0:
109,192,82513,128,0,82604:0:0:0:0:
182,192,82513,128,0,82604:0:0:0:0:
256,192,82696,1,0,0:0:0:0:
402,192,82696,1,0,0:0:0:0:
36,192,82696,128,0,82787:0:0:0:0:
109,192,82696,128,0,82787:0:0:0:0:
329,192,82879,1,0,0:0:0:0:
182,192,82879,1,0,0:0:0:0:
36,192,82879,1,0,0:0:0:0:
475,192,83061,1,0,0:0:0:0:
109,192,83061,128,0,83427:0:0:0:0:
256,192,83061,1,0,0:0:0:0:
402,192,83061,1,0,0:0:0:0:
256,192,83244,1,0,0:0:0:0:
182,192,83427,1,0,0:0:0:0:
36,192,83427,1,0,0:0:0:0:
329,192,83427,1,0,0:0:0:0:
475,192,83427,1,0,0:0:0:0:
256,192,83610,1,0,0:0:0:0:
402,192,83793,1,0,0:0:0:0:
475,192,83793,1,0,0:0:0:0:
109,192,83793,1,0,0:0:0:0:
36,192,83793,1,0,0:0:0:0:
109,192,83976,1,0,0:0:0:0:
36,192,83976,1,0,0:0:0:0:
402,192,83976,1,0,0:0:0:0:
475,192,83976,1,0,0:0:0:0:
329,192,84159,1,0,0:0:0:0:
402,192,84159,1,0,0:0:0:0:
109,192,84159,1,0,0:0:0:0:
182,192,84159,1,0,0:0:0:0:
182,192,84342,1,0,0:0:0:0:
36,192,84342,1,0,0:0:0:0:
256,192,84342,1,0,0:0:0:0:
256,192,84525,1,0,0:0:0:0:
475,192,84525,1,0,0:0:0:0:
109,192,84525,1,0,0:0:0:0:
329,192,84525,1,0,0:0:0:0:
402,192,84708,1,0,0:0:0:0:
256,192,84708,1,0,0:0:0:0:
182,192,84708,1,0,0:0:0:0:
475,192,84891,1,0,0:0:0:0:
36,192,84891,1,0,0:0:0:0:
329,192,84891,1,0,0:0:0:0:
109,192,84891,1,0,0:0:0:0:
109,192,85074,1,0,0:0:0:0:
182,192,85074,1,0,0:0:0:0:
329,192,85074,1,0,0:0:0:0:
475,192,85074,1,0,0:0:0:0:
36,192,85257,1,0,0:0:0:0:
182,192,85257,1,0,0:0:0:0:
329,192,85257,1,0,0:0:0:0:
475,192,85257,1,0,0:0:0:0:
109,192,85439,1,0,0:0:0:0:
256,192,85439,1,0,0:0:0:0:
329,192,85439,1,0,0:0:0:0:
475,192,85439,1,0,0:0:0:0:
182,192,85622,1,0,0:0:0:0:
36,192,85622,1,0,0:0:0:0:
329,192,85622,1,0,0:0:0:0:
475,192,85622,1,0,0:0:0:0:
109,192,85805,1,0,0:0:0:0:
402,192,85805,1,0,0:0:0:0:
329,192,85805,1,0,0:0:0:0:
475,192,85805,1,0,0:0:0:0:
256,192,85988,1,0,0:0:0:0:
36,192,85988,1,0,0:0:0:0:
329,192,85988,1,0,0:0:0:0:
475,192,85988,1,0,0:0:0:0:
109,192,86171,1,0,0:0:0:0:
182,192,86171,1,0,0:0:0:0:
329,192,86171,1,0,0:0:0:0:
475,192,86171,1,0,0:0:0:0:
329,192,86354,1,0,0:0:0:0:
475,192,86354,1,0,0:0:0:0:
256,192,86354,1,0,0:0:0:0:
36,192,86354,1,0,0:0:0:0:
109,192,86537,1,0,0:0:0:0:
182,192,86537,1,0,0:0:0:0:
329,192,86537,1,0,0:0:0:0:
475,192,86537,1,0,0:0:0:0:
36,192,86629,1,0,0:0:0:0:
402,192,86629,1,0,0:0:0:0:
109,192,86720,1,0,0:0:0:0:
182,192,86720,1,0,0:0:0:0:
329,192,86720,1,0,0:0:0:0:
475,192,86720,1,0,0:0:0:0:
109,192,86903,1,0,0:0:0:0:
182,192,86903,1,0,0:0:0:0:
329,192,86903,1,0,0:0:0:0:
475,192,86903,1,0,0:0:0:0:
402,192,87086,1,0,0:0:0:0:
475,192,87086,1,0,0:0:0:0:
36,192,87086,1,0,0:0:0:0:
256,192,87086,1,0,0:0:0:0:
109,192,87269,1,0,0:0:0:0:
182,192,87269,1,0,0:0:0:0:
402,192,87269,1,0,0:0:0:0:
475,192,87269,1,0,0:0:0:0:
36,192,87452,1,0,0:0:0:0:
256,192,87452,1,0,0:0:0:0:
329,192,87452,1,0,0:0:0:0:
402,192,87452,1,0,0:0:0:0:
182,192,87635,1,0,0:0:0:0:
36,192,87635,1,0,0:0:0:0:
329,192,87635,1,0,0:0:0:0:
402,192,87635,1,0,0:0:0:0:
36,192,87818,1,0,0:0:0:0:
109,192,87818,1,0,0:0:0:0:
402,192,87818,1,0,0:0:0:0:
475,192,87818,1,0,0:0:0:0:
256,192,88000,1,0,0:0:0:0:
329,192,88000,1,0,0:0:0:0:
109,192,88000,1,0,0:0:0:0:
36,192,88000,1,0,0:0:0:0:
256,192,88183,1,0,0:0:0:0:
475,192,88183,1,0,0:0:0:0:
109,192,88183,1,0,0:0:0:0:
36,192,88183,1,0,0:0:0:0:
329,192,88366,1,0,0:0:0:0:
475,192,88366,1,0,0:0:0:0:
36,192,88366,1,0,0:0:0:0:
109,192,88366,1,0,0:0:0:0:
402,192,88549,1,0,0:0:0:0:
256,192,88549,1,0,0:0:0:0:
109,192,88549,1,0,0:0:0:0:
36,192,88549,1,0,0:0:0:0:
329,192,88732,1,0,0:0:0:0:
475,192,88732,1,0,0:0:0:0:
109,192,88732,1,0,0:0:0:0:
36,192,88732,1,0,0:0:0:0:
182,192,88915,1,0,0:0:0:0:
402,192,88915,1,0,0:0:0:0:
36,192,88915,1,0,0:0:0:0:
109,192,88915,1,0,0:0:0:0:
256,192,89098,1,0,0:0:0:0:
475,192,89098,1,0,0:0:0:0:
109,192,89098,1,0,0:0:0:0:
36,192,89098,1,0,0:0:0:0:
329,192,89281,1,0,0:0:0:0:
475,192,89281,1,0,0:0:0:0:
36,192,89281,1,0,0:0:0:0:
109,192,89281,1,0,0:0:0:0:
402,192,89464,1,0,0:0:0:0:
475,192,89464,1,0,0:0:0:0:
109,192,89464,1,0,0:0:0:0:
36,192,89464,1,0,0:0:0:0:
329,192,89555,1,0,0:0:0:0:
182,192,89555,1,0,0:0:0:0:
402,192,89647,1,0,0:0:0:0:
475,192,89647,1,0,0:0:0:0:
109,192,89647,1,0,0:0:0:0:
36,192,89647,1,0,0:0:0:0:
256,192,89830,1,0,0:0:0:0:
402,192,89830,1,0,0:0:0:0:
109,192,89830,1,0,0:0:0:0:
36,192,89830,1,0,0:0:0:0:
329,192,90013,1,0,0:0:0:0:
475,192,90013,1,0,0:0:0:0:
109,192,90013,1,0,0:0:0:0:
182,192,90013,1,0,0:0:0:0:
329,192,90196,1,0,0:0:0:0:
475,192,90196,1,0,0:0:0:0:
109,192,90196,1,0,0:0:0:0:
182,192,90196,1,0,0:0:0:0:
256,192,90379,1,0,0:0:0:0:
402,192,90379,1,0,0:0:0:0:
36,192,90379,1,0,0:0:0:0:
182,192,90379,1,0,0:0:0:0:
36,192,90561,1,0,0:0:0:0:
402,192,90561,1,0,0:0:0:0:
256,192,90561,1,0,0:0:0:0:
182,192,90561,1,0,0:0:0:0:
329,192,90744,1,0,0:0:0:0:
475,192,90744,1,0,0:0:0:0:
256,192,90744,1,0,0:0:0:0:
109,192,90744,1,0,0:0:0:0:
36,192,90744,1,0,0:0:0:0:
329,192,90927,1,0,0:0:0:0:
182,192,90927,1,0,0:0:0:0:
36,192,91110,1,0,0:0:0:0:
109,192,91110,1,0,0:0:0:0:
182,192,91110,1,0,0:0:0:0:
402,192,91110,1,0,0:0:0:0:
109,192,91293,1,0,0:0:0:0:
36,192,91293,1,0,0:0:0:0:
402,192,91293,1,0,0:0:0:0:
256,192,91293,1,0,0:0:0:0:
329,192,91476,128,0,92116:0:0:0:0:
182,192,91476,128,0,92116:0:0:0:0:
256,192,92025,128,0,92116:0:0:0:0:
36,192,92208,1,0,0:0:0:0:
475,192,92208,1,0,0:0:0:0:
329,192,92208,1,0,0:0:0:0:
182,192,92208,1,0,0:0:0:0:
256,192,92208,1,0,0:0:0:0:
402,192,92391,1,0,0:0:0:0:
109,192,92391,1,0,0:0:0:0:
329,192,92482,1,0,0:0:0:0:
182,192,92482,1,0,0:0:0:0:
402,192,92574,1,0,0:0:0:0:
109,192,92574,1,0,0:0:0:0:
329,192,92757,1,0,0:0:0:0:
182,192,92757,1,0,0:0:0:0:
36,192,92757,1,0,0:0:0:0:
475,192,92939,1,0,0:0:0:0:
402,192,92939,1,0,0:0:0:0:
475,192,93031,1,0,0:0:0:0:
402,192,93031,1,0,0:0:0:0:
475,192,93122,1,0,0:0:0:0:
402,192,93122,1,0,0:0:0:0:
475,192,93214,1,0,0:0:0:0:
402,192,93214,1,0,0:0:0:0:
182,192,93305,128,0,93671:0:0:0:0:
109,192,93305,128,0,93671:0:0:0:0:
402,192,93671,1,0,0:0:0:0:
475,192,93671,1,0,0:0:0:0:
36,192,93671,1,0,0:0:0:0:
256,192,93671,1,0,0:0:0:0:
329,192,93854,1,0,0:0:0:0:
182,192,93854,1,0,0:0:0:0:
36,192,94037,1,0,0:0:0:0:
402,192,94037,1,0,0:0:0:0:
256,192,94037,1,0,0:0:0:0:
109,192,94037,1,0,0:0:0:0:
329,192,94220,1,0,0:0:0:0:
475,192,94220,1,0,0:0:0:0:
109,192,94220,1,0,0:0:0:0:
36,192,94220,1,0,0:0:0:0:
256,192,94403,1,0,0:0:0:0:
182,192,94403,1,0,0:0:0:0:
402,192,94586,1,0,0:0:0:0:
475,192,94586,1,0,0:0:0:0:
182,192,94586,1,0,0:0:0:0:
256,192,94586,1,0,0:0:0:0:
109,192,94769,1,0,0:0:0:0:
36,192,94769,1,0,0:0:0:0:
402,192,94769,1,0,0:0:0:0:
475,192,94769,1,0,0:0:0:0:
182,192,94952,1,0,0:0:0:0:
329,192,94952,1,0,0:0:0:0:
109,192,94952,1,0,0:0:0:0:
36,192,94952,1,0,0:0:0:0:
402,192,95135,1,0,0:0:0:0:
475,192,95135,1,0,0:0:0:0:
109,192,95135,1,0,0:0:0:0:
256,192,95135,1,0,0:0:0:0:
182,192,95318,1,0,0:0:0:0:
475,192,95318,1,0,0:0:0:0:
402,192,95318,1,0,0:0:0:0:
109,192,95409,1,0,0:0:0:0:
475,192,95409,1,0,0:0:0:0:
402,192,95409,1,0,0:0:0:0:
36,192,95500,1,0,0:0:0:0:
256,192,95500,1,0,0:0:0:0:
402,192,95500,1,0,0:0:0:0:
475,192,95500,1,0,0:0:0:0:
329,192,95683,1,0,0:0:0:0:
182,192,95683,1,0,0:0:0:0:
109,192,95683,1,0,0:0:0:0:
402,192,95866,1,0,0:0:0:0:
256,192,95866,1,0,0:0:0:0:
36,192,95866,1,0,0:0:0:0:
182,192,96049,1,0,0:0:0:0:
475,192,96049,1,0,0:0:0:0:
329,192,96049,1,0,0:0:0:0:
109,192,96232,1,0,0:0:0:0:
36,192,96232,1,0,0:0:0:0:
402,192,96232,1,0,0:0:0:0:
475,192,96232,1,0,0:0:0:0:
109,192,96415,1,0,0:0:0:0:
256,192,96415,1,0,0:0:0:0:
402,192,96415,1,0,0:0:0:0:
475,192,96415,1,0,0:0:0:0:
329,192,96598,128,0,96781:0:0:0:0:
182,192,96598,128,0,96781:0:0:0:0:
36,192,96598,128,0,96964:0:0:0:0:
475,192,96781,128,0,96964:0:0:0:0:
256,192,96964,1,0,0:0:0:0:
109,192,97147,1,0,0:0:0:0:
182,192,97147,1,0,0:0:0:0:
329,192,97330,128,0,97513:0:0:0:0:
256,192,97513,128,0,97696:0:0:0:0:
182,192,97696,1,0,0:0:0:0:
109,192,97696,1,0,0:0:0:0:
402,192,97696,128,0,97879:0:0:0:0:
256,192,97879,128,0,98061:0:0:0:0:
475,192,98061,1,0,0:0:0:0:
329,192,98061,1,0,0:0:0:0:
109,192,98061,128,0,98244:0:0:0:0:
182,192,98427,128,0,98793:0:0:0:0:
36,192,98610,1,0,0:0:0:0:
109,192,98610,1,0,0:0:0:0:
329,192,98793,128,0,98976:0:0:0:0:
109,192,99159,1,0,0:0:0:0:
329,192,99159,1,0,0:0:0:0:
402,192,99159,128,0,99342:0:0:0:0:
475,192,99525,1,0,0:0:0:0:
256,192,99525,128,0,100988:0:0:0:0:
329,192,99525,1,0,0:0:0:0:
182,192,99525,1,0,0:0:0:0:
36,192,99525,1,0,0:0:0:0:
402,192,100074,1,0,0:0:0:0:
109,192,100074,1,0,0:0:0:0:
475,192,100257,128,0,100439:0:0:0:0:
402,192,100439,128,0,100622:0:0:0:0:
182,192,100622,1,0,0:0:0:0:
36,192,100622,1,0,0:0:0:0:
475,192,100622,128,0,100805:0:0:0:0:
329,192,100805,128,0,100988:0:0:0:0:
109,192,100988,128,0,101171:0:0:0:0:
36,192,100988,128,0,102452:0:0:0:0:
182,192,101354,128,0,101537:0:0:0:0:
475,192,101537,1,0,0:0:0:0:
402,192,101537,1,0,0:0:0:0:
475,192,101720,1,0,0:0:0:0:
402,192,101720,1,0,0:0:0:0:
256,192,101720,128,0,101903:0:0:0:0:
475,192,101903,1,0,0:0:0:0:
402,192,101903,1,0,0:0:0:0:
109,192,102086,1,0,0:0:0:0:
329,192,102086,128,0,102452:0:0:0:0:
182,192,102132,1,0,0:0:0:0:
256,192,102177,1,0,0:0:0:0:
402,192,102223,1,0,0:0:0:0:
109,192,102452,1,0,0:0:0:0:
256,192,102452,1,0,0:0:0:0:
182,192,102452,1,0,0:0:0:0:
475,192,102452,128,0,103915:0:0:0:0:
402,192,102452,1,0,0:0:0:0:
109,192,102818,1,0,0:0:0:0:
36,192,102818,1,0,0:0:0:0:
36,192,103000,1,0,0:0:0:0:
109,192,103000,1,0,0:0:0:0:
182,192,103183,128,0,103366:0:0:0:0:
256,192,103366,128,0,103549:0:0:0:0:
329,192,103549,128,0,103732:0:0:0:0:
256,192,103732,128,0,103915:0:0:0:0:
109,192,103915,128,0,104098:0:0:0:0:
402,192,103915,128,0,104098:0:0:0:0:
182,192,103915,128,0,105379:0:0:0:0:
36,192,103915,128,0,104098:0:0:0:0:
329,192,104098,1,0,0:0:0:0:
256,192,104098,1,0,0:0:0:0:
402,192,104281,128,0,104464:0:0:0:0:
109,192,104281,128,0,104464:0:0:0:0:
329,192,104464,1,0,0:0:0:0:
256,192,104464,1,0,0:0:0:0:
475,192,104647,128,0,105013:0:0:0:0:
402,192,104647,128,0,105013:0:0:0:0:
36,192,104830,1,0,0:0:0:0:
109,192,104830,1,0,0:0:0:0:
109,192,105013,1,0,0:0:0:0:
36,192,105013,1,0,0:0:0:0:
256,192,105196,128,0,105379:0:0:0:0:
36,192,105379,1,0,0:0:0:0:
109,192,105379,1,0,0:0:0:0:
475,192,105379,128,0,106019:0:0:0:0:
329,192,105379,128,0,106385:0:0:0:0:
402,192,105379,128,0,105653:0:0:0:0:
182,192,105561,1,0,0:0:0:0:
36,192,105744,1,0,0:0:0:0:
109,192,105744,1,0,0:0:0:0:
402,192,105744,128,0,106385:0:0:0:0:
256,192,105927,1,0,0:0:0:0:
36,192,106110,1,0,0:0:0:0:
182,192,106110,1,0,0:0:0:0:
475,192,106110,128,0,106842:0:0:0:0:
256,192,106293,1,0,0:0:0:0:
109,192,106476,1,0,0:0:0:0:
36,192,106476,1,0,0:0:0:0:
402,192,106476,128,0,106842:0:0:0:0:
329,192,106476,128,0,106842:0:0:0:0:
182,192,106659,1,0,0:0:0:0:
256,192,106842,1,0,0:0:0:0:
36,192,106842,1,0,0:0:0:0:
329,192,106933,1,0,0:0:0:0:
109,192,106933,1,0,0:0:0:0:
402,192,107025,1,0,0:0:0:0:
182,192,107025,1,0,0:0:0:0:
475,192,107116,1,0,0:0:0:0:
256,192,107116,1,0,0:0:0:0:
402,192,107208,1,0,0:0:0:0:
182,192,107208,1,0,0:0:0:0:
109,192,107299,1,0,0:0:0:0:
329,192,107299,1,0,0:0:0:0:
256,192,107391,1,0,0:0:0:0:
36,192,107391,1,0,0:0:0:0:
402,192,107482,1,0,0:0:0:0:
182,192,107482,1,0,0:0:0:0:
329,192,107574,1,0,0:0:0:0:
475,192,107574,1,0,0:0:0:0:
256,192,107574,1,0,0:0:0:0:
109,192,107574,1,0,0:0:0:0:
36,192,107574,1,0,0:0:0:0:
256,192,107757,1,0,0:0:0:0:
329,192,107757,1,0,0:0:0:0:
109,192,107757,1,0,0:0:0:0:
36,192,107757,1,0,0:0:0:0:
402,192,107939,1,0,0:0:0:0:
475,192,107939,1,0,0:0:0:0:
329,192,107939,1,0,0:0:0:0:
109,192,107939,1,0,0:0:0:0:
182,192,107939,1,0,0:0:0:0:
402,192,108305,1,0,0:0:0:0:
475,192,108305,1,0,0:0:0:0:
36,192,108305,1,0,0:0:0:0:
256,192,108305,1,0,0:0:0:0:
182,192,108397,1,0,0:0:0:0:
329,192,108488,1,0,0:0:0:0:
109,192,108488,1,0,0:0:0:0:
402,192,108580,1,0,0:0:0:0:
36,192,108671,128,0,108763:0:0:0:0:
109,192,108671,128,0,108763:0:0:0:0:
475,192,108671,1,0,0:0:0:0:
256,192,108671,1,0,0:0:0:0:
329,192,108763,1,0,0:0:0:0:
475,192,108854,1,0,0:0:0:0:
109,192,108854,128,0,108946:0:0:0:0:
36,192,108854,128,0,108946:0:0:0:0:
402,192,108946,1,0,0:0:0:0:
329,192,109037,1,0,0:0:0:0:
256,192,109037,1,0,0:0:0:0:
109,192,109037,128,0,109129:0:0:0:0:
182,192,109037,128,0,109129:0:0:0:0:
402,192,109129,1,0,0:0:0:0:
475,192,109220,1,0,0:0:0:0:
182,192,109220,128,0,109311:0:0:0:0:
109,192,109220,128,0,109311:0:0:0:0:
329,192,109311,1,0,0:0:0:0:
402,192,109403,1,0,0:0:0:0:
475,192,109403,1,0,0:0:0:0:
36,192,109403,128,0,109494:0:0:0:0:
182,192,109403,128,0,109494:0:0:0:0:
256,192,109494,1,0,0:0:0:0:
329,192,109586,1,0,0:0:0:0:
182,192,109586,128,0,109677:0:0:0:0:
36,192,109586,128,0,109677:0:0:0:0:
475,192,109677,1,0,0:0:0:0:
402,192,109769,1,0,0:0:0:0:
256,192,109769,1,0,0:0:0:0:
109,192,109769,128,0,109860:0:0:0:0:
36,192,109769,128,0,109860:0:0:0:0:
329,192,109860,1,0,0:0:0:0:
256,192,109952,1,0,0:0:0:0:
402,192,109952,1,0,0:0:0:0:
36,192,109952,128,0,110043:0:0:0:0:
109,192,109952,128,0,110043:0:0:0:0:
182,192,110043,1,0,0:0:0:0:
402,192,110135,1,0,0:0:0:0:
475,192,110135,1,0,0:0:0:0:
109,192,110135,128,0,110318:0:0:0:0:
36,192,110135,128,0,110318:0:0:0:0:
329,192,110226,1,0,0:0:0:0:
256,192,110318,1,0,0:0:0:0:
475,192,110318,1,0,0:0:0:0:
402,192,110318,1,0,0:0:0:0:
182,192,110409,1,0,0:0:0:0:
329,192,110500,1,0,0:0:0:0:
36,192,110500,1,0,0:0:0:0:
109,192,110500,1,0,0:0:0:0:
256,192,110592,1,0,0:0:0:0:
475,192,110683,1,0,0:0:0:0:
402,192,110683,1,0,0:0:0:0:
182,192,110683,1,0,0:0:0:0:
329,192,110775,1,0,0:0:0:0:
36,192,110866,1,0,0:0:0:0:
109,192,110866,1,0,0:0:0:0:
256,192,110866,1,0,0:0:0:0:
329,192,110958,1,0,0:0:0:0:
182,192,110958,1,0,0:0:0:0:
402,192,111049,1,0,0:0:0:0:
256,192,111049,1,0,0:0:0:0:
475,192,111141,1,0,0:0:0:0:
329,192,111141,1,0,0:0:0:0:
109,192,111232,1,0,0:0:0:0:
36,192,111232,1,0,0:0:0:0:
402,192,111232,1,0,0:0:0:0:
182,192,111232,1,0,0:0:0:0:
256,192,111324,1,0,0:0:0:0:
36,192,111415,1,0,0:0:0:0:
329,192,111415,1,0,0:0:0:0:
182,192,111507,1,0,0:0:0:0:
475,192,111598,128,0,111689:0:0:0:0:
109,192,111598,1,0,0:0:0:0:
36,192,111598,1,0,0:0:0:0:
329,192,111598,128,0,111689:0:0:0:0:
182,192,111689,1,0,0:0:0:0:
256,192,111781,1,0,0:0:0:0:
475,192,111781,128,0,111872:0:0:0:0:
329,192,111781,128,0,111872:0:0:0:0:
109,192,111872,1,0,0:0:0:0:
182,192,111964,1,0,0:0:0:0:
36,192,111964,1,0,0:0:0:0:
402,192,111964,128,0,112055:0:0:0:0:
475,192,111964,128,0,112055:0:0:0:0:
256,192,112055,1,0,0:0:0:0:
182,192,112147,1,0,0:0:0:0:
475,192,112147,128,0,112238:0:0:0:0:
402,192,112147,128,0,112238:0:0:0:0:
109,192,112238,1,0,0:0:0:0:
36,192,112330,1,0,0:0:0:0:
182,192,112330,1,0,0:0:0:0:
402,192,112330,128,0,112421:0:0:0:0:
329,192,112330,128,0,112421:0:0:0:0:
256,192,112421,1,0,0:0:0:0:
109,192,112513,1,0,0:0:0:0:
36,192,112513,1,0,0:0:0:0:
329,192,112513,128,0,112604:0:0:0:0:
402,192,112513,128,0,112604:0:0:0:0:
182,192,112604,1,0,0:0:0:0:
256,192,112696,1,0,0:0:0:0:
36,192,112696,1,0,0:0:0:0:
329,192,112696,128,0,112787:0:0:0:0:
475,192,112696,128,0,112787:0:0:0:0:
109,192,112787,1,0,0:0:0:0:
182,192,112879,1,0,0:0:0:0:
475,192,112879,128,0,112970:0:0:0:0:
329,192,112879,128,0,112970:0:0:0:0:
109,192,112970,1,0,0:0:0:0:
36,192,113061,1,0,0:0:0:0:
256,192,113061,1,0,0:0:0:0:
329,192,113061,128,0,113244:0:0:0:0:
475,192,113061,128,0,113244:0:0:0:0:
182,192,113153,1,0,0:0:0:0:
109,192,113244,1,0,0:0:0:0:
256,192,113336,1,0,0:0:0:0:
402,192,113427,1,0,0:0:0:0:
36,192,113427,1,0,0:0:0:0:
182,192,113427,1,0,0:0:0:0:
256,192,113519,1,0,0:0:0:0:
36,192,113610,1,0,0:0:0:0:
329,192,113610,1,0,0:0:0:0:
402,192,113610,1,0,0:0:0:0:
475,192,113610,1,0,0:0:0:0:
182,192,113702,1,0,0:0:0:0:
475,192,113793,1,0,0:0:0:0:
36,192,113793,1,0,0:0:0:0:
109,192,113793,1,0,0:0:0:0:
256,192,113885,1,0,0:0:0:0:
402,192,113976,1,0,0:0:0:0:
329,192,113976,1,0,0:0:0:0:
109,192,113976,1,0,0:0:0:0:
256,192,114068,1,0,0:0:0:0:
402,192,114159,1,0,0:0:0:0:
475,192,114159,1,0,0:0:0:0:
182,192,114159,1,0,0:0:0:0:
36,192,114159,1,0,0:0:0:0:
329,192,114250,1,0,0:0:0:0:
109,192,114250,1,0,0:0:0:0:
402,192,114342,1,0,0:0:0:0:
256,192,114342,1,0,0:0:0:0:
329,192,114433,1,0,0:0:0:0:
182,192,114433,1,0,0:0:0:0:
36,192,114525,1,0,0:0:0:0:
475,192,114525,1,0,0:0:0:0:
256,192,114525,1,0,0:0:0:0:
109,192,114525,1,0,0:0:0:0:
329,192,114616,1,0,0:0:0:0:
182,192,114616,1,0,0:0:0:0:
36,192,114708,1,0,0:0:0:0:
475,192,114708,1,0,0:0:0:0:
109,192,114708,1,0,0:0:0:0:
182,192,114799,1,0,0:0:0:0:
329,192,114799,1,0,0:0:0:0:
36,192,114891,1,0,0:0:0:0:
256,192,114891,1,0,0:0:0:0:
402,192,114891,1,0,0:0:0:0:
475,192,114891,1,0,0:0:0:0:
182,192,114982,1,0,0:0:0:0:
329,192,114982,1,0,0:0:0:0:
475,192,115074,1,0,0:0:0:0:
402,192,115074,1,0,0:0:0:0:
36,192,115074,1,0,0:0:0:0:
329,192,115165,1,0,0:0:0:0:
182,192,115165,1,0,0:0:0:0:
402,192,115257,1,0,0:0:0:0:
475,192,115257,1,0,0:0:0:0:
109,192,115257,1,0,0:0:0:0:
36,192,115257,1,0,0:0:0:0:
329,192,115348,1,0,0:0:0:0:
182,192,115348,1,0,0:0:0:0:
256,192,115439,1,0,0:0:0:0:
329,192,115531,1,0,0:0:0:0:
182,192,115531,1,0,0:0:0:0:
475,192,115622,1,0,0:0:0:0:
402,192,115622,1,0,0:0:0:0:
109,192,115622,1,0,0:0:0:0:
36,192,115622,1,0,0:0:0:0:
182,192,115714,1,0,0:0:0:0:
256,192,115805,1,0,0:0:0:0:
109,192,115805,1,0,0:0:0:0:
329,192,115897,1,0,0:0:0:0:
182,192,115897,1,0,0:0:0:0:
109,192,115988,1,0,0:0:0:0:
36,192,115988,1,0,0:0:0:0:
256,192,115988,1,0,0:0:0:0:
402,192,115988,1,0,0:0:0:0:
475,192,116080,1,0,0:0:0:0:
182,192,116080,1,0,0:0:0:0:
36,192,116171,1,0,0:0:0:0:
109,192,116171,1,0,0:0:0:0:
329,192,116171,1,0,0:0:0:0:
402,192,116263,1,0,0:0:0:0:
256,192,116263,1,0,0:0:0:0:
182,192,116354,1,0,0:0:0:0:
109,192,116354,1,0,0:0:0:0:
475,192,116354,1,0,0:0:0:0:
36,192,116354,1,0,0:0:0:0:
329,192,116446,1,0,0:0:0:0:
256,192,116446,1,0,0:0:0:0:
182,192,116537,1,0,0:0:0:0:
475,192,116537,1,0,0:0:0:0:
402,192,116537,1,0,0:0:0:0:
36,192,116629,1,0,0:0:0:0:
109,192,116629,1,0,0:0:0:0:
475,192,116720,1,0,0:0:0:0:
182,192,116720,1,0,0:0:0:0:
256,192,116720,1,0,0:0:0:0:
329,192,116766,1,0,0:0:0:0:
402,192,116811,1,0,0:0:0:0:
182,192,116857,1,0,0:0:0:0:
475,192,116903,1,0,0:0:0:0:
256,192,116903,1,0,0:0:0:0:
109,192,116903,1,0,0:0:0:0:
36,192,116949,1,0,0:0:0:0:
402,192,117086,1,0,0:0:0:0:
475,192,117086,1,0,0:0:0:0:
182,192,117086,1,0,0:0:0:0:
329,192,117086,1,0,0:0:0:0:
36,192,117177,1,0,0:0:0:0:
109,192,117177,1,0,0:0:0:0:
402,192,117269,1,0,0:0:0:0:
256,192,117269,1,0,0:0:0:0:
109,192,117360,1,0,0:0:0:0:
182,192,117360,1,0,0:0:0:0:
256,192,117452,1,0,0:0:0:0:
402,192,117452,1,0,0:0:0:0:
475,192,117452,1,0,0:0:0:0:
36,192,117452,1,0,0:0:0:0:
329,192,117543,1,0,0:0:0:0:
182,192,117543,1,0,0:0:0:0:
475,192,117635,1,0,0:0:0:0:
402,192,117635,1,0,0:0:0:0:
36,192,117635,1,0,0:0:0:0:
256,192,117635,1,0,0:0:0:0:
109,192,117680,1,0,0:0:0:0:
182,192,117726,1,0,0:0:0:0:
329,192,117772,1,0,0:0:0:0:
402,192,117818,1,0,0:0:0:0:
36,192,117818,1,0,0:0:0:0:
256,192,117818,1,0,0:0:0:0:
475,192,117818,1,0,0:0:0:0:
109,192,117909,1,0,0:0:0:0:
182,192,117909,1,0,0:0:0:0:
475,192,118000,1,0,0:0:0:0:
402,192,118000,1,0,0:0:0:0:
329,192,118000,1,0,0:0:0:0:
109,192,118092,1,0,0:0:0:0:
182,192,118092,1,0,0:0:0:0:
402,192,118183,1,0,0:0:0:0:
329,192,118183,1,0,0:0:0:0:
256,192,118183,1,0,0:0:0:0:
182,192,118275,1,0,0:0:0:0:
109,192,118275,1,0,0:0:0:0:
402,192,118366,1,0,0:0:0:0:
329,192,118366,1,0,0:0:0:0:
256,192,118366,1,0,0:0:0:0:
109,192,118458,1,0,0:0:0:0:
182,192,118458,1,0,0:0:0:0:
256,192,118504,1,0,0:0:0:0:
475,192,118549,1,0,0:0:0:0:
36,192,118549,1,0,0:0:0:0:
329,192,118549,1,0,0:0:0:0:
402,192,118549,1,0,0:0:0:0:
256,192,118641,1,0,0:0:0:0:
109,192,118641,1,0,0:0:0:0:
402,192,118732,1,0,0:0:0:0:
182,192,118732,1,0,0:0:0:0:
256,192,118824,1,0,0:0:0:0:
109,192,118824,1,0,0:0:0:0:
475,192,118915,1,0,0:0:0:0:
329,192,118915,1,0,0:0:0:0:
36,192,118915,1,0,0:0:0:0:
402,192,119007,1,0,0:0:0:0:
256,192,119007,1,0,0:0:0:0:
109,192,119098,1,0,0:0:0:0:
36,192,119098,1,0,0:0:0:0:
182,192,119098,1,0,0:0:0:0:
329,192,119098,1,0,0:0:0:0:
402,192,119189,1,0,0:0:0:0:
256,192,119189,1,0,0:0:0:0:
109,192,119281,1,0,0:0:0:0:
36,192,119281,1,0,0:0:0:0:
329,192,119281,1,0,0:0:0:0:
475,192,119281,1,0,0:0:0:0:
329,192,119464,1,0,0:0:0:0:
475,192,119464,1,0,0:0:0:0:
109,192,119464,1,0,0:0:0:0:
36,192,119464,1,0,0:0:0:0:
402,192,119647,1,0,0:0:0:0:
475,192,119647,1,0,0:0:0:0:
256,192,119647,1,0,0:0:0:0:
109,192,119647,1,0,0:0:0:0:
182,192,119647,1,0,0:0:0:0:
36,192,120013,1,0,0:0:0:0:
402,192,120013,1,0,0:0:0:0:
256,192,120013,1,0,0:0:0:0:
109,192,120013,1,0,0:0:0:0:
329,192,120104,1,0,0:0:0:0:
36,192,120196,1,0,0:0:0:0:
182,192,120196,1,0,0:0:0:0:
256,192,120287,1,0,0:0:0:0:
402,192,120379,1,0,0:0:0:0:
109,192,120379,1,0,0:0:0:0:
329,192,120379,128,0,120561:0:0:0:0:
182,192,120470,1,0,0:0:0:0:
36,192,120561,1,0,0:0:0:0:
256,192,120561,1,0,0:0:0:0:
475,192,120561,128,0,120744:0:0:0:0:
329,192,120653,1,0,0:0:0:0:
109,192,120744,1,0,0:0:0:0:
402,192,120744,1,0,0:0:0:0:
36,192,120744,128,0,120927:0:0:0:0:
256,192,120836,1,0,0:0:0:0:
475,192,120927,1,0,0:0:0:0:
329,192,120927,1,0,0:0:0:0:
182,192,120927,128,0,121110:0:0:0:0:
109,192,121019,1,0,0:0:0:0:
256,192,121110,1,0,0:0:0:0:
36,192,121110,1,0,0:0:0:0:
402,192,121110,128,0,121293:0:0:0:0:
182,192,121202,1,0,0:0:0:0:
475,192,121293,1,0,0:0:0:0:
109,192,121293,1,0,0:0:0:0:
329,192,121293,128,0,121476:0:0:0:0:
182,192,121385,1,0,0:0:0:0:
36,192,121476,1,0,0:0:0:0:
256,192,121476,1,0,0:0:0:0:
402,192,121476,128,0,121659:0:0:0:0:
109,192,121568,1,0,0:0:0:0:
475,192,121659,1,0,0:0:0:0:
182,192,121659,1,0,0:0:0:0:
329,192,121659,128,0,121842:0:0:0:0:
109,192,121750,1,0,0:0:0:0:
256,192,121842,1,0,0:0:0:0:
36,192,121842,1,0,0:0:0:0:
402,192,121842,128,0,122208:0:0:0:0:
182,192,121933,1,0,0:0:0:0:
36,192,122025,1,0,0:0:0:0:
109,192,122025,1,0,0:0:0:0:
182,192,122116,1,0,0:0:0:0:
329,192,122208,1,0,0:0:0:0:
475,192,122208,1,0,0:0:0:0:
109,192,122208,1,0,0:0:0:0:
36,192,122208,1,0,0:0:0:0:
256,192,122299,1,0,0:0:0:0:
402,192,122391,1,0,0:0:0:0:
475,192,122391,1,0,0:0:0:0:
182,192,122391,1,0,0:0:0:0:
36,192,122391,1,0,0:0:0:0:
256,192,122482,1,0,0:0:0:0:
36,192,122574,1,0,0:0:0:0:
475,192,122574,1,0,0:0:0:0:
329,192,122574,1,0,0:0:0:0:
109,192,122574,1,0,0:0:0:0:
182,192,122665,1,0,0:0:0:0:
402,192,122757,1,0,0:0:0:0:
475,192,122757,1,0,0:0:0:0:
109,192,122757,1,0,0:0:0:0:
36,192,122757,1,0,0:0:0:0:
256,192,122802,1,0,0:0:0:0:
329,192,122848,1,0,0:0:0:0:
182,192,122894,1,0,0:0:0:0:
109,192,122939,1,0,0:0:0:0:
36,192,122939,1,0,0:0:0:0:
402,192,122939,1,0,0:0:0:0:
475,192,122939,1,0,0:0:0:0:
256,192,123031,1,0,0:0:0:0:
329,192,123122,1,0,0:0:0:0:
182,192,123122,1,0,0:0:0:0:
256,192,123214,1,0,0:0:0:0:
475,192,123305,1,0,0:0:0:0:
402,192,123305,1,0,0:0:0:0:
182,192,123305,128,0,123488:0:0:0:0:
329,192,123397,1,0,0:0:0:0:
256,192,123488,1,0,0:0:0:0:
109,192,123488,1,0,0:0:0:0:
36,192,123488,128,0,123671:0:0:0:0:
402,192,123580,1,0,0:0:0:0:
475,192,123671,1,0,0:0:0:0:
329,192,123671,1,0,0:0:0:0:
182,192,123671,128,0,123854:0:0:0:0:
109,192,123763,1,0,0:0:0:0:
402,192,123854,1,0,0:0:0:0:
36,192,123854,1,0,0:0:0:0:
256,192,123854,128,0,124037:0:0:0:0:
329,192,123946,1,0,0:0:0:0:
36,192,124037,1,0,0:0:0:0:
182,192,124037,1,0,0:0:0:0:
475,192,124037,128,0,124220:0:0:0:0:
256,192,124129,1,0,0:0:0:0:
402,192,124220,1,0,0:0:0:0:
109,192,124220,1,0,0:0:0:0:
329,192,124220,128,0,124403:0:0:0:0:
182,192,124311,1,0,0:0:0:0:
36,192,124403,1,0,0:0:0:0:
256,192,124403,1,0,0:0:0:0:
475,192,124403,128,0,124586:0:0:0:0:
109,192,124494,1,0,0:0:0:0:
256,192,124586,1,0,0:0:0:0:
182,192,124586,1,0,0:0:0:0:
329,192,124586,128,0,124769:0:0:0:0:
109,192,124677,1,0,0:0:0:0:
475,192,124769,1,0,0:0:0:0:
36,192,124769,1,0,0:0:0:0:
402,192,124769,128,0,125135:0:0:0:0:
256,192,124860,1,0,0:0:0:0:
36,192,124952,1,0,0:0:0:0:
109,192,124952,1,0,0:0:0:0:
182,192,125043,1,0,0:0:0:0:
329,192,125135,1,0,0:0:0:0:
475,192,125135,1,0,0:0:0:0:
109,192,125135,1,0,0:0:0:0:
36,192,125135,1,0,0:0:0:0:
256,192,125226,1,0,0:0:0:0:
475,192,125318,1,0,0:0:0:0:
36,192,125318,1,0,0:0:0:0:
182,192,125318,1,0,0:0:0:0:
402,192,125318,1,0,0:0:0:0:
256,192,125409,1,0,0:0:0:0:
36,192,125500,1,0,0:0:0:0:
475,192,125500,1,0,0:0:0:0:
329,192,125500,1,0,0:0:0:0:
109,192,125500,1,0,0:0:0:0:
256,192,125592,1,0,0:0:0:0:
182,192,125592,1,0,0:0:0:0:
329,192,125683,1,0,0:0:0:0:
475,192,125683,1,0,0:0:0:0:
109,192,125683,1,0,0:0:0:0:
36,192,125683,1,0,0:0:0:0:
182,192,125775,1,0,0:0:0:0:
109,192,125866,1,0,0:0:0:0:
36,192,125866,1,0,0:0:0:0:
256,192,125866,1,0,0:0:0:0:
402,192,125866,1,0,0:0:0:0:
329,192,125958,1,0,0:0:0:0:
182,192,125958,1,0,0:0:0:0:
475,192,126049,1,0,0:0:0:0:
256,192,126049,1,0,0:0:0:0:
329,192,126141,1,0,0:0:0:0:
182,192,126141,1,0,0:0:0:0:
109,192,126232,1,0,0:0:0:0:
36,192,126232,1,0,0:0:0:0:
256,192,126232,1,0,0:0:0:0:
402,192,126324,1,0,0:0:0:0:
329,192,126324,1,0,0:0:0:0:
36,192,126415,1,0,0:0:0:0:
109,192,126415,1,0,0:0:0:0:
256,192,126415,1,0,0:0:0:0:
402,192,126507,1,0,0:0:0:0:
329,192,126507,1,0,0:0:0:0:
475,192,126598,1,0,0:0:0:0:
182,192,126598,1,0,0:0:0:0:
256,192,126598,1,0,0:0:0:0:
109,192,126689,1,0,0:0:0:0:
36,192,126689,1,0,0:0:0:0:
475,192,126781,1,0,0:0:0:0:
256,192,126781,1,0,0:0:0:0:
182,192,126781,1,0,0:0:0:0:
36,192,126872,1,0,0:0:0:0:
109,192,126872,1,0,0:0:0:0:
402,192,126964,1,0,0:0:0:0:
475,192,126964,1,0,0:0:0:0:
256,192,126964,1,0,0:0:0:0:
329,192,126964,1,0,0:0:0:0:
109,192,127055,1,0,0:0:0:0:
182,192,127055,1,0,0:0:0:0:
402,192,127147,1,0,0:0:0:0:
329,192,127147,1,0,0:0:0:0:
182,192,127238,1,0,0:0:0:0:
256,192,127238,1,0,0:0:0:0:
329,192,127330,1,0,0:0:0:0:
475,192,127330,1,0,0:0:0:0:
109,192,127330,1,0,0:0:0:0:
36,192,127330,1,0,0:0:0:0:
402,192,127421,1,0,0:0:0:0:
256,192,127421,1,0,0:0:0:0:
182,192,127513,1,0,0:0:0:0:
329,192,127513,1,0,0:0:0:0:
256,192,127604,1,0,0:0:0:0:
109,192,127604,1,0,0:0:0:0:
402,192,127696,1,0,0:0:0:0:
36,192,127696,1,0,0:0:0:0:
182,192,127696,1,0,0:0:0:0:
329,192,127787,1,0,0:0:0:0:
256,192,127787,1,0,0:0:0:0:
402,192,127879,1,0,0:0:0:0:
36,192,127879,1,0,0:0:0:0:
182,192,127879,1,0,0:0:0:0:
329,192,127970,1,0,0:0:0:0:
256,192,127970,1,0,0:0:0:0:
109,192,128061,1,0,0:0:0:0:
475,192,128061,1,0,0:0:0:0:
402,192,128061,1,0,0:0:0:0:
256,192,128153,1,0,0:0:0:0:
182,192,128153,1,0,0:0:0:0:
475,192,128244,1,0,0:0:0:0:
402,192,128244,1,0,0:0:0:0:
109,192,128244,1,0,0:0:0:0:
256,192,128336,1,0,0:0:0:0:
182,192,128336,1,0,0:0:0:0:
475,192,128427,1,0,0:0:0:0:
329,192,128427,1,0,0:0:0:0:
36,192,128427,1,0,0:0:0:0:
256,192,128473,1,0,0:0:0:0:
182,192,128519,1,0,0:0:0:0:
402,192,128610,1,0,0:0:0:0:
109,192,128610,1,0,0:0:0:0:
329,192,128610,1,0,0:0:0:0:
256,192,128656,1,0,0:0:0:0:
182,192,128702,1,0,0:0:0:0:
475,192,128793,1,0,0:0:0:0:
109,192,128793,1,0,0:0:0:0:
36,192,128793,1,0,0:0:0:0:
402,192,128793,1,0,0:0:0:0:
182,192,128885,1,0,0:0:0:0:
329,192,128885,1,0,0:0:0:0:
402,192,128976,1,0,0:0:0:0:
109,192,128976,1,0,0:0:0:0:
182,192,129068,1,0,0:0:0:0:
329,192,129068,1,0,0:0:0:0:
256,192,129159,1,0,0:0:0:0:
36,192,129159,1,0,0:0:0:0:
402,192,129159,128,0,129250:0:0:0:0:
475,192,129159,128,0,129250:0:0:0:0:
109,192,129250,1,0,0:0:0:0:
182,192,129342,1,0,0:0:0:0:
329,192,129342,1,0,0:0:0:0:
402,192,129342,128,0,129433:0:0:0:0:
475,192,129342,128,0,129433:0:0:0:0:
109,192,129433,1,0,0:0:0:0:
36,192,129525,1,0,0:0:0:0:
256,192,129525,1,0,0:0:0:0:
329,192,129525,128,0,129616:0:0:0:0:
402,192,129525,128,0,129616:0:0:0:0:
182,192,129616,1,0,0:0:0:0:
109,192,129708,1,0,0:0:0:0:
475,192,129708,1,0,0:0:0:0:
329,192,129708,128,0,129799:0:0:0:0:
402,192,129708,128,0,129799:0:0:0:0:
256,192,129799,1,0,0:0:0:0:
109,192,129891,1,0,0:0:0:0:
36,192,129891,1,0,0:0:0:0:
329,192,129891,128,0,129982:0:0:0:0:
475,192,129891,128,0,129982:0:0:0:0:
182,192,129982,1,0,0:0:0:0:
109,192,130074,1,0,0:0:0:0:
36,192,130074,1,0,0:0:0:0:
329,192,130074,128,0,130165:0:0:0:0:
475,192,130074,128,0,130165:0:0:0:0:
182,192,130165,1,0,0:0:0:0:
256,192,130257,1,0,0:0:0:0:
402,192,130257,1,0,0:0:0:0:
36,192,130257,128,0,130348:0:0:0:0:
109,192,130257,128,0,130348:0:0:0:0:
475,192,130348,1,0,0:0:0:0:
329,192,130439,1,0,0:0:0:0:
256,192,130439,1,0,0:0:0:0:
109,192,130439,128,0,130531:0:0:0:0:
182,192,130439,128,0,130531:0:0:0:0:
402,192,130531,5,0,0:0:0:0:
475,192,130622,1,0,0:0:0:0:
256,192,130622,1,0,0:0:0:0:
36,192,130622,128,0,130714:0:0:0:0:
182,192,130622,128,0,130714:0:0:0:0:
329,192,130714,1,0,0:0:0:0:
402,192,130805,1,0,0:0:0:0:
475,192,130805,1,0,0:0:0:0:
109,192,130805,128,0,130897:0:0:0:0:
256,192,130805,128,0,130897:0:0:0:0:
182,192,130897,1,0,0:0:0:0:
402,192,130988,128,0,131080:0:0:0:0:
475,192,130988,128,0,131080:0:0:0:0:
109,192,130988,1,0,0:0:0:0:
36,192,130988,1,0,0:0:0:0:
256,192,131080,1,0,0:0:0:0:
109,192,131171,1,0,0:0:0:0:
36,192,131171,1,0,0:0:0:0:
329,192,131171,128,0,131263:0:0:0:0:
402,192,131171,128,0,131263:0:0:0:0:
182,192,131263,1,0,0:0:0:0:
36,192,131354,1,0,0:0:0:0:
475,192,131354,1,0,0:0:0:0:
256,192,131354,128,0,131446:0:0:0:0:
329,192,131354,128,0,131446:0:0:0:0:
182,192,131446,1,0,0:0:0:0:
109,192,131537,1,0,0:0:0:0:
256,192,131537,1,0,0:0:0:0:
329,192,131537,128,0,131629:0:0:0:0:
475,192,131537,128,0,131629:0:0:0:0:
182,192,131629,1,0,0:0:0:0:
256,192,131720,5,0,0:0:0:0:
402,192,131720,1,0,0:0:0:0:
475,192,131720,1,0,0:0:0:0:
109,192,131720,1,0,0:0:0:0:
36,192,131720,1,0,0:0:0:0:
36,192,132086,1,0,0:0:0:0:
475,192,132086,1,0,0:0:0:0:
182,192,132269,128,0,132635:0:0:0:0:
475,192,132452,1,0,0:0:0:0:
36,192,132452,1,0,0:0:0:0:
329,192,132452,128,0,132818:0:0:0:0:
36,192,132818,1,0,0:0:0:0:
475,192,132818,1,0,0:0:0:0:
182,192,133000,128,0,133366:0:0:0:0:
475,192,133183,1,0,0:0:0:0:
36,192,133183,1,0,0:0:0:0:
329,192,133183,128,0,133549:0:0:0:0:
36,192,133549,1,0,0:0:0:0:
475,192,133549,1,0,0:0:0:0:
475,192,133915,1,0,0:0:0:0:
36,192,133915,1,0,0:0:0:0:
36,192,134281,1,0,0:0:0:0:
475,192,134281,1,0,0:0:0:0:
256,192,134464,128,0,134647:0:0:0:0:
475,192,134647,1,0,0:0:0:0:
36,192,134647,1,0,0:0:0:0:
36,192,135013,1,0,0:0:0:0:
475,192,135013,1,0,0:0:0:0:
329,192,135196,128,0,135561:0:0:0:0:
475,192,135379,1,0,0:0:0:0:
36,192,135379,1,0,0:0:0:0:
182,192,135379,128,0,135744:0:0:0:0:
36,192,135744,1,0,0:0:0:0:
475,192,135744,1,0,0:0:0:0:
329,192,135927,128,0,136293:0:0:0:0:
475,192,136110,1,0,0:0:0:0:
36,192,136110,1,0,0:0:0:0:
182,192,136110,128,0,136476:0:0:0:0:
36,192,136476,1,0,0:0:0:0:
475,192,136476,1,0,0:0:0:0:
475,192,136842,1,0,0:0:0:0:
36,192,136842,1,0,0:0:0:0:
256,192,137025,128,0,137208:0:0:0:0:
36,192,137208,1,0,0:0:0:0:
475,192,137208,1,0,0:0:0:0:
182,192,137208,128,0,137299:0:0:0:0:
329,192,137208,128,0,137299:0:0:0:0:
329,192,137391,128,0,137482:0:0:0:0:
182,192,137391,128,0,137482:0:0:0:0:
256,192,137574,1,0,0:0:0:0:
402,192,137574,1,0,0:0:0:0:
475,192,137574,1,0,0:0:0:0:
109,192,137574,1,0,0:0:0:0:
36,192,137574,1,0,0:0:0:0:
36,192,137939,1,0,0:0:0:0:
475,192,137939,1,0,0:0:0:0:
329,192,138122,128,0,138671:0:0:0:0:
475,192,138305,1,0,0:0:0:0:
36,192,138305,1,0,0:0:0:0:
182,192,138305,128,0,138671:0:0:0:0:
36,192,138671,1,0,0:0:0:0:
475,192,138671,1,0,0:0:0:0:
329,192,138854,128,0,139403:0:0:0:0:
475,192,139037,1,0,0:0:0:0:
36,192,139037,1,0,0:0:0:0:
182,192,139037,128,0,139403:0:0:0:0:
36,192,139403,1,0,0:0:0:0:
475,192,139403,1,0,0:0:0:0:
36,192,139769,1,0,0:0:0:0:
475,192,139769,1,0,0:0:0:0:
256,192,139952,128,0,140135:0:0:0:0:
475,192,140135,1,0,0:0:0:0:
36,192,140135,1,0,0:0:0:0:
256,192,140318,128,0,140500:0:0:0:0:
36,192,140500,1,0,0:0:0:0:
475,192,140500,1,0,0:0:0:0:
329,192,140500,128,0,140683:0:0:0:0:
182,192,140500,128,0,140683:0:0:0:0:
475,192,140866,1,0,0:0:0:0:
36,192,140866,1,0,0:0:0:0:
182,192,141049,128,0,141141:0:0:0:0:
329,192,141049,128,0,141141:0:0:0:0:
36,192,141232,1,0,0:0:0:0:
475,192,141232,1,0,0:0:0:0:
182,192,141232,128,0,141507:0:0:0:0:
329,192,141232,128,0,141507:0:0:0:0:
475,192,141598,1,0,0:0:0:0:
36,192,141598,1,0,0:0:0:0:
329,192,141598,128,0,141872:0:0:0:0:
182,192,141598,128,0,141872:0:0:0:0:
256,192,141964,128,0,143336:0:0:0:0:
36,192,141964,1,0,0:0:0:0:
475,192,141964,1,0,0:0:0:0:
182,192,142147,1,0,0:0:0:0:
329,192,142147,1,0,0:0:0:0:
402,192,142238,1,0,0:0:0:0:
109,192,142238,1,0,0:0:0:0:
36,192,142330,1,0,0:0:0:0:
475,192,142330,1,0,0:0:0:0:
36,192,142513,1,0,0:0:0:0:
475,192,142513,1,0,0:0:0:0:
402,192,142558,1,0,0:0:0:0:
109,192,142558,1,0,0:0:0:0:
182,192,142604,1,0,0:0:0:0:
329,192,142604,1,0,0:0:0:0:
36,192,142696,1,0,0:0:0:0:
475,192,142696,1,0,0:0:0:0:
182,192,142879,1,0,0:0:0:0:
329,192,142879,1,0,0:0:0:0:
109,192,142924,1,0,0:0:0:0:
402,192,142924,1,0,0:0:0:0:
475,192,142970,1,0,0:0:0:0:
36,192,142970,1,0,0:0:0:0:
182,192,143061,1,0,0:0:0:0:
329,192,143061,1,0,0:0:0:0:
402,192,143153,1,0,0:0:0:0:
109,192,143153,1,0,0:0:0:0:
36,192,143244,1,0,0:0:0:0:
475,192,143244,1,0,0:0:0:0:
36,192,143427,1,0,0:0:0:0:
256,192,143427,1,0,0:0:0:0:
475,192,143427,1,0,0:0:0:0:
109,192,143427,1,0,0:0:0:0:
402,192,143427,1,0,0:0:0:0:
182,192,143519,1,0,0:0:0:0:
329,192,143519,1,0,0:0:0:0:
109,192,143610,1,0,0:0:0:0:
402,192,143610,1,0,0:0:0:0:
182,192,143702,1,0,0:0:0:0:
475,192,143702,1,0,0:0:0:0:
256,192,143793,1,0,0:0:0:0:
36,192,143793,1,0,0:0:0:0:
109,192,143885,1,0,0:0:0:0:
329,192,143885,1,0,0:0:0:0:
402,192,143976,1,0,0:0:0:0:
182,192,143976,1,0,0:0:0:0:
109,192,144068,1,0,0:0:0:0:
329,192,144068,1,0,0:0:0:0:
256,192,144159,1,0,0:0:0:0:
475,192,144159,1,0,0:0:0:0:
182,192,144250,1,0,0:0:0:0:
329,192,144250,1,0,0:0:0:0:
402,192,144342,1,0,0:0:0:0:
109,192,144342,1,0,0:0:0:0:
36,192,144342,1,0,0:0:0:0:
182,192,144433,1,0,0:0:0:0:
475,192,144433,1,0,0:0:0:0:
256,192,144525,1,0,0:0:0:0:
402,192,144525,1,0,0:0:0:0:
329,192,144616,1,0,0:0:0:0:
36,192,144616,1,0,0:0:0:0:
256,192,144708,1,0,0:0:0:0:
109,192,144708,1,0,0:0:0:0:
329,192,144799,1,0,0:0:0:0:
182,192,144799,1,0,0:0:0:0:
109,192,144891,1,0,0:0:0:0:
402,192,144891,1,0,0:0:0:0:
475,192,144891,1,0,0:0:0:0:
36,192,144982,1,0,0:0:0:0:
256,192,144982,1,0,0:0:0:0:
182,192,145074,1,0,0:0:0:0:
402,192,145074,1,0,0:0:0:0:
109,192,145165,1,0,0:0:0:0:
329,192,145165,1,0,0:0:0:0:
256,192,145257,1,0,0:0:0:0:
475,192,145257,1,0,0:0:0:0:
182,192,145348,1,0,0:0:0:0:
329,192,145348,1,0,0:0:0:0:
475,192,145439,1,0,0:0:0:0:
109,192,145439,1,0,0:0:0:0:
182,192,145531,1,0,0:0:0:0:
402,192,145531,1,0,0:0:0:0:
256,192,145622,1,0,0:0:0:0:
36,192,145622,1,0,0:0:0:0:
109,192,145714,1,0,0:0:0:0:
329,192,145714,1,0,0:0:0:0:
182,192,145805,1,0,0:0:0:0:
402,192,145805,1,0,0:0:0:0:
475,192,145805,1,0,0:0:0:0:
329,192,145897,1,0,0:0:0:0:
109,192,145897,1,0,0:0:0:0:
36,192,145988,1,0,0:0:0:0:
256,192,145988,1,0,0:0:0:0:
182,192,146080,1,0,0:0:0:0:
402,192,146080,1,0,0:0:0:0:
475,192,146171,1,0,0:0:0:0:
109,192,146171,1,0,0:0:0:0:
402,192,146217,1,0,0:0:0:0:
329,192,146263,1,0,0:0:0:0:
36,192,146263,1,0,0:0:0:0:
256,192,146308,1,0,0:0:0:0:
182,192,146354,1,0,0:0:0:0:
402,192,146354,1,0,0:0:0:0:
475,192,146354,1,0,0:0:0:0:
109,192,146446,1,0,0:0:0:0:
329,192,146446,1,0,0:0:0:0:
182,192,146537,1,0,0:0:0:0:
402,192,146537,1,0,0:0:0:0:
256,192,146629,1,0,0:0:0:0:
36,192,146629,1,0,0:0:0:0:
109,192,146720,1,0,0:0:0:0:
329,192,146720,1,0,0:0:0:0:
256,192,146811,1,0,0:0:0:0:
475,192,146811,1,0,0:0:0:0:
402,192,146903,1,0,0:0:0:0:
182,192,146903,1,0,0:0:0:0:
109,192,146994,1,0,0:0:0:0:
329,192,146994,1,0,0:0:0:0:
36,192,147086,1,0,0:0:0:0:
256,192,147086,1,0,0:0:0:0:
182,192,147177,1,0,0:0:0:0:
329,192,147177,1,0,0:0:0:0:
402,192,147269,1,0,0:0:0:0:
475,192,147269,1,0,0:0:0:0:
109,192,147269,1,0,0:0:0:0:
36,192,147360,1,0,0:0:0:0:
256,192,147360,1,0,0:0:0:0:
182,192,147452,1,0,0:0:0:0:
329,192,147452,1,0,0:0:0:0:
402,192,147543,1,0,0:0:0:0:
109,192,147543,1,0,0:0:0:0:
182,192,147635,1,0,0:0:0:0:
475,192,147635,1,0,0:0:0:0:
329,192,147726,1,0,0:0:0:0:
36,192,147726,1,0,0:0:0:0:
109,192,147818,1,0,0:0:0:0:
402,192,147818,1,0,0:0:0:0:
475,192,147818,1,0,0:0:0:0:
182,192,147909,1,0,0:0:0:0:
329,192,147909,1,0,0:0:0:0:
256,192,148000,1,0,0:0:0:0:
36,192,148000,1,0,0:0:0:0:
109,192,148092,1,0,0:0:0:0:
402,192,148092,1,0,0:0:0:0:
182,192,148183,1,0,0:0:0:0:
329,192,148183,1,0,0:0:0:0:
475,192,148275,1,0,0:0:0:0:
256,192,148275,1,0,0:0:0:0:
329,192,148366,1,0,0:0:0:0:
109,192,148366,1,0,0:0:0:0:
182,192,148458,1,0,0:0:0:0:
402,192,148458,1,0,0:0:0:0:
256,192,148549,1,0,0:0:0:0:
36,192,148549,1,0,0:0:0:0:
182,192,148641,1,0,0:0:0:0:
402,192,148641,1,0,0:0:0:0:
329,192,148732,1,0,0:0:0:0:
109,192,148732,1,0,0:0:0:0:
36,192,148732,1,0,0:0:0:0:
256,192,148778,1,0,0:0:0:0:
182,192,148824,1,0,0:0:0:0:
475,192,148824,1,0,0:0:0:0:
36,192,148915,1,0,0:0:0:0:
402,192,148915,1,0,0:0:0:0:
329,192,148961,1,0,0:0:0:0:
256,192,149007,1,0,0:0:0:0:
109,192,149007,1,0,0:0:0:0:
402,192,149098,1,0,0:0:0:0:
182,192,149098,1,0,0:0:0:0:
329,192,149144,1,0,0:0:0:0:
256,192,149189,1,0,0:0:0:0:
182,192,149281,1,0,0:0:0:0:
36,192,149281,1,0,0:0:0:0:
109,192,149281,1,0,0:0:0:0:
402,192,149281,1,0,0:0:0:0:
475,192,149281,1,0,0:0:0:0:
329,192,149372,1,0,0:0:0:0:
256,192,149464,1,0,0:0:0:0:
475,192,149464,1,0,0:0:0:0:
182,192,149555,1,0,0:0:0:0:
402,192,149555,1,0,0:0:0:0:
329,192,149647,1,0,0:0:0:0:
109,192,149647,1,0,0:0:0:0:
36,192,149738,1,0,0:0:0:0:
256,192,149738,1,0,0:0:0:0:
182,192,149830,1,0,0:0:0:0:
402,192,149830,1,0,0:0:0:0:
256,192,149921,1,0,0:0:0:0:
475,192,149921,1,0,0:0:0:0:
329,192,150013,1,0,0:0:0:0:
109,192,150013,1,0,0:0:0:0:
182,192,150104,1,0,0:0:0:0:
402,192,150104,1,0,0:0:0:0:
256,192,150196,1,0,0:0:0:0:
475,192,150196,1,0,0:0:0:0:
36,192,150196,1,0,0:0:0:0:
109,192,150287,1,0,0:0:0:0:
329,192,150287,1,0,0:0:0:0:
182,192,150379,1,0,0:0:0:0:
402,192,150379,1,0,0:0:0:0:
109,192,150470,1,0,0:0:0:0:
329,192,150470,1,0,0:0:0:0:
256,192,150561,1,0,0:0:0:0:
475,192,150561,1,0,0:0:0:0:
182,192,150653,1,0,0:0:0:0:
402,192,150653,1,0,0:0:0:0:
329,192,150744,1,0,0:0:0:0:
109,192,150744,1,0,0:0:0:0:
36,192,150744,1,0,0:0:0:0:
256,192,150836,1,0,0:0:0:0:
402,192,150836,1,0,0:0:0:0:
475,192,150927,1,0,0:0:0:0:
182,192,150927,1,0,0:0:0:0:
109,192,151019,1,0,0:0:0:0:
402,192,151019,1,0,0:0:0:0:
329,192,151110,1,0,0:0:0:0:
36,192,151110,1,0,0:0:0:0:
182,192,151202,1,0,0:0:0:0:
475,192,151202,1,0,0:0:0:0:
109,192,151293,1,0,0:0:0:0:
402,192,151293,1,0,0:0:0:0:
256,192,151385,1,0,0:0:0:0:
475,192,151385,1,0,0:0:0:0:
182,192,151476,1,0,0:0:0:0:
329,192,151476,1,0,0:0:0:0:
109,192,151568,1,0,0:0:0:0:
402,192,151568,1,0,0:0:0:0:
36,192,151659,1,0,0:0:0:0:
182,192,151659,1,0,0:0:0:0:
475,192,151659,1,0,0:0:0:0:
256,192,151705,1,0,0:0:0:0:
329,192,151750,1,0,0:0:0:0:
402,192,151842,1,0,0:0:0:0:
109,192,151842,1,0,0:0:0:0:
182,192,151933,1,0,0:0:0:0:
475,192,151933,1,0,0:0:0:0:
256,192,152025,1,0,0:0:0:0:
36,192,152025,1,0,0:0:0:0:
329,192,152071,1,0,0:0:0:0:
402,192,152116,1,0,0:0:0:0:
475,192,152208,1,0,0:0:0:0:
182,192,152208,1,0,0:0:0:0:
109,192,152208,1,0,0:0:0:0:
256,192,152299,1,0,0:0:0:0:
329,192,152391,1,0,0:0:0:0:
36,192,152391,1,0,0:0:0:0:
109,192,152482,1,0,0:0:0:0:
402,192,152482,1,0,0:0:0:0:
182,192,152574,1,0,0:0:0:0:
475,192,152574,1,0,0:0:0:0:
329,192,152665,1,0,0:0:0:0:
109,192,152665,1,0,0:0:0:0:
36,192,152757,1,0,0:0:0:0:
256,192,152757,1,0,0:0:0:0:
182,192,152848,1,0,0:0:0:0:
402,192,152848,1,0,0:0:0:0:
329,192,152939,1,0,0:0:0:0:
109,192,152939,1,0,0:0:0:0:
256,192,153031,1,0,0:0:0:0:
475,192,153031,1,0,0:0:0:0:
182,192,153122,1,0,0:0:0:0:
36,192,153122,1,0,0:0:0:0:
402,192,153122,1,0,0:0:0:0:
256,192,153214,1,0,0:0:0:0:
475,192,153214,1,0,0:0:0:0:
329,192,153305,1,0,0:0:0:0:
109,192,153305,1,0,0:0:0:0:
182,192,153397,1,0,0:0:0:0:
402,192,153488,1,0,0:0:0:0:
256,192,153488,1,0,0:0:0:0:
182,192,153580,1,0,0:0:0:0:
475,192,153580,1,0,0:0:0:0:
329,192,153671,1,0,0:0:0:0:
109,192,153671,1,0,0:0:0:0:
36,192,153671,1,0,0:0:0:0:
256,192,153763,1,0,0:0:0:0:
182,192,153854,1,0,0:0:0:0:
402,192,153854,1,0,0:0:0:0:
475,192,153854,1,0,0:0:0:0:
329,192,153946,1,0,0:0:0:0:
109,192,153946,1,0,0:0:0:0:
36,192,153946,1,0,0:0:0:0:
182,192,154037,1,0,0:0:0:0:
402,192,154037,1,0,0:0:0:0:
475,192,154037,1,0,0:0:0:0:
256,192,154129,1,0,0:0:0:0:
329,192,154220,1,0,0:0:0:0:
475,192,154220,1,0,0:0:0:0:
109,192,154220,1,0,0:0:0:0:
36,192,154220,1,0,0:0:0:0:
256,192,154311,1,0,0:0:0:0:
182,192,154403,1,0,0:0:0:0:
109,192,154403,1,0,0:0:0:0:
402,192,154403,1,0,0:0:0:0:
329,192,154494,1,0,0:0:0:0:
256,192,154586,1,0,0:0:0:0:
36,192,154586,1,0,0:0:0:0:
475,192,154586,1,0,0:0:0:0:
182,192,154677,1,0,0:0:0:0:
109,192,154769,1,0,0:0:0:0:
329,192,154769,1,0,0:0:0:0:
402,192,154769,1,0,0:0:0:0:
36,192,154860,1,0,0:0:0:0:
256,192,154860,1,0,0:0:0:0:
475,192,154860,1,0,0:0:0:0:
182,192,154952,1,0,0:0:0:0:
109,192,154952,1,0,0:0:0:0:
402,192,154952,1,0,0:0:0:0:
329,192,154997,1,0,0:0:0:0:
256,192,155043,1,0,0:0:0:0:
182,192,155089,1,0,0:0:0:0:
475,192,155135,128,0,158153:0:0:0:0:
109,192,155135,128,0,155226:0:0:0:0:
36,192,155135,128,0,155226:0:0:0:0:
402,192,155135,128,0,155226:0:0:0:0:
109,192,155683,128,0,155775:0:0:0:0:
36,192,155683,128,0,155775:0:0:0:0:
36,192,156232,128,0,156324:0:0:0:0:
109,192,156232,128,0,156324:0:0:0:0:
36,192,156598,128,0,156689:0:0:0:0:
109,192,156598,128,0,156689:0:0:0:0:
36,192,157147,128,0,157238:0:0:0:0:
109,192,157147,128,0,157238:0:0:0:0:
36,192,157696,128,0,157787:0:0:0:0:
109,192,157696,128,0,157787:0:0:0:0:
36,192,158061,128,0,160988:0:0:0:0:
109,192,158061,128,0,158153:0:0:0:0:
256,192,158061,128,0,158153:0:0:0:0:
402,192,158061,128,0,158153:0:0:0:0:
402,192,158610,128,0,158702:0:0:0:0:
475,192,158610,128,0,158702:0:0:0:0:
402,192,159159,128,0,159250:0:0:0:0:
475,192,159159,128,0,159250:0:0:0:0:
402,192,159525,128,0,159616:0:0:0:0:
475,192,159525,128,0,159616:0:0:0:0:
402,192,160074,128,0,160165:0:0:0:0:
475,192,160074,128,0,160165:0:0:0:0:
402,192,160257,128,0,160348:0:0:0:0:
475,192,160257,128,0,160348:0:0:0:0:
402,192,160439,128,0,160531:0:0:0:0:
475,192,160439,128,0,160531:0:0:0:0:
109,192,160622,1,0,0:0:0:0:
182,192,160653,1,0,0:0:0:0:
256,192,160683,1,0,0:0:0:0:
475,192,160714,1,0,0:0:0:0:
402,192,160744,1,0,0:0:0:0:
329,192,160775,1,0,0:0:0:0:
256,192,160805,1,0,0:0:0:0:
475,192,160988,1,0,0:0:0:0:
402,192,160988,1,0,0:0:0:0:
182,192,160988,1,0,0:0:0:0:
109,192,160988,1,0,0:0:0:0:
256,192,161354,1,0,0:0:0:0:
109,192,161537,1,0,0:0:0:0:
402,192,161537,1,0,0:0:0:0:
256,192,161720,1,0,0:0:0:0:
402,192,162086,1,0,0:0:0:0:
109,192,162086,1,0,0:0:0:0:
256,192,162086,1,0,0:0:0:0:
256,192,162452,1,0,0:0:0:0:
36,192,162452,1,0,0:0:0:0:
475,192,162452,1,0,0:0:0:0:
475,192,162635,1,0,0:0:0:0:
36,192,162635,1,0,0:0:0:0:
256,192,162818,1,0,0:0:0:0:
109,192,163000,1,0,0:0:0:0:
402,192,163000,1,0,0:0:0:0:
256,192,163183,1,0,0:0:0:0:
36,192,163366,1,0,0:0:0:0:
475,192,163366,1,0,0:0:0:0:
256,192,163549,1,0,0:0:0:0:
475,192,163549,1,0,0:0:0:0:
36,192,163549,1,0,0:0:0:0:
329,192,163915,128,0,164281:0:0:0:0:
109,192,163915,128,0,164098:0:0:0:0:
475,192,164098,128,0,164281:0:0:0:0:
182,192,164281,128,0,164647:0:0:0:0:
402,192,164281,128,0,164464:0:0:0:0:
36,192,164464,128,0,164647:0:0:0:0:
329,192,164647,128,0,165013:0:0:0:0:
109,192,164647,128,0,164830:0:0:0:0:
475,192,164830,128,0,165013:0:0:0:0:
182,192,165013,128,0,165379:0:0:0:0:
402,192,165013,128,0,165196:0:0:0:0:
36,192,165196,128,0,165379:0:0:0:0:
329,192,165379,1,0,0:0:0:0:
109,192,165379,1,0,0:0:0:0:
402,192,165424,1,0,0:0:0:0:
475,192,165470,1,0,0:0:0:0:
36,192,165561,1,0,0:0:0:0:
256,192,165561,1,0,0:0:0:0:
182,192,165653,1,0,0:0:0:0:
402,192,165653,1,0,0:0:0:0:
109,192,165744,1,0,0:0:0:0:
329,192,165744,1,0,0:0:0:0:
256,192,165836,1,0,0:0:0:0:
475,192,165836,1,0,0:0:0:0:
36,192,165836,1,0,0:0:0:0:
402,192,165927,1,0,0:0:0:0:
182,192,165927,1,0,0:0:0:0:
329,192,165927,1,0,0:0:0:0:
109,192,166019,1,0,0:0:0:0:
256,192,166019,1,0,0:0:0:0:
475,192,166019,1,0,0:0:0:0:
182,192,166110,1,0,0:0:0:0:
36,192,166110,1,0,0:0:0:0:
402,192,166110,1,0,0:0:0:0:
256,192,166293,1,0,0:0:0:0:
109,192,166293,1,0,0:0:0:0:
475,192,166293,1,0,0:0:0:0:
182,192,166523,1,0,0:0:0:0:
329,192,166523,1,0,0:0:0:0:
475,192,166523,1,0,0:0:0:0:
329,192,166845,1,0,0:0:0:0:
182,192,166845,1,0,0:0:0:0:
36,192,166845,1,0,0:0:0:0:
256,192,167383,128,0,167565:0:0:0:0:
402,192,167383,128,0,167565:0:0:0:0:
36,192,167383,128,0,167565:0:0:0:0:
109,192,167383,128,0,167565:0:0:0:0:
475,192,167565,128,0,167748:0:0:0:0:
329,192,167565,128,0,167748:0:0:0:0:
182,192,167565,128,0,167748:0:0:0:0:
402,192,167748,128,0,167931:0:0:0:0:
256,192,167748,128,0,167931:0:0:0:0:
109,192,167748,128,0,167931:0:0:0:0:
182,192,167931,128,0,168206:0:0:0:0:
36,192,167931,128,0,168206:0:0:0:0:
329,192,167931,128,0,168206:0:0:0:0:
475,192,168297,128,0,168937:0:0:0:0:
36,192,168297,128,0,168479:0:0:0:0:
329,192,168297,128,0,168571:0:0:0:0:
256,192,168297,1,0,0:0:0:0:
182,192,168297,1,0,0:0:0:0:
402,192,168297,128,0,168571:0:0:0:0:
109,192,168388,128,0,168571:0:0:0:0:
182,192,168479,128,0,168662:0:0:0:0:
256,192,168571,128,0,168754:0:0:0:0:
36,192,168662,128,0,168937:0:0:0:0:
329,192,168662,128,0,168754:0:0:0:0:
402,192,168662,128,0,168937:0:0:0:0:
109,192,168754,128,0,168937:0:0:0:0:
182,192,168845,128,0,168937:0:0:0:0:
329,192,168845,128,0,169394:0:0:0:0:
256,192,168937,128,0,169120:0:0:0:0:
475,192,169028,128,0,169211:0:0:0:0:
402,192,169028,1,0,0:0:0:0:
182,192,169028,128,0,169211:0:0:0:0:
36,192,169028,128,0,169120:0:0:0:0:
109,192,169120,128,0,169303:0:0:0:0:
256,192,169211,128,0,169577:0:0:0:0:
402,192,169211,128,0,169394:0:0:0:0:
36,192,169303,128,0,169486:0:0:0:0:
182,192,169394,128,0,169851:0:0:0:0:
475,192,169394,128,0,169577:0:0:0:0:
109,192,169394,128,0,169577:0:0:0:0:
402,192,169486,128,0,169668:0:0:0:0:
329,192,169577,128,0,169851:0:0:0:0:
36,192,169577,128,0,170126:0:0:0:0:
475,192,169668,128,0,169851:0:0:0:0:
256,192,169760,128,0,169851:0:0:0:0:
109,192,169760,128,0,169943:0:0:0:0:
402,192,169760,128,0,169851:0:0:0:0:
256,192,169943,128,0,170126:0:0:0:0:
329,192,169943,128,0,170034:0:0:0:0:
402,192,169943,128,0,170034:0:0:0:0:
475,192,169943,128,0,170034:0:0:0:0:
109,192,170034,128,0,170126:0:0:0:0:
182,192,170034,128,0,170126:0:0:0:0:
475,192,170126,128,0,170492:0:0:0:0:
329,192,170126,1,0,0:0:0:0:
402,192,170217,128,0,170400:0:0:0:0:
256,192,170217,1,0,0:0:0:0:
329,192,170309,128,0,170400:0:0:0:0:
182,192,170309,128,0,170400:0:0:0:0:
36,192,170309,128,0,170857:0:0:0:0:
256,192,170492,128,0,170583:0:0:0:0:
402,192,170492,128,0,170583:0:0:0:0:
109,192,170492,128,0,170857:0:0:0:0:
182,192,170675,128,0,170857:0:0:0:0:
329,192,170675,128,0,170766:0:0:0:0:
475,192,170675,128,0,170766:0:0:0:0:
256,192,170857,128,0,170949:0:0:0:0:
475,192,170857,128,0,171132:0:0:0:0:
182,192,170949,128,0,171040:0:0:0:0:
402,192,170949,128,0,171132:0:0:0:0:
109,192,171040,128,0,171132:0:0:0:0:
329,192,171040,128,0,171132:0:0:0:0:
256,192,171132,128,0,171223:0:0:0:0:
36,192,171223,128,0,171864:0:0:0:0:
475,192,171223,128,0,171406:0:0:0:0:
182,192,171223,128,0,171498:0:0:0:0:
329,192,171223,1,0,0:0:0:0:
109,192,171223,128,0,171498:0:0:0:0:
402,192,171315,128,0,171498:0:0:0:0:
329,192,171406,128,0,171589:0:0:0:0:
256,192,171498,128,0,171681:0:0:0:0:
475,192,171589,128,0,171864:0:0:0:0:
182,192,171589,128,0,171681:0:0:0:0:
109,192,171589,128,0,171864:0:0:0:0:
402,192,171681,128,0,171864:0:0:0:0:
329,192,171772,128,0,171864:0:0:0:0:
182,192,171772,128,0,172321:0:0:0:0:
256,192,171864,128,0,172047:0:0:0:0:
36,192,171955,128,0,172138:0:0:0:0:
109,192,171955,1,0,0:0:0:0:
329,192,171955,128,0,172138:0:0:0:0:
475,192,171955,128,0,172047:0:0:0:0:
402,192,172047,128,0,172229:0:0:0:0:
256,192,172138,128,0,172504:0:0:0:0:
109,192,172138,128,0,172321:0:0:0:0:
475,192,172229,128,0,172412:0:0:0:0:
329,192,172321,128,0,172778:0:0:0:0:
36,192,172321,128,0,172504:0:0:0:0:
402,192,172321,128,0,172504:0:0:0:0:
109,192,172412,128,0,172595:0:0:0:0:
182,192,172504,128,0,172778:0:0:0:0:
475,192,172504,128,0,173053:0:0:0:0:
36,192,172595,128,0,172778:0:0:0:0:
256,192,172687,128,0,172778:0:0:0:0:
402,192,172687,128,0,172870:0:0:0:0:
109,192,172687,128,0,172778:0:0:0:0:
256,192,172870,128,0,173053:0:0:0:0:
182,192,172870,128,0,172961:0:0:0:0:
109,192,172870,128,0,172961:0:0:0:0:
36,192,172870,128,0,172961:0:0:0:0:
402,192,172961,128,0,173053:0:0:0:0:
329,192,172961,128,0,173053:0:0:0:0:
36,192,173053,128,0,173327:0:0:0:0:
109,192,173053,128,0,173236:0:0:0:0:
182,192,173053,128,0,173144:0:0:0:0:
475,192,173144,128,0,173418:0:0:0:0:
329,192,173144,1,0,0:0:0:0:
402,192,173236,128,0,173418:0:0:0:0:
256,192,173236,1,0,0:0:0:0:
329,192,173327,128,0,173418:0:0:0:0:
182,192,173327,1,0,0:0:0:0:
36,192,173418,128,0,173693:0:0:0:0:
109,192,173418,128,0,173510:0:0:0:0:
256,192,173418,128,0,173510:0:0:0:0:
329,192,173464,128,0,173556:0:0:0:0:
402,192,173510,128,0,173601:0:0:0:0:
475,192,173556,128,0,173647:0:0:0:0:
109,192,173601,128,0,173693:0:0:0:0:
182,192,173601,128,0,173693:0:0:0:0:
256,192,173647,128,0,173739:0:0:0:0:
329,192,173693,128,0,173784:0:0:0:0:
402,192,173739,128,0,173830:0:0:0:0:
36,192,173784,128,0,174059:0:0:0:0:
109,192,173784,128,0,173876:0:0:0:0:
475,192,173784,128,0,173876:0:0:0:0:
182,192,173830,128,0,173922:0:0:0:0:
256,192,173876,128,0,173967:0:0:0:0:
329,192,173922,128,0,174013:0:0:0:0:
475,192,173967,128,0,174059:0:0:0:0:
402,192,173967,128,0,174059:0:0:0:0:
109,192,173967,128,0,174059:0:0:0:0:
182,192,174013,128,0,174104:0:0:0:0:
256,192,174059,128,0,174150:0:0:0:0:
329,192,174104,128,0,174150:0:0:0:0:
402,192,174150,128,0,174242:0:0:0:0:
109,192,174150,128,0,174242:0:0:0:0:
36,192,174150,128,0,174242:0:0:0:0:
475,192,174150,128,0,174242:0:0:0:0:
182,192,174242,128,0,174333:0:0:0:0:
256,192,174333,128,0,174425:0:0:0:0:
402,192,174333,128,0,174425:0:0:0:0:
109,192,174333,128,0,174425:0:0:0:0:
329,192,174425,128,0,174516:0:0:0:0:
256,192,174516,128,0,174607:0:0:0:0:
475,192,174516,128,0,174607:0:0:0:0:
402,192,174516,128,0,174607:0:0:0:0:
182,192,174516,128,0,174699:0:0:0:0:
36,192,174516,128,0,174607:0:0:0:0:
109,192,174607,128,0,174699:0:0:0:0:
256,192,174699,128,0,174882:0:0:0:0:
402,192,174699,128,0,174790:0:0:0:0:
475,192,174699,128,0,174790:0:0:0:0:
36,192,174699,128,0,174790:0:0:0:0:
182,192,174790,128,0,174882:0:0:0:0:
109,192,174882,128,0,174973:0:0:0:0:
36,192,174882,128,0,174973:0:0:0:0:
329,192,174882,128,0,175065:0:0:0:0:
475,192,174882,128,0,174973:0:0:0:0:
256,192,174973,128,0,175065:0:0:0:0:
182,192,175065,128,0,175156:0:0:0:0:
402,192,175065,128,0,175248:0:0:0:0:
36,192,175065,128,0,175156:0:0:0:0:
109,192,175065,128,0,175156:0:0:0:0:
475,192,175065,128,0,175156:0:0:0:0:
329,192,175156,128,0,175248:0:0:0:0:
109,192,175248,128,0,175522:0:0:0:0:
256,192,175248,128,0,175339:0:0:0:0:
36,192,175248,128,0,175522:0:0:0:0:
475,192,175248,128,0,175522:0:0:0:0:
402,192,175339,128,0,175522:0:0:0:0:
182,192,175339,128,0,175522:0:0:0:0:
329,192,175431,128,0,175522:0:0:0:0:
475,192,175614,128,0,175888:0:0:0:0:
329,192,175614,128,0,175705:0:0:0:0:
256,192,175614,128,0,175888:0:0:0:0:
36,192,175614,128,0,175888:0:0:0:0:
402,192,175614,128,0,175797:0:0:0:0:
109,192,175705,128,0,175888:0:0:0:0:
182,192,175797,128,0,175888:0:0:0:0:
256,192,175979,128,0,176071:0:0:0:0:
36,192,175979,128,0,176071:0:0:0:0:
109,192,175979,128,0,176071:0:0:0:0:
329,192,175979,128,0,176162:0:0:0:0:
475,192,175979,128,0,176071:0:0:0:0:
402,192,176071,128,0,176162:0:0:0:0:
256,192,176162,128,0,176345:0:0:0:0:
109,192,176162,128,0,176254:0:0:0:0:
36,192,176162,128,0,176254:0:0:0:0:
475,192,176162,128,0,176254:0:0:0:0:
329,192,176254,128,0,176345:0:0:0:0:
182,192,176345,128,0,176528:0:0:0:0:
402,192,176345,128,0,176437:0:0:0:0:
475,192,176345,128,0,176437:0:0:0:0:
36,192,176345,128,0,176437:0:0:0:0:
256,192,176437,128,0,176528:0:0:0:0:
329,192,176528,128,0,176620:0:0:0:0:
475,192,176528,128,0,176620:0:0:0:0:
402,192,176528,128,0,176620:0:0:0:0:
109,192,176528,128,0,176620:0:0:0:0:
36,192,176528,128,0,176620:0:0:0:0:
182,192,176620,128,0,176711:0:0:0:0:
475,192,176711,128,0,176803:0:0:0:0:
402,192,176711,128,0,176803:0:0:0:0:
36,192,176711,128,0,176803:0:0:0:0:
109,192,176711,128,0,176803:0:0:0:0:
329,192,176757,128,0,176848:0:0:0:0:
256,192,176803,128,0,176894:0:0:0:0:
182,192,176848,128,0,176940:0:0:0:0:
402,192,176894,128,0,176986:0:0:0:0:
475,192,176894,128,0,176986:0:0:0:0:
36,192,176894,128,0,176986:0:0:0:0:
109,192,176894,128,0,176986:0:0:0:0:
329,192,176940,128,0,177031:0:0:0:0:
256,192,176986,128,0,177077:0:0:0:0:
182,192,177031,128,0,177077:0:0:0:0:
36,192,177077,128,0,177168:0:0:0:0:
109,192,177077,128,0,177168:0:0:0:0:
475,192,177077,128,0,177168:0:0:0:0:
402,192,177077,128,0,177168:0:0:0:0:
329,192,177168,128,0,177260:0:0:0:0:
256,192,177260,128,0,177351:0:0:0:0:
182,192,177351,128,0,177443:0:0:0:0:
109,192,177443,128,0,177534:0:0:0:0:
36,192,177443,128,0,177534:0:0:0:0:
402,192,177443,128,0,177534:0:0:0:0:
475,192,177443,128,0,177534:0:0:0:0:
182,192,177534,128,0,177626:0:0:0:0:
256,192,177626,128,0,177717:0:0:0:0:
36,192,177626,128,0,177717:0:0:0:0:
475,192,177626,128,0,177717:0:0:0:0:
329,192,177717,128,0,177809:0:0:0:0:
402,192,177809,128,0,177900:0:0:0:0:
475,192,177809,128,0,177900:0:0:0:0:
109,192,177809,128,0,177900:0:0:0:0:
36,192,177809,128,0,177900:0:0:0:0:
329,192,177900,128,0,177992:0:0:0:0:
256,192,177992,128,0,178083:0:0:0:0:
109,192,177992,128,0,178083:0:0:0:0:
402,192,177992,128,0,178083:0:0:0:0:
182,192,178083,128,0,178175:0:0:0:0:
109,192,178175,128,0,178266:0:0:0:0:
36,192,178175,128,0,178266:0:0:0:0:
402,192,178175,128,0,178266:0:0:0:0:
475,192,178175,128,0,178266:0:0:0:0:
182,192,178266,128,0,178357:0:0:0:0:
256,192,178357,128,0,178449:0:0:0:0:
36,192,178357,128,0,178449:0:0:0:0:
475,192,178357,128,0,178449:0:0:0:0:
329,192,178449,128,0,178540:0:0:0:0:
402,192,178540,1,0,0:0:0:0:
475,192,178540,1,0,0:0:0:0:
256,192,178540,1,0,0:0:0:0:
109,192,178540,1,0,0:0:0:0:
36,192,178540,1,0,0:0:0:0:
182,192,178723,1,0,0:0:0:0:
329,192,178723,1,0,0:0:0:0:
329,192,178815,1,0,0:0:0:0:
182,192,178815,1,0,0:0:0:0:
182,192,178906,1,0,0:0:0:0:
329,192,178906,1,0,0:0:0:0:
182,192,179089,1,0,0:0:0:0:
329,192,179089,1,0,0:0:0:0:
36,192,179089,1,0,0:0:0:0:
475,192,179089,1,0,0:0:0:0:
36,192,179272,1,0,0:0:0:0:
329,192,179272,1,0,0:0:0:0:
109,192,179364,1,0,0:0:0:0:
256,192,179364,1,0,0:0:0:0:
182,192,179455,1,0,0:0:0:0:
475,192,179455,1,0,0:0:0:0:
36,192,179455,1,0,0:0:0:0:
402,192,179547,1,0,0:0:0:0:
256,192,179547,1,0,0:0:0:0:
329,192,179638,1,0,0:0:0:0:
36,192,179638,1,0,0:0:0:0:
182,192,179729,1,0,0:0:0:0:
475,192,179729,1,0,0:0:0:0:
109,192,179821,1,0,0:0:0:0:
402,192,179821,1,0,0:0:0:0:
329,192,179912,1,0,0:0:0:0:
475,192,180004,128,0,180278:0:0:0:0:
182,192,180004,128,0,180095:0:0:0:0:
109,192,180004,128,0,180187:0:0:0:0:
36,192,180004,128,0,180278:0:0:0:0:
256,192,180004,128,0,180278:0:0:0:0:
402,192,180095,128,0,180278:0:0:0:0:
329,192,180187,128,0,180278:0:0:0:0:
329,192,180370,128,0,180461:0:0:0:0:
402,192,180370,128,0,180461:0:0:0:0:
36,192,180370,128,0,180553:0:0:0:0:
109,192,180370,128,0,180461:0:0:0:0:
256,192,180461,128,0,180553:0:0:0:0:
182,192,180553,128,0,180644:0:0:0:0:
402,192,180553,128,0,180644:0:0:0:0:
475,192,180553,128,0,180644:0:0:0:0:
109,192,180553,128,0,180736:0:0:0:0:
329,192,180644,128,0,180736:0:0:0:0:
256,192,180736,128,0,180827:0:0:0:0:
182,192,180736,128,0,180918:0:0:0:0:
36,192,180736,128,0,180827:0:0:0:0:
475,192,180736,128,0,180827:0:0:0:0:
402,192,180827,128,0,180918:0:0:0:0:
329,192,180918,128,0,181010:0:0:0:0:
256,192,180918,128,0,181101:0:0:0:0:
36,192,180918,128,0,181010:0:0:0:0:
475,192,180918,128,0,181010:0:0:0:0:
182,192,181010,128,0,181101:0:0:0:0:
329,192,181101,128,0,181193:0:0:0:0:
402,192,181101,128,0,181193:0:0:0:0:
109,192,181101,128,0,181193:0:0:0:0:
36,192,181101,128,0,181284:0:0:0:0:
256,192,181193,128,0,181284:0:0:0:0:
109,192,181284,128,0,181467:0:0:0:0:
182,192,181284,128,0,181376:0:0:0:0:
475,192,181284,128,0,181376:0:0:0:0:
402,192,181284,128,0,181376:0:0:0:0:
329,192,181376,128,0,181467:0:0:0:0:
256,192,181467,128,0,181559:0:0:0:0:
182,192,181467,128,0,181650:0:0:0:0:
36,192,181467,128,0,181559:0:0:0:0:
475,192,181467,128,0,181559:0:0:0:0:
402,192,181559,128,0,181650:0:0:0:0:
256,192,181650,128,0,181742:0:0:0:0:
329,192,181650,128,0,181742:0:0:0:0:
475,192,181650,128,0,181833:0:0:0:0:
36,192,181650,128,0,181742:0:0:0:0:
182,192,181742,128,0,181833:0:0:0:0:
109,192,181833,128,0,181925:0:0:0:0:
36,192,181833,128,0,181925:0:0:0:0:
329,192,181833,128,0,181925:0:0:0:0:
402,192,181833,128,0,181925:0:0:0:0:
475,192,181925,128,0,182016:0:0:0:0:
256,192,181925,128,0,182016:0:0:0:0:
329,192,182016,128,0,182107:0:0:0:0:
109,192,182016,128,0,182107:0:0:0:0:
36,192,182016,128,0,182107:0:0:0:0:
402,192,182107,128,0,182199:0:0:0:0:
182,192,182107,128,0,182199:0:0:0:0:
109,192,182199,128,0,182290:0:0:0:0:
36,192,182199,128,0,182290:0:0:0:0:
256,192,182199,128,0,182290:0:0:0:0:
475,192,182199,128,0,182382:0:0:0:0:
402,192,182290,128,0,182382:0:0:0:0:
329,192,182382,128,0,182473:0:0:0:0:
36,192,182382,128,0,182565:0:0:0:0:
182,192,182382,128,0,182473:0:0:0:0:
402,192,182473,128,0,182565:0:0:0:0:
109,192,182565,128,0,182656:0:0:0:0:
475,192,182565,128,0,182748:0:0:0:0:
256,192,182565,128,0,182656:0:0:0:0:
329,192,182656,128,0,182748:0:0:0:0:
402,192,182748,128,0,182839:0:0:0:0:
182,192,182748,128,0,182839:0:0:0:0:
109,192,182793,128,0,182839:0:0:0:0:
329,192,182839,128,0,182931:0:0:0:0:
256,192,182931,128,0,183205:0:0:0:0:
475,192,182931,128,0,183205:0:0:0:0:
109,192,182931,128,0,183114:0:0:0:0:
182,192,182931,128,0,183022:0:0:0:0:
36,192,182931,128,0,183205:0:0:0:0:
402,192,183022,128,0,183205:0:0:0:0:
329,192,183114,128,0,183205:0:0:0:0:
475,192,183296,128,0,183479:0:0:0:0:
402,192,183296,128,0,183388:0:0:0:0:
182,192,183296,128,0,183388:0:0:0:0:
109,192,183296,128,0,183388:0:0:0:0:
256,192,183388,128,0,183479:0:0:0:0:
36,192,183479,128,0,183571:0:0:0:0:
402,192,183479,128,0,183662:0:0:0:0:
329,192,183479,128,0,183571:0:0:0:0:
109,192,183479,128,0,183571:0:0:0:0:
182,192,183571,128,0,183662:0:0:0:0:
475,192,183662,128,0,183754:0:0:0:0:
36,192,183662,128,0,183754:0:0:0:0:
256,192,183662,128,0,183754:0:0:0:0:
329,192,183662,128,0,183845:0:0:0:0:
109,192,183754,128,0,183845:0:0:0:0:
475,192,183845,128,0,183937:0:0:0:0:
36,192,183845,128,0,183937:0:0:0:0:
182,192,183845,128,0,183937:0:0:0:0:
256,192,183845,128,0,184028:0:0:0:0:
329,192,183937,128,0,184028:0:0:0:0:
402,192,184028,128,0,184120:0:0:0:0:
475,192,184028,128,0,184211:0:0:0:0:
182,192,184028,128,0,184120:0:0:0:0:
109,192,184028,128,0,184120:0:0:0:0:
256,192,184120,128,0,184211:0:0:0:0:
36,192,184211,128,0,184303:0:0:0:0:
109,192,184211,128,0,184303:0:0:0:0:
402,192,184211,128,0,184394:0:0:0:0:
329,192,184211,128,0,184303:0:0:0:0:
182,192,184303,128,0,184394:0:0:0:0:
475,192,184394,128,0,184486:0:0:0:0:
36,192,184394,128,0,184486:0:0:0:0:
256,192,184394,128,0,184486:0:0:0:0:
329,192,184394,128,0,184577:0:0:0:0:
109,192,184486,128,0,184577:0:0:0:0:
36,192,184577,128,0,184760:0:0:0:0:
475,192,184577,128,0,184668:0:0:0:0:
256,192,184577,128,0,184668:0:0:0:0:
182,192,184577,128,0,184668:0:0:0:0:
329,192,184668,128,0,184760:0:0:0:0:
182,192,184760,128,0,184851:0:0:0:0:
109,192,184760,128,0,184851:0:0:0:0:
402,192,184760,128,0,184851:0:0:0:0:
475,192,184760,128,0,184851:0:0:0:0:
256,192,184851,128,0,184943:0:0:0:0:
36,192,184851,128,0,184943:0:0:0:0:
475,192,184943,128,0,185034:0:0:0:0:
402,192,184943,128,0,185034:0:0:0:0:
182,192,184943,128,0,185034:0:0:0:0:
329,192,185034,128,0,185126:0:0:0:0:
109,192,185034,128,0,185126:0:0:0:0:
256,192,185126,128,0,185217:0:0:0:0:
36,192,185126,128,0,185309:0:0:0:0:
475,192,185126,128,0,185217:0:0:0:0:
402,192,185126,128,0,185217:0:0:0:0:
109,192,185217,128,0,185309:0:0:0:0:
329,192,185309,128,0,185492:0:0:0:0:
182,192,185309,128,0,185400:0:0:0:0:
475,192,185309,128,0,185400:0:0:0:0:
109,192,185400,128,0,185492:0:0:0:0:
36,192,185492,128,0,185675:0:0:0:0:
402,192,185492,128,0,185583:0:0:0:0:
256,192,185492,128,0,185583:0:0:0:0:
475,192,185537,128,0,185583:0:0:0:0:
182,192,185583,128,0,185675:0:0:0:0:
329,192,185675,128,0,185766:0:0:0:0:
109,192,185675,128,0,185766:0:0:0:0:
402,192,185720,128,0,185766:0:0:0:0:
182,192,185766,128,0,185857:0:0:0:0:
475,192,185857,128,0,186132:0:0:0:0:
256,192,185857,128,0,186132:0:0:0:0:
329,192,185857,128,0,185949:0:0:0:0:
36,192,185857,128,0,186132:0:0:0:0:
402,192,185857,128,0,186040:0:0:0:0:
109,192,185949,128,0,186132:0:0:0:0:
182,192,186040,128,0,186132:0:0:0:0:
329,192,186223,128,0,186315:0:0:0:0:
256,192,186223,128,0,186315:0:0:0:0:
36,192,186223,128,0,186315:0:0:0:0:
182,192,186223,128,0,186315:0:0:0:0:
475,192,186223,128,0,186406:0:0:0:0:
402,192,186315,128,0,186498:0:0:0:0:
256,192,186406,128,0,186498:0:0:0:0:
109,192,186406,128,0,186589:0:0:0:0:
36,192,186406,128,0,186498:0:0:0:0:
329,192,186498,128,0,186589:0:0:0:0:
402,192,186589,128,0,186772:0:0:0:0:
475,192,186589,128,0,186681:0:0:0:0:
182,192,186589,128,0,186681:0:0:0:0:
36,192,186589,128,0,186681:0:0:0:0:
256,192,186681,128,0,186772:0:0:0:0:
329,192,186772,128,0,186864:0:0:0:0:
109,192,186772,128,0,186864:0:0:0:0:
182,192,186864,128,0,186955:0:0:0:0:
402,192,186955,128,0,187229:0:0:0:0:
256,192,186955,128,0,187046:0:0:0:0:
36,192,186955,128,0,187046:0:0:0:0:
475,192,186955,128,0,187229:0:0:0:0:
109,192,187046,128,0,187138:0:0:0:0:
329,192,187046,128,0,187229:0:0:0:0:
182,192,187138,128,0,187229:0:0:0:0:
475,192,187321,128,0,187595:0:0:0:0:
109,192,187321,128,0,187504:0:0:0:0:
182,192,187321,128,0,187412:0:0:0:0:
36,192,187321,128,0,187595:0:0:0:0:
256,192,187321,128,0,187595:0:0:0:0:
402,192,187412,128,0,187595:0:0:0:0:
329,192,187504,128,0,187595:0:0:0:0:
182,192,187687,128,0,187778:0:0:0:0:
256,192,187687,128,0,187778:0:0:0:0:
475,192,187687,128,0,187778:0:0:0:0:
329,192,187687,128,0,187778:0:0:0:0:
36,192,187687,128,0,187870:0:0:0:0:
109,192,187778,128,0,187961:0:0:0:0:
475,192,187870,128,0,187961:0:0:0:0:
402,192,187870,128,0,188053:0:0:0:0:
256,192,187870,128,0,187961:0:0:0:0:
182,192,187961,128,0,188053:0:0:0:0:
329,192,188053,128,0,188144:0:0:0:0:
109,192,188053,128,0,188236:0:0:0:0:
36,192,188053,128,0,188236:0:0:0:0:
475,192,188053,128,0,188144:0:0:0:0:
256,192,188144,128,0,188236:0:0:0:0:
182,192,188236,128,0,188327:0:0:0:0:
402,192,188236,128,0,188327:0:0:0:0:
329,192,188327,128,0,188418:0:0:0:0:
36,192,188418,128,0,188510:0:0:0:0:
475,192,188418,128,0,188510:0:0:0:0:
109,192,188464,128,0,188556:0:0:0:0:
402,192,188464,128,0,188556:0:0:0:0:
182,192,188510,128,0,188601:0:0:0:0:
329,192,188510,128,0,188601:0:0:0:0:
256,192,188556,128,0,188647:0:0:0:0:
36,192,188601,128,0,188693:0:0:0:0:
475,192,188601,128,0,188693:0:0:0:0:
109,192,188647,128,0,188739:0:0:0:0:
402,192,188647,128,0,188739:0:0:0:0:
182,192,188693,128,0,188784:0:0:0:0:
329,192,188693,128,0,188784:0:0:0:0:
256,192,188739,128,0,188830:0:0:0:0:
36,192,188784,128,0,188967:0:0:0:0:
109,192,188784,128,0,188967:0:0:0:0:
475,192,188784,128,0,189333:0:0:0:0:
402,192,188784,128,0,189150:0:0:0:0:
182,192,188967,128,0,189150:0:0:0:0:
36,192,189150,128,0,189242:0:0:0:0:
109,192,189150,128,0,189242:0:0:0:0:
329,192,189150,128,0,189516:0:0:0:0:
256,192,189150,128,0,189333:0:0:0:0:
109,192,189333,128,0,189425:0:0:0:0:
36,192,189333,128,0,189425:0:0:0:0:
402,192,189333,128,0,189699:0:0:0:0:
109,192,189516,128,0,189699:0:0:0:0:
36,192,189516,128,0,189699:0:0:0:0:
475,192,189516,128,0,189882:0:0:0:0:
256,192,189516,128,0,189699:0:0:0:0:
329,192,189699,128,0,190248:0:0:0:0:
182,192,189699,128,0,189882:0:0:0:0:
402,192,189882,128,0,190248:0:0:0:0:
36,192,189882,128,0,189973:0:0:0:0:
109,192,189882,128,0,189973:0:0:0:0:
475,192,190065,128,0,190248:0:0:0:0:
109,192,190248,1,0,0:0:0:0:
256,192,190248,1,0,0:0:0:0:
36,192,190248,1,0,0:0:0:0:
36,192,190431,1,0,0:0:0:0:
109,192,190431,1,0,0:0:0:0:
329,192,190431,1,0,0:0:0:0:
182,192,190522,1,0,0:0:0:0:
402,192,190522,1,0,0:0:0:0:
256,192,190614,1,0,0:0:0:0:
475,192,190614,1,0,0:0:0:0:
36,192,190614,1,0,0:0:0:0:
109,192,190796,1,0,0:0:0:0:
182,192,190796,1,0,0:0:0:0:
329,192,190796,1,0,0:0:0:0:
402,192,190796,1,0,0:0:0:0:
256,192,190888,1,0,0:0:0:0:
109,192,190979,1,0,0:0:0:0:
36,192,190979,1,0,0:0:0:0:
402,192,190979,1,0,0:0:0:0:
475,192,190979,1,0,0:0:0:0:
329,192,190979,1,0,0:0:0:0:
182,192,190979,1,0,0:0:0:0:
109,192,191162,1,0,0:0:0:0:
36,192,191162,1,0,0:0:0:0:
329,192,191162,1,0,0:0:0:0:
182,192,191162,1,0,0:0:0:0:
402,192,191162,1,0,0:0:0:0:
475,192,191162,1,0,0:0:0:0:
182,192,191345,1,0,0:0:0:0:
36,192,191345,1,0,0:0:0:0:
329,192,191345,1,0,0:0:0:0:
475,192,191345,1,0,0:0:0:0:
182,192,191528,1,0,0:0:0:0:
36,192,191528,1,0,0:0:0:0:
329,192,191528,1,0,0:0:0:0:
475,192,191528,1,0,0:0:0:0:
109,192,191711,128,0,192168:0:0:0:0:
182,192,191711,128,0,192168:0:0:0:0:
329,192,191711,128,0,192168:0:0:0:0:
402,192,191711,128,0,192168:0:0:0:0:
36,192,191711,128,0,192809:0:0:0:0:
475,192,191711,128,0,192809:0:0:0:0:
256,192,191711,128,0,192809:0:0:0:0:
402,192,192260,128,0,192809:0:0:0:0:
109,192,192260,128,0,192809:0:0:0:0:
182,192,192260,128,0,192809:0:0:0:0:
329,192,192260,128,0,192809:0:0:0:0:
