osu file format v14

[General]
AudioFilename: [A]ddiction.mp3
AudioLeadIn: 0
PreviewTime: 42999
Countdown: 0
SampleSet: Soft
StackLeniency: 0.7
Mode: 0
LetterboxInBreaks: 0
WidescreenStoryboard: 1

[Editor]
Bookmarks: 2938,8792,32207,43914,67329,73182,84890,143426
DistanceSpacing: 0.9
BeatDivisor: 4
GridSize: 4
TimelineZoom: 2.1

[Metadata]
Title:[A]ddiction
TitleUnicode:[A]ddiction
Artist:EVO+
ArtistUnicode:EVO+
Creator:Mei
Version:Insane
Source:
Tags:giga reol DreaM117er m1223961117 Streliteela Euphoria Vert addiction
BeatmapID:829336
BeatmapSetID:378803

[Difficulty]
HPDrainRate:6
CircleSize:4
OverallDifficulty:8
ApproachRate:9
SliderMultiplier:1.7
SliderTickRate:1

[Events]
//Background and Video events
0,0,"bgr.jpg",0,0
Video,0,"ok.avi"
//Break Periods
2,131919,142826
//Storyboard Layer 0 (Background)
//Storyboard Layer 1 (Fail)
//Storyboard Layer 2 (Pass)
//Storyboard Layer 3 (Foreground)
//Storyboard Sound Samples

[TimingPoints]
12,365.853658536585,4,2,1,70,1,0
19036,-100,4,3,0,70,0,0
19768,-66.6666666666667,4,3,0,70,0,0
20133,-133.333333333333,4,3,0,70,0,0
20499,-100,4,2,1,80,0,0
32207,-133.333333333333,4,2,2,70,0,0
41719,-111.111111111111,4,2,2,70,0,0
42450,-100,4,2,2,70,0,0
43914,-90.9090909090909,4,1,1,90,0,1
67329,-100,4,2,1,70,0,0
73182,-100,4,2,1,80,0,0
96597,-133.333333333333,4,2,2,70,0,0
106109,-111.111111111111,4,2,2,70,0,0
106841,-100,4,2,2,70,0,0
108304,-90.9090909090909,4,1,1,90,0,1
131719,-100,4,2,1,50,0,0
143426,-90.9090909090909,4,2,1,80,0,0
155133,-133.333333333333,4,2,2,70,0,0
164646,-111.111111111111,4,2,2,70,0,0
165377,-100,4,2,2,70,0,0
168304,-90.9090909090909,4,1,1,90,0,1
191719,-133.333333333333,4,2,1,60,0,0

[Colours]
Combo1 : 123,0,62
Combo2 : 249,240,138
Combo3 : 159,255,64
Combo4 : 164,164,255

[HitObjects]
104,93,2938,6,0,P|163:68|269:88,1,170,4|10,0:0|0:0,0:0:0:0:
344,160,3487,1,2,0:0:0:0:
247,217,3670,1,0,0:0:0:0:
334,310,3853,2,0,L|449:302,2,85,0|10|0,0:0|0:0|0:0,0:0:0:0:
144,358,4402,5,2,0:0:0:0:
88,288,4585,1,2,0:0:0:0:
240,308,4768,1,8,0:0:0:0:
57,286,4951,1,0,0:0:0:0:
145,202,5133,2,0,L|137:108,1,85,2|0,0:0|0:0,0:0:0:0:
225,73,5499,2,0,L|233:158,1,85,10|0,0:0|3:0,0:0:0:0:
300,192,5774,1,0,3:3:0:0:
300,192,5865,6,0,P|349:151|453:190,1,170,2|8,0:2|0:0,0:0:0:0:
469,288,6414,1,2,0:0:0:0:
376,235,6597,1,2,0:0:0:0:
346,375,6780,2,0,L|431:366,2,85,0|10|0,0:0|0:0|0:0,0:0:0:0:
254,294,7329,5,2,0:0:0:0:
232,381,7511,1,2,0:0:0:0:
350,291,7694,1,8,0:0:0:0:
199,223,7877,1,2,0:0:0:0:
346,153,8060,2,0,P|356:91|358:58,1,85,2|0,0:0|0:0,0:0:0:0:
209,39,8426,2,0,L|107:28,1,85,10|0,0:0|0:0,0:0:0:0:
23,140,8792,6,0,P|49:183|146:179,1,127.5,4|0,0:0|0:0,0:0:0:0:
145,185,9158,1,8,0:0:0:0:
276,152,9341,2,0,L|267:272,1,85,10|0,0:0|0:0,0:0:0:0:
205,339,9707,1,2,0:3:0:0:
328,308,9890,1,10,0:0:0:0:
191,253,10072,1,2,0:0:0:0:
328,308,10255,6,0,L|455:293,1,127.5,2|0,0:3|0:0,0:0:0:0:
481,288,10621,1,8,0:0:0:0:
496,168,10804,2,0,P|450:152|408:142,1,85,10|0,0:0|0:0,0:0:0:0:
281,51,11170,1,2,0:3:0:0:
295,134,11353,1,10,0:0:0:0:
315,216,11536,1,2,0:0:0:0:
315,216,11719,6,0,L|167:247,1,127.5,2|0,0:3|0:0,0:0:0:0:
162,250,12085,1,8,0:0:0:0:
84,164,12268,2,0,P|28:159|-14:159,1,85,10|0,0:0|0:0,0:0:0:0:
34,241,12633,1,2,0:3:0:0:
186,145,12816,2,0,P|192:75|194:12,1,127.5,10|0,0:0|0:0,0:0:0:0:
193,17,13182,6,0,L|291:31,1,85,2|0,0:3|0:0,0:0:0:0:
373,142,13548,1,10,0:0:0:0:
447,78,13731,1,10,0:0:0:0:
271,108,13914,1,0,0:0:0:0:
463,162,14097,1,2,0:3:0:0:
365,52,14280,1,10,0:0:0:0:
383,252,14463,1,2,0:0:0:0:
211,194,14646,6,0,L|228:356,1,127.5,12|0,0:0|0:0,0:0:0:0:
231,357,15011,1,8,0:0:0:0:
343,298,15194,2,0,P|396:289|438:280,1,85,10|0,0:0|0:0,0:0:0:0:
365,197,15560,1,2,0:3:0:0:
498,209,15743,1,10,0:0:0:0:
450,101,15926,1,2,0:0:0:0:
450,101,16109,6,0,P|377:105|305:101,1,127.5,2|0,0:3|0:0,0:0:0:0:
300,92,16475,1,8,0:0:0:0:
180,24,16658,2,0,L|191:140,1,85,10|0,0:0|0:0,0:0:0:0:
201,218,17024,1,2,0:3:0:0:
78,147,17207,2,0,L|70:63,1,85,10|2,0:0|0:0,0:0:0:0:
6,228,17572,5,2,0:3:0:0:
122,263,17755,1,0,0:0:0:0:
37,336,17938,1,10,0:0:0:0:
84,189,18121,2,0,P|148:186|206:287,1,170,8|2,0:0|0:3,0:0:0:0:
223,365,18670,1,10,0:0:0:0:
304,340,18853,1,10,0:0:0:0:
386,319,19036,5,0,3:0:0:0:
272,260,19219,1,0,3:3:0:0:
496,216,19402,1,0,3:3:0:0:
292,156,19585,1,0,3:3:0:0:
472,128,19768,6,0,P|490:87|367:26,1,191.250007295609,8|0,0:0|0:0,0:0:0:0:
394,9,20133,6,0,P|334:17|291:11,1,95.6250036478044,8|0,0:0|0:0,0:0:0:0:
228,16,20499,5,4,0:0:0:0:
205,154,20682,1,0,0:0:0:0:
88,64,20865,1,8,0:0:0:0:
155,245,21048,1,10,0:0:0:0:
155,245,21231,2,0,P|90:233|47:224,1,85,0|2,0:0|0:3,0:0:0:0:
268,216,21597,2,0,P|309:207|351:200,1,85,10|2,0:0|0:0,0:0:0:0:
233,309,21963,5,10,0:3:0:0:
205,154,22146,1,0,0:0:0:0:
212,129,22237,1,0,0:0:0:0:
218,104,22329,1,8,0:0:0:0:
87,28,22511,2,0,P|94:93|81:216,1,170,10|2,0:0|0:3,0:0:0:0:
55,344,23060,1,10,0:0:0:0:
0,267,23243,1,2,0:0:0:0:
144,277,23426,6,0,P|208:268|242:265,1,85,10|0,0:3|0:0,0:0:0:0:
451,203,23792,2,0,P|392:198|342:190,1,85,8|10,0:0|0:0,0:0:0:0:
366,194,24066,1,0,0:0:0:0:
366,194,24158,2,0,L|359:92,1,85,0|2,0:0|0:3,0:0:0:0:
209,41,24524,1,10,0:0:0:0:
276,143,24707,1,2,0:0:0:0:
92,186,24890,6,0,P|140:164|189:160,1,85,10|0,0:3|0:0,0:0:0:0:
171,159,25164,1,0,0:0:0:0:
171,159,25255,1,8,0:0:0:0:
55,273,25438,2,0,P|11:237|31:114,1,170,10|2,0:0|0:3,0:0:0:0:
72,19,25987,1,10,0:0:0:0:
152,45,26170,1,2,0:0:0:0:
231,73,26353,6,0,L|343:54,1,85,12|0,0:0|0:0,0:0:0:0:
411,42,26719,1,8,0:0:0:0:
256,179,26902,2,0,P|200:174|71:167,1,170,10|2,0:0|0:3,0:0:0:0:
22,248,27451,1,10,0:0:0:0:
112,266,27633,1,2,0:0:0:0:
256,180,27816,6,0,L|271:79,1,85,10|0,0:3|0:0,0:0:0:0:
262,57,28091,1,0,0:0:0:0:
239,25,28182,1,8,0:0:0:0:
394,77,28365,2,0,P|371:161|364:274,1,170,10|2,0:0|0:3,0:0:0:0:
256,249,28914,1,10,0:0:0:0:
315,356,29097,1,2,0:0:0:0:
426,305,29280,6,0,P|483:295|523:290,1,85,10|0,0:3|0:0,0:0:0:0:
394,185,29646,2,0,P|351:179|310:171,1,85,8|10,0:0|0:0,0:0:0:0:
191,277,30011,2,0,L|212:189,1,85,0|10,0:0|0:3,0:0:0:0:
216,11,30377,2,0,P|224:70|234:122,1,85,10|2,0:0|0:0,0:0:0:0:
131,139,30743,5,10,0:3:0:0:
313,126,30926,1,2,0:0:0:0:
324,102,31018,1,0,0:0:0:0:
333,78,31109,1,10,0:0:0:0:
210,194,31292,1,10,0:0:0:0:
310,272,31475,2,0,P|381:261|425:254,1,85,0|2,0:0|0:3,0:0:0:0:
251,354,31841,2,0,P|173:343|109:336,1,127.5,10|0,0:0|0:0,0:0:0:0:
104,334,32207,6,0,P|97:284|107:203,1,127.500004863739,8|0,0:0|0:0,0:0:0:0:
189,155,32755,1,8,0:0:0:0:
277,203,32938,2,0,P|319:209|353:213,1,63.7500024318696,0|0,0:0|0:0,0:0:0:0:
364,105,33304,2,0,P|332:101|301:97,1,63.7500024318696,8|0,0:0|0:0,0:0:0:0:
196,12,33670,6,0,P|147:22|120:102,1,127.500004863739,10|0,0:0|0:0,0:0:0:0:
170,248,34219,1,8,0:0:0:0:
189,155,34402,2,0,L|195:91,1,63.7500024318696
100,180,34768,2,0,P|50:179|9:182,1,63.7500024318696,8|0,0:0|0:0,0:0:0:0:
170,248,35133,6,0,P|229:227|287:269,1,127.500004863739,10|0,0:0|0:0,0:0:0:0:
302,355,35682,1,8,0:0:0:0:
375,282,35865,2,0,L|390:208,1,63.7500024318696,0|0,0:0|0:0,0:0:0:0:
285,120,36231,2,0,L|297:182,1,63.7500024318696,8|0,0:0|0:0,0:0:0:0:
388,124,36597,6,0,P|440:115|515:137,1,127.500004863739,10|0,0:0|0:0,0:0:0:0:
408,30,37146,1,8,0:0:0:0:
408,30,37329,2,0,L|338:19,1,63.7500024318696,8|0,0:0|0:0,0:0:0:0:
234,39,37694,2,0,L|205:41,4,15.9375006079674,8|0|0|0|0,0:0|0:0|0:0|0:0|0:0,0:0:0:0:
298,117,38060,6,0,L|311:254,1,127.500004863739,10|0,0:0|0:0,0:0:0:0:
230,314,38609,1,8,0:0:0:0:
235,227,38792,1,2,0:0:0:0:
144,269,38975,2,0,L|146:354,1,63.7500024318696,0|8,0:0|0:0,0:0:0:0:
87,199,39341,1,0,0:0:0:0:
87,199,39524,6,0,L|85:114,1,63.7500024318696,10|8,0:0|0:0,0:0:0:0:
174,60,39890,2,0,P|134:52|90:35,1,63.7500024318696,0|8,0:0|0:0,0:0:0:0:
193,159,40255,1,2,0:0:0:0:
193,159,40438,2,0,P|223:149|254:143,1,63.7500024318696,0|8,0:0|0:0,0:0:0:0:
296,64,40804,1,0,0:0:0:0:
381,99,40987,6,0,P|421:113|463:124,1,63.7500024318696,10|0,0:0|0:0,0:0:0:0:
376,207,41353,2,0,L|369:282,1,63.7500024318696,10|0,0:0|0:0,0:0:0:0:
263,358,41719,6,0,L|252:245,1,76.4999976654053,10|0,0:0|0:0,0:0:0:0:
160,213,42085,2,0,P|107:205|49:202,1,76.4999976654053,10|0,0:0|0:0,0:0:0:0:
240,112,42451,5,8,3:2:0:0:
253,143,42542,1,0,3:0:0:0:
275,167,42633,1,0,3:0:0:0:
305,182,42725,1,0,3:0:0:0:
338,187,42816,1,0,3:0:0:0:
371,181,42908,1,0,3:0:0:0:
401,165,42999,1,0,3:0:0:0:
428,144,43091,1,0,3:0:0:0:
445,114,43182,6,0,P|457:62|463:6,1,85,2|0,3:0|0:0,0:0:0:0:
107,37,43548,2,0,P|85:81|137:125,1,127.5,8|0,3:0|0:0,0:0:0:0:
215,120,43914,6,0,L|199:220,1,93.5000028533936,4|0,0:0|0:0,0:0:0:0:
88,364,44280,2,0,P|134:357|180:348,1,93.5000028533936,2|0,0:0|0:0,0:0:0:0:
328,384,44646,1,10,0:0:0:0:
248,248,44829,1,2,0:0:0:0:
452,238,45011,6,0,L|469:121,1,93.5000028533936,0|2,0:0|0:0,0:0:0:0:
339,175,45377,1,0,0:0:0:0:
487,79,45560,1,2,0:0:0:0:
487,79,45652,1,0,0:0:0:0:
487,79,45743,1,2,0:0:0:0:
343,0,45926,1,0,0:0:0:0:
196,92,46109,6,0,P|136:76|92:68,1,93.5000028533936,10|2,0:0|0:0,0:0:0:0:
20,256,46475,1,0,0:0:0:0:
53,264,46566,1,0,0:0:0:0:
87,273,46657,1,0,0:0:0:0:
121,282,46749,1,0,0:0:0:0:
155,291,46841,6,0,L|136:388,1,93.5000028533936,2|0,0:0|0:0,0:0:0:0:
268,336,47207,1,2,0:0:0:0:
208,212,47390,1,2,0:0:0:0:
356,124,47572,1,8,0:0:0:0:
296,244,47755,1,2,0:0:0:0:
212,112,47938,6,0,L|200:4,1,93.5000028533936,2|0,0:0|0:0,0:0:0:0:
380,216,48304,2,0,L|392:324,1,93.5000028533936,2|0,0:0|0:0,0:0:0:0:
464,332,48579,1,0,0:0:0:0:
464,332,48670,2,0,L|453:239,1,93.5000028533936,2|0,0:0|0:0,0:0:0:0:
404,24,49036,6,0,L|468:4,1,46.7500014266968,10|0,0:0|0:0,0:0:0:0:
356,124,49219,2,0,L|311:137,1,46.7500014266968,2|0,0:0|0:0,0:0:0:0:
464,172,49402,2,0,L|481:80,1,93.5000028533936,2|0,0:0|0:0,0:0:0:0:
228,56,49768,2,0,L|204:180,1,93.5000028533936,2|0,0:0|0:0,0:0:0:0:
196,320,50133,5,2,0:0:0:0:
280,216,50316,1,2,0:0:0:0:
316,384,50499,1,8,0:0:0:0:
392,216,50682,2,0,L|408:272,1,46.7500014266968,2|0,0:0|0:0,0:0:0:0:
472,332,50865,6,0,P|488:272|504:220,1,93.5000028533936,2|0,0:0|0:0,0:0:0:0:
404,24,51231,2,0,L|284:36,1,93.5000028533936,2|0,0:0|0:0,0:0:0:0:
104,8,51597,5,2,0:0:0:0:
160,184,51780,1,2,0:0:0:0:
228,56,51963,1,8,0:0:0:0:
40,136,52146,1,2,0:0:0:0:
40,136,52237,1,0,0:0:0:0:
40,136,52329,6,0,L|52:200,1,46.7500014266968,2|0,0:0|0:0,0:0:0:0:
76,272,52511,2,0,L|88:336,1,46.7500014266968,0|0,0:0|0:0,0:0:0:0:
244,336,52694,2,0,P|300:320|368:308,1,93.5000028533936,2|0,0:0|0:0,0:0:0:0:
508,328,53060,5,2,0:0:0:0:
360,200,53243,1,2,0:0:0:0:
320,192,53335,1,0,0:0:0:0:
280,184,53426,1,8,0:0:0:0:
456,24,53609,1,2,0:0:0:0:
480,148,53792,2,0,L|496:240,1,93.5000028533936,0|2,0:0|0:0,0:0:0:0:
240,108,54158,5,2,0:0:0:0:
388,64,54341,1,2,0:0:0:0:
388,64,54432,1,0,0:0:0:0:
388,64,54524,1,0,0:0:0:0:
192,12,54707,1,2,0:0:0:0:
256,274,54890,6,0,L|284:166,1,93.5000028533936,10|0,0:0|0:0,0:0:0:0:
80,120,55255,2,0,L|88:180,1,46.7500014266968,2|0,0:0|0:0,0:0:0:0:
164,284,55438,2,0,L|156:224,1,46.7500014266968,2|0,0:0|0:0,0:0:0:0:
8,272,55621,6,0,P|12:336|124:364,1,187.000005706787,6|2,0:0|0:0,0:0:0:0:
256,274,56170,1,0,0:0:0:0:
84,296,56353,1,10,0:0:0:0:
208,364,56536,1,2,0:0:0:0:
200,184,56719,6,0,L|196:76,1,93.5000028533936,2|0,0:0|0:0,0:0:0:0:
380,40,57085,1,2,0:0:0:0:
336,232,57268,1,2,0:0:0:0:
336,232,57359,1,0,0:0:0:0:
336,232,57451,5,0,0:0:0:0:
452,136,57633,1,2,0:0:0:0:
268,60,57816,2,0,L|271:153,1,93.5000028533936,10|0,0:0|0:0,0:0:0:0:
280,356,58182,1,2,0:0:0:0:
314,349,58273,1,0,0:0:0:0:
349,344,58364,1,2,0:0:0:0:
383,339,58456,1,0,0:0:0:0:
418,335,58548,2,0,L|432:216,1,93.5000028533936,2|0,0:0|0:0,0:0:0:0:
456,56,58914,6,0,P|385:46|346:35,1,93.5000028533936,2|0,0:0|0:0,0:0:0:0:
188,172,59280,1,8,0:0:0:0:
366,134,59463,1,2,0:0:0:0:
151,84,59646,1,0,0:0:0:0:
220,260,59829,1,2,0:0:0:0:
265,93,60011,6,0,L|283:-13,1,93.5000028533936,2|0,0:0|0:0,0:0:0:0:
280,0,60286,1,0,0:0:0:0:
280,0,60377,1,2,0:0:0:0:
316,209,60560,1,2,0:0:0:0:
136,240,60743,6,0,L|68:228,1,46.7500014266968,10|0,0:0|0:0,0:0:0:0:
0,336,60926,2,0,L|52:320,1,46.7500014266968,0|0,0:0|0:0,0:0:0:0:
192,344,61109,2,0,P|248:352|312:364,1,93.5000028533936,2|0,0:0|0:0,0:0:0:0:
400,208,61475,6,0,P|372:140|256:152,1,187.000005706787,2|2,0:0|0:0,0:0:0:0:
203,224,62024,1,2,0:0:0:0:
180,76,62207,2,0,P|144:56|68:48,1,93.5000028533936,8|2,0:0|0:0,0:0:0:0:
203,224,62572,6,0,P|213:300|218:378,1,140.25000428009,2|0,0:0|0:0,0:0:0:0:
260,366,62938,2,0,P|274:304|288:258,1,93.5000028533936,2|0,0:0|0:0,0:0:0:0:
400,288,63304,5,2,0:0:0:0:
276,176,63487,1,2,0:0:0:0:
464,112,63670,1,8,0:0:0:0:
312,28,63853,5,2,0:0:0:0:
312,28,63944,1,0,0:0:0:0:
312,28,64036,2,0,L|320:88,1,46.7500014266968,2|0,0:0|0:0,0:0:0:0:
276,176,64219,2,0,L|284:236,1,46.7500014266968,2|0,0:0|0:0,0:0:0:0:
384,328,64402,6,0,P|452:320|508:320,1,93.5000028533936,2|0,0:0|0:0,0:0:0:0:
360,220,64768,1,0,0:0:0:0:
276,380,64951,1,2,0:0:0:0:
128,260,65133,2,0,L|140:376,1,93.5000028533936,8|2,0:0|0:0,0:0:0:0:
276,176,65499,2,0,L|266:82,1,93.5000028533936,2|2,0:0|0:0,0:0:0:0:
164,156,65865,5,2,0:0:0:0:
360,220,66048,1,0,0:0:0:0:
360,220,66140,1,0,0:0:0:0:
360,220,66231,1,2,0:0:0:0:
224,296,66414,1,2,0:0:0:0:
280,96,66597,5,8,0:0:0:0:
304,336,66780,1,2,0:0:0:0:
128,244,66963,1,2,0:0:0:0:
384,120,67146,1,2,0:0:0:0:
204,16,67329,6,0,L|194:204,1,170,4|10,0:0|0:0,0:0:0:0:
304,336,67877,1,2,0:0:0:0:
460,259,68060,2,0,P|479:189|491:157,1,85,0|0,0:0|0:0,0:0:0:0:
384,120,68426,1,10,0:0:0:0:
344,228,68609,1,0,0:0:0:0:
231,195,68792,6,0,P|171:192|125:188,1,85,2|2,0:0|0:0,0:0:0:0:
51,226,69158,1,8,0:0:0:0:
95,96,69341,1,0,0:0:0:0:
95,96,69525,2,0,P|137:92|179:91,1,85,2|0,0:0|0:0,0:0:0:0:
304,108,69890,2,0,P|311:52|310:21,1,85,10|0,0:0|3:0,0:0:0:0:
310,23,70164,1,0,3:3:0:0:
310,23,70255,6,0,P|361:39|486:19,1,170,2|8,0:2|0:0,0:0:0:0:
414,129,70804,1,2,0:0:0:0:
500,171,70987,2,0,L|507:266,1,85,2|0,0:0|0:0,0:0:0:0:
407,327,71353,2,0,L|401:243,1,85,10|0,0:0|0:0,0:0:0:0:
241,280,71719,5,2,0:0:0:0:
241,280,71902,1,0,0:0:0:0:
313,144,72085,1,10,0:0:0:0:
313,144,72268,1,2,0:0:0:0:
135,208,72451,2,0,P|75:205|29:204,1,85,0|0,0:0|0:0,0:0:0:0:
0,115,72816,2,0,L|42:113|84:111,1,85,10|0,0:0|0:0,0:0:0:0:
159,287,73182,6,0,P|70:286|-22:283,1,170,4|8,0:0|0:0,0:0:0:0:
217,353,73731,1,10,0:0:0:0:
256,259,73914,2,0,P|266:204|274:164,1,85,0|2,0:0|0:3,0:0:0:0:
142,97,74280,1,10,0:0:0:0:
170,195,74463,1,2,0:0:0:0:
271,174,74646,6,0,P|323:163|364:157,1,85,2|0,0:3|0:0,0:0:0:0:
199,88,75011,2,0,P|169:44|154:3,1,85,8|10,0:0|0:0,0:0:0:0:
170,195,75377,1,0,0:0:0:0:
170,195,75560,2,0,L|124:296,1,85,2|10,0:3|0:0,0:0:0:0:
76,173,75926,1,2,0:0:0:0:
235,277,76109,6,0,P|286:268|357:257,1,85,2|0,0:3|0:0,0:0:0:0:
384,225,76383,1,0,0:0:0:0:
384,225,76475,2,0,P|317:210|264:200,1,85,8|10,0:0|0:0,0:0:0:0:
360,24,76841,1,0,0:0:0:0:
337,126,77024,1,2,0:3:0:0:
272,56,77207,1,10,0:0:0:0:
419,99,77390,2,0,L|434:45,1,42.5,0|0,0:0|0:0,0:0:0:0:
491,135,77572,6,0,P|502:179|511:237,1,85,2|0,0:3|0:0,0:0:0:0:
384,225,77938,2,0,L|366:336,1,85,10|10,0:0|0:0,0:0:0:0:
222,186,78304,5,0,0:0:0:0:
250,325,78487,1,10,0:3:0:0:
234,155,78670,1,10,0:0:0:0:
235,353,78853,1,2,0:0:0:0:
80,262,79036,6,0,P|70:163|57:84,1,170,12|8,0:0|0:0,0:0:0:0:
174,21,79585,1,10,0:0:0:0:
211,135,79768,2,0,P|274:122|313:115,1,85,0|2,0:0|0:3,0:0:0:0:
300,31,80133,2,0,P|363:18|402:11,1,85,10|2,0:0|0:0,0:0:0:0:
492,172,80499,5,2,0:3:0:0:
392,112,80682,1,0,0:0:0:0:
423,265,80865,1,8,0:0:0:0:
312,208,81048,1,10,0:0:0:0:
312,208,81231,2,0,L|330:295,1,85,0|2,0:0|0:3,0:0:0:0:
220,276,81597,2,0,L|238:363,1,85,10|2,0:0|0:0,0:0:0:0:
56,236,81963,5,2,0:3:0:0:
144,208,82146,1,0,0:0:0:0:
236,184,82329,2,0,L|248:92,1,85,10|8,0:0|0:0,0:0:0:0:
120,24,82694,1,0,0:0:0:0:
120,24,82877,2,0,L|130:108,1,85,2|10,0:3|0:0,0:0:0:0:
144,208,83243,1,2,0:0:0:0:
44,144,83426,5,10,0:3:0:0:
168,216,83609,1,10,0:0:0:0:
56,280,83792,1,0,0:0:0:0:
184,140,83975,1,10,0:0:0:0:
200,320,84158,1,0,0:0:0:0:
280,224,84341,2,0,P|336:212|388:208,1,85,10|2,0:3|0:0,0:0:0:0:
496,252,84707,1,10,0:0:0:0:
344,314,84890,6,0,P|382:361|496:328,1,170,4|8,0:0|0:0,0:0:0:0:
487,113,85438,1,10,0:0:0:0:
429,197,85621,2,0,P|423:239|420:282,1,85,0|2,0:0|0:3,0:0:0:0:
249,353,85987,2,0,P|245:310|239:268,1,85,10|2,0:0|0:0,0:0:0:0:
190,176,86353,5,12,0:0:0:0:
306,227,86536,2,0,L|305:157,1,42.5,8|0,0:0|0:0,0:0:0:0:
365,109,86719,2,0,L|384:15,1,85,0|10,0:0|0:0,0:0:0:0:
152,98,87085,2,0,P|115:145|147:248,1,170,0|10,0:0|0:0,0:0:0:0:
249,353,87633,1,2,0:0:0:0:
375,221,87816,6,0,P|439:210|495:203,1,85,12|0,0:0|0:0,0:0:0:0:
270,255,88182,1,8,0:0:0:0:
258,170,88365,1,10,0:0:0:0:
247,85,88548,2,0,L|153:73,1,85,0|2,0:0|0:3,0:0:0:0:
338,111,88914,2,0,L|422:121,1,85,10|2,0:0|0:0,0:0:0:0:
186,253,89280,5,12,0:0:0:0:
385,210,89463,2,0,L|375:269,1,42.5,8|8,0:0|0:0,0:0:0:0:
290,333,89646,1,0,0:0:0:0:
258,170,89829,2,0,P|185:161|139:151,1,85,10|0,0:0|0:0,0:0:0:0:
376,22,90194,1,2,0:3:0:0:
318,115,90377,1,10,0:0:0:0:
405,181,90560,1,10,0:0:0:0:
306,234,90743,6,0,P|294:288|395:373,1,170,12|8,0:0|0:0,0:0:0:0:
382,285,91292,1,10,0:0:0:0:
149,117,91475,6,0,L|172:380,1,255,2|0,0:0|0:0,0:0:0:0:
149,117,92207,6,0,P|196:102|245:85,1,85,10|0,0:3|0:0,0:0:0:0:
229,90,92481,1,0,0:0:0:0:
229,90,92572,1,8,0:0:0:0:
59,30,92755,1,10,0:0:0:0:
4,150,92938,6,0,L|-2:217,1,42.5,2|0,0:0|0:0,0:0:0:0:
86,205,93121,2,0,L|92:272,1,42.5,2|0,0:0|0:0,0:0:0:0:
182,254,93304,2,0,L|174:364,1,85,2|0,0:0|0:0,0:0:0:0:
377,372,93670,5,10,0:3:0:0:
306,305,93853,1,0,0:0:0:0:
441,266,94036,1,8,0:0:0:0:
351,198,94219,2,0,P|283:191|232:184,1,85,10|0,0:0|0:0,0:0:0:0:
150,211,94585,1,2,0:3:0:0:
357,111,94768,2,0,P|289:104|238:97,1,85,10|2,0:0|0:0,0:0:0:0:
89,156,95133,6,0,P|69:219|151:298,1,170,10|2,0:3|0:0,0:0:0:0:
210,376,95682,1,10,0:0:0:0:
301,284,95865,2,0,P|313:229|323:192,1,85,0|2,0:0|0:3,0:0:0:0:
236,115,96231,2,0,P|189:117|101:116,1,127.5,10|0,0:0|0:0,0:0:0:0:
83,103,96597,6,0,L|92:250,1,127.500004863739,8|0,0:0|0:0,0:0:0:0:
216,204,97146,1,8,0:0:0:0:
216,204,97329,2,0,L|200:292,1,63.7500024318696,0|0,0:0|0:0,0:0:0:0:
328,304,97694,2,0,L|340:381,1,63.7500024318696,8|0,0:0|0:0,0:0:0:0:
492,304,98060,6,0,L|469:162,1,127.500004863739,10|0,0:0|0:0,0:0:0:0:
380,128,98609,1,8,0:0:0:0:
468,60,98792,1,0,0:0:0:0:
320,36,98975,2,0,P|272:28|240:24,2,63.7500024318696,0|8|0,0:0|0:0|0:0,0:0:0:0:
380,128,99524,6,0,L|400:253,1,127.500004863739,10|0,0:0|0:0,0:0:0:0:
316,324,100072,1,8,0:0:0:0:
248,244,100255,2,0,P|192:232|172:224,1,63.7500024318696,0|0,0:0|0:0,0:0:0:0:
256,152,100621,2,0,P|286:142|317:137,1,63.7500024318696,8|0,0:0|0:0,0:0:0:0:
176,88,100987,6,0,P|124:100|40:96,1,127.500004863739,10|0,0:0|0:0,0:0:0:0:
16,200,101536,1,8,0:0:0:0:
88,272,101719,2,0,L|97:339,1,63.7500024318696,8|0,0:0|0:0,0:0:0:0:
214,349,102085,2,0,L|216:364,4,15.9375006079674,8|0|0|0|0,0:0|0:0|0:0|0:0|0:0,0:0:0:0:
300,277,102451,6,0,P|374:263|444:257,1,127.500004863739,10|0,0:0|0:0,0:0:0:0:
502,189,102999,1,8,0:0:0:0:
402,142,103182,2,0,P|397:94|398:62,1,63.7500024318696,2|0,0:0|0:0,0:0:0:0:
315,24,103548,1,8,0:0:0:0:
301,116,103731,1,0,0:0:0:0:
224,56,103914,5,10,0:0:0:0:
136,52,104097,2,0,L|72:49,1,63.7500024318696,8|0,0:0|0:0,0:0:0:0:
12,144,104463,1,8,0:0:0:0:
12,144,104646,2,0,L|85:141,1,63.7500024318696,2|0,0:0|0:0,0:0:0:0:
228,160,105011,2,0,P|241:207|243:242,1,63.7500024318696,8|0,0:0|0:0,0:0:0:0:
112,304,105377,6,0,P|116:272|126:242,1,63.7500024318696,10|0,0:0|0:0,0:0:0:0:
242,337,105743,2,0,P|289:341|326:343,1,63.7500024318696,10|0,0:0|0:0,0:0:0:0:
405,242,106109,6,0,L|426:158,1,76.4999976654053,10|0,0:0|0:0,0:0:0:0:
314,41,106475,2,0,L|296:116,1,76.4999976654053,10|0,0:0|0:0,0:0:0:0:
53,75,106841,5,8,3:2:0:0:
55,101,106932,1,0,3:2:0:0:
58,129,107024,1,0,3:0:0:0:
60,157,107115,1,0,3:0:0:0:
63,185,107207,1,0,3:0:0:0:
66,211,107298,1,0,3:0:0:0:
68,239,107390,1,0,3:0:0:0:
71,267,107481,1,0,3:0:0:0:
78,295,107572,6,0,P|136:285|185:276,1,85,2|0,3:0|0:0,0:0:0:0:
361,226,107938,2,0,P|361:285|298:331,1,127.5,8|0,3:0|0:0,0:0:0:0:
270,243,108304,6,0,L|280:136,1,93.5000028533936,4|0,0:0|0:0,0:0:0:0:
170,23,108670,1,2,0:0:0:0:
202,188,108853,1,0,0:0:0:0:
391,106,109036,1,10,0:0:0:0:
236,92,109219,5,2,0:0:0:0:
122,193,109402,2,0,L|112:300,1,93.5000028533936,0|2,0:0|0:0,0:0:0:0:
176,372,109768,1,0,0:0:0:0:
270,243,109951,1,2,0:0:0:0:
270,243,110042,1,0,0:0:0:0:
270,243,110133,1,2,0:0:0:0:
122,193,110316,5,0,0:0:0:0:
320,116,110499,1,8,0:0:0:0:
160,20,110682,1,2,0:0:0:0:
348,136,110865,2,0,L|360:214,1,46.7500014266968,2|0,0:0|0:0,0:0:0:0:
192,288,111048,2,0,L|184:241,1,46.7500014266968
276,184,111231,6,0,P|264:280|254:376,1,187.000005706787,2|2,0:0|0:0,0:0:0:0:
367,275,111780,1,2,0:0:0:0:
192,152,111963,2,0,P|132:145|79:142,1,93.5000028533936,8|0,0:0|0:0,0:0:0:0:
384,152,112329,2,0,P|443:125|472:107,1,93.5000028533936,2|0,0:0|0:0,0:0:0:0:
192,27,112694,5,2,0:0:0:0:
279,166,112877,1,0,0:0:0:0:
279,166,112969,1,0,0:0:0:0:
279,166,113060,1,2,0:0:0:0:
320,59,113243,1,0,0:0:0:0:
196,221,113426,6,0,L|202:278,1,46.7500014266968,10|0,0:0|0:0,0:0:0:0:
89,97,113609,2,0,L|84:50,1,46.7500014266968,2|0,0:0|0:0,0:0:0:0:
11,263,113792,2,0,L|110:276,1,93.5000028533936,2|0,0:0|0:0,0:0:0:0:
299,369,114158,6,0,P|332:314|271:252,1,140.25000428009,2|0,0:0|0:0,0:0:0:0:
283,237,114524,2,0,L|305:139,1,93.5000028533936,2|2,0:0|0:0,0:0:0:0:
389,63,114890,1,8,0:0:0:0:
236,110,115072,1,2,0:0:0:0:
315,6,115255,1,2,0:0:0:0:
401,161,115438,6,0,L|416:221,1,46.7500014266968,0|0,0:0|0:0,0:0:0:0:
486,260,115621,2,0,P|492:192|502:143,1,93.5000028533936,2|0,0:0|0:0,0:0:0:0:
488,356,115987,5,2,0:0:0:0:
393,314,116170,1,2,0:0:0:0:
300,272,116353,1,8,0:0:0:0:
176,332,116536,5,2,0:0:0:0:
176,332,116627,1,0,0:0:0:0:
176,332,116719,2,0,L|187:264,1,46.7500014266968,2|0,0:0|0:0,0:0:0:0:
200,168,116902,2,0,L|211:100,1,46.7500014266968,0|0,0:0|0:0,0:0:0:0:
364,72,117085,6,0,L|488:52,1,93.5000028533936,2|0,0:0|0:0,0:0:0:0:
392,236,117451,1,2,0:0:0:0:
456,148,117634,1,2,0:0:0:0:
296,192,117817,1,8,0:0:0:0:
428,320,117999,1,2,0:0:0:0:
428,320,118091,1,0,0:0:0:0:
428,320,118182,6,0,P|492:304|528:292,1,93.5000028533936,0|2,0:0|0:0,0:0:0:0:
320,272,118548,1,2,0:0:0:0:
232,368,118731,1,2,0:0:0:0:
232,368,118822,1,0,0:0:0:0:
232,368,118914,1,0,0:0:0:0:
216,176,119097,1,2,0:0:0:0:
128,280,119280,5,10,0:0:0:0:
312,172,119463,1,0,0:0:0:0:
56,40,119646,2,0,L|60:104,1,46.7500014266968,2|0,0:0|0:0,0:0:0:0:
142,154,119829,2,0,L|140:108,1,46.7500014266968,2|0,0:0|0:0,0:0:0:0:
296,72,120011,6,0,P|348:100|408:4,1,187.000005706787,6|2,0:0|0:0,0:0:0:0:
208,16,120560,1,0,0:0:0:0:
216,176,120743,2,0,L|224:308,1,93.5000028533936,10|2,0:0|0:0,0:0:0:0:
184,364,121109,1,2,0:0:0:0:
296,268,121292,1,0,0:0:0:0:
124,268,121475,6,0,P|48:260|16:260,1,93.5000028533936,2|2,0:0|0:0,0:0:0:0:
16,180,121749,1,0,0:0:0:0:
16,180,121841,2,0,P|62:177|109:171,1,93.5000028533936,0|2,0:0|0:0,0:0:0:0:
244,104,122207,5,10,0:0:0:0:
120,48,122390,1,0,0:0:0:0:
344,32,122572,1,2,0:0:0:0:
340,66,122663,1,0,0:0:0:0:
337,101,122754,1,2,0:0:0:0:
334,136,122846,1,0,0:0:0:0:
330,171,122938,2,0,L|200:188,1,93.5000028533936,2|0,0:0|0:0,0:0:0:0:
60,192,123304,5,2,0:0:0:0:
140,296,123487,1,0,0:0:0:0:
40,168,123670,1,8,0:0:0:0:
44,332,123853,1,2,0:0:0:0:
148,204,124036,1,0,0:0:0:0:
232,344,124219,1,2,0:0:0:0:
232,344,124402,6,0,L|324:331,1,93.5000028533936,2|0,0:0|0:0,0:0:0:0:
396,304,124676,1,0,0:0:0:0:
396,304,124768,2,0,P|400:240|404:196,1,93.5000028533936,2|2,0:0|0:0,0:0:0:0:
344,24,125133,6,0,L|404:8,1,46.7500014266968,10|0,0:0|0:0,0:0:0:0:
240,72,125316,2,0,L|194:59,1,46.7500014266968,0|0,0:0|0:0,0:0:0:0:
292,156,125499,2,0,P|295:202|298:249,1,93.5000028533936,2|0,0:0|0:0,0:0:0:0:
400,104,125865,6,0,P|464:96|508:216,1,187.000005706787,2|2,0:0|0:0,0:0:0:0:
396,304,126414,1,2,0:0:0:0:
440,172,126597,1,8,0:0:0:0:
248,228,126780,1,2,0:0:0:0:
256,364,126963,1,2,0:0:0:0:
80,292,127146,2,0,L|92:236,1,46.7500014266968,0|0,0:0|0:0,0:0:0:0:
148,144,127329,6,0,L|16:148,1,93.5000028533936,2|0,0:0|0:0,0:0:0:0:
288,16,127694,1,2,0:0:0:0:
306,106,127877,1,2,0:0:0:0:
329,197,128060,1,8,0:0:0:0:
412,124,128243,5,2,0:0:0:0:
412,124,128335,1,0,0:0:0:0:
412,124,128426,2,0,L|424:60,1,46.7500014266968,2|0,0:0|0:0,0:0:0:0:
248,228,128609,2,0,L|236:164,1,46.7500014266968,2|0,0:0|0:0,0:0:0:0:
364,340,128792,6,0,P|376:276|488:264,1,187.000005706787,2|0,0:0|0:0,0:0:0:0:
440,324,129341,1,2,0:0:0:0:
248,228,129524,2,0,L|236:352,1,93.5000028533936,8|2,0:0|0:0,0:0:0:0:
116,352,129890,1,2,0:0:0:0:
96,236,130072,1,2,0:0:0:0:
184,152,130255,5,2,0:0:0:0:
8,228,130438,1,0,0:0:0:0:
8,228,130529,1,0,0:0:0:0:
8,228,130621,1,2,0:0:0:0:
112,84,130804,1,2,0:0:0:0:
172,256,130987,5,8,0:0:0:0:
328,112,131170,1,2,0:0:0:0:
184,152,131353,1,2,0:0:0:0:
276,16,131536,1,2,0:0:0:0:
316,223,131719,5,4,0:0:0:0:
210,73,143426,5,4,0:0:0:0:
266,187,143609,1,0,0:0:0:0:
266,187,143701,1,0,0:0:0:0:
266,187,143792,1,10,0:0:0:0:
316,103,143975,1,2,0:0:0:0:
158,173,144158,6,0,P|163:243|166:292,1,93.5000028533936,0|2,0:0|0:3,0:0:0:0:
266,358,144524,1,10,0:0:0:0:
330,267,144707,1,2,0:0:0:0:
457,263,144890,6,0,P|481:188|491:159,1,93.5000028533936,2|0,0:3|0:0,0:0:0:0:
485,174,145164,1,0,0:0:0:0:
485,174,145255,1,10,0:0:0:0:
404,41,145438,1,0,0:0:0:0:
289,132,145621,5,0,0:0:0:0:
300,165,145712,1,0,0:0:0:0:
310,198,145803,1,2,0:3:0:0:
320,232,145895,1,0,0:0:0:0:
330,267,145987,2,0,L|311:338,1,46.7500014266968,10|0,0:0|0:0,0:0:0:0:
222,383,146170,2,0,L|209:337,1,46.7500014266968,2|0,0:0|0:0,0:0:0:0:
112,260,146353,6,0,P|131:191|142:148,1,93.5000028533936,2|0,0:3|0:0,0:0:0:0:
127,143,146627,1,0,0:0:0:0:
110,119,146719,2,0,P|57:103|11:85,1,93.5000028533936,10|0,0:0|0:0,0:0:0:0:
21,89,146993,1,0,0:0:0:0:
21,89,147085,5,2,0:0:0:0:
99,3,147268,1,2,0:3:0:0:
216,28,147451,2,0,L|232:150,1,93.5000028533936,8|0,0:0|0:0,0:0:0:0:
232,148,147725,1,0,0:0:0:0:
237,175,147816,6,0,P|283:167|329:162,1,93.5000028533936,2|0,0:3|0:0,0:0:0:0:
329,162,148091,1,0,0:0:0:0:
329,162,148182,1,10,0:0:0:0:
329,162,148274,1,0,0:0:0:0:
329,162,148365,1,2,0:0:0:0:
431,279,148548,6,0,L|436:326,1,46.7500014266968,0|0,0:0|0:0,0:0:0:0:
359,351,148731,2,0,L|353:285,1,46.7500014266968,2|0,0:3|0:0,0:0:0:0:
270,277,148914,2,0,L|275:324,1,46.7500014266968,10|0,0:0|0:0,0:0:0:0:
198,349,149097,2,0,L|192:283,1,46.7500014266968,2|0,0:0|0:0,0:0:0:0:
103,232,149280,6,0,P|31:225|-8:195,1,93.5000028533936,4|0,0:0|0:0,0:0:0:0:
188,45,149646,1,10,0:0:0:0:
214,154,149829,1,2,0:0:0:0:
304,76,150011,2,0,P|376:83|415:113,1,93.5000028533936,0|2,0:0|0:3,0:0:0:0:
512,216,150377,2,0,L|504:324,1,93.5000028533936,10|0,0:0|0:0,0:0:0:0:
311,358,150743,5,2,0:3:0:0:
412,302,150926,1,0,0:0:0:0:
412,302,151018,1,0,0:0:0:0:
412,302,151109,1,10,0:0:0:0:
292,180,151292,2,0,L|277:230,1,46.7500014266968,0|0,0:0|0:0,0:0:0:0:
221,291,151475,6,0,L|120:280,1,93.5000028533936,0|2,0:0|0:3,0:0:0:0:
100,276,151749,1,0,0:0:0:0:
72,271,151841,1,10,0:0:0:0:
9,133,152024,2,0,L|63:124,1,46.7500014266968,2|0,0:0|0:0,0:0:0:0:
139,61,152207,6,0,L|121:179,1,93.5000028533936,2|0,0:3|0:0,0:0:0:0:
273,228,152572,1,10,0:0:0:0:
241,120,152755,1,2,0:0:0:0:
375,34,152938,2,0,L|392:146,1,93.5000028533936,0|2,0:0|0:3,0:0:0:0:
410,145,153213,1,0,0:0:0:0:
427,166,153304,2,0,L|444:278,1,93.5000028533936,10|0,0:0|0:0,0:0:0:0:
441,258,153579,1,0,0:0:0:0:
441,258,153670,5,2,3:0:0:0:
280,344,153853,1,0,3:2:0:0:
280,344,153944,1,0,3:2:0:0:
280,344,154036,1,10,3:2:0:0:
152,235,154219,1,2,0:0:0:0:
319,176,154402,1,0,0:0:0:0:
163,64,154585,1,2,3:0:0:0:
163,64,154676,1,0,3:0:0:0:
163,64,154768,6,0,L|172:139,1,46.7500014266968,10|0,3:3|3:0,0:0:0:0:
308,54,154951,2,0,L|299:-21,1,46.7500014266968,2|0,3:2|3:0,0:0:0:0:
248,145,155133,6,0,B|221:215|286:214|244:288,1,127.500004863739,8|0,0:0|0:0,0:0:0:0:
191,357,155682,1,8,0:0:0:0:
90,288,155865,2,0,P|44:278|20:268,1,63.7500024318696,0|0,0:0|0:0,0:0:0:0:
156,178,156231,2,0,L|163:248,1,63.7500024318696,8|0,0:0|0:0,0:0:0:0:
279,327,156597,6,0,P|324:312|421:337,1,127.500004863739,10|0,0:0|0:0,0:0:0:0:
482,247,157146,1,8,0:0:0:0:
482,247,157329,2,0,L|499:327,1,63.7500024318696,0|0,0:0|0:0,0:0:0:0:
390,183,157694,2,0,L|363:249,1,63.7500024318696,8|0,0:0|0:0,0:0:0:0:
487,137,158060,6,0,P|513:79|473:28,1,127.500004863739,10|0,0:0|0:0,0:0:0:0:
401,84,158609,1,8,0:0:0:0:
401,84,158792,2,0,L|321:66,1,63.7500024318696,0|0,0:0|0:0,0:0:0:0:
236,27,159158,2,0,L|246:102,1,63.7500024318696,8|0,0:0|0:0,0:0:0:0:
325,152,159524,6,0,L|297:292,1,127.500004863739,10|0,0:0|0:0,0:0:0:0:
224,361,160072,1,8,0:0:0:0:
152,334,160255,1,8,0:0:0:0:
80,307,160438,1,0,0:0:0:0:
166,219,160621,2,0,L|169:236,4,15.9375006079674,8|0|0|0|0,0:0|0:0|0:0|0:0|0:0,0:0:0:0:
42,181,160987,6,0,P|52:148|71:50,1,127.500004863739,10|0,0:0|0:0,0:0:0:0:
166,113,161536,1,8,0:0:0:0:
162,12,161719,2,0,L|251:11,1,63.7500024318696,2|0,0:0|0:0,0:0:0:0:
372,85,162085,2,0,L|308:84,1,63.7500024318696,8|0,0:0|0:0,0:0:0:0:
233,168,162451,5,10,0:0:0:0:
346,203,162633,2,0,L|334:293,2,63.7500024318696,8|0|8,0:0|0:0|0:0,0:0:0:0:
436,244,163182,2,0,L|508:239,1,63.7500024318696,2|0,0:0|0:0,0:0:0:0:
391,356,163548,1,8,0:0:0:0:
316,337,163731,1,0,0:0:0:0:
242,314,163914,6,0,P|190:329|176:332,1,63.7500024318696,10|0,0:0|0:0,0:0:0:0:
50,256,164280,2,0,P|36:212|29:178,1,63.7500024318696,10|0,0:0|0:0,0:0:0:0:
181,49,164646,6,0,L|160:128,1,76.4999976654053,10|0,0:0|0:0,0:0:0:0:
244,232,165011,2,0,L|320:219,1,76.4999976654053,10|0,0:0|0:0,0:0:0:0:
457,137,165377,5,8,3:2:0:0:
463,110,165468,1,0,3:0:0:0:
460,82,165559,1,0,3:0:0:0:
449,57,165651,1,0,3:0:0:0:
430,36,165742,1,0,3:0:0:0:
406,23,165834,1,0,3:0:0:0:
378,17,165925,1,0,3:0:0:0:
351,21,166017,1,0,3:0:0:0:
326,33,166108,1,2,3:0:0:0:
162,282,167390,5,2,0:0:0:0:
128,112,167572,1,2,3:3:0:0:
1,239,167755,1,0,3:0:0:0:
131,206,167938,2,0,P|183:201|243:277,1,127.5,8|0,3:0|0:0,0:0:0:0:
249,290,168304,6,0,L|269:178,1,93.5000028533936,4|0,0:0|0:0,0:0:0:0:
332,40,168670,1,2,0:0:0:0:
357,202,168853,1,0,0:0:0:0:
219,138,169036,1,10,0:0:0:0:
463,94,169219,1,2,0:0:0:0:
463,94,169402,6,0,L|471:-3,1,93.5000028533936,0|2,0:0|0:0,0:0:0:0:
312,128,169768,1,0,0:0:0:0:
472,188,169951,1,2,0:0:0:0:
464,228,170042,1,0,0:0:0:0:
456,268,170133,1,2,0:0:0:0:
352,380,170316,5,0,0:0:0:0:
352,380,170499,2,0,L|336:280,1,93.5000028533936,10|2,0:0|0:0,0:0:0:0:
84,158,170865,1,0,0:0:0:0:
88,193,170956,1,0,0:0:0:0:
93,228,171048,1,0,0:0:0:0:
97,263,171139,1,0,0:0:0:0:
102,298,171231,6,0,L|212:304,1,93.5000028533936,2|0,0:0|0:0,0:0:0:0:
360,184,171597,1,2,0:0:0:0:
216,224,171780,1,2,0:0:0:0:
280,12,171963,1,8,0:0:0:0:
411,92,172146,6,0,L|360:103,1,46.7500014266968,2|0,0:0|0:0,0:0:0:0:
265,147,172329,2,0,P|213:119|180:99,1,93.5000028533936,2|0,0:0|0:0,0:0:0:0:
294,315,172694,1,2,0:0:0:0:
265,147,172877,1,0,0:0:0:0:
265,147,172969,1,0,0:0:0:0:
265,147,173060,5,2,0:0:0:0:
406,261,173243,1,0,0:0:0:0:
208,368,173426,2,0,L|208:304,1,46.7500014266968,10|0,0:0|0:0,0:0:0:0:
112,316,173609,2,0,L|112:252,1,46.7500014266968,2|0,0:0|0:0,0:0:0:0:
216,224,173792,2,0,L|312:212,1,93.5000028533936,2|0,0:0|0:0,0:0:0:0:
96,104,174158,6,0,P|64:160|80:224,1,93.5000028533936,2|0,0:0|0:0,0:0:0:0:
248,100,174524,1,2,0:0:0:0:
156,172,174707,1,2,0:0:0:0:
184,16,174890,1,8,0:0:0:0:
252,216,175072,2,0,P|280:208|312:200,1,46.7500014266968,2|0,0:0|0:0,0:0:0:0:
436,160,175255,2,0,P|368:140|324:128,1,93.5000028533936,2|0,0:0|0:0,0:0:0:0:
420,288,175621,6,0,P|465:300|509:314,1,93.5000028533936,2|0,0:0|0:0,0:0:0:0:
512,128,175987,1,2,0:0:0:0:
368,228,176170,1,2,0:0:0:0:
420,44,176353,1,8,0:0:0:0:
436,160,176536,1,2,0:0:0:0:
436,160,176627,1,0,0:0:0:0:
436,160,176719,2,0,L|448:224,1,46.7500014266968,2|0,0:0|0:0,0:0:0:0:
337,88,176902,2,0,L|349:152,1,46.7500014266968,0|0,0:0|0:0,0:0:0:0:
248,20,177085,6,0,B|240:80|240:80|252:96|252:96|240:192,1,140.25000428009,2|0,0:0|0:0,0:0:0:0:
236,188,177451,2,0,P|180:200|120:200,1,93.5000028533936,2|2,0:0|0:0,0:0:0:0:
4,132,177816,1,8,0:0:0:0:
72,276,177999,1,2,0:0:0:0:
132,76,178182,1,0,0:0:0:0:
0,244,178365,5,2,0:0:0:0:
143,201,178548,1,2,0:0:0:0:
112,352,178731,1,2,0:0:0:0:
112,352,178822,1,0,0:0:0:0:
112,352,178914,1,0,0:0:0:0:
84,148,179097,1,2,0:0:0:0:
228,332,179280,5,10,0:0:0:0:
72,276,179463,1,0,0:0:0:0:
296,156,179646,2,0,L|308:224,1,46.7500014266968,2|0,0:0|0:0,0:0:0:0:
328,308,179829,2,0,L|340:376,1,46.7500014266968,2|0,0:0|0:0,0:0:0:0:
436,292,180011,6,0,P|444:208|460:96,1,187.000005706787,6|2,0:0|0:0,0:0:0:0:
280,0,180560,1,0,0:0:0:0:
168,72,180743,1,10,0:0:0:0:
368,124,180926,1,2,0:0:0:0:
248,244,181109,2,0,P|252:184|252:132,1,93.5000028533936,2|0,0:0|0:0,0:0:0:0:
160,192,181475,5,2,0:0:0:0:
284,332,181658,1,2,0:0:0:0:
284,332,181749,1,0,0:0:0:0:
284,332,181841,1,0,0:0:0:0:
356,248,182024,1,2,0:0:0:0:
152,288,182207,2,0,L|136:404,1,93.5000028533936,10|0,0:0|0:0,0:0:0:0:
16,148,182572,1,2,0:0:0:0:
16,148,182664,1,0,0:0:0:0:
16,148,182755,1,2,0:0:0:0:
16,148,182847,1,0,0:0:0:0:
16,148,182938,6,0,P|72:124|172:108,1,140.25000428009,6|0,0:0|0:0,0:0:0:0:
176,108,183304,2,0,P|252:112|280:108,1,93.5000028533936,2|0,0:0|0:0,0:0:0:0:
392,188,183670,1,8,0:0:0:0:
328,32,183853,1,2,0:0:0:0:
464,112,184036,1,0,0:0:0:0:
292,196,184219,1,2,0:0:0:0:
420,308,184402,6,0,P|468:292|524:276,1,93.5000028533936,2|0,0:0|0:0,0:0:0:0:
509,279,184676,1,0,0:0:0:0:
509,279,184768,1,2,0:0:0:0:
351,372,184951,1,2,0:0:0:0:
292,196,185133,2,0,L|288:248,1,46.7500014266968,10|0,0:0|0:0,0:0:0:0:
200,368,185316,2,0,L|203:321,1,46.7500014266968,0|0,0:0|0:0,0:0:0:0:
136,212,185499,2,0,P|64:204|16:200,1,93.5000028533936,2|0,0:0|0:0,0:0:0:0:
208,84,185865,6,0,P|280:92|328:96,1,93.5000028533936,6|0,0:0|0:0,0:0:0:0:
464,48,186231,1,2,0:0:0:0:
380,176,186414,1,2,0:0:0:0:
508,152,186597,1,8,0:0:0:0:
384,76,186780,1,2,0:0:0:0:
384,76,186871,1,0,0:0:0:0:
384,76,186963,1,2,0:0:0:0:
344,264,187146,1,0,0:0:0:0:
220,180,187329,6,0,P|156:172|104:168,1,93.5000028533936,6|0,0:0|0:0,0:0:0:0:
256,340,187694,1,2,0:0:0:0:
292,100,187877,1,2,0:0:0:0:
432,328,188060,1,8,0:0:0:0:
156,284,188243,1,2,0:0:0:0:
352,168,188426,2,0,L|412:180,1,46.7500014266968,2|0,0:0|0:0,0:0:0:0:
512,240,188609,2,0,L|466:249,1,46.7500014266968,2|0,0:0|0:0,0:0:0:0:
350,357,188792,6,0,L|342:233,1,93.5000028533936,6|0,0:0|0:0,0:0:0:0:
176,136,189158,1,0,0:0:0:0:
268,232,189341,1,2,0:0:0:0:
88,328,189524,1,8,0:0:0:0:
172,232,189707,1,2,0:0:0:0:
172,232,189798,1,0,0:0:0:0:
172,232,189890,1,2,0:0:0:0:
216,344,190072,1,2,0:0:0:0:
276,136,190255,5,6,0:0:0:0:
88,180,190438,1,0,0:0:0:0:
88,180,190530,1,0,0:0:0:0:
88,180,190621,1,2,0:0:0:0:
220,364,190804,1,2,0:0:0:0:
368,212,190987,5,12,0:0:0:0:
104,284,191170,1,2,0:0:0:0:
212,52,191353,1,2,0:0:0:0:
264,280,191536,1,2,0:0:0:0:
440,136,191719,6,0,B|224:128,1,191.250007295609,4|0,0:0|0:0,0:0:0:0:
