osu file format v14

[General]
AudioFilename: audio.mp3
AudioLeadIn: 0
PreviewTime: 57511
Countdown: 0
SampleSet: Normal
StackLeniency: 0.7
Mode: 3
LetterboxInBreaks: 0
SpecialStyle: 0
WidescreenStoryboard: 0

[Editor]
DistanceSpacing: 0.8
BeatDivisor: 4
GridSize: 8
TimelineZoom: 2.2

[Metadata]
Title:Space-Time
TitleUnicode:Space-Time
Artist:EVO
ArtistUnicode:EVO
Creator:X_Devil
Version:Hard
Source:
Tags:
BeatmapID:1575339
BeatmapSetID:747656

[Difficulty]
HPDrainRate:8
CircleSize:4
OverallDifficulty:7
ApproachRate:5
SliderMultiplier:1.4
SliderTickRate:1

[Events]
//Background and Video events
0,0,"qUuEEF.jpg",0,0
//Break Periods
//Storyboard Layer 0 (Background)
//Storyboard Layer 1 (Fail)
//Storyboard Layer 2 (Pass)
//Storyboard Layer 3 (Foreground)
//Storyboard Sound Samples

[TimingPoints]
26,359.281437125748,4,1,0,15,1,0
31463,-20,4,1,0,15,0,0
31563,-250,4,1,0,15,0,0
32002,-20,4,1,0,15,0,0
32024,-250,4,1,0,15,0,0
32540,-20,4,1,0,15,0,0
32563,-250,4,1,0,15,0,0
33079,-100,4,1,0,15,0,0
102061,-20,4,1,0,15,0,0
102084,-250,4,1,0,15,0,0
102301,-20,4,1,0,15,0,0
102331,-250,4,1,0,15,0,0
102540,-20,4,1,0,15,0,0
102570,-250,4,1,0,15,0,0
102780,-100,4,1,0,15,0,0

[HitObjects]
448,192,5774,5,0,0:0:0:0:
192,192,5774,1,0,0:0:0:0:
448,192,5954,1,0,0:0:0:0:
320,192,5954,1,0,0:0:0:0:
192,192,6133,128,0,6313:0:0:0:0:
64,192,6313,1,0,0:0:0:0:
320,192,6313,1,0,0:0:0:0:
192,192,6493,1,0,0:0:0:0:
320,192,6493,1,0,0:0:0:0:
448,192,6672,128,0,6852:0:0:0:0:
64,192,6852,1,0,0:0:0:0:
192,192,6852,1,0,0:0:0:0:
64,192,7031,1,0,0:0:0:0:
448,192,7031,1,0,0:0:0:0:
192,192,7211,128,0,7391:0:0:0:0:
320,192,7391,1,0,0:0:0:0:
448,192,7391,1,0,0:0:0:0:
320,192,7570,1,0,0:0:0:0:
64,192,7570,1,0,0:0:0:0:
448,192,7750,128,0,8109:0:0:0:0:
64,192,8109,1,0,0:0:0:0:
320,192,8109,1,0,0:0:0:0:
192,192,8289,1,0,0:0:0:0:
448,192,8289,1,0,0:0:0:0:
320,192,8469,1,0,0:0:0:0:
64,192,8469,1,0,0:0:0:0:
64,192,8828,1,0,0:0:0:0:
192,192,8828,1,0,0:0:0:0:
448,192,8918,1,0,0:0:0:0:
320,192,8918,1,0,0:0:0:0:
64,192,9008,1,0,0:0:0:0:
192,192,9008,1,0,0:0:0:0:
448,192,9187,1,0,0:0:0:0:
64,192,9367,1,0,0:0:0:0:
320,192,9367,1,0,0:0:0:0:
64,192,9546,1,0,0:0:0:0:
320,192,9546,1,0,0:0:0:0:
320,192,9726,1,0,0:0:0:0:
448,192,9726,1,0,0:0:0:0:
64,192,9816,1,0,0:0:0:0:
192,192,9816,1,0,0:0:0:0:
320,192,9906,1,0,0:0:0:0:
448,192,9906,1,0,0:0:0:0:
64,192,9996,1,0,0:0:0:0:
192,192,9996,1,0,0:0:0:0:
448,192,10085,128,0,10624:0:0:0:0:
320,192,10624,128,0,11163:0:0:0:0:
64,192,11163,128,0,11523:0:0:0:0:
448,192,11523,1,0,0:0:0:0:
192,192,11523,1,0,0:0:0:0:
320,192,11612,1,0,0:0:0:0:
64,192,11702,1,0,0:0:0:0:
192,192,11702,1,0,0:0:0:0:
320,192,11882,128,0,12061:0:0:0:0:
64,192,11882,128,0,12061:0:0:0:0:
448,192,12061,1,0,0:0:0:0:
192,192,12241,1,0,0:0:0:0:
320,192,12241,1,0,0:0:0:0:
320,192,12421,128,0,12600:0:0:0:0:
64,192,12421,128,0,12600:0:0:0:0:
448,192,12600,1,0,0:0:0:0:
64,192,12780,1,0,0:0:0:0:
192,192,12780,1,0,0:0:0:0:
320,192,12960,128,0,13139:0:0:0:0:
448,192,12960,128,0,13139:0:0:0:0:
192,192,13139,1,0,0:0:0:0:
64,192,13319,1,0,0:0:0:0:
320,192,13319,1,0,0:0:0:0:
320,192,13499,128,0,13858:0:0:0:0:
192,192,13499,128,0,13858:0:0:0:0:
448,192,13858,1,0,0:0:0:0:
64,192,13858,1,0,0:0:0:0:
192,192,14037,1,0,0:0:0:0:
320,192,14037,1,0,0:0:0:0:
64,192,14217,1,0,0:0:0:0:
448,192,14217,1,0,0:0:0:0:
64,192,14397,1,0,0:0:0:0:
320,192,14397,1,0,0:0:0:0:
192,192,14487,1,0,0:0:0:0:
320,192,14576,1,0,0:0:0:0:
448,192,14576,1,0,0:0:0:0:
192,192,14756,128,0,14936:0:0:0:0:
448,192,14756,128,0,14936:0:0:0:0:
64,192,14936,1,0,0:0:0:0:
320,192,15115,1,0,0:0:0:0:
192,192,15115,1,0,0:0:0:0:
320,192,15295,128,0,15475:0:0:0:0:
448,192,15295,128,0,15475:0:0:0:0:
64,192,15475,1,0,0:0:0:0:
448,192,15654,1,0,0:0:0:0:
320,192,15654,1,0,0:0:0:0:
448,192,15834,128,0,16014:0:0:0:0:
64,192,15834,128,0,16014:0:0:0:0:
320,192,16014,1,0,0:0:0:0:
448,192,16193,1,0,0:0:0:0:
64,192,16193,1,0,0:0:0:0:
320,192,16373,128,0,16732:0:0:0:0:
448,192,16373,128,0,16732:0:0:0:0:
64,192,16732,1,0,0:0:0:0:
192,192,16732,1,0,0:0:0:0:
192,192,16912,1,0,0:0:0:0:
448,192,16912,1,0,0:0:0:0:
64,192,17091,1,0,0:0:0:0:
320,192,17091,1,0,0:0:0:0:
64,192,17271,1,0,0:0:0:0:
448,192,17271,1,0,0:0:0:0:
320,192,17361,1,0,0:0:0:0:
448,192,17451,1,0,0:0:0:0:
192,192,17451,1,0,0:0:0:0:
320,192,17630,128,0,17810:0:0:0:0:
448,192,17630,128,0,17810:0:0:0:0:
64,192,17810,1,0,0:0:0:0:
320,192,17990,1,0,0:0:0:0:
192,192,17990,1,0,0:0:0:0:
192,192,18169,128,0,18349:0:0:0:0:
448,192,18169,128,0,18349:0:0:0:0:
64,192,18349,1,0,0:0:0:0:
448,192,18528,1,0,0:0:0:0:
320,192,18528,1,0,0:0:0:0:
192,192,18708,128,0,18888:0:0:0:0:
64,192,18708,128,0,18888:0:0:0:0:
320,192,18888,1,0,0:0:0:0:
448,192,19067,1,0,0:0:0:0:
192,192,19067,1,0,0:0:0:0:
192,192,19247,128,0,19606:0:0:0:0:
320,192,19247,128,0,19606:0:0:0:0:
64,192,19606,1,0,0:0:0:0:
448,192,19606,1,0,0:0:0:0:
320,192,19786,1,0,0:0:0:0:
192,192,19786,1,0,0:0:0:0:
448,192,19966,1,0,0:0:0:0:
64,192,19966,1,0,0:0:0:0:
448,192,20145,1,0,0:0:0:0:
192,192,20145,1,0,0:0:0:0:
320,192,20235,1,0,0:0:0:0:
192,192,20325,1,0,0:0:0:0:
64,192,20325,1,0,0:0:0:0:
320,192,20505,128,0,20684:0:0:0:0:
192,192,20505,128,0,20684:0:0:0:0:
448,192,20684,1,0,0:0:0:0:
192,192,20864,1,0,0:0:0:0:
320,192,20864,1,0,0:0:0:0:
320,192,21043,128,0,21223:0:0:0:0:
64,192,21043,128,0,21223:0:0:0:0:
448,192,21223,1,0,0:0:0:0:
64,192,21403,1,0,0:0:0:0:
192,192,21403,1,0,0:0:0:0:
320,192,21582,128,0,21762:0:0:0:0:
448,192,21582,128,0,21762:0:0:0:0:
192,192,21762,1,0,0:0:0:0:
64,192,21942,1,0,0:0:0:0:
320,192,21942,1,0,0:0:0:0:
64,192,22121,128,0,22481:0:0:0:0:
320,192,22121,128,0,22481:0:0:0:0:
448,192,22481,1,0,0:0:0:0:
192,192,22481,1,0,0:0:0:0:
320,192,22660,1,0,0:0:0:0:
64,192,22660,1,0,0:0:0:0:
192,192,22840,1,0,0:0:0:0:
64,192,22840,1,0,0:0:0:0:
448,192,23020,1,0,0:0:0:0:
192,192,23020,1,0,0:0:0:0:
320,192,23109,1,0,0:0:0:0:
64,192,23199,1,0,0:0:0:0:
448,192,23199,1,0,0:0:0:0:
192,192,23379,128,0,23558:0:0:0:0:
64,192,23379,128,0,23558:0:0:0:0:
448,192,23558,1,0,0:0:0:0:
192,192,23738,1,0,0:0:0:0:
320,192,23738,1,0,0:0:0:0:
320,192,23918,128,0,24097:0:0:0:0:
64,192,23918,128,0,24097:0:0:0:0:
448,192,24097,1,0,0:0:0:0:
64,192,24277,1,0,0:0:0:0:
192,192,24277,1,0,0:0:0:0:
320,192,24457,128,0,24636:0:0:0:0:
448,192,24457,128,0,24636:0:0:0:0:
192,192,24636,1,0,0:0:0:0:
64,192,24816,1,0,0:0:0:0:
320,192,24816,1,0,0:0:0:0:
320,192,24996,128,0,25355:0:0:0:0:
192,192,24996,128,0,25355:0:0:0:0:
448,192,25355,1,0,0:0:0:0:
64,192,25355,1,0,0:0:0:0:
192,192,25534,1,0,0:0:0:0:
320,192,25534,1,0,0:0:0:0:
64,192,25714,1,0,0:0:0:0:
448,192,25714,1,0,0:0:0:0:
64,192,25894,1,0,0:0:0:0:
320,192,25894,1,0,0:0:0:0:
192,192,25984,1,0,0:0:0:0:
320,192,26073,1,0,0:0:0:0:
448,192,26073,1,0,0:0:0:0:
320,192,26253,128,0,26433:0:0:0:0:
448,192,26253,128,0,26433:0:0:0:0:
64,192,26433,1,0,0:0:0:0:
320,192,26612,1,0,0:0:0:0:
192,192,26612,1,0,0:0:0:0:
192,192,26792,128,0,26972:0:0:0:0:
448,192,26792,128,0,26972:0:0:0:0:
64,192,26972,1,0,0:0:0:0:
448,192,27151,1,0,0:0:0:0:
320,192,27151,1,0,0:0:0:0:
192,192,27331,128,0,27511:0:0:0:0:
64,192,27331,128,0,27511:0:0:0:0:
320,192,27511,1,0,0:0:0:0:
448,192,27690,1,0,0:0:0:0:
192,192,27690,1,0,0:0:0:0:
448,192,27870,128,0,28229:0:0:0:0:
192,192,27870,128,0,28229:0:0:0:0:
64,192,28229,1,0,0:0:0:0:
320,192,28229,1,0,0:0:0:0:
192,192,28409,1,0,0:0:0:0:
448,192,28409,1,0,0:0:0:0:
64,192,28588,1,0,0:0:0:0:
320,192,28588,1,0,0:0:0:0:
64,192,28768,1,0,0:0:0:0:
448,192,28768,1,0,0:0:0:0:
320,192,28858,1,0,0:0:0:0:
448,192,28948,1,0,0:0:0:0:
192,192,28948,1,0,0:0:0:0:
320,192,29127,128,0,29307:0:0:0:0:
448,192,29127,128,0,29307:0:0:0:0:
64,192,29307,1,0,0:0:0:0:
320,192,29487,1,0,0:0:0:0:
192,192,29487,1,0,0:0:0:0:
192,192,29666,128,0,29846:0:0:0:0:
448,192,29666,128,0,29846:0:0:0:0:
64,192,29846,1,0,0:0:0:0:
448,192,30025,1,0,0:0:0:0:
320,192,30025,1,0,0:0:0:0:
192,192,30205,128,0,30385:0:0:0:0:
64,192,30205,128,0,30385:0:0:0:0:
320,192,30385,1,0,0:0:0:0:
448,192,30564,1,0,0:0:0:0:
192,192,30564,1,0,0:0:0:0:
192,192,30744,128,0,31103:0:0:0:0:
320,192,30744,128,0,31103:0:0:0:0:
64,192,31103,1,0,0:0:0:0:
448,192,31103,1,0,0:0:0:0:
320,192,31283,1,0,0:0:0:0:
192,192,31283,1,0,0:0:0:0:
448,192,31463,1,0,0:0:0:0:
64,192,31463,1,0,0:0:0:0:
192,192,32002,1,0,0:0:0:0:
448,192,32002,1,0,0:0:0:0:
320,192,32002,1,0,0:0:0:0:
64,192,32540,1,0,0:0:0:0:
448,192,32540,1,0,0:0:0:0:
320,192,32540,1,0,0:0:0:0:
448,192,33079,128,0,34517:0:0:0:0:
192,192,33079,128,0,34517:0:0:0:0:
64,192,33079,128,0,34517:0:0:0:0:
320,192,34517,1,0,0:0:0:0:
320,192,34606,1,0,0:0:0:0:
448,192,34696,1,0,0:0:0:0:
320,192,34786,1,0,0:0:0:0:
192,192,34786,1,0,0:0:0:0:
448,192,34966,1,0,0:0:0:0:
64,192,34966,1,0,0:0:0:0:
320,192,35055,1,0,0:0:0:0:
192,192,35145,1,0,0:0:0:0:
448,192,35235,128,0,35415:0:0:0:0:
192,192,35415,128,0,35594:0:0:0:0:
448,192,35594,1,0,0:0:0:0:
320,192,35684,1,0,0:0:0:0:
64,192,35774,1,0,0:0:0:0:
192,192,35864,1,0,0:0:0:0:
320,192,35954,1,0,0:0:0:0:
320,192,36043,1,0,0:0:0:0:
448,192,36133,1,0,0:0:0:0:
192,192,36223,128,0,36493:0:0:0:0:
448,192,36493,1,0,0:0:0:0:
320,192,36582,1,0,0:0:0:0:
64,192,36672,1,0,0:0:0:0:
192,192,36672,1,0,0:0:0:0:
448,192,36852,1,0,0:0:0:0:
192,192,36852,1,0,0:0:0:0:
64,192,37031,1,0,0:0:0:0:
320,192,37031,1,0,0:0:0:0:
192,192,37391,1,0,0:0:0:0:
192,192,37481,1,0,0:0:0:0:
64,192,37570,1,0,0:0:0:0:
192,192,37660,1,0,0:0:0:0:
320,192,37660,1,0,0:0:0:0:
64,192,37840,1,0,0:0:0:0:
448,192,37840,1,0,0:0:0:0:
192,192,37930,1,0,0:0:0:0:
320,192,38020,1,0,0:0:0:0:
64,192,38109,128,0,38289:0:0:0:0:
320,192,38289,128,0,38469:0:0:0:0:
64,192,38469,1,0,0:0:0:0:
192,192,38558,1,0,0:0:0:0:
448,192,38648,1,0,0:0:0:0:
320,192,38738,1,0,0:0:0:0:
192,192,38828,1,0,0:0:0:0:
192,192,38918,1,0,0:0:0:0:
64,192,39008,1,0,0:0:0:0:
320,192,39097,128,0,39367:0:0:0:0:
64,192,39367,1,0,0:0:0:0:
192,192,39457,1,0,0:0:0:0:
448,192,39546,1,0,0:0:0:0:
320,192,39546,1,0,0:0:0:0:
64,192,39726,1,0,0:0:0:0:
320,192,39726,1,0,0:0:0:0:
448,192,39906,1,0,0:0:0:0:
192,192,39906,1,0,0:0:0:0:
448,192,40265,1,0,0:0:0:0:
448,192,40355,1,0,0:0:0:0:
192,192,40445,1,0,0:0:0:0:
320,192,40534,1,0,0:0:0:0:
448,192,40534,1,0,0:0:0:0:
320,192,40714,1,0,0:0:0:0:
448,192,40714,1,0,0:0:0:0:
192,192,40804,1,0,0:0:0:0:
64,192,40894,1,0,0:0:0:0:
320,192,40984,128,0,41163:0:0:0:0:
64,192,41163,128,0,41343:0:0:0:0:
320,192,41343,1,0,0:0:0:0:
192,192,41433,1,0,0:0:0:0:
64,192,41523,1,0,0:0:0:0:
192,192,41612,1,0,0:0:0:0:
320,192,41702,1,0,0:0:0:0:
320,192,41792,1,0,0:0:0:0:
448,192,41882,1,0,0:0:0:0:
192,192,41972,128,0,42241:0:0:0:0:
448,192,42241,1,0,0:0:0:0:
320,192,42331,1,0,0:0:0:0:
448,192,42421,1,0,0:0:0:0:
64,192,42421,1,0,0:0:0:0:
192,192,42600,1,0,0:0:0:0:
320,192,42600,1,0,0:0:0:0:
448,192,42780,1,0,0:0:0:0:
64,192,42780,1,0,0:0:0:0:
64,192,43139,1,0,0:0:0:0:
64,192,43229,1,0,0:0:0:0:
320,192,43319,1,0,0:0:0:0:
192,192,43409,1,0,0:0:0:0:
64,192,43409,1,0,0:0:0:0:
192,192,43588,1,0,0:0:0:0:
64,192,43588,1,0,0:0:0:0:
320,192,43678,1,0,0:0:0:0:
448,192,43768,1,0,0:0:0:0:
192,192,43858,128,0,44037:0:0:0:0:
448,192,44037,128,0,44217:0:0:0:0:
192,192,44217,1,0,0:0:0:0:
320,192,44307,1,0,0:0:0:0:
448,192,44397,1,0,0:0:0:0:
320,192,44487,1,0,0:0:0:0:
192,192,44576,1,0,0:0:0:0:
192,192,44666,1,0,0:0:0:0:
64,192,44756,1,0,0:0:0:0:
320,192,44846,128,0,45115:0:0:0:0:
64,192,45115,1,0,0:0:0:0:
192,192,45205,1,0,0:0:0:0:
64,192,45295,1,0,0:0:0:0:
448,192,45295,1,0,0:0:0:0:
320,192,45475,1,0,0:0:0:0:
192,192,45475,1,0,0:0:0:0:
64,192,45654,1,0,0:0:0:0:
448,192,45654,1,0,0:0:0:0:
192,192,46014,1,0,0:0:0:0:
448,192,46014,1,0,0:0:0:0:
320,192,46103,1,0,0:0:0:0:
192,192,46193,1,0,0:0:0:0:
448,192,46283,1,0,0:0:0:0:
64,192,46283,1,0,0:0:0:0:
320,192,46373,1,0,0:0:0:0:
192,192,46463,1,0,0:0:0:0:
320,192,46552,1,0,0:0:0:0:
448,192,46552,1,0,0:0:0:0:
64,192,46642,1,0,0:0:0:0:
192,192,46732,1,0,0:0:0:0:
320,192,46822,1,0,0:0:0:0:
64,192,46822,1,0,0:0:0:0:
192,192,46912,1,0,0:0:0:0:
448,192,47002,1,0,0:0:0:0:
320,192,47091,1,0,0:0:0:0:
192,192,47091,1,0,0:0:0:0:
64,192,47181,1,0,0:0:0:0:
192,192,47271,1,0,0:0:0:0:
320,192,47361,1,0,0:0:0:0:
448,192,47361,1,0,0:0:0:0:
192,192,47451,1,0,0:0:0:0:
64,192,47540,1,0,0:0:0:0:
192,192,47630,1,0,0:0:0:0:
448,192,47630,1,0,0:0:0:0:
320,192,47720,1,0,0:0:0:0:
192,192,47810,1,0,0:0:0:0:
64,192,47900,1,0,0:0:0:0:
448,192,47900,1,0,0:0:0:0:
192,192,47990,1,0,0:0:0:0:
320,192,48079,1,0,0:0:0:0:
192,192,48169,1,0,0:0:0:0:
448,192,48169,1,0,0:0:0:0:
320,192,48259,1,0,0:0:0:0:
448,192,48349,1,0,0:0:0:0:
64,192,48439,1,0,0:0:0:0:
192,192,48439,1,0,0:0:0:0:
320,192,48528,1,0,0:0:0:0:
448,192,48528,1,0,0:0:0:0:
320,192,48888,1,0,0:0:0:0:
64,192,48888,1,0,0:0:0:0:
192,192,48978,1,0,0:0:0:0:
320,192,49067,1,0,0:0:0:0:
64,192,49157,1,0,0:0:0:0:
448,192,49157,1,0,0:0:0:0:
192,192,49247,1,0,0:0:0:0:
320,192,49337,1,0,0:0:0:0:
192,192,49427,1,0,0:0:0:0:
64,192,49427,1,0,0:0:0:0:
448,192,49517,1,0,0:0:0:0:
320,192,49606,1,0,0:0:0:0:
192,192,49696,1,0,0:0:0:0:
448,192,49696,1,0,0:0:0:0:
320,192,49786,1,0,0:0:0:0:
64,192,49876,1,0,0:0:0:0:
192,192,49966,1,0,0:0:0:0:
320,192,49966,1,0,0:0:0:0:
448,192,50055,1,0,0:0:0:0:
320,192,50145,1,0,0:0:0:0:
192,192,50235,1,0,0:0:0:0:
64,192,50235,1,0,0:0:0:0:
320,192,50325,1,0,0:0:0:0:
448,192,50415,1,0,0:0:0:0:
320,192,50505,1,0,0:0:0:0:
64,192,50505,1,0,0:0:0:0:
192,192,50594,1,0,0:0:0:0:
320,192,50684,1,0,0:0:0:0:
448,192,50774,1,0,0:0:0:0:
64,192,50774,1,0,0:0:0:0:
320,192,50864,1,0,0:0:0:0:
192,192,50954,1,0,0:0:0:0:
320,192,51043,1,0,0:0:0:0:
64,192,51043,1,0,0:0:0:0:
192,192,51133,1,0,0:0:0:0:
64,192,51223,1,0,0:0:0:0:
448,192,51313,1,0,0:0:0:0:
320,192,51313,1,0,0:0:0:0:
192,192,51403,1,0,0:0:0:0:
64,192,51403,1,0,0:0:0:0:
320,192,51762,1,0,0:0:0:0:
64,192,51762,1,0,0:0:0:0:
192,192,51852,1,0,0:0:0:0:
320,192,51942,1,0,0:0:0:0:
64,192,52031,1,0,0:0:0:0:
448,192,52031,1,0,0:0:0:0:
192,192,52121,1,0,0:0:0:0:
320,192,52211,1,0,0:0:0:0:
192,192,52301,1,0,0:0:0:0:
64,192,52301,1,0,0:0:0:0:
448,192,52391,1,0,0:0:0:0:
320,192,52481,1,0,0:0:0:0:
192,192,52570,1,0,0:0:0:0:
448,192,52570,1,0,0:0:0:0:
320,192,52660,1,0,0:0:0:0:
64,192,52750,1,0,0:0:0:0:
192,192,52840,1,0,0:0:0:0:
320,192,52840,1,0,0:0:0:0:
448,192,52930,1,0,0:0:0:0:
320,192,53020,1,0,0:0:0:0:
192,192,53109,1,0,0:0:0:0:
64,192,53109,1,0,0:0:0:0:
320,192,53199,1,0,0:0:0:0:
448,192,53289,1,0,0:0:0:0:
320,192,53379,1,0,0:0:0:0:
64,192,53379,1,0,0:0:0:0:
192,192,53469,1,0,0:0:0:0:
320,192,53558,1,0,0:0:0:0:
448,192,53648,1,0,0:0:0:0:
64,192,53648,1,0,0:0:0:0:
320,192,53738,1,0,0:0:0:0:
192,192,53828,1,0,0:0:0:0:
320,192,53918,1,0,0:0:0:0:
64,192,53918,1,0,0:0:0:0:
192,192,54008,1,0,0:0:0:0:
64,192,54097,1,0,0:0:0:0:
448,192,54187,1,0,0:0:0:0:
320,192,54187,1,0,0:0:0:0:
192,192,54277,1,0,0:0:0:0:
64,192,54277,1,0,0:0:0:0:
192,192,54636,1,0,0:0:0:0:
448,192,54636,1,0,0:0:0:0:
320,192,54726,1,0,0:0:0:0:
192,192,54816,1,0,0:0:0:0:
448,192,54906,1,0,0:0:0:0:
64,192,54906,1,0,0:0:0:0:
320,192,54996,1,0,0:0:0:0:
192,192,55085,1,0,0:0:0:0:
320,192,55175,1,0,0:0:0:0:
448,192,55175,1,0,0:0:0:0:
64,192,55265,1,0,0:0:0:0:
192,192,55355,1,0,0:0:0:0:
320,192,55445,1,0,0:0:0:0:
64,192,55445,1,0,0:0:0:0:
192,192,55534,1,0,0:0:0:0:
448,192,55624,1,0,0:0:0:0:
320,192,55714,1,0,0:0:0:0:
192,192,55714,1,0,0:0:0:0:
64,192,55804,1,0,0:0:0:0:
192,192,55894,1,0,0:0:0:0:
320,192,55984,1,0,0:0:0:0:
448,192,55984,1,0,0:0:0:0:
192,192,56073,1,0,0:0:0:0:
64,192,56163,1,0,0:0:0:0:
192,192,56253,1,0,0:0:0:0:
448,192,56253,1,0,0:0:0:0:
320,192,56343,1,0,0:0:0:0:
192,192,56433,1,0,0:0:0:0:
64,192,56523,1,0,0:0:0:0:
448,192,56523,1,0,0:0:0:0:
192,192,56612,1,0,0:0:0:0:
320,192,56702,1,0,0:0:0:0:
192,192,56792,1,0,0:0:0:0:
448,192,56792,1,0,0:0:0:0:
320,192,56882,1,0,0:0:0:0:
448,192,56972,1,0,0:0:0:0:
64,192,57061,1,0,0:0:0:0:
192,192,57061,1,0,0:0:0:0:
320,192,57151,1,0,0:0:0:0:
448,192,57151,1,0,0:0:0:0:
192,192,57511,128,0,57870:0:0:0:0:
64,192,57511,128,0,57870:0:0:0:0:
448,192,57511,128,0,57870:0:0:0:0:
320,192,57870,1,0,0:0:0:0:
448,192,58049,128,0,58588:0:0:0:0:
192,192,58049,128,0,58588:0:0:0:0:
64,192,58049,128,0,58588:0:0:0:0:
320,192,58588,1,0,0:0:0:0:
64,192,58768,128,0,59127:0:0:0:0:
448,192,58768,128,0,59127:0:0:0:0:
320,192,58768,128,0,59127:0:0:0:0:
192,192,59127,1,0,0:0:0:0:
320,192,59307,1,0,0:0:0:0:
64,192,59307,1,0,0:0:0:0:
192,192,59487,1,0,0:0:0:0:
320,192,59487,1,0,0:0:0:0:
64,192,59666,1,0,0:0:0:0:
320,192,59666,1,0,0:0:0:0:
448,192,59666,1,0,0:0:0:0:
448,192,59846,1,0,0:0:0:0:
192,192,59846,1,0,0:0:0:0:
64,192,60025,1,0,0:0:0:0:
320,192,60026,1,0,0:0:0:0:
192,192,60205,1,0,0:0:0:0:
64,192,60205,1,0,0:0:0:0:
320,192,60385,128,0,60744:0:0:0:0:
448,192,60385,128,0,60744:0:0:0:0:
64,192,60385,128,0,60744:0:0:0:0:
192,192,60744,1,0,0:0:0:0:
64,192,60924,128,0,61463:0:0:0:0:
320,192,60924,128,0,61463:0:0:0:0:
448,192,60924,128,0,61463:0:0:0:0:
192,192,61463,1,0,0:0:0:0:
448,192,61642,128,0,62002:0:0:0:0:
64,192,61642,128,0,62002:0:0:0:0:
192,192,61642,128,0,62002:0:0:0:0:
320,192,62002,1,0,0:0:0:0:
192,192,62181,1,0,0:0:0:0:
448,192,62181,1,0,0:0:0:0:
320,192,62361,1,0,0:0:0:0:
448,192,62361,1,0,0:0:0:0:
448,192,62540,1,0,0:0:0:0:
192,192,62540,1,0,0:0:0:0:
64,192,62540,1,0,0:0:0:0:
64,192,62720,1,0,0:0:0:0:
320,192,62720,1,0,0:0:0:0:
192,192,62900,1,0,0:0:0:0:
448,192,62900,1,0,0:0:0:0:
320,192,63079,1,0,0:0:0:0:
448,192,63079,1,0,0:0:0:0:
64,192,63259,128,0,63618:0:0:0:0:
448,192,63259,128,0,63618:0:0:0:0:
320,192,63259,128,0,63618:0:0:0:0:
192,192,63618,1,0,0:0:0:0:
64,192,63798,128,0,64337:0:0:0:0:
320,192,63798,128,0,64337:0:0:0:0:
448,192,63798,128,0,64337:0:0:0:0:
192,192,64337,1,0,0:0:0:0:
448,192,64517,128,0,64876:0:0:0:0:
64,192,64517,128,0,64876:0:0:0:0:
192,192,64517,128,0,64876:0:0:0:0:
320,192,64876,1,0,0:0:0:0:
192,192,65055,1,0,0:0:0:0:
64,192,65055,1,0,0:0:0:0:
320,192,65235,1,0,0:0:0:0:
192,192,65235,1,0,0:0:0:0:
448,192,65415,1,0,0:0:0:0:
192,192,65415,1,0,0:0:0:0:
64,192,65415,1,0,0:0:0:0:
64,192,65594,1,0,0:0:0:0:
192,192,65594,1,0,0:0:0:0:
192,192,65774,1,0,0:0:0:0:
448,192,65774,1,0,0:0:0:0:
320,192,65954,1,0,0:0:0:0:
448,192,65954,1,0,0:0:0:0:
192,192,66133,128,0,66493:0:0:0:0:
64,192,66133,128,0,66493:0:0:0:0:
448,192,66133,128,0,66493:0:0:0:0:
320,192,66493,1,0,0:0:0:0:
448,192,66672,128,0,67211:0:0:0:0:
192,192,66672,128,0,67211:0:0:0:0:
64,192,66672,128,0,67211:0:0:0:0:
320,192,67211,1,0,0:0:0:0:
192,192,67391,128,0,67930:0:0:0:0:
64,192,67391,128,0,67930:0:0:0:0:
448,192,67391,128,0,67930:0:0:0:0:
448,192,69008,1,0,0:0:0:0:
320,192,69008,1,0,0:0:0:0:
64,192,69097,1,0,0:0:0:0:
192,192,69097,1,0,0:0:0:0:
320,192,69187,1,0,0:0:0:0:
448,192,69187,1,0,0:0:0:0:
64,192,69367,128,0,69546:0:0:0:0:
192,192,69546,1,0,0:0:0:0:
448,192,69546,1,0,0:0:0:0:
320,192,69726,128,0,69906:0:0:0:0:
192,192,69906,1,0,0:0:0:0:
64,192,69906,1,0,0:0:0:0:
448,192,70085,128,0,70265:0:0:0:0:
64,192,70265,1,0,0:0:0:0:
192,192,70265,1,0,0:0:0:0:
320,192,70265,1,0,0:0:0:0:
64,192,70445,1,0,0:0:0:0:
192,192,70445,1,0,0:0:0:0:
448,192,70534,1,0,0:0:0:0:
320,192,70534,1,0,0:0:0:0:
64,192,70624,1,0,0:0:0:0:
192,192,70624,1,0,0:0:0:0:
320,192,70804,128,0,70984:0:0:0:0:
192,192,70984,1,0,0:0:0:0:
64,192,70984,1,0,0:0:0:0:
192,192,71163,128,0,71343:0:0:0:0:
64,192,71343,1,0,0:0:0:0:
448,192,71343,1,0,0:0:0:0:
320,192,71523,128,0,71702:0:0:0:0:
64,192,71702,1,0,0:0:0:0:
448,192,71702,1,0,0:0:0:0:
192,192,71702,1,0,0:0:0:0:
64,192,71882,1,0,0:0:0:0:
320,192,71882,1,0,0:0:0:0:
448,192,71972,1,0,0:0:0:0:
192,192,71972,1,0,0:0:0:0:
320,192,72061,1,0,0:0:0:0:
64,192,72061,1,0,0:0:0:0:
448,192,72241,128,0,72421:0:0:0:0:
320,192,72421,1,0,0:0:0:0:
64,192,72421,1,0,0:0:0:0:
192,192,72600,128,0,72780:0:0:0:0:
320,192,72780,1,0,0:0:0:0:
448,192,72780,1,0,0:0:0:0:
64,192,72960,128,0,73139:0:0:0:0:
448,192,73139,1,0,0:0:0:0:
320,192,73139,1,0,0:0:0:0:
192,192,73139,1,0,0:0:0:0:
448,192,73319,1,0,0:0:0:0:
192,192,73319,1,0,0:0:0:0:
64,192,73409,1,0,0:0:0:0:
320,192,73409,1,0,0:0:0:0:
448,192,73499,1,0,0:0:0:0:
192,192,73499,1,0,0:0:0:0:
192,192,73678,128,0,73858:0:0:0:0:
320,192,73858,1,0,0:0:0:0:
448,192,73858,1,0,0:0:0:0:
320,192,74037,128,0,74217:0:0:0:0:
448,192,74217,1,0,0:0:0:0:
64,192,74217,1,0,0:0:0:0:
192,192,74397,128,0,74576:0:0:0:0:
448,192,74576,1,0,0:0:0:0:
64,192,74576,1,0,0:0:0:0:
320,192,74576,1,0,0:0:0:0:
64,192,74756,1,0,0:0:0:0:
192,192,74756,1,0,0:0:0:0:
448,192,74846,1,0,0:0:0:0:
320,192,74846,1,0,0:0:0:0:
192,192,74936,1,0,0:0:0:0:
64,192,74936,1,0,0:0:0:0:
448,192,75115,128,0,75295:0:0:0:0:
320,192,75295,1,0,0:0:0:0:
64,192,75295,1,0,0:0:0:0:
192,192,75475,128,0,75654:0:0:0:0:
320,192,75654,1,0,0:0:0:0:
448,192,75654,1,0,0:0:0:0:
64,192,75834,128,0,76014:0:0:0:0:
448,192,76014,1,0,0:0:0:0:
320,192,76014,1,0,0:0:0:0:
192,192,76014,1,0,0:0:0:0:
448,192,76193,1,0,0:0:0:0:
320,192,76193,1,0,0:0:0:0:
64,192,76283,1,0,0:0:0:0:
192,192,76283,1,0,0:0:0:0:
448,192,76373,1,0,0:0:0:0:
320,192,76373,1,0,0:0:0:0:
192,192,76552,128,0,76732:0:0:0:0:
320,192,76732,1,0,0:0:0:0:
448,192,76732,1,0,0:0:0:0:
320,192,76912,128,0,77091:0:0:0:0:
448,192,77091,1,0,0:0:0:0:
64,192,77091,1,0,0:0:0:0:
192,192,77271,128,0,77451:0:0:0:0:
448,192,77451,1,0,0:0:0:0:
64,192,77451,1,0,0:0:0:0:
320,192,77451,1,0,0:0:0:0:
448,192,77630,1,0,0:0:0:0:
192,192,77630,1,0,0:0:0:0:
64,192,77720,1,0,0:0:0:0:
320,192,77720,1,0,0:0:0:0:
192,192,77810,1,0,0:0:0:0:
448,192,77810,1,0,0:0:0:0:
64,192,77990,128,0,78169:0:0:0:0:
192,192,78169,1,0,0:0:0:0:
448,192,78169,1,0,0:0:0:0:
320,192,78349,128,0,78528:0:0:0:0:
192,192,78528,1,0,0:0:0:0:
64,192,78528,1,0,0:0:0:0:
448,192,78708,128,0,78888:0:0:0:0:
64,192,78888,1,0,0:0:0:0:
192,192,78888,1,0,0:0:0:0:
320,192,78888,1,0,0:0:0:0:
64,192,79067,1,0,0:0:0:0:
320,192,79067,1,0,0:0:0:0:
448,192,79157,1,0,0:0:0:0:
192,192,79157,1,0,0:0:0:0:
64,192,79247,1,0,0:0:0:0:
320,192,79247,1,0,0:0:0:0:
320,192,79427,128,0,79606:0:0:0:0:
192,192,79606,1,0,0:0:0:0:
64,192,79606,1,0,0:0:0:0:
192,192,79786,128,0,79966:0:0:0:0:
64,192,79966,1,0,0:0:0:0:
448,192,79966,1,0,0:0:0:0:
320,192,79966,1,0,0:0:0:0:
64,192,80505,1,0,0:0:0:0:
192,192,80505,1,0,0:0:0:0:
320,192,80505,1,0,0:0:0:0:
448,192,80594,1,0,0:0:0:0:
64,192,80684,1,0,0:0:0:0:
192,192,80774,1,0,0:0:0:0:
320,192,80864,1,0,0:0:0:0:
448,192,80864,1,0,0:0:0:0:
192,192,80954,1,0,0:0:0:0:
64,192,81043,1,0,0:0:0:0:
320,192,81133,1,0,0:0:0:0:
192,192,81223,1,0,0:0:0:0:
448,192,81223,1,0,0:0:0:0:
64,192,81313,1,0,0:0:0:0:
320,192,81403,1,0,0:0:0:0:
192,192,81493,1,0,0:0:0:0:
64,192,81582,1,0,0:0:0:0:
448,192,81582,1,0,0:0:0:0:
192,192,81672,1,0,0:0:0:0:
448,192,81762,1,0,0:0:0:0:
192,192,81852,1,0,0:0:0:0:
320,192,81942,1,0,0:0:0:0:
448,192,81942,1,0,0:0:0:0:
64,192,82031,1,0,0:0:0:0:
320,192,82121,1,0,0:0:0:0:
192,192,82211,1,0,0:0:0:0:
448,192,82301,1,0,0:0:0:0:
320,192,82301,1,0,0:0:0:0:
192,192,82391,1,0,0:0:0:0:
64,192,82481,1,0,0:0:0:0:
192,192,82570,1,0,0:0:0:0:
64,192,82660,1,0,0:0:0:0:
320,192,82660,1,0,0:0:0:0:
192,192,82750,1,0,0:0:0:0:
448,192,82840,1,0,0:0:0:0:
320,192,82930,1,0,0:0:0:0:
64,192,83020,1,0,0:0:0:0:
448,192,83020,1,0,0:0:0:0:
320,192,83109,1,0,0:0:0:0:
192,192,83199,1,0,0:0:0:0:
64,192,83289,1,0,0:0:0:0:
448,192,83379,1,0,0:0:0:0:
320,192,83379,1,0,0:0:0:0:
64,192,83469,1,0,0:0:0:0:
448,192,83558,1,0,0:0:0:0:
320,192,83648,1,0,0:0:0:0:
192,192,83738,1,0,0:0:0:0:
64,192,83738,1,0,0:0:0:0:
320,192,83828,1,0,0:0:0:0:
448,192,83918,1,0,0:0:0:0:
192,192,84008,1,0,0:0:0:0:
320,192,84097,1,0,0:0:0:0:
64,192,84097,1,0,0:0:0:0:
448,192,84187,1,0,0:0:0:0:
320,192,84277,1,0,0:0:0:0:
64,192,84367,1,0,0:0:0:0:
192,192,84457,1,0,0:0:0:0:
448,192,84457,1,0,0:0:0:0:
320,192,84546,1,0,0:0:0:0:
64,192,84636,1,0,0:0:0:0:
320,192,84726,1,0,0:0:0:0:
192,192,84816,1,0,0:0:0:0:
64,192,84816,1,0,0:0:0:0:
448,192,84906,1,0,0:0:0:0:
192,192,84996,1,0,0:0:0:0:
320,192,85085,1,0,0:0:0:0:
64,192,85175,1,0,0:0:0:0:
192,192,85175,1,0,0:0:0:0:
448,192,85265,1,0,0:0:0:0:
192,192,85355,1,0,0:0:0:0:
320,192,85445,1,0,0:0:0:0:
448,192,85534,1,0,0:0:0:0:
192,192,85534,1,0,0:0:0:0:
320,192,85624,1,0,0:0:0:0:
64,192,85714,1,0,0:0:0:0:
192,192,85804,1,0,0:0:0:0:
448,192,85894,1,0,0:0:0:0:
320,192,85894,1,0,0:0:0:0:
192,192,85984,1,0,0:0:0:0:
320,192,86073,1,0,0:0:0:0:
64,192,86163,1,0,0:0:0:0:
448,192,86253,1,0,0:0:0:0:
320,192,86253,1,0,0:0:0:0:
192,192,86343,1,0,0:0:0:0:
448,192,86433,1,0,0:0:0:0:
320,192,86523,1,0,0:0:0:0:
192,192,86612,1,0,0:0:0:0:
64,192,86612,1,0,0:0:0:0:
320,192,86702,1,0,0:0:0:0:
448,192,86792,1,0,0:0:0:0:
192,192,86882,1,0,0:0:0:0:
320,192,86972,1,0,0:0:0:0:
64,192,86972,1,0,0:0:0:0:
448,192,87061,1,0,0:0:0:0:
320,192,87151,1,0,0:0:0:0:
64,192,87241,1,0,0:0:0:0:
192,192,87331,1,0,0:0:0:0:
448,192,87331,1,0,0:0:0:0:
320,192,87421,1,0,0:0:0:0:
64,192,87511,1,0,0:0:0:0:
320,192,87600,1,0,0:0:0:0:
192,192,87690,1,0,0:0:0:0:
64,192,87690,1,0,0:0:0:0:
448,192,87780,1,0,0:0:0:0:
192,192,87870,1,0,0:0:0:0:
320,192,87960,1,0,0:0:0:0:
64,192,88049,1,0,0:0:0:0:
192,192,88049,1,0,0:0:0:0:
448,192,88139,1,0,0:0:0:0:
192,192,88229,1,0,0:0:0:0:
320,192,88319,1,0,0:0:0:0:
448,192,88409,1,0,0:0:0:0:
192,192,88409,1,0,0:0:0:0:
320,192,88499,1,0,0:0:0:0:
64,192,88588,1,0,0:0:0:0:
192,192,88678,1,0,0:0:0:0:
448,192,88768,1,0,0:0:0:0:
320,192,88768,1,0,0:0:0:0:
192,192,88858,1,0,0:0:0:0:
320,192,88948,1,0,0:0:0:0:
448,192,89037,1,0,0:0:0:0:
64,192,89127,1,0,0:0:0:0:
192,192,89127,1,0,0:0:0:0:
448,192,89217,1,0,0:0:0:0:
64,192,89307,1,0,0:0:0:0:
192,192,89397,1,0,0:0:0:0:
320,192,89487,1,0,0:0:0:0:
448,192,89487,1,0,0:0:0:0:
192,192,89576,1,0,0:0:0:0:
64,192,89666,1,0,0:0:0:0:
320,192,89756,1,0,0:0:0:0:
192,192,89846,1,0,0:0:0:0:
448,192,89846,1,0,0:0:0:0:
64,192,89936,1,0,0:0:0:0:
192,192,90025,1,0,0:0:0:0:
448,192,90115,1,0,0:0:0:0:
320,192,90205,1,0,0:0:0:0:
64,192,90205,1,0,0:0:0:0:
192,192,90295,1,0,0:0:0:0:
448,192,90385,1,0,0:0:0:0:
192,192,90475,1,0,0:0:0:0:
320,192,90564,1,0,0:0:0:0:
448,192,90564,1,0,0:0:0:0:
64,192,90654,1,0,0:0:0:0:
320,192,90744,1,0,0:0:0:0:
192,192,90834,1,0,0:0:0:0:
448,192,90924,1,0,0:0:0:0:
320,192,90924,1,0,0:0:0:0:
64,192,91014,1,0,0:0:0:0:
320,192,91103,1,0,0:0:0:0:
192,192,91193,1,0,0:0:0:0:
64,192,91283,1,0,0:0:0:0:
320,192,91283,1,0,0:0:0:0:
192,192,91373,1,0,0:0:0:0:
448,192,91463,1,0,0:0:0:0:
320,192,91552,1,0,0:0:0:0:
64,192,91642,1,0,0:0:0:0:
192,192,91642,1,0,0:0:0:0:
320,192,92002,1,0,0:0:0:0:
448,192,92002,1,0,0:0:0:0:
64,192,92181,1,0,0:0:0:0:
320,192,92361,1,0,0:0:0:0:
192,192,92361,1,0,0:0:0:0:
64,192,92540,1,0,0:0:0:0:
320,192,92540,1,0,0:0:0:0:
192,192,92720,1,0,0:0:0:0:
448,192,92720,1,0,0:0:0:0:
448,192,92900,1,0,0:0:0:0:
320,192,93079,1,0,0:0:0:0:
64,192,93259,1,0,0:0:0:0:
320,192,93259,1,0,0:0:0:0:
192,192,93439,1,0,0:0:0:0:
448,192,93439,1,0,0:0:0:0:
448,192,93618,1,0,0:0:0:0:
320,192,93798,1,0,0:0:0:0:
64,192,93978,1,0,0:0:0:0:
320,192,93978,1,0,0:0:0:0:
192,192,94157,1,0,0:0:0:0:
448,192,94157,1,0,0:0:0:0:
448,192,94337,1,0,0:0:0:0:
320,192,94517,1,0,0:0:0:0:
192,192,94696,1,0,0:0:0:0:
320,192,94876,1,0,0:0:0:0:
448,192,94876,1,0,0:0:0:0:
64,192,95055,1,0,0:0:0:0:
320,192,95235,1,0,0:0:0:0:
192,192,95235,1,0,0:0:0:0:
64,192,95415,1,0,0:0:0:0:
320,192,95415,1,0,0:0:0:0:
192,192,95594,1,0,0:0:0:0:
448,192,95594,1,0,0:0:0:0:
448,192,95774,1,0,0:0:0:0:
320,192,95954,1,0,0:0:0:0:
64,192,96133,1,0,0:0:0:0:
448,192,96313,1,0,0:0:0:0:
320,192,96313,1,0,0:0:0:0:
192,192,96493,1,0,0:0:0:0:
320,192,96672,1,0,0:0:0:0:
448,192,96672,1,0,0:0:0:0:
320,192,96852,1,0,0:0:0:0:
192,192,96852,1,0,0:0:0:0:
64,192,97031,1,0,0:0:0:0:
320,192,97031,1,0,0:0:0:0:
448,192,97211,1,0,0:0:0:0:
320,192,97391,1,0,0:0:0:0:
192,192,97570,1,0,0:0:0:0:
64,192,97570,1,0,0:0:0:0:
320,192,97750,1,0,0:0:0:0:
448,192,97750,1,0,0:0:0:0:
64,192,97930,1,0,0:0:0:0:
320,192,98109,1,0,0:0:0:0:
192,192,98109,1,0,0:0:0:0:
448,192,98109,1,0,0:0:0:0:
64,192,98289,1,0,0:0:0:0:
320,192,98289,1,0,0:0:0:0:
192,192,98469,1,0,0:0:0:0:
448,192,98469,1,0,0:0:0:0:
448,192,98648,1,0,0:0:0:0:
320,192,98828,1,0,0:0:0:0:
192,192,98828,1,0,0:0:0:0:
448,192,98828,1,0,0:0:0:0:
64,192,99008,1,0,0:0:0:0:
320,192,99008,1,0,0:0:0:0:
192,192,99187,1,0,0:0:0:0:
448,192,99187,1,0,0:0:0:0:
448,192,99367,1,0,0:0:0:0:
320,192,99546,1,0,0:0:0:0:
192,192,99546,1,0,0:0:0:0:
448,192,99546,1,0,0:0:0:0:
64,192,99726,1,0,0:0:0:0:
320,192,99726,1,0,0:0:0:0:
192,192,99906,1,0,0:0:0:0:
448,192,99906,1,0,0:0:0:0:
448,192,100085,1,0,0:0:0:0:
320,192,100265,1,0,0:0:0:0:
192,192,100265,1,0,0:0:0:0:
448,192,100265,1,0,0:0:0:0:
64,192,100445,1,0,0:0:0:0:
320,192,100624,1,0,0:0:0:0:
448,192,100624,1,0,0:0:0:0:
64,192,100804,1,0,0:0:0:0:
320,192,100984,1,0,0:0:0:0:
192,192,100984,1,0,0:0:0:0:
448,192,100984,1,0,0:0:0:0:
64,192,101163,1,0,0:0:0:0:
320,192,101163,1,0,0:0:0:0:
192,192,101343,1,0,0:0:0:0:
448,192,101343,1,0,0:0:0:0:
448,192,101523,1,0,0:0:0:0:
320,192,101702,1,0,0:0:0:0:
192,192,101882,128,0,102061:0:0:0:0:
448,192,102061,1,0,0:0:0:0:
64,192,102061,1,0,0:0:0:0:
320,192,102061,1,0,0:0:0:0:
64,192,102301,1,0,0:0:0:0:
448,192,102301,1,0,0:0:0:0:
192,192,102301,1,0,0:0:0:0:
320,192,102540,1,0,0:0:0:0:
192,192,102540,1,0,0:0:0:0:
64,192,102540,1,0,0:0:0:0:
320,192,102780,1,0,0:0:0:0:
448,192,102780,1,0,0:0:0:0:
192,192,102780,128,0,103499:0:0:0:0:
320,192,103499,1,0,0:0:0:0:
448,192,103499,1,0,0:0:0:0:
64,192,103499,1,0,0:0:0:0:
64,192,104037,1,0,0:0:0:0:
320,192,104037,1,0,0:0:0:0:
192,192,104127,1,0,0:0:0:0:
448,192,104127,1,0,0:0:0:0:
64,192,104217,1,0,0:0:0:0:
320,192,104217,1,0,0:0:0:0:
320,192,104397,1,0,0:0:0:0:
448,192,104397,1,0,0:0:0:0:
64,192,104576,1,0,0:0:0:0:
192,192,104576,1,0,0:0:0:0:
64,192,104936,1,0,0:0:0:0:
64,192,106014,1,0,0:0:0:0:
192,192,106014,1,0,0:0:0:0:
192,192,106193,1,0,0:0:0:0:
320,192,106193,1,0,0:0:0:0:
320,192,106373,1,0,0:0:0:0:
448,192,106373,1,0,0:0:0:0:
64,192,106373,1,0,0:0:0:0:
192,192,106912,1,0,0:0:0:0:
448,192,106912,1,0,0:0:0:0:
64,192,107002,1,0,0:0:0:0:
320,192,107002,1,0,0:0:0:0:
192,192,107091,1,0,0:0:0:0:
448,192,107091,1,0,0:0:0:0:
64,192,107271,1,0,0:0:0:0:
192,192,107271,1,0,0:0:0:0:
320,192,107451,1,0,0:0:0:0:
448,192,107451,1,0,0:0:0:0:
64,192,107810,1,0,0:0:0:0:
64,192,108349,1,0,0:0:0:0:
192,192,108349,1,0,0:0:0:0:
320,192,108439,1,0,0:0:0:0:
448,192,108439,1,0,0:0:0:0:
64,192,108528,1,0,0:0:0:0:
192,192,108528,1,0,0:0:0:0:
448,192,108528,128,0,109247:0:0:0:0:
192,192,109247,1,0,0:0:0:0:
320,192,109247,1,0,0:0:0:0:
64,192,109247,1,0,0:0:0:0:
64,192,109786,1,0,0:0:0:0:
448,192,109786,1,0,0:0:0:0:
192,192,109876,1,0,0:0:0:0:
320,192,109876,1,0,0:0:0:0:
64,192,109966,1,0,0:0:0:0:
448,192,109966,1,0,0:0:0:0:
192,192,110145,1,0,0:0:0:0:
320,192,110145,1,0,0:0:0:0:
192,192,110325,1,0,0:0:0:0:
320,192,110325,1,0,0:0:0:0:
64,192,110684,1,0,0:0:0:0:
192,192,111762,1,0,0:0:0:0:
320,192,111762,1,0,0:0:0:0:
64,192,111942,1,0,0:0:0:0:
448,192,111942,1,0,0:0:0:0:
192,192,112121,1,0,0:0:0:0:
320,192,112121,1,0,0:0:0:0:
192,192,112660,1,0,0:0:0:0:
448,192,112660,1,0,0:0:0:0:
320,192,112750,1,0,0:0:0:0:
448,192,112750,1,0,0:0:0:0:
64,192,112840,1,0,0:0:0:0:
192,192,112840,1,0,0:0:0:0:
320,192,113020,1,0,0:0:0:0:
448,192,113020,1,0,0:0:0:0:
320,192,113199,1,0,0:0:0:0:
448,192,113199,1,0,0:0:0:0:
64,192,113558,1,0,0:0:0:0:
320,192,114097,1,0,0:0:0:0:
448,192,114097,1,0,0:0:0:0:
64,192,114187,1,0,0:0:0:0:
192,192,114187,1,0,0:0:0:0:
320,192,114277,1,0,0:0:0:0:
448,192,114277,1,0,0:0:0:0:
64,192,114367,1,0,0:0:0:0:
192,192,114367,1,0,0:0:0:0:
320,192,114457,1,0,0:0:0:0:
448,192,114457,1,0,0:0:0:0:
192,192,114546,1,0,0:0:0:0:
64,192,114546,1,0,0:0:0:0:
320,192,114636,1,0,0:0:0:0:
448,192,114636,1,0,0:0:0:0:
64,192,114726,1,0,0:0:0:0:
192,192,114726,1,0,0:0:0:0:
320,192,114816,1,0,0:0:0:0:
448,192,114816,1,0,0:0:0:0:
64,192,114906,1,0,0:0:0:0:
192,192,114906,1,0,0:0:0:0:
448,192,114996,1,0,0:0:0:0:
192,192,114996,1,0,0:0:0:0:
320,192,114996,1,0,0:0:0:0:
448,192,115534,1,0,0:0:0:0:
192,192,115534,1,0,0:0:0:0:
320,192,115624,1,0,0:0:0:0:
64,192,115624,1,0,0:0:0:0:
448,192,115714,1,0,0:0:0:0:
192,192,115714,1,0,0:0:0:0:
192,192,115894,1,0,0:0:0:0:
64,192,115894,1,0,0:0:0:0:
448,192,116073,1,0,0:0:0:0:
320,192,116073,1,0,0:0:0:0:
448,192,117151,1,0,0:0:0:0:
448,192,117511,1,0,0:0:0:0:
320,192,117511,1,0,0:0:0:0:
320,192,117690,1,0,0:0:0:0:
192,192,117690,1,0,0:0:0:0:
192,192,117870,1,0,0:0:0:0:
64,192,117870,1,0,0:0:0:0:
448,192,117870,1,0,0:0:0:0:
320,192,118409,1,0,0:0:0:0:
64,192,118409,1,0,0:0:0:0:
448,192,118499,1,0,0:0:0:0:
192,192,118499,1,0,0:0:0:0:
320,192,118588,1,0,0:0:0:0:
64,192,118588,1,0,0:0:0:0:
448,192,118768,1,0,0:0:0:0:
320,192,118768,1,0,0:0:0:0:
192,192,118948,1,0,0:0:0:0:
64,192,118948,1,0,0:0:0:0:
448,192,119846,1,0,0:0:0:0:
320,192,119846,1,0,0:0:0:0:
192,192,119936,1,0,0:0:0:0:
64,192,119936,1,0,0:0:0:0:
448,192,120025,1,0,0:0:0:0:
320,192,120025,1,0,0:0:0:0:
64,192,120025,128,0,120744:0:0:0:0:
320,192,120744,1,0,0:0:0:0:
192,192,120744,1,0,0:0:0:0:
448,192,120744,1,0,0:0:0:0:
448,192,121283,1,0,0:0:0:0:
64,192,121283,1,0,0:0:0:0:
320,192,121373,1,0,0:0:0:0:
192,192,121373,1,0,0:0:0:0:
448,192,121463,1,0,0:0:0:0:
64,192,121463,1,0,0:0:0:0:
320,192,121642,1,0,0:0:0:0:
192,192,121642,1,0,0:0:0:0:
320,192,121822,1,0,0:0:0:0:
192,192,121822,1,0,0:0:0:0:
448,192,122900,1,0,0:0:0:0:
320,192,123259,1,0,0:0:0:0:
192,192,123259,1,0,0:0:0:0:
448,192,123439,1,0,0:0:0:0:
64,192,123439,1,0,0:0:0:0:
320,192,123618,1,0,0:0:0:0:
192,192,123618,1,0,0:0:0:0:
320,192,124157,1,0,0:0:0:0:
64,192,124157,1,0,0:0:0:0:
192,192,124247,1,0,0:0:0:0:
64,192,124247,1,0,0:0:0:0:
448,192,124337,1,0,0:0:0:0:
320,192,124337,1,0,0:0:0:0:
192,192,124517,1,0,0:0:0:0:
64,192,124517,1,0,0:0:0:0:
192,192,124696,1,0,0:0:0:0:
64,192,124696,1,0,0:0:0:0:
192,192,125594,1,0,0:0:0:0:
64,192,125594,1,0,0:0:0:0:
448,192,125684,1,0,0:0:0:0:
320,192,125684,1,0,0:0:0:0:
64,192,125774,128,0,126493:0:0:0:0:
448,192,126493,1,0,0:0:0:0:
192,192,126672,1,0,0:0:0:0:
64,192,126852,128,0,127031:0:0:0:0:
448,192,127031,1,0,0:0:0:0:
192,192,127211,1,0,0:0:0:0:
320,192,127391,128,0,127570:0:0:0:0:
64,192,127570,1,0,0:0:0:0:
192,192,127750,1,0,0:0:0:0:
448,192,127930,128,0,128109:0:0:0:0:
192,192,128109,1,0,0:0:0:0:
64,192,128289,1,0,0:0:0:0:
320,192,128469,128,0,128828:0:0:0:0:
64,192,128828,1,0,0:0:0:0:
192,192,128828,1,0,0:0:0:0:
192,192,129008,1,0,0:0:0:0:
320,192,129008,1,0,0:0:0:0:
448,192,129187,1,0,0:0:0:0:
64,192,129187,1,0,0:0:0:0:
320,192,129367,1,0,0:0:0:0:
192,192,129546,1,0,0:0:0:0:
64,192,129726,128,0,129906:0:0:0:0:
448,192,129906,1,0,0:0:0:0:
320,192,130085,1,0,0:0:0:0:
192,192,130265,128,0,130445:0:0:0:0:
64,192,130445,1,0,0:0:0:0:
192,192,130624,1,0,0:0:0:0:
320,192,130804,128,0,130984:0:0:0:0:
448,192,130984,1,0,0:0:0:0:
192,192,131163,1,0,0:0:0:0:
64,192,131343,128,0,131702:0:0:0:0:
320,192,131702,1,0,0:0:0:0:
448,192,131702,1,0,0:0:0:0:
64,192,131882,1,0,0:0:0:0:
320,192,131882,1,0,0:0:0:0:
192,192,132061,1,0,0:0:0:0:
320,192,132061,1,0,0:0:0:0:
448,192,132241,1,0,0:0:0:0:
320,192,132421,1,0,0:0:0:0:
448,192,132600,128,0,132780:0:0:0:0:
64,192,132780,1,0,0:0:0:0:
320,192,132960,1,0,0:0:0:0:
192,192,133139,128,0,133319:0:0:0:0:
448,192,133319,1,0,0:0:0:0:
320,192,133499,1,0,0:0:0:0:
64,192,133678,128,0,133858:0:0:0:0:
320,192,133858,1,0,0:0:0:0:
448,192,134037,1,0,0:0:0:0:
192,192,134217,128,0,134576:0:0:0:0:
448,192,134576,1,0,0:0:0:0:
320,192,134576,1,0,0:0:0:0:
320,192,134756,1,0,0:0:0:0:
192,192,134756,1,0,0:0:0:0:
64,192,134936,1,0,0:0:0:0:
448,192,134936,1,0,0:0:0:0:
192,192,135115,1,0,0:0:0:0:
320,192,135295,1,0,0:0:0:0:
448,192,135475,128,0,135654:0:0:0:0:
64,192,135654,1,0,0:0:0:0:
192,192,135834,1,0,0:0:0:0:
320,192,136014,128,0,136193:0:0:0:0:
448,192,136193,1,0,0:0:0:0:
320,192,136373,1,0,0:0:0:0:
192,192,136552,128,0,136732:0:0:0:0:
64,192,136732,1,0,0:0:0:0:
320,192,136912,1,0,0:0:0:0:
448,192,137091,128,0,137451:0:0:0:0:
192,192,137451,1,0,0:0:0:0:
64,192,137451,1,0,0:0:0:0:
448,192,137630,1,0,0:0:0:0:
192,192,137630,1,0,0:0:0:0:
320,192,137810,1,0,0:0:0:0:
192,192,137810,1,0,0:0:0:0:
64,192,137990,1,0,0:0:0:0:
320,192,138169,1,0,0:0:0:0:
448,192,138349,128,0,138528:0:0:0:0:
64,192,138528,1,0,0:0:0:0:
320,192,138708,1,0,0:0:0:0:
192,192,138888,128,0,139067:0:0:0:0:
448,192,139067,1,0,0:0:0:0:
320,192,139247,1,0,0:0:0:0:
64,192,139427,128,0,139606:0:0:0:0:
320,192,139606,1,0,0:0:0:0:
448,192,139786,1,0,0:0:0:0:
192,192,139966,128,0,140325:0:0:0:0:
448,192,140325,1,0,0:0:0:0:
320,192,140325,1,0,0:0:0:0:
320,192,140505,1,0,0:0:0:0:
192,192,140505,1,0,0:0:0:0:
64,192,140684,1,0,0:0:0:0:
448,192,140684,1,0,0:0:0:0:
192,192,140864,1,0,0:0:0:0:
320,192,141043,1,0,0:0:0:0:
448,192,141223,128,0,141403:0:0:0:0:
64,192,141403,1,0,0:0:0:0:
192,192,141582,1,0,0:0:0:0:
320,192,141762,128,0,141942:0:0:0:0:
448,192,141942,1,0,0:0:0:0:
320,192,142121,1,0,0:0:0:0:
192,192,142301,128,0,142481:0:0:0:0:
64,192,142481,1,0,0:0:0:0:
320,192,142660,1,0,0:0:0:0:
448,192,142840,128,0,143199:0:0:0:0:
192,192,143199,1,0,0:0:0:0:
64,192,143199,1,0,0:0:0:0:
448,192,143379,1,0,0:0:0:0:
192,192,143379,1,0,0:0:0:0:
320,192,143558,1,0,0:0:0:0:
192,192,143558,1,0,0:0:0:0:
64,192,143738,1,0,0:0:0:0:
192,192,143918,1,0,0:0:0:0:
64,192,144097,128,0,144277:0:0:0:0:
448,192,144277,1,0,0:0:0:0:
192,192,144457,1,0,0:0:0:0:
320,192,144636,128,0,144816:0:0:0:0:
64,192,144816,1,0,0:0:0:0:
192,192,144996,1,0,0:0:0:0:
448,192,145175,128,0,145355:0:0:0:0:
192,192,145355,1,0,0:0:0:0:
64,192,145534,1,0,0:0:0:0:
320,192,145714,128,0,146073:0:0:0:0:
64,192,146073,1,0,0:0:0:0:
192,192,146073,1,0,0:0:0:0:
192,192,146253,1,0,0:0:0:0:
320,192,146253,1,0,0:0:0:0:
448,192,146433,1,0,0:0:0:0:
64,192,146433,1,0,0:0:0:0:
320,192,146612,1,0,0:0:0:0:
192,192,146792,1,0,0:0:0:0:
64,192,146972,128,0,147151:0:0:0:0:
448,192,147151,1,0,0:0:0:0:
320,192,147331,1,0,0:0:0:0:
192,192,147511,128,0,147690:0:0:0:0:
64,192,147690,1,0,0:0:0:0:
192,192,147870,1,0,0:0:0:0:
320,192,148049,128,0,148229:0:0:0:0:
192,192,149487,1,0,0:0:0:0:
64,192,149487,1,0,0:0:0:0:
192,192,149666,1,0,0:0:0:0:
320,192,149666,1,0,0:0:0:0:
448,192,150025,1,0,0:0:0:0:
320,192,150025,1,0,0:0:0:0:
192,192,150205,1,0,0:0:0:0:
320,192,150205,1,0,0:0:0:0:
320,192,150564,1,0,0:0:0:0:
64,192,150564,1,0,0:0:0:0:
320,192,150744,1,0,0:0:0:0:
448,192,150744,1,0,0:0:0:0:
64,192,151103,1,0,0:0:0:0:
320,192,151103,1,0,0:0:0:0:
64,192,151283,1,0,0:0:0:0:
192,192,151283,1,0,0:0:0:0:
448,192,151642,1,0,0:0:0:0:
64,192,152361,1,0,0:0:0:0:
320,192,152361,1,0,0:0:0:0:
192,192,152540,1,0,0:0:0:0:
320,192,152540,1,0,0:0:0:0:
192,192,152900,1,0,0:0:0:0:
448,192,152900,1,0,0:0:0:0:
320,192,153079,1,0,0:0:0:0:
448,192,153079,1,0,0:0:0:0:
64,192,153439,1,0,0:0:0:0:
192,192,153439,1,0,0:0:0:0:
448,192,153618,1,0,0:0:0:0:
64,192,153618,1,0,0:0:0:0:
192,192,153978,1,0,0:0:0:0:
320,192,153978,1,0,0:0:0:0:
64,192,154157,1,0,0:0:0:0:
448,192,154157,1,0,0:0:0:0:
64,192,154517,1,0,0:0:0:0:
192,192,155235,1,0,0:0:0:0:
320,192,155235,1,0,0:0:0:0:
320,192,155415,1,0,0:0:0:0:
448,192,155415,1,0,0:0:0:0:
64,192,155774,1,0,0:0:0:0:
192,192,155774,1,0,0:0:0:0:
320,192,155954,1,0,0:0:0:0:
192,192,155954,1,0,0:0:0:0:
64,192,156313,1,0,0:0:0:0:
192,192,156313,1,0,0:0:0:0:
320,192,156493,1,0,0:0:0:0:
448,192,156493,1,0,0:0:0:0:
448,192,156852,1,0,0:0:0:0:
320,192,156852,1,0,0:0:0:0:
64,192,157031,1,0,0:0:0:0:
192,192,157031,1,0,0:0:0:0:
448,192,157391,1,0,0:0:0:0:
192,192,158109,1,0,0:0:0:0:
320,192,158109,1,0,0:0:0:0:
192,192,158289,1,0,0:0:0:0:
320,192,158289,1,0,0:0:0:0:
64,192,158648,1,0,0:0:0:0:
320,192,158648,1,0,0:0:0:0:
64,192,158828,1,0,0:0:0:0:
320,192,158828,1,0,0:0:0:0:
320,192,159187,1,0,0:0:0:0:
448,192,159187,1,0,0:0:0:0:
320,192,159367,1,0,0:0:0:0:
448,192,159367,1,0,0:0:0:0:
64,192,159726,1,0,0:0:0:0:
192,192,159726,1,0,0:0:0:0:
64,192,159906,1,0,0:0:0:0:
192,192,159906,1,0,0:0:0:0:
448,192,160265,1,0,0:0:0:0:
320,192,160984,1,0,0:0:0:0:
448,192,160984,1,0,0:0:0:0:
320,192,161163,1,0,0:0:0:0:
192,192,161163,1,0,0:0:0:0:
64,192,161523,1,0,0:0:0:0:
192,192,161523,1,0,0:0:0:0:
320,192,161702,1,0,0:0:0:0:
192,192,161702,1,0,0:0:0:0:
192,192,162061,1,0,0:0:0:0:
448,192,162061,1,0,0:0:0:0:
192,192,162241,1,0,0:0:0:0:
64,192,162241,1,0,0:0:0:0:
448,192,162600,1,0,0:0:0:0:
192,192,162600,1,0,0:0:0:0:
448,192,162780,1,0,0:0:0:0:
320,192,162780,1,0,0:0:0:0:
64,192,163139,1,0,0:0:0:0:
448,192,163858,1,0,0:0:0:0:
192,192,163858,1,0,0:0:0:0:
320,192,164037,1,0,0:0:0:0:
192,192,164037,1,0,0:0:0:0:
320,192,164397,1,0,0:0:0:0:
64,192,164397,1,0,0:0:0:0:
192,192,164576,1,0,0:0:0:0:
64,192,164576,1,0,0:0:0:0:
448,192,164936,1,0,0:0:0:0:
320,192,164936,1,0,0:0:0:0:
64,192,165115,1,0,0:0:0:0:
448,192,165115,1,0,0:0:0:0:
320,192,165475,1,0,0:0:0:0:
192,192,165475,1,0,0:0:0:0:
448,192,165654,1,0,0:0:0:0:
64,192,165654,1,0,0:0:0:0:
448,192,166014,1,0,0:0:0:0:
320,192,166732,1,0,0:0:0:0:
192,192,166732,1,0,0:0:0:0:
192,192,166912,1,0,0:0:0:0:
64,192,166912,1,0,0:0:0:0:
448,192,167271,1,0,0:0:0:0:
320,192,167271,1,0,0:0:0:0:
192,192,167451,1,0,0:0:0:0:
320,192,167451,1,0,0:0:0:0:
448,192,167810,1,0,0:0:0:0:
320,192,167810,1,0,0:0:0:0:
192,192,167990,1,0,0:0:0:0:
64,192,167990,1,0,0:0:0:0:
64,192,168349,1,0,0:0:0:0:
192,192,168349,1,0,0:0:0:0:
448,192,168528,1,0,0:0:0:0:
320,192,168528,1,0,0:0:0:0:
64,192,168888,1,0,0:0:0:0:
320,192,169606,1,0,0:0:0:0:
192,192,169606,1,0,0:0:0:0:
320,192,169786,1,0,0:0:0:0:
192,192,169786,1,0,0:0:0:0:
448,192,170145,1,0,0:0:0:0:
192,192,170145,1,0,0:0:0:0:
448,192,170325,1,0,0:0:0:0:
192,192,170325,1,0,0:0:0:0:
192,192,170684,1,0,0:0:0:0:
64,192,170684,1,0,0:0:0:0:
192,192,170864,1,0,0:0:0:0:
64,192,170864,1,0,0:0:0:0:
448,192,171223,1,0,0:0:0:0:
320,192,171223,1,0,0:0:0:0:
448,192,171403,1,0,0:0:0:0:
320,192,171403,1,0,0:0:0:0:
64,192,171762,1,0,0:0:0:0:
64,192,172121,1,0,0:0:0:0:
64,192,172481,1,0,0:0:0:0:
192,192,172481,1,0,0:0:0:0:
