osu file format v14

[General]
AudioFilename: audio.mp3
AudioLeadIn: 0
PreviewTime: 109662
Countdown: 0
SampleSet: Soft
StackLeniency: 0.7
Mode: 3
LetterboxInBreaks: 0
SpecialStyle: 0
WidescreenStoryboard: 0

[Editor]
Bookmarks: 730,10050,28691,47331,51992,70632,72963,91603,110244,128885,138205,147526,152186,170827,189467
DistanceSpacing: 0.8
BeatDivisor: 4
GridSize: 8
TimelineZoom: 1.4

[Metadata]
Title:DUN DUN
TitleUnicode:DUN DUN
Artist:EVERGLOW
ArtistUnicode:에버글로우
Creator:Garalulu
Version:SUN'S NORMAL
Source:
Tags:Sun Pengdoll KPOP 이유 E:U 박지원 시현 SIHYEON 김시현 미아 MIA 한은지 아샤 AISHA 허유림 온다 ONDA 조세림 이런 YIREN 王怡人 서지음 Olof Lindskog Hayley Atiken Gavin Jones 72 OLLIPOP Korean Pop EDM
BeatmapID:2532344
BeatmapSetID:1217089

[Difficulty]
HPDrainRate:7
CircleSize:7
OverallDifficulty:6
ApproachRate:10
SliderMultiplier:1.4
SliderTickRate:1

[Events]
//Background and Video events
0,0,"everglow.jpg",0,0
//Break Periods
//Storyboard Layer 0 (Background)
//Storyboard Layer 1 (Fail)
//Storyboard Layer 2 (Pass)
//Storyboard Layer 3 (Foreground)
//Storyboard Layer 4 (Overlay)
//Storyboard Sound Samples
Sample,35681,0,"normalclap.wav",70
Sample,37429,0,"normalclap.wav",70
Sample,37720,0,"normalclap.wav",70
Sample,44419,0,"normalfinish.wav",70
Sample,52574,0,"normalwhistle.wav",70
Sample,53739,0,"normalwhistle.wav",70
Sample,54322,0,"normalclap.wav",70
Sample,54904,0,"normalwhistle.wav",70
Sample,55196,0,"normalclap.wav",70
Sample,56069,0,"normalwhistle.wav",70
Sample,57234,0,"normalwhistle.wav",70
Sample,58399,0,"normalwhistle.wav",70
Sample,58982,0,"normalclap.wav",70
Sample,59564,0,"normalwhistle.wav",70
Sample,59856,0,"normalclap.wav",70
Sample,60729,0,"normalwhistle.wav",70
Sample,61895,0,"normalwhistle.wav",70
Sample,63060,0,"normalwhistle.wav",70
Sample,63642,0,"normalclap.wav",70
Sample,64225,0,"normalwhistle.wav",70
Sample,64516,0,"normalclap.wav",70
Sample,65390,0,"normalwhistle.wav",70
Sample,65535,0,"normalclap.wav",70
Sample,66555,0,"normalwhistle.wav",70
Sample,67429,0,"normalclap.wav",70
Sample,67720,0,"normalwhistle.wav",70
Sample,68302,0,"normalclap.wav",70
Sample,68885,0,"normalwhistle.wav",70
Sample,69176,0,"normalclap.wav",70
Sample,69322,0,"normalclap.wav",70
Sample,70050,0,"normalwhistle.wav",70
Sample,74419,0,"normalclap.wav",70
Sample,79079,0,"normalclap.wav",70
Sample,83157,0,"normalclap.wav",70
Sample,83739,0,"normalclap.wav",70
Sample,85487,0,"normalclap.wav",70
Sample,87817,0,"normalclap.wav",70
Sample,88399,0,"normalclap.wav",70
Sample,90147,0,"normalclap.wav",70
Sample,91021,0,"normalwhistle.wav",70
Sample,98594,0,"normalclap.wav",70
Sample,100341,0,"normalclap.wav",70
Sample,107331,0,"normalfinish.wav",70
Sample,110827,0,"normalwhistle.wav",70
Sample,111700,0,"normalclap.wav",70
Sample,111992,0,"normalwhistle.wav",70
Sample,112574,0,"normalclap.wav",70
Sample,113157,0,"normalwhistle.wav",70
Sample,113448,0,"normalclap.wav",70
Sample,114322,0,"normalwhistle.wav",70
Sample,115487,0,"normalwhistle.wav",70
Sample,116361,0,"normalclap.wav",70
Sample,116652,0,"normalwhistle.wav",70
Sample,117234,0,"normalclap.wav",70
Sample,117817,0,"normalwhistle.wav",70
Sample,118108,0,"normalclap.wav",70
Sample,118691,0,"normalclap.wav",70
Sample,118982,0,"normalwhistle.wav",70
Sample,120147,0,"normalwhistle.wav",70
Sample,121021,0,"normalclap.wav",70
Sample,121312,0,"normalwhistle.wav",70
Sample,122477,0,"normalwhistle.wav",70
Sample,122768,0,"normalclap.wav",70
Sample,123642,0,"normalwhistle.wav",70
Sample,123788,0,"normalclap.wav",70
Sample,124807,0,"normalwhistle.wav",70
Sample,125681,0,"normalclap.wav",70
Sample,125972,0,"normalwhistle.wav",70
Sample,126555,0,"normalclap.wav",70
Sample,127137,0,"normalwhistle.wav",70
Sample,127429,0,"normalclap.wav",70
Sample,127574,0,"normalclap.wav",70
Sample,128302,0,"normalwhistle.wav",70
Sample,128448,0,"normalclap.wav",70
Sample,152768,0,"normalwhistle.wav",70
Sample,153642,0,"normalclap.wav",70
Sample,153933,0,"normalwhistle.wav",70
Sample,155098,0,"normalwhistle.wav",70
Sample,155390,0,"normalclap.wav",70
Sample,155535,0,"normalclap.wav",70
Sample,155827,0,"normalclap.wav",70
Sample,155972,0,"normalclap.wav",70
Sample,156263,0,"normalwhistle.wav",70
Sample,157429,0,"normalwhistle.wav",70
Sample,158302,0,"normalclap.wav",70
Sample,158594,0,"normalwhistle.wav",70
Sample,159759,0,"normalwhistle.wav",70
Sample,160050,0,"normalclap.wav",70
Sample,160196,0,"normalclap.wav",70
Sample,160487,0,"normalclap.wav",70
Sample,160632,0,"normalclap.wav",70
Sample,160924,0,"normalwhistle.wav",70
Sample,161069,0,"normalclap.wav",70
Sample,161506,0,"normalclap.wav",70
Sample,162089,0,"normalwhistle.wav",70
Sample,162963,0,"normalclap.wav",70
Sample,163254,0,"normalwhistle.wav",70
Sample,163836,0,"normalclap.wav",70
Sample,164419,0,"normalwhistle.wav",70
Sample,164710,0,"normalclap.wav",70
Sample,165584,0,"normalwhistle.wav",70
Sample,166749,0,"normalwhistle.wav",70
Sample,167623,0,"normalclap.wav",70
Sample,167914,0,"normalwhistle.wav",70
Sample,171409,0,"normalwhistle.wav",70
Sample,171700,0,"normalclap.wav",70
Sample,172283,0,"normalclap.wav",70
Sample,172574,0,"normalwhistle.wav",70
Sample,173157,0,"normalclap.wav",70
Sample,173739,0,"normalwhistle.wav",70
Sample,174030,0,"normalclap.wav",70
Sample,174176,0,"normalclap.wav",70
Sample,174467,0,"normalclap.wav",70
Sample,174613,0,"normalclap.wav",70
Sample,174904,0,"normalwhistle.wav",70
Sample,175050,0,"normalclap.wav",70
Sample,176069,0,"normalwhistle.wav",70
Sample,176361,0,"normalclap.wav",70
Sample,176943,0,"normalclap.wav",70
Sample,177234,0,"normalwhistle.wav",70
Sample,177817,0,"normalclap.wav",70
Sample,178399,0,"normalwhistle.wav",70
Sample,178691,0,"normalclap.wav",70
Sample,178836,0,"normalclap.wav",70
Sample,179128,0,"normalclap.wav",70
Sample,179273,0,"normalclap.wav",70
Sample,179564,0,"normalwhistle.wav",70
Sample,179710,0,"normalclap.wav",70
Sample,180729,0,"normalwhistle.wav",70
Sample,181021,0,"normalclap.wav",70
Sample,181603,0,"normalclap.wav",70
Sample,181895,0,"normalwhistle.wav",70
Sample,182477,0,"normalclap.wav",70
Sample,183060,0,"normalwhistle.wav",70
Sample,183351,0,"normalclap.wav",70
Sample,183496,0,"normalclap.wav",70
Sample,183788,0,"normalclap.wav",70
Sample,183933,0,"normalclap.wav",70
Sample,184225,0,"normalwhistle.wav",70
Sample,184370,0,"normalclap.wav",70
Sample,185390,0,"normalwhistle.wav",70
Sample,185681,0,"normalclap.wav",70
Sample,186263,0,"normalclap.wav",70
Sample,186555,0,"normalwhistle.wav",70
Sample,187137,0,"normalclap.wav",70
Sample,187720,0,"normalwhistle.wav",70
Sample,188011,0,"normalclap.wav",70
Sample,188157,0,"normalclap.wav",70
Sample,188594,0,"normalclap.wav",70

[TimingPoints]
730,582.52427184466,4,2,1,70,1,0
51992,-100,4,2,1,70,0,1
70632,-100,4,2,1,70,0,0
110244,-100,4,2,1,70,0,1
128885,-100,4,2,1,70,0,0
152186,-100,4,2,1,70,0,1
168496,-100,4,2,1,70,0,0
170827,-100,4,2,1,70,0,1
188885,-100,4,2,1,70,0,0

[HitObjects]
36,192,730,5,8,0:0:0:0:
475,192,730,1,0,0:0:0:0:
475,192,1166,1,0,0:0:0:0:
36,192,1312,1,8,0:0:0:0:
329,192,1603,1,0,0:0:0:0:
36,192,1895,1,8,0:0:0:0:
402,192,1895,1,0,0:0:0:0:
402,192,2331,1,0,0:0:0:0:
36,192,2477,1,8,0:0:0:0:
256,192,2768,1,0,0:0:0:0:
36,192,3060,1,8,0:0:0:0:
329,192,3060,1,0,0:0:0:0:
329,192,3496,1,0,0:0:0:0:
36,192,3642,1,8,0:0:0:0:
402,192,3788,1,0,0:0:0:0:
109,192,3933,1,0,0:0:0:0:
329,192,4079,1,0,0:0:0:0:
182,192,4225,1,8,0:0:0:0:
475,192,4225,1,0,0:0:0:0:
182,192,4807,1,8,0:0:0:0:
329,192,4807,1,0,0:0:0:0:
36,192,5390,1,8,0:0:0:0:
475,192,5390,1,0,0:0:0:0:
36,192,5827,1,0,0:0:0:0:
475,192,5972,1,8,0:0:0:0:
182,192,6263,1,0,0:0:0:0:
109,192,6555,1,8,0:0:0:0:
475,192,6555,1,0,0:0:0:0:
109,192,6992,1,0,0:0:0:0:
475,192,7137,1,8,0:0:0:0:
256,192,7429,1,2,0:0:0:0:
182,192,7720,1,8,0:0:0:0:
475,192,7720,1,2,0:0:0:0:
182,192,8157,1,2,0:0:0:0:
329,192,8302,1,10,0:0:0:0:
36,192,8448,1,0,0:0:0:0:
475,192,8594,1,2,0:0:0:0:
256,192,8739,1,2,0:0:0:0:
109,192,8885,1,2,0:0:0:0:
402,192,8885,1,8,0:0:0:0:
182,192,9176,1,2,0:0:0:0:
329,192,9322,1,2,0:0:0:0:
256,192,9467,1,2,0:0:0:0:
256,192,9759,1,2,0:0:0:0:
36,192,10050,1,4,0:0:0:0:
182,192,10050,1,2,0:0:0:0:
329,192,10050,1,0,0:0:0:70:normalclap.wav
182,192,10487,1,2,0:0:0:0:
329,192,10632,1,8,0:0:0:0:
475,192,10632,1,2,0:0:0:0:
182,192,10778,1,2,0:0:0:0:
36,192,10924,1,2,0:0:0:0:
329,192,10924,1,0,0:0:0:70:normalclap.wav
182,192,11215,1,2,0:0:0:0:
109,192,11506,1,0,0:0:0:70:normalclap.wav
475,192,11506,1,0,0:0:0:0:
36,192,11797,1,8,0:0:0:0:
402,192,11797,1,0,0:0:0:0:
329,192,12089,128,2,12380:0:0:0:0:
36,192,12380,128,2,12671:0:0:0:0:
475,192,12380,1,0,0:0:0:70:normalclap.wav
182,192,12963,1,8,0:0:0:0:
475,192,12963,1,0,0:0:0:0:
329,192,13254,128,2,13545:0:0:0:0:
109,192,13254,1,0,0:0:0:70:normalclap.wav
36,192,13545,128,2,13836:0:0:0:0:
475,192,13545,1,0,0:0:0:70:normalwhistle.wav
402,192,13836,1,0,0:0:0:70:normalclap.wav
182,192,14128,1,8,0:0:0:0:
475,192,14128,1,2,0:0:0:0:
36,192,14273,1,2,0:0:0:0:
329,192,14273,1,0,0:0:0:70:normalclap.wav
182,192,14710,1,2,0:0:0:0:
402,192,14710,1,4,0:0:0:0:
475,192,14710,1,0,0:0:0:70:normalclap.wav
329,192,15001,1,2,0:0:0:0:
182,192,15147,1,2,0:0:0:0:
36,192,15293,1,2,0:0:0:0:
402,192,15293,1,8,0:0:0:0:
182,192,15438,1,2,0:0:0:0:
329,192,15584,1,2,0:0:0:0:
475,192,15584,1,0,0:0:0:70:normalclap.wav
109,192,15875,1,2,0:0:0:0:
329,192,16166,1,0,0:0:0:70:normalclap.wav
36,192,16166,1,0,0:0:0:0:
256,192,16458,1,8,0:0:0:0:
475,192,16458,1,0,0:0:0:0:
182,192,16749,128,2,17040:0:0:0:0:
475,192,17040,128,2,17331:0:0:0:0:
36,192,17040,1,0,0:0:0:70:normalclap.wav
36,192,17623,1,8,0:0:0:0:
329,192,17623,1,0,0:0:0:0:
182,192,17914,128,2,18205:0:0:0:0:
402,192,17914,1,0,0:0:0:70:normalclap.wav
475,192,18205,128,2,18496:0:0:0:0:
36,192,18205,1,0,0:0:0:70:normalwhistle.wav
109,192,18496,1,0,0:0:0:70:normalclap.wav
329,192,18788,1,2,0:0:0:0:
402,192,18788,1,8,0:0:0:0:
182,192,18933,1,0,0:0:0:70:normalclap.wav
109,192,18933,1,0,0:0:0:0:
256,192,19370,1,2,0:0:0:0:
402,192,19370,1,4,0:0:0:0:
475,192,19370,128,0,19807:0:0:0:70:normalclap.wav
329,192,19807,1,0,0:0:0:70:normalwhistle.wav
36,192,19953,1,8,0:0:0:0:
182,192,19953,1,2,0:0:0:0:
109,192,20244,1,0,0:0:0:70:normalwhistle.wav
402,192,20244,128,0,20535:0:0:0:70:normalclap.wav
36,192,20535,128,0,20827:0:0:0:70:normalwhistle.wav
256,192,20827,1,0,0:0:0:70:normalclap.wav
182,192,20972,1,0,0:0:0:70:normalwhistle.wav
109,192,21118,1,2,0:0:0:0:
475,192,21118,128,8,21700:0:0:0:0:
329,192,21409,128,0,21700:0:0:0:70:normalwhistle.wav
36,192,21700,128,0,22137:0:0:0:70:normalclap.wav
182,192,21700,1,0,0:0:0:0:
256,192,22137,1,0,0:0:0:70:normalwhistle.wav
402,192,22283,128,8,22574:0:0:0:0:
475,192,22283,1,0,0:0:0:0:
36,192,22574,1,0,0:0:0:70:normalclap.wav
256,192,22720,1,0,0:0:0:70:normalwhistle.wav
182,192,22865,1,0,0:0:0:70:normalwhistle.wav
329,192,23011,1,0,0:0:0:70:normalwhistle.wav
36,192,23157,1,2,0:0:0:0:
475,192,23157,1,0,0:0:0:70:normalclap.wav
109,192,23448,1,2,0:0:0:0:
402,192,23448,1,8,0:0:0:0:
182,192,23594,1,0,0:0:0:70:normalclap.wav
329,192,23594,1,0,0:0:0:0:
109,192,24030,128,2,24613:0:0:0:0:
475,192,24030,1,4,0:0:0:0:
256,192,24030,1,0,0:0:0:70:normalclap.wav
402,192,24613,1,2,0:0:0:0:
475,192,24613,1,8,0:0:0:0:
182,192,24904,1,0,0:0:0:70:normalclap.wav
329,192,24904,128,0,25196:0:0:0:0:
36,192,25196,128,2,25487:0:0:0:0:
475,192,25487,1,0,0:0:0:70:normalclap.wav
109,192,25778,1,2,0:0:0:0:
329,192,25778,128,8,26361:0:0:0:0:
36,192,26361,1,0,0:0:0:70:normalclap.wav
475,192,26361,1,0,0:0:0:0:
182,192,26652,1,0,0:0:0:70:normalwhistle.wav
329,192,26797,1,0,0:0:0:70:normalwhistle.wav
36,192,26943,1,2,0:0:0:0:
475,192,26943,1,8,0:0:0:0:
182,192,27089,1,0,0:0:0:70:normalwhistle.wav
329,192,27234,1,2,0:0:0:0:
475,192,27234,1,0,0:0:0:70:normalclap.wav
36,192,27526,1,0,0:0:0:70:normalclap.wav
402,192,27526,1,0,0:0:0:0:
256,192,27671,1,0,0:0:0:70:normalwhistle.wav
109,192,27817,1,0,0:0:0:70:normalwhistle.wav
475,192,27963,1,0,0:0:0:70:normalwhistle.wav
109,192,28108,1,2,0:0:0:0:
329,192,28108,1,0,0:0:0:70:normalfinish.wav
182,192,28399,1,2,0:0:0:0:
329,192,28399,1,0,0:0:0:70:normalwhistle.wav
36,192,28691,1,10,0:0:0:0:
475,192,28691,1,4,0:0:0:0:
36,192,29273,1,2,0:0:0:0:
475,192,29273,1,8,0:0:0:0:
36,192,29856,1,2,0:0:0:0:
475,192,29856,1,8,0:0:0:0:
36,192,30438,1,2,0:0:0:0:
475,192,30438,1,8,0:0:0:0:
109,192,31021,1,2,0:0:0:0:
402,192,31021,1,8,0:0:0:0:
109,192,31603,1,2,0:0:0:0:
402,192,31603,1,8,0:0:0:0:
109,192,32186,1,2,0:0:0:0:
402,192,32186,1,8,0:0:0:0:
109,192,32768,1,8,0:0:0:0:
402,192,32768,1,2,0:0:0:0:
256,192,33060,1,0,0:0:0:0:
182,192,33351,1,2,0:0:0:0:
329,192,33351,1,8,0:0:0:0:
182,192,33933,1,2,0:0:0:0:
329,192,33933,1,8,0:0:0:0:
182,192,34516,1,2,0:0:0:0:
329,192,34516,1,8,0:0:0:0:
182,192,35098,1,2,0:0:0:0:
329,192,35098,1,8,0:0:0:0:
109,192,35681,1,10,0:0:0:0:
402,192,35681,1,0,0:0:0:70:normalwhistle.wav
36,192,36118,1,0,0:0:0:70:normalclap.wav
329,192,36118,1,0,0:0:0:70:normalwhistle.wav
182,192,36263,1,8,0:0:0:0:
475,192,36263,1,0,0:0:0:0:
109,192,36555,1,0,0:0:0:70:normalclap.wav
402,192,36555,1,0,0:0:0:70:normalwhistle.wav
182,192,36846,1,8,0:0:0:0:
475,192,36846,1,0,0:0:0:0:
36,192,36992,1,0,0:0:0:70:normalclap.wav
329,192,36992,1,0,0:0:0:70:normalwhistle.wav
109,192,37429,1,10,0:0:0:0:
402,192,37429,1,0,0:0:0:70:normalwhistle.wav
109,192,37720,1,2,0:0:0:0:
402,192,37720,1,0,0:0:0:70:normalwhistle.wav
36,192,38011,1,10,0:0:0:0:
329,192,38011,1,0,0:0:0:70:normalfinish.wav
402,192,38302,1,0,0:0:0:70:normalwhistle.wav
182,192,38594,1,2,0:0:0:0:
475,192,38594,1,8,0:0:0:0:
109,192,38885,1,0,0:0:0:70:normalwhistle.wav
36,192,39176,1,10,0:0:0:0:
329,192,39176,1,0,0:0:0:70:normalfinish.wav
402,192,39467,1,0,0:0:0:70:normalwhistle.wav
182,192,39759,1,8,0:0:0:0:
475,192,39759,1,2,0:0:0:0:
109,192,40050,1,0,0:0:0:70:normalwhistle.wav
36,192,40341,1,10,0:0:0:0:
475,192,40341,1,0,0:0:0:70:normalfinish.wav
402,192,40632,1,0,0:0:0:70:normalwhistle.wav
36,192,40924,1,2,0:0:0:0:
329,192,40924,1,8,0:0:0:0:
109,192,41215,1,0,0:0:0:70:normalwhistle.wav
182,192,41506,1,10,0:0:0:0:
475,192,41506,1,0,0:0:0:70:normalfinish.wav
402,192,41797,1,0,0:0:0:70:normalwhistle.wav
36,192,42089,1,2,0:0:0:0:
329,192,42089,1,8,0:0:0:0:
109,192,42380,1,2,0:0:0:0:
475,192,42380,1,0,0:0:0:70:normalwhistle.wav
329,192,42671,128,10,43254:0:0:0:0:
256,192,42671,1,0,0:0:0:70:normalfinish.wav
182,192,43254,128,10,43836:0:0:0:0:
256,192,43254,1,0,0:0:0:70:normalfinish.wav
109,192,43836,1,10,0:0:0:0:
402,192,43836,1,0,0:0:0:70:normalfinish.wav
36,192,44128,1,0,0:0:0:70:normalwhistle.wav
182,192,44273,1,2,0:0:0:0:
329,192,44273,1,0,0:0:0:70:normalwhistle.wav
475,192,44419,1,8,0:0:0:0:
182,192,44710,1,2,0:0:0:0:
475,192,44710,1,0,0:0:0:70:normalwhistle.wav
256,192,45001,1,0,0:0:0:70:normalclap.wav
36,192,45147,1,0,0:0:0:70:normalwhistle.wav
329,192,45293,1,0,0:0:0:70:normalclap.wav
109,192,45438,1,0,0:0:0:70:normalwhistle.wav
402,192,45584,1,0,0:0:0:70:normalclap.wav
182,192,45729,1,0,0:0:0:70:normalwhistle.wav
475,192,45875,1,0,0:0:0:70:normalclap.wav
256,192,46021,1,0,0:0:0:70:normalwhistle.wav
475,192,46166,128,0,46603:0:0:0:70:normalclap.wav
256,192,47331,1,2,0:0:0:0:
256,192,48496,1,2,0:0:0:0:
256,192,49662,1,2,0:0:0:0:
256,192,50827,1,2,0:0:0:0:
182,192,51409,128,2,51700:0:0:0:0:
329,192,51700,128,2,51992:0:0:0:0:
36,192,51992,1,6,0:0:0:0:
109,192,51992,1,0,0:0:0:70:normalwhistle.wav
402,192,51992,1,0,0:0:0:70:normalclap.wav
329,192,52283,1,0,0:0:0:70:normalwhistle.wav
256,192,52429,1,0,0:0:0:70:normalwhistle.wav
36,192,52574,1,8,0:0:0:0:
182,192,52574,1,0,0:0:0:70:normalfinish.wav
109,192,52865,1,0,0:0:0:70:normalwhistle.wav
475,192,52865,1,0,0:0:0:70:normalclap.wav
402,192,53157,1,0,0:0:0:70:normalwhistle.wav
36,192,53448,1,0,0:0:0:70:normalwhistle.wav
329,192,53448,1,0,0:0:0:70:normalclap.wav
109,192,53594,1,0,0:0:0:70:normalwhistle.wav
182,192,53739,1,8,0:0:0:0:
475,192,53739,1,0,0:0:0:70:normalfinish.wav
402,192,54030,1,0,0:0:0:70:normalwhistle.wav
36,192,54322,1,4,0:0:0:0:
329,192,54322,1,0,0:0:0:70:normalwhistle.wav
182,192,54613,1,0,0:0:0:70:normalwhistle.wav
109,192,54759,1,0,0:0:0:70:normalwhistle.wav
36,192,54904,1,8,0:0:0:0:
475,192,54904,1,0,0:0:0:70:normalfinish.wav
182,192,55196,1,4,0:0:0:0:
329,192,55196,1,0,0:0:0:70:normalwhistle.wav
109,192,55341,1,0,0:0:0:70:normalclap.wav
402,192,55341,1,0,0:0:0:0:
36,192,55632,1,0,0:0:0:70:normalwhistle.wav
182,192,55632,1,0,0:0:0:70:normalclap.wav
329,192,55778,1,0,0:0:0:70:normalwhistle.wav
475,192,55778,1,0,0:0:0:70:normalclap.wav
256,192,56069,1,10,0:0:0:0:
402,192,56069,128,0,56361:0:0:0:70:normalfinish.wav
109,192,56361,128,0,56652:0:0:0:70:normalwhistle.wav
36,192,56652,1,6,0:0:0:0:
329,192,56652,1,0,0:0:0:70:normalwhistle.wav
475,192,56652,1,0,0:0:0:70:normalclap.wav
182,192,56943,1,0,0:0:0:70:normalwhistle.wav
256,192,57089,1,0,0:0:0:70:normalwhistle.wav
36,192,57234,1,8,0:0:0:0:
329,192,57234,1,0,0:0:0:70:normalfinish.wav
109,192,57526,1,0,0:0:0:70:normalwhistle.wav
475,192,57526,1,0,0:0:0:70:normalclap.wav
182,192,57817,1,0,0:0:0:70:normalwhistle.wav
36,192,58108,1,0,0:0:0:70:normalwhistle.wav
475,192,58108,1,0,0:0:0:70:normalclap.wav
402,192,58254,1,0,0:0:0:70:normalwhistle.wav
109,192,58399,1,8,0:0:0:0:
329,192,58399,1,0,0:0:0:70:normalfinish.wav
182,192,58691,1,0,0:0:0:70:normalwhistle.wav
36,192,58982,1,4,0:0:0:0:
402,192,58982,1,0,0:0:0:70:normalwhistle.wav
182,192,59273,1,0,0:0:0:70:normalwhistle.wav
329,192,59419,1,0,0:0:0:70:normalwhistle.wav
36,192,59564,1,8,0:0:0:0:
475,192,59564,1,0,0:0:0:70:normalfinish.wav
109,192,59856,1,4,0:0:0:0:
182,192,59856,1,0,0:0:0:70:normalwhistle.wav
329,192,60001,1,0,0:0:0:70:normalclap.wav
402,192,60001,1,0,0:0:0:0:
36,192,60293,1,0,0:0:0:70:normalwhistle.wav
475,192,60293,1,0,0:0:0:70:normalclap.wav
329,192,60438,1,0,0:0:0:70:normalclap.wav
182,192,60438,1,0,0:0:0:70:normalwhistle.wav
109,192,60729,1,8,0:0:0:0:
402,192,60729,1,0,0:0:0:70:normalfinish.wav
329,192,60875,1,0,0:0:0:70:normalclap.wav
256,192,61021,1,0,0:0:0:0:
182,192,61166,1,0,0:0:0:0:
36,192,61312,1,4,0:0:0:0:
109,192,61312,1,0,0:0:0:70:normalwhistle.wav
402,192,61312,1,0,0:0:0:70:normalclap.wav
475,192,61603,1,0,0:0:0:70:normalwhistle.wav
329,192,61749,1,0,0:0:0:70:normalwhistle.wav
36,192,61895,1,10,0:0:0:0:
182,192,61895,1,0,0:0:0:70:normalfinish.wav
109,192,62186,1,0,0:0:0:70:normalwhistle.wav
402,192,62186,1,0,0:0:0:70:normalclap.wav
329,192,62477,1,2,0:0:0:0:
475,192,62477,1,0,0:0:0:70:normalwhistle.wav
36,192,62768,1,0,0:0:0:70:normalwhistle.wav
182,192,62768,1,0,0:0:0:70:normalclap.wav
256,192,62914,1,0,0:0:0:70:normalwhistle.wav
329,192,63060,1,10,0:0:0:0:
475,192,63060,1,0,0:0:0:70:normalfinish.wav
109,192,63351,1,2,0:0:0:0:
402,192,63351,1,0,0:0:0:70:normalwhistle.wav
109,192,63642,1,6,0:0:0:0:
402,192,63642,1,0,0:0:0:70:normalwhistle.wav
36,192,63933,1,0,0:0:0:70:normalwhistle.wav
182,192,64079,1,0,0:0:0:70:normalwhistle.wav
329,192,64225,1,10,0:0:0:0:
475,192,64225,1,0,0:0:0:70:normalfinish.wav
109,192,64516,1,4,0:0:0:0:
402,192,64516,1,0,0:0:0:70:normalwhistle.wav
182,192,64662,1,0,0:0:0:70:normalwhistle.wav
475,192,64662,1,0,0:0:0:70:normalclap.wav
36,192,64953,1,0,0:0:0:70:normalwhistle.wav
329,192,64953,1,0,0:0:0:70:normalclap.wav
109,192,65098,1,0,0:0:0:70:normalwhistle.wav
402,192,65098,1,0,0:0:0:70:normalclap.wav
182,192,65390,1,10,0:0:0:0:
475,192,65390,1,0,0:0:0:70:normalfinish.wav
256,192,65535,1,0,0:0:0:70:normalwhistle.wav
329,192,65681,1,0,0:0:0:70:normalwhistle.wav
402,192,65827,1,0,0:0:0:70:normalwhistle.wav
36,192,65972,1,6,0:0:0:0:
182,192,65972,1,0,0:0:0:70:normalwhistle.wav
475,192,65972,1,0,0:0:0:70:normalclap.wav
256,192,66409,1,0,0:0:0:70:normalwhistle.wav
329,192,66555,1,8,0:0:0:0:
475,192,66555,1,0,0:0:0:70:normalfinish.wav
109,192,66700,1,0,0:0:0:70:normalwhistle.wav
256,192,66846,1,0,0:0:0:70:normalclap.wav
402,192,66846,1,0,0:0:0:70:normalwhistle.wav
36,192,67137,1,2,0:0:0:0:
475,192,67137,1,0,0:0:0:70:normalwhistle.wav
329,192,67429,1,0,0:0:0:70:normalwhistle.wav
256,192,67574,1,0,0:0:0:70:normalwhistle.wav
36,192,67720,1,8,0:0:0:0:
182,192,67720,1,0,0:0:0:70:normalfinish.wav
402,192,67865,1,0,0:0:0:70:normalwhistle.wav
109,192,68011,1,2,0:0:0:0:
256,192,68011,1,0,0:0:0:70:normalwhistle.wav
402,192,68302,1,6,0:0:0:0:
475,192,68302,1,0,0:0:0:70:normalwhistle.wav
182,192,68448,1,0,0:0:0:70:normalwhistle.wav
36,192,68594,1,0,0:0:0:70:normalwhistle.wav
109,192,68885,1,10,0:0:0:0:
402,192,68885,1,0,0:0:0:70:normalfinish.wav
36,192,69176,1,4,0:0:0:0:
475,192,69176,1,0,0:0:0:70:normalwhistle.wav
329,192,69322,1,0,0:0:0:70:normalwhistle.wav
256,192,69467,1,0,0:0:0:70:normalwhistle.wav
36,192,69613,1,0,0:0:0:70:normalclap.wav
182,192,69613,1,0,0:0:0:70:normalwhistle.wav
329,192,69759,1,0,0:0:0:70:normalwhistle.wav
475,192,69759,1,0,0:0:0:70:normalclap.wav
109,192,70050,1,10,0:0:0:0:
402,192,70050,1,0,0:0:0:70:normalfinish.wav
182,192,70196,1,0,0:0:0:70:normalwhistle.wav
329,192,70196,1,0,0:0:0:70:normalclap.wav
36,192,72963,128,2,73545:0:0:0:0:
329,192,72963,1,4,0:0:0:0:
475,192,72963,1,0,0:0:0:70:normalclap.wav
182,192,73254,1,0,0:0:0:70:normalwhistle.wav
329,192,73836,1,0,0:0:0:70:normalclap.wav
475,192,73836,128,0,74419:0:0:0:0:
36,192,74128,1,0,0:0:0:70:normalfinish.wav
182,192,74128,1,0,0:0:0:0:
256,192,74419,1,0,0:0:0:70:normalwhistle.wav
109,192,74564,1,2,0:0:0:0:
402,192,74710,1,0,0:0:0:70:normalwhistle.wav
182,192,74856,1,2,0:0:0:0:
329,192,75001,1,2,0:0:0:0:
109,192,75293,128,0,75875:0:0:0:70:normalclap.wav
402,192,75293,1,0,0:0:0:70:normalwhistle.wav
109,192,76166,1,2,0:0:0:0:
402,192,76166,128,0,76749:0:0:0:70:normalclap.wav
256,192,76458,1,0,0:0:0:70:normalfinish.wav
36,192,76749,1,0,0:0:0:70:normalclap.wav
475,192,76895,1,2,0:0:0:0:
109,192,77040,1,2,0:0:0:0:
402,192,77186,1,2,0:0:0:0:
182,192,77331,1,2,0:0:0:0:
329,192,77477,1,2,0:0:0:0:
36,192,77623,1,6,0:0:0:0:
475,192,77623,128,0,78205:0:0:0:70:normalclap.wav
329,192,77914,1,0,0:0:0:70:normalwhistle.wav
36,192,78496,128,0,79079:0:0:0:70:normalclap.wav
182,192,78496,1,0,0:0:0:0:
329,192,78788,1,0,0:0:0:70:normalfinish.wav
475,192,78788,1,0,0:0:0:0:
256,192,79079,1,0,0:0:0:70:normalwhistle.wav
402,192,79225,1,2,0:0:0:0:
109,192,79370,1,0,0:0:0:70:normalwhistle.wav
329,192,79516,1,2,0:0:0:0:
182,192,79662,1,0,0:0:0:70:normalwhistle.wav
109,192,79953,1,0,0:0:0:70:normalclap.wav
402,192,79953,128,0,80535:0:0:0:70:normalwhistle.wav
256,192,80535,1,0,0:0:0:70:normalwhistle.wav
109,192,80827,128,0,81700:0:0:0:70:normalclap.wav
402,192,80827,1,0,0:0:0:70:normalwhistle.wav
182,192,81118,128,0,81700:0:0:0:70:normalwhistle.wav
329,192,81118,1,0,0:0:0:70:normalfinish.wav
329,192,81700,128,0,82283:0:0:0:70:normalwhistle.wav
36,192,82283,1,4,0:0:0:0:
256,192,82283,1,2,0:0:0:0:
475,192,82283,1,0,0:0:0:70:normalclap.wav
182,192,82574,1,0,0:0:0:70:normalwhistle.wav
109,192,82865,1,10,0:0:0:0:
402,192,82865,1,0,0:0:0:70:normalwhistle.wav
329,192,83011,1,2,0:0:0:0:
256,192,83157,1,0,0:0:0:70:normalwhistle.wav
182,192,83448,1,2,0:0:0:0:
475,192,83448,1,0,0:0:0:70:normalwhistle.wav
36,192,83739,1,0,0:0:0:70:normalwhistle.wav
402,192,83885,1,2,0:0:0:0:
109,192,84030,1,2,0:0:0:0:
256,192,84030,1,8,0:0:0:0:
329,192,84322,1,0,0:0:0:70:normalwhistle.wav
36,192,84613,1,2,0:0:0:0:
402,192,84613,1,0,0:0:0:70:normalclap.wav
182,192,84759,1,2,0:0:0:0:
329,192,84904,1,0,0:0:0:70:normalwhistle.wav
182,192,85196,1,10,0:0:0:0:
475,192,85196,1,0,0:0:0:70:normalwhistle.wav
109,192,85487,1,0,0:0:0:70:normalwhistle.wav
329,192,85632,1,0,0:0:0:0:
182,192,85778,1,2,0:0:0:0:
475,192,85778,1,0,0:0:0:70:normalwhistle.wav
36,192,85924,1,2,0:0:0:0:
402,192,86069,1,0,0:0:0:70:normalclap.wav
109,192,86361,1,10,0:0:0:0:
329,192,86361,1,0,0:0:0:70:normalwhistle.wav
182,192,86506,1,0,0:0:0:70:normalclap.wav
256,192,86652,1,2,0:0:0:0:
402,192,86943,128,2,87526:0:0:0:0:
36,192,87526,1,8,0:0:0:0:
182,192,87526,1,0,0:0:0:0:
109,192,87817,1,6,0:0:0:0:
475,192,87817,1,0,0:0:0:70:normalwhistle.wav
329,192,87963,1,2,0:0:0:0:
182,192,88108,1,0,0:0:0:70:normalwhistle.wav
36,192,88399,1,0,0:0:0:70:normalwhistle.wav
256,192,88545,1,2,0:0:0:0:
109,192,88691,1,8,0:0:0:0:
475,192,88691,1,0,0:0:0:0:
256,192,88982,1,2,0:0:0:0:
402,192,89128,1,2,0:0:0:0:
36,192,89273,1,0,0:0:0:70:normalclap.wav
182,192,89273,1,0,0:0:0:70:normalwhistle.wav
36,192,89564,1,0,0:0:0:70:normalwhistle.wav
329,192,89856,1,10,0:0:0:0:
475,192,89856,1,0,0:0:0:70:normalwhistle.wav
329,192,90147,1,0,0:0:0:70:normalwhistle.wav
36,192,90438,1,0,0:0:0:70:normalwhistle.wav
182,192,90438,1,0,0:0:0:0:
475,192,90584,1,0,0:0:0:70:normalwhistle.wav
402,192,90729,1,2,0:0:0:70:normalwhistle.wav
182,192,90875,1,0,0:0:0:70:normalwhistle.wav
109,192,91021,1,0,0:0:0:70:normalfinish.wav
402,192,91166,1,0,0:0:0:70:normalwhistle.wav
329,192,91312,1,0,0:0:0:70:normalwhistle.wav
109,192,91458,1,0,0:0:0:70:normalwhistle.wav
36,192,91603,1,4,0:0:0:0:
256,192,91603,1,2,0:0:0:0:
475,192,91603,1,8,0:0:0:0:
256,192,92186,1,8,0:0:0:0:
475,192,92186,1,2,0:0:0:0:
256,192,92768,1,8,0:0:0:0:
475,192,92768,1,2,0:0:0:0:
256,192,93351,1,8,0:0:0:0:
475,192,93351,1,2,0:0:0:0:
36,192,93933,1,8,0:0:0:0:
402,192,93933,1,2,0:0:0:0:
36,192,94516,1,8,0:0:0:0:
402,192,94516,1,2,0:0:0:0:
36,192,95098,1,8,0:0:0:0:
402,192,95098,1,2,0:0:0:0:
36,192,95681,1,2,0:0:0:0:
402,192,95681,1,8,0:0:0:0:
182,192,95972,1,0,0:0:0:0:
109,192,96263,1,8,0:0:0:0:
329,192,96263,1,2,0:0:0:0:
109,192,96846,1,8,0:0:0:0:
329,192,96846,1,2,0:0:0:0:
109,192,97429,1,8,0:0:0:0:
329,192,97429,1,2,0:0:0:0:
109,192,98011,1,8,0:0:0:0:
329,192,98011,1,2,0:0:0:0:
182,192,98594,1,10,0:0:0:0:
402,192,98594,1,0,0:0:0:70:normalwhistle.wav
329,192,99030,1,0,0:0:0:70:normalclap.wav
402,192,99030,1,0,0:0:0:70:normalwhistle.wav
109,192,99176,1,8,0:0:0:0:
182,192,99176,1,0,0:0:0:0:
109,192,99467,1,0,0:0:0:70:normalclap.wav
329,192,99467,1,0,0:0:0:70:normalwhistle.wav
475,192,99759,1,0,0:0:0:0:
329,192,99759,1,8,0:0:0:0:
182,192,99904,1,0,0:0:0:70:normalclap.wav
36,192,99904,1,0,0:0:0:70:normalwhistle.wav
182,192,100341,1,10,0:0:0:0:
329,192,100341,1,0,0:0:0:70:normalwhistle.wav
182,192,100632,1,0,0:0:0:70:normalclap.wav
329,192,100632,1,0,0:0:0:70:normalwhistle.wav
36,192,100924,1,10,0:0:0:0:
475,192,100924,1,0,0:0:0:70:normalfinish.wav
256,192,101215,1,0,0:0:0:70:normalwhistle.wav
109,192,101506,1,8,0:0:0:0:
402,192,101506,1,2,0:0:0:0:
256,192,101797,1,0,0:0:0:70:normalwhistle.wav
182,192,102089,1,10,0:0:0:0:
329,192,102089,1,0,0:0:0:70:normalfinish.wav
256,192,102380,1,0,0:0:0:70:normalwhistle.wav
36,192,102671,1,2,0:0:0:0:
475,192,102671,1,8,0:0:0:0:
256,192,102963,1,0,0:0:0:70:normalwhistle.wav
109,192,103254,1,10,0:0:0:0:
402,192,103254,1,0,0:0:0:70:normalfinish.wav
256,192,103545,1,0,0:0:0:70:normalwhistle.wav
182,192,103836,1,8,0:0:0:0:
329,192,103836,1,2,0:0:0:0:
256,192,104128,1,0,0:0:0:70:normalwhistle.wav
109,192,104419,1,10,0:0:0:0:
402,192,104419,1,0,0:0:0:70:normalfinish.wav
256,192,104710,1,0,0:0:0:70:normalwhistle.wav
36,192,105001,1,8,0:0:0:0:
475,192,105001,1,2,0:0:0:0:
182,192,105293,1,2,0:0:0:0:
329,192,105293,1,0,0:0:0:70:normalwhistle.wav
109,192,105584,128,10,106166:0:0:0:0:
256,192,105584,1,0,0:0:0:70:normalfinish.wav
256,192,106166,1,10,0:0:0:0:
402,192,106166,128,0,106749:0:0:0:70:normalfinish.wav
182,192,106749,1,10,0:0:0:0:
36,192,106749,1,0,0:0:0:70:normalfinish.wav
182,192,107040,1,0,0:0:0:70:normalwhistle.wav
36,192,107186,1,2,0:0:0:0:
475,192,107186,1,0,0:0:0:70:normalwhistle.wav
329,192,107331,1,8,0:0:0:0:
182,192,107623,1,2,0:0:0:0:
329,192,107623,1,0,0:0:0:70:normalwhistle.wav
256,192,107914,1,0,0:0:0:70:normalclap.wav
475,192,108060,1,0,0:0:0:70:normalwhistle.wav
182,192,108205,1,0,0:0:0:70:normalclap.wav
402,192,108351,1,0,0:0:0:70:normalwhistle.wav
109,192,108496,1,0,0:0:0:70:normalclap.wav
329,192,108642,1,0,0:0:0:70:normalwhistle.wav
36,192,108788,1,0,0:0:0:70:normalclap.wav
256,192,108933,1,0,0:0:0:70:normalwhistle.wav
36,192,109079,128,0,109662:0:0:0:70:normalclap.wav
402,192,109662,128,2,109953:0:0:0:0:
182,192,109953,128,2,110244:0:0:0:0:
36,192,110244,1,6,0:0:0:0:
329,192,110244,1,0,0:0:0:70:normalwhistle.wav
475,192,110244,1,0,0:0:0:70:normalclap.wav
475,192,110681,1,0,0:0:0:70:normalwhistle.wav
36,192,110827,1,8,0:0:0:0:
329,192,110827,1,0,0:0:0:70:normalfinish.wav
182,192,110972,1,2,0:0:0:0:
329,192,111118,1,2,0:0:0:70:normalclap.wav
475,192,111118,128,0,111409:0:0:0:70:normalwhistle.wav
36,192,111409,128,2,111700:0:0:0:0:
182,192,111409,1,0,0:0:0:70:normalwhistle.wav
402,192,111700,1,0,0:0:0:70:normalwhistle.wav
182,192,111846,1,0,0:0:0:70:normalwhistle.wav
36,192,111992,1,8,0:0:0:0:
329,192,111992,1,0,0:0:0:70:normalfinish.wav
475,192,112137,1,2,0:0:0:0:
182,192,112283,128,0,112574:0:0:0:70:normalwhistle.wav
36,192,112574,1,6,0:0:0:0:
329,192,112574,128,0,112865:0:0:0:70:normalwhistle.wav
182,192,113011,1,0,0:0:0:70:normalwhistle.wav
36,192,113157,1,8,0:0:0:0:
475,192,113157,1,0,0:0:0:70:normalfinish.wav
329,192,113302,1,2,0:0:0:0:
109,192,113448,1,6,0:0:0:0:
182,192,113448,1,0,0:0:0:70:normalwhistle.wav
329,192,113594,1,0,0:0:0:70:normalclap.wav
402,192,113594,1,0,0:0:0:0:
256,192,113739,1,0,0:0:0:70:normalwhistle.wav
475,192,113885,1,0,0:0:0:70:normalwhistle.wav
36,192,113885,1,0,0:0:0:70:normalclap.wav
182,192,114030,1,0,0:0:0:70:normalwhistle.wav
329,192,114030,1,0,0:0:0:70:normalclap.wav
109,192,114322,128,10,114613:0:0:0:0:
256,192,114322,1,0,0:0:0:70:normalfinish.wav
402,192,114613,128,0,114904:0:0:0:70:normalwhistle.wav
36,192,114904,1,6,0:0:0:0:
256,192,114904,1,0,0:0:0:70:normalwhistle.wav
475,192,114904,1,0,0:0:0:70:normalclap.wav
36,192,115341,1,0,0:0:0:70:normalwhistle.wav
182,192,115487,1,8,0:0:0:0:
475,192,115487,1,0,0:0:0:70:normalfinish.wav
329,192,115632,1,2,0:0:0:0:
36,192,115778,128,0,116069:0:0:0:70:normalclap.wav
182,192,115778,1,0,0:0:0:70:normalwhistle.wav
329,192,116069,1,2,0:0:0:0:
475,192,116069,128,0,116361:0:0:0:70:normalwhistle.wav
109,192,116361,1,0,0:0:0:70:normalwhistle.wav
256,192,116506,1,0,0:0:0:70:normalwhistle.wav
36,192,116652,1,8,0:0:0:0:
402,192,116652,1,0,0:0:0:70:normalfinish.wav
182,192,116797,1,2,0:0:0:0:
329,192,116943,128,0,117234:0:0:0:70:normalwhistle.wav
36,192,117234,1,6,0:0:0:0:
182,192,117234,128,0,117526:0:0:0:70:normalwhistle.wav
329,192,117671,1,0,0:0:0:70:normalwhistle.wav
182,192,117817,1,8,0:0:0:0:
475,192,117817,1,0,0:0:0:70:normalfinish.wav
36,192,117963,1,2,0:0:0:0:
329,192,118108,1,6,0:0:0:0:
402,192,118108,1,0,0:0:0:70:normalwhistle.wav
109,192,118254,1,0,0:0:0:70:normalclap.wav
182,192,118254,1,0,0:0:0:0:
475,192,118399,1,0,0:0:0:70:normalwhistle.wav
36,192,118545,1,0,0:0:0:70:normalwhistle.wav
329,192,118545,1,0,0:0:0:70:normalclap.wav
182,192,118691,1,0,0:0:0:70:normalwhistle.wav
109,192,118982,1,8,0:0:0:0:
402,192,118982,1,0,0:0:0:70:normalfinish.wav
256,192,119128,1,0,0:0:0:70:normalclap.wav
182,192,119273,1,0,0:0:0:0:
329,192,119419,1,0,0:0:0:0:
36,192,119564,1,4,0:0:0:0:
256,192,119564,1,0,0:0:0:70:normalwhistle.wav
475,192,119564,1,0,0:0:0:70:normalclap.wav
329,192,120001,1,0,0:0:0:70:normalwhistle.wav
109,192,120147,1,10,0:0:0:0:
402,192,120147,1,0,0:0:0:70:normalfinish.wav
36,192,120438,1,0,0:0:0:70:normalwhistle.wav
182,192,120438,128,0,120729:0:0:0:70:normalclap.wav
329,192,120729,128,2,121021:0:0:0:0:
475,192,120729,1,0,0:0:0:70:normalwhistle.wav
109,192,121021,1,0,0:0:0:70:normalwhistle.wav
256,192,121166,1,0,0:0:0:70:normalwhistle.wav
36,192,121312,1,10,0:0:0:0:
402,192,121312,1,0,0:0:0:70:normalfinish.wav
109,192,121603,1,2,0:0:0:0:
475,192,121603,1,0,0:0:0:70:normalwhistle.wav
182,192,121895,1,6,0:0:0:0:
329,192,121895,1,0,0:0:0:70:normalwhistle.wav
475,192,121895,1,0,0:0:0:70:normalclap.wav
256,192,122331,1,0,0:0:0:70:normalwhistle.wav
109,192,122477,1,10,0:0:0:0:
402,192,122477,1,0,0:0:0:70:normalfinish.wav
329,192,122768,1,4,0:0:0:0:
475,192,122768,1,0,0:0:0:70:normalwhistle.wav
36,192,122914,1,0,0:0:0:70:normalwhistle.wav
182,192,122914,1,0,0:0:0:70:normalclap.wav
256,192,123060,1,0,0:0:0:70:normalwhistle.wav
109,192,123205,1,0,0:0:0:70:normalwhistle.wav
182,192,123205,1,0,0:0:0:70:normalclap.wav
329,192,123351,1,0,0:0:0:70:normalwhistle.wav
402,192,123351,1,0,0:0:0:70:normalclap.wav
36,192,123642,1,10,0:0:0:0:
475,192,123642,1,0,0:0:0:70:normalfinish.wav
109,192,123788,1,0,0:0:0:70:normalwhistle.wav
182,192,123933,1,0,0:0:0:70:normalwhistle.wav
256,192,124079,1,0,0:0:0:70:normalwhistle.wav
36,192,124225,1,6,0:0:0:0:
329,192,124225,1,0,0:0:0:70:normalwhistle.wav
475,192,124225,1,0,0:0:0:70:normalclap.wav
475,192,124662,1,0,0:0:0:70:normalwhistle.wav
36,192,124807,1,8,0:0:0:0:
329,192,124807,1,0,0:0:0:70:normalfinish.wav
182,192,124953,1,0,0:0:0:70:normalwhistle.wav
329,192,125098,1,0,0:0:0:70:normalclap.wav
402,192,125098,128,0,125390:0:0:0:70:normalwhistle.wav
109,192,125390,128,2,125681:0:0:0:0:
182,192,125390,1,0,0:0:0:70:normalwhistle.wav
329,192,125681,1,0,0:0:0:70:normalwhistle.wav
402,192,125827,1,0,0:0:0:70:normalwhistle.wav
36,192,125972,1,8,0:0:0:0:
475,192,125972,1,0,0:0:0:70:normalfinish.wav
109,192,126118,1,0,0:0:0:70:normalwhistle.wav
182,192,126263,128,0,126555:0:0:0:70:normalwhistle.wav
36,192,126555,1,6,0:0:0:0:
402,192,126555,1,0,0:0:0:70:normalwhistle.wav
256,192,126700,1,0,0:0:0:70:normalwhistle.wav
109,192,126846,1,0,0:0:0:70:normalwhistle.wav
182,192,127137,1,10,0:0:0:0:
329,192,127137,1,0,0:0:0:70:normalfinish.wav
256,192,127429,1,4,0:0:0:0:
475,192,127429,1,0,0:0:0:70:normalwhistle.wav
402,192,127574,1,0,0:0:0:70:normalwhistle.wav
109,192,127720,1,0,0:0:0:70:normalwhistle.wav
36,192,127865,1,0,0:0:0:70:normalclap.wav
256,192,127865,1,0,0:0:0:70:normalwhistle.wav
402,192,128011,1,0,0:0:0:70:normalwhistle.wav
182,192,128011,1,0,0:0:0:70:normalclap.wav
109,192,128302,1,10,0:0:0:0:
475,192,128302,1,0,0:0:0:70:normalfinish.wav
402,192,128448,1,0,0:0:0:70:normalwhistle.wav
329,192,128594,1,0,0:0:0:70:normalwhistle.wav
256,192,128739,1,0,0:0:0:70:normalwhistle.wav
182,192,128885,128,2,129322:0:0:0:0:
329,192,129322,1,2,0:0:0:0:
329,192,129759,1,2,0:0:0:0:
182,192,130050,128,2,130487:0:0:0:0:
329,192,130487,1,2,0:0:0:0:
329,192,130924,1,2,0:0:0:0:
182,192,131215,128,2,131652:0:0:0:0:
329,192,131652,1,2,0:0:0:0:
329,192,132089,1,2,0:0:0:0:
475,192,132380,128,2,132963:0:0:0:0:
256,192,132671,1,0,0:0:0:0:
36,192,132963,128,0,133545:0:0:0:0:
256,192,133254,1,2,0:0:0:0:
329,192,133545,128,2,133982:0:0:0:0:
182,192,133982,1,2,0:0:0:0:
182,192,134419,1,2,0:0:0:0:
402,192,134710,128,2,135147:0:0:0:0:
109,192,135147,1,2,0:0:0:0:
109,192,135584,1,2,0:0:0:0:
475,192,135875,128,2,136312:0:0:0:0:
36,192,136312,1,2,0:0:0:0:
36,192,136749,1,2,0:0:0:0:
182,192,137040,128,2,137331:0:0:0:0:
329,192,137331,128,0,137623:0:0:0:0:
109,192,137623,128,2,137914:0:0:0:0:
402,192,137914,128,2,138205:0:0:0:0:
36,192,138205,1,2,0:0:0:0:
256,192,138205,1,0,0:0:0:70:normalwhistle.wav
109,192,138496,1,0,0:0:0:70:normalwhistle.wav
182,192,138788,1,0,0:0:0:70:normalwhistle.wav
475,192,138788,1,0,0:0:0:0:
402,192,139079,1,0,0:0:0:70:normalwhistle.wav
182,192,139370,1,2,0:0:0:0:
329,192,139370,1,0,0:0:0:70:normalwhistle.wav
182,192,139662,1,2,0:0:0:0:
329,192,139662,1,0,0:0:0:70:normalwhistle.wav
402,192,139953,128,2,140244:0:0:0:70:normalwhistle.wav
109,192,140244,128,2,140535:0:0:0:70:normalwhistle.wav
256,192,140535,1,2,0:0:0:0:
475,192,140535,1,0,0:0:0:70:normalwhistle.wav
402,192,140827,1,0,0:0:0:70:normalwhistle.wav
36,192,141118,1,0,0:0:0:70:normalwhistle.wav
329,192,141118,1,0,0:0:0:0:
109,192,141409,1,0,0:0:0:70:normalwhistle.wav
182,192,141700,1,2,0:0:0:0:
329,192,141700,1,0,0:0:0:70:normalwhistle.wav
182,192,141992,1,2,0:0:0:0:
329,192,141992,1,0,0:0:0:70:normalwhistle.wav
109,192,142283,128,2,142574:0:0:0:70:normalwhistle.wav
402,192,142574,128,2,142865:0:0:0:70:normalwhistle.wav
182,192,142865,1,2,0:0:0:0:
475,192,142865,1,0,0:0:0:70:normalwhistle.wav
256,192,143157,1,0,0:0:0:70:normalwhistle.wav
36,192,143448,1,0,0:0:0:70:normalwhistle.wav
329,192,143448,1,0,0:0:0:0:
182,192,143594,1,0,0:0:0:70:normalwhistle.wav
475,192,143739,1,0,0:0:0:70:normalwhistle.wav
329,192,143885,1,0,0:0:0:70:normalwhistle.wav
36,192,144030,128,2,144322:0:0:0:0:
182,192,144030,1,0,0:0:0:70:normalwhistle.wav
475,192,144322,128,0,144613:0:0:0:70:normalwhistle.wav
182,192,144613,128,0,144904:0:0:0:70:normalwhistle.wav
329,192,144904,128,0,145196:0:0:0:70:normalwhistle.wav
109,192,145196,128,2,145487:0:0:0:0:
402,192,145196,1,0,0:0:0:70:normalclap.wav
182,192,145487,1,0,0:0:0:70:normalclap.wav
475,192,145487,128,0,145778:0:0:0:0:
36,192,145778,128,0,146069:0:0:0:0:
256,192,145778,1,0,0:0:0:70:normalclap.wav
109,192,146069,1,0,0:0:0:70:normalclap.wav
402,192,146069,128,0,146361:0:0:0:0:
329,192,146361,1,0,0:0:0:70:normalclap.wav
182,192,146506,1,0,0:0:0:70:normalclap.wav
402,192,146652,1,0,0:0:0:70:normalclap.wav
109,192,146797,1,0,0:0:0:70:normalclap.wav
329,192,146943,1,0,0:0:0:70:normalclap.wav
182,192,147089,1,0,0:0:0:70:normalclap.wav
402,192,147234,1,0,0:0:0:70:normalclap.wav
109,192,147380,1,0,0:0:0:70:normalclap.wav
256,192,147526,1,0,0:0:0:70:normalclap.wav
256,192,148691,1,2,0:0:0:0:
256,192,149856,1,2,0:0:0:0:
182,192,151603,128,2,151895:0:0:0:0:
329,192,151895,128,2,152186:0:0:0:0:
36,192,152186,1,6,0:0:0:0:
256,192,152186,1,0,0:0:0:70:normalwhistle.wav
475,192,152186,1,0,0:0:0:70:normalclap.wav
329,192,152623,1,0,0:0:0:70:normalwhistle.wav
36,192,152768,1,8,0:0:0:0:
475,192,152768,1,0,0:0:0:70:normalfinish.wav
182,192,152914,1,0,0:0:0:70:normalwhistle.wav
329,192,153060,1,0,0:0:0:70:normalclap.wav
402,192,153060,128,0,153351:0:0:0:70:normalwhistle.wav
109,192,153351,128,2,153642:0:0:0:0:
182,192,153351,1,0,0:0:0:70:normalwhistle.wav
329,192,153642,1,0,0:0:0:70:normalwhistle.wav
182,192,153788,1,0,0:0:0:70:normalwhistle.wav
36,192,153933,1,8,0:0:0:0:
475,192,153933,1,0,0:0:0:70:normalfinish.wav
329,192,154079,1,0,0:0:0:70:normalwhistle.wav
182,192,154225,1,0,0:0:0:70:normalwhistle.wav
256,192,154516,1,6,0:0:0:0:
36,192,154516,1,0,0:0:0:70:normalwhistle.wav
475,192,154516,1,0,0:0:0:70:normalclap.wav
182,192,154953,1,0,0:0:0:70:normalwhistle.wav
329,192,155098,1,8,0:0:0:0:
475,192,155098,1,0,0:0:0:70:normalfinish.wav
109,192,155244,1,0,0:0:0:70:normalwhistle.wav
182,192,155390,1,6,0:0:0:0:
329,192,155390,1,0,0:0:0:70:normalwhistle.wav
402,192,155535,1,0,0:0:0:70:normalwhistle.wav
182,192,155681,1,0,0:0:0:70:normalwhistle.wav
36,192,155681,1,2,0:0:0:0:
329,192,155827,1,0,0:0:0:70:normalwhistle.wav
256,192,155972,1,0,0:0:0:70:normalwhistle.wav
182,192,156263,1,10,0:0:0:0:
402,192,156263,128,0,156555:0:0:0:70:normalfinish.wav
109,192,156555,128,0,156846:0:0:0:70:normalwhistle.wav
36,192,156846,1,6,0:0:0:0:
329,192,156846,1,0,0:0:0:70:normalwhistle.wav
475,192,156846,1,0,0:0:0:70:normalclap.wav
256,192,157283,1,0,0:0:0:70:normalwhistle.wav
109,192,157429,1,8,0:0:0:0:
402,192,157429,1,0,0:0:0:70:normalfinish.wav
182,192,157574,1,0,0:0:0:70:normalwhistle.wav
36,192,157720,128,0,158011:0:0:0:70:normalclap.wav
329,192,157720,1,0,0:0:0:70:normalwhistle.wav
182,192,158011,1,2,0:0:0:0:
475,192,158011,128,0,158302:0:0:0:70:normalwhistle.wav
109,192,158302,1,0,0:0:0:70:normalwhistle.wav
256,192,158448,1,0,0:0:0:70:normalwhistle.wav
36,192,158594,1,8,0:0:0:0:
402,192,158594,1,0,0:0:0:70:normalfinish.wav
182,192,158739,1,0,0:0:0:70:normalwhistle.wav
329,192,158885,1,0,0:0:0:70:normalwhistle.wav
36,192,159176,1,6,0:0:0:0:
109,192,159176,1,0,0:0:0:70:normalwhistle.wav
475,192,159176,1,0,0:0:0:70:normalclap.wav
329,192,159613,1,0,0:0:0:70:normalwhistle.wav
402,192,159759,1,8,0:0:0:0:
109,192,159759,1,0,0:0:0:70:normalfinish.wav
256,192,159904,1,0,0:0:0:70:normalwhistle.wav
36,192,160050,1,6,0:0:0:0:
475,192,160050,1,0,0:0:0:70:normalwhistle.wav
182,192,160196,1,0,0:0:0:70:normalwhistle.wav
329,192,160341,1,0,0:0:0:70:normalwhistle.wav
109,192,160341,1,2,0:0:0:0:
475,192,160487,1,0,0:0:0:70:normalwhistle.wav
182,192,160632,1,0,0:0:0:70:normalwhistle.wav
109,192,160924,1,8,0:0:0:0:
256,192,160924,1,0,0:0:0:70:normalfinish.wav
402,192,161069,1,0,0:0:0:70:normalwhistle.wav
182,192,161215,1,0,0:0:0:0:
329,192,161361,1,0,0:0:0:0:
36,192,161506,1,4,0:0:0:0:
475,192,161506,128,0,161943:0:0:0:70:normalwhistle.wav
256,192,161943,1,0,0:0:0:70:normalwhistle.wav
109,192,162089,1,10,0:0:0:0:
182,192,162089,1,0,0:0:0:70:normalfinish.wav
329,192,162380,1,0,0:0:0:70:normalwhistle.wav
402,192,162380,1,0,0:0:0:70:normalclap.wav
36,192,162671,128,2,163254:0:0:0:0:
475,192,162671,1,0,0:0:0:70:normalwhistle.wav
182,192,162963,1,0,0:0:0:70:normalwhistle.wav
329,192,163254,1,10,0:0:0:0:
475,192,163254,1,0,0:0:0:70:normalfinish.wav
109,192,163545,1,2,0:0:0:0:
402,192,163545,1,0,0:0:0:70:normalwhistle.wav
109,192,163836,1,6,0:0:0:0:
402,192,163836,128,0,164273:0:0:0:70:normalwhistle.wav
256,192,164273,1,0,0:0:0:70:normalwhistle.wav
36,192,164419,1,10,0:0:0:0:
475,192,164419,1,0,0:0:0:70:normalfinish.wav
182,192,164710,1,4,0:0:0:0:
329,192,164710,1,0,0:0:0:70:normalwhistle.wav
36,192,164856,1,0,0:0:0:70:normalwhistle.wav
475,192,164856,1,0,0:0:0:70:normalclap.wav
256,192,165001,1,0,0:0:0:70:normalwhistle.wav
182,192,165147,1,0,0:0:0:70:normalwhistle.wav
329,192,165147,1,0,0:0:0:70:normalclap.wav
109,192,165293,1,0,0:0:0:70:normalwhistle.wav
402,192,165293,1,0,0:0:0:70:normalclap.wav
36,192,165584,1,10,0:0:0:0:
475,192,165584,1,0,0:0:0:70:normalfinish.wav
182,192,165729,1,0,0:0:0:70:normalwhistle.wav
329,192,165729,1,0,0:0:0:70:normalclap.wav
36,192,166166,1,6,0:0:0:0:
329,192,166166,1,0,0:0:0:70:normalwhistle.wav
475,192,166166,128,0,166603:0:0:0:70:normalclap.wav
182,192,166603,1,0,0:0:0:70:normalwhistle.wav
36,192,166749,1,8,0:0:0:0:
329,192,166749,1,0,0:0:0:70:normalfinish.wav
475,192,166895,1,0,0:0:0:70:normalwhistle.wav
109,192,167040,128,0,167331:0:0:0:70:normalclap.wav
182,192,167040,1,0,0:0:0:70:normalwhistle.wav
329,192,167331,1,2,0:0:0:0:
402,192,167331,128,0,167623:0:0:0:70:normalwhistle.wav
182,192,167623,1,0,0:0:0:70:normalwhistle.wav
329,192,167768,1,0,0:0:0:70:normalwhistle.wav
36,192,167914,1,8,0:0:0:0:
475,192,167914,1,0,0:0:0:70:normalfinish.wav
182,192,168060,1,0,0:0:0:70:normalwhistle.wav
329,192,168205,128,0,168496:0:0:0:70:normalwhistle.wav
182,192,168496,1,2,0:0:0:0:
36,192,168642,1,2,0:0:0:0:
182,192,169079,1,2,0:0:0:0:
329,192,169225,1,2,0:0:0:0:
475,192,169662,1,2,0:0:0:0:
329,192,169807,1,2,0:0:0:0:
109,192,170244,1,2,0:0:0:0:
402,192,170244,1,0,0:0:0:70:normalfinish.wav
182,192,170535,1,0,0:0:0:70:normalclap.wav
329,192,170681,1,0,0:0:0:70:normalclap.wav
36,192,170827,128,4,171409:0:0:0:0:
182,192,170827,1,0,0:0:0:70:normalwhistle.wav
475,192,170827,1,0,0:0:0:70:normalclap.wav
256,192,171409,1,8,0:0:0:0:
475,192,171409,1,0,0:0:0:70:normalfinish.wav
182,192,171555,1,0,0:0:0:70:normalwhistle.wav
109,192,171700,128,0,171992:0:0:0:70:normalwhistle.wav
329,192,171992,1,0,0:0:0:70:normalwhistle.wav
402,192,172137,1,0,0:0:0:70:normalwhistle.wav
475,192,172283,128,0,172865:0:0:0:70:normalwhistle.wav
182,192,172574,1,8,0:0:0:0:
329,192,172574,128,0,172865:0:0:0:70:normalfinish.wav
36,192,172865,1,0,0:0:0:70:normalwhistle.wav
109,192,173011,1,0,0:0:0:70:normalwhistle.wav
182,192,173157,1,6,0:0:0:0:
402,192,173157,1,0,0:0:0:70:normalwhistle.wav
329,192,173594,1,0,0:0:0:70:normalwhistle.wav
109,192,173739,1,8,0:0:0:0:
402,192,173739,1,0,0:0:0:70:normalfinish.wav
182,192,173885,1,0,0:0:0:70:normalwhistle.wav
402,192,174030,1,0,0:0:0:70:normalwhistle.wav
329,192,174176,1,0,0:0:0:70:normalwhistle.wav
182,192,174322,1,0,0:0:0:70:normalwhistle.wav
109,192,174467,1,0,0:0:0:70:normalwhistle.wav
256,192,174613,1,0,0:0:0:70:normalwhistle.wav
36,192,174904,1,8,0:0:0:0:
475,192,174904,1,0,0:0:0:70:normalfinish.wav
329,192,175050,1,0,0:0:0:70:normalwhistle.wav
182,192,175196,1,0,0:0:0:70:normalwhistle.wav
36,192,175487,1,4,0:0:0:0:
329,192,175487,1,0,0:0:0:70:normalwhistle.wav
475,192,175487,128,0,176069:0:0:0:70:normalclap.wav
109,192,176069,1,8,0:0:0:0:
256,192,176069,1,0,0:0:0:70:normalfinish.wav
329,192,176215,1,0,0:0:0:70:normalwhistle.wav
402,192,176361,128,0,176652:0:0:0:70:normalwhistle.wav
182,192,176652,1,0,0:0:0:70:normalwhistle.wav
109,192,176797,1,0,0:0:0:70:normalwhistle.wav
36,192,176943,128,0,177526:0:0:0:70:normalwhistle.wav
475,192,177234,1,10,0:0:0:0:
182,192,177234,128,0,177526:0:0:0:70:normalfinish.wav
402,192,177526,1,0,0:0:0:70:normalwhistle.wav
329,192,177671,1,0,0:0:0:70:normalwhistle.wav
109,192,177817,1,6,0:0:0:0:
256,192,177817,1,0,0:0:0:70:normalwhistle.wav
475,192,178254,1,0,0:0:0:70:normalwhistle.wav
36,192,178399,1,8,0:0:0:0:
329,192,178399,1,0,0:0:0:70:normalfinish.wav
182,192,178545,1,0,0:0:0:70:normalwhistle.wav
402,192,178691,1,0,0:0:0:70:normalwhistle.wav
109,192,178836,1,0,0:0:0:70:normalwhistle.wav
256,192,178982,1,0,0:0:0:70:normalwhistle.wav
475,192,179128,1,0,0:0:0:70:normalwhistle.wav
36,192,179273,1,0,0:0:0:70:normalwhistle.wav
109,192,179564,1,8,0:0:0:0:
475,192,179564,1,0,0:0:0:70:normalfinish.wav
329,192,179710,1,0,0:0:0:70:normalwhistle.wav
36,192,179856,1,2,0:0:0:0:
182,192,179856,1,0,0:0:0:0:
182,192,180147,1,0,0:0:0:70:normalwhistle.wav
36,192,180147,1,6,0:0:0:0:
402,192,180147,128,0,180729:0:0:0:70:normalclap.wav
109,192,180729,1,8,0:0:0:0:
329,192,180729,1,0,0:0:0:70:normalfinish.wav
256,192,180875,1,0,0:0:0:70:normalwhistle.wav
182,192,181021,128,0,181312:0:0:0:70:normalwhistle.wav
36,192,181312,1,0,0:0:0:70:normalwhistle.wav
256,192,181458,1,0,0:0:0:70:normalwhistle.wav
475,192,181603,128,0,182186:0:0:0:70:normalwhistle.wav
36,192,181895,1,8,0:0:0:0:
182,192,181895,128,0,182186:0:0:0:70:normalfinish.wav
402,192,182186,1,0,0:0:0:70:normalwhistle.wav
256,192,182331,1,0,0:0:0:70:normalwhistle.wav
36,192,182477,1,6,0:0:0:0:
109,192,182477,1,0,0:0:0:70:normalwhistle.wav
256,192,182768,1,0,0:0:0:70:normalwhistle.wav
182,192,182914,1,0,0:0:0:70:normalwhistle.wav
36,192,183060,1,8,0:0:0:0:
329,192,183060,1,0,0:0:0:70:normalfinish.wav
475,192,183205,1,0,0:0:0:70:normalwhistle.wav
109,192,183351,1,0,0:0:0:70:normalwhistle.wav
402,192,183496,1,0,0:0:0:70:normalwhistle.wav
256,192,183642,1,0,0:0:0:70:normalwhistle.wav
182,192,183788,1,0,0:0:0:70:normalwhistle.wav
329,192,183933,1,0,0:0:0:70:normalwhistle.wav
36,192,184225,1,8,0:0:0:0:
402,192,184225,1,0,0:0:0:70:normalfinish.wav
182,192,184370,1,0,0:0:0:70:normalwhistle.wav
329,192,184516,1,2,0:0:0:0:
475,192,184516,1,0,0:0:0:70:normalwhistle.wav
109,192,184807,128,6,185390:0:0:0:0:
329,192,184807,1,0,0:0:0:70:normalwhistle.wav
475,192,184807,1,0,0:0:0:70:normalclap.wav
182,192,185390,1,8,0:0:0:0:
402,192,185390,1,0,0:0:0:70:normalfinish.wav
256,192,185535,1,0,0:0:0:70:normalwhistle.wav
329,192,185681,128,0,185972:0:0:0:70:normalwhistle.wav
475,192,185972,1,0,0:0:0:70:normalwhistle.wav
256,192,186118,1,0,0:0:0:70:normalwhistle.wav
36,192,186263,128,0,186846:0:0:0:70:normalwhistle.wav
182,192,186555,128,8,186846:0:0:0:0:
475,192,186555,1,0,0:0:0:70:normalfinish.wav
329,192,186846,1,0,0:0:0:70:normalwhistle.wav
256,192,186992,1,0,0:0:0:70:normalwhistle.wav
182,192,187137,1,0,0:0:0:70:normalwhistle.wav
36,192,187137,1,2,0:0:0:0:
329,192,187283,1,2,0:0:0:0:
475,192,187283,1,0,0:0:0:70:normalwhistle.wav
109,192,187720,1,10,0:0:0:0:
182,192,187720,1,0,0:0:0:70:normalfinish.wav
329,192,187865,1,2,0:0:0:0:
402,192,187865,1,0,0:0:0:70:normalwhistle.wav
36,192,188011,1,0,0:0:0:70:normalwhistle.wav
475,192,188157,1,0,0:0:0:70:normalwhistle.wav
182,192,188302,1,2,0:0:0:0:
329,192,188302,1,0,0:0:0:70:normalwhistle.wav
109,192,188448,1,0,0:0:0:70:normalclap.wav
402,192,188448,1,0,0:0:0:70:normalwhistle.wav
256,192,188594,1,0,0:0:0:70:normalwhistle.wav
182,192,188739,1,0,0:0:0:0:
329,192,188885,128,2,189322:0:0:0:0:
