osu file format v14

[General]
AudioFilename: audio.mp3
AudioLeadIn: 0
PreviewTime: 109662
Countdown: 0
SampleSet: Soft
StackLeniency: 0.7
Mode: 3
LetterboxInBreaks: 0
SpecialStyle: 0
WidescreenStoryboard: 0

[Editor]
Bookmarks: 730,10050,28691,47331,51992,70632,72963,91603,110244,128885,138205,146361,147526,152186,170827,189467
DistanceSpacing: 0.8
BeatDivisor: 8
GridSize: 8
TimelineZoom: 1.7

[Metadata]
Title:DUN DUN
TitleUnicode:DUN DUN
Artist:EVERGLOW
ArtistUnicode:에버글로우
Creator:Garalulu
Version:REMINISCENCE
Source:
Tags:Sun Pengdoll KPOP 이유 E:U 박지원 시현 SIHYEON 김시현 미아 MIA 한은지 아샤 AISHA 허유림 온다 ONDA 조세림 이런 YIREN 王怡人 서지음 Olof Lindskog Hayley Atiken Gavin Jones 72 OLLIPOP Korean Pop EDM
BeatmapID:2532343
BeatmapSetID:1217089

[Difficulty]
HPDrainRate:9
CircleSize:7
OverallDifficulty:7.5
ApproachRate:10
SliderMultiplier:1.4
SliderTickRate:1

[Events]
//Background and Video events
0,0,"everglow.jpg",0,0
//Break Periods
//Storyboard Layer 0 (Background)
//Storyboard Layer 1 (Fail)
//Storyboard Layer 2 (Pass)
//Storyboard Layer 3 (Foreground)
//Storyboard Layer 4 (Overlay)
//Storyboard Sound Samples
Sample,64662,0,"normalclap.wav",70
Sample,64953,0,"normalclap.wav",70
Sample,69322,0,"normalclap.wav",70
Sample,121458,0,"normalclap.wav",70
Sample,122914,0,"normalclap.wav",70
Sample,123205,0,"normalclap.wav",70
Sample,127574,0,"normalclap.wav",70
Sample,155535,0,"normalclap.wav",70
Sample,156409,0,"normalclap.wav",70
Sample,160196,0,"normalclap.wav",70
Sample,164856,0,"normalclap.wav",70
Sample,165147,0,"normalclap.wav",70
Sample,174176,0,"normalclap.wav",70
Sample,178836,0,"normalclap.wav",70
Sample,183496,0,"normalclap.wav",70
Sample,188011,0,"normalclap.wav",70
Sample,188157,0,"normalclap.wav",70

[TimingPoints]
730,582.52427184466,4,2,1,70,1,0
51992,-100,4,2,1,70,0,1
70632,-100,4,2,1,70,0,0
110244,-100,4,2,1,70,0,1
128885,-100,4,2,1,70,0,0
152186,-100,4,2,1,70,0,1
168496,-100,4,2,1,70,0,0
170827,-100,4,2,1,70,0,1
188885,-100,4,2,1,70,0,0

[HitObjects]
36,192,730,5,8,0:0:0:0:
182,192,730,1,0,0:0:0:0:
182,192,1166,1,0,0:0:0:0:
36,192,1312,1,8,0:0:0:0:
109,192,1312,1,0,0:0:0:0:
256,192,1603,1,0,0:0:0:0:
36,192,1895,1,8,0:0:0:0:
329,192,1895,1,0,0:0:0:0:
329,192,2331,1,0,0:0:0:0:
36,192,2477,1,8,0:0:0:0:
256,192,2477,1,0,0:0:0:0:
402,192,2768,1,0,0:0:0:0:
36,192,3060,1,8,0:0:0:0:
475,192,3060,1,0,0:0:0:0:
475,192,3496,1,0,0:0:0:0:
36,192,3642,1,8,0:0:0:0:
402,192,3642,1,0,0:0:0:0:
256,192,3788,1,0,0:0:0:0:
329,192,3933,1,0,0:0:0:0:
256,192,4079,1,0,0:0:0:0:
36,192,4225,1,8,0:0:0:0:
182,192,4225,1,0,0:0:0:0:
36,192,4807,1,8,0:0:0:0:
182,192,4807,1,0,0:0:0:0:
36,192,5390,1,8,0:0:0:0:
182,192,5390,1,0,0:0:0:0:
182,192,5827,1,0,0:0:0:0:
36,192,5972,1,8,0:0:0:0:
109,192,5972,1,0,0:0:0:0:
256,192,6263,1,0,0:0:0:0:
36,192,6555,1,8,0:0:0:0:
329,192,6555,1,0,0:0:0:0:
329,192,6992,1,0,0:0:0:0:
36,192,7137,1,8,0:0:0:0:
256,192,7137,1,0,0:0:0:0:
402,192,7429,1,2,0:0:0:0:
329,192,7574,1,2,0:0:0:0:
36,192,7720,1,8,0:0:0:0:
402,192,7720,128,2,8011:0:0:0:0:
109,192,8011,1,2,0:0:0:0:
182,192,8157,128,2,8302:0:0:0:0:
329,192,8157,1,0,0:0:0:0:
36,192,8302,1,8,0:0:0:0:
109,192,8302,128,2,8594:0:0:0:0:
256,192,8448,1,0,0:0:0:0:
182,192,8594,1,0,0:0:0:0:
402,192,8594,128,2,8739:0:0:0:0:
109,192,8739,1,0,0:0:0:0:
329,192,8739,128,2,8885:0:0:0:0:
36,192,8885,1,8,0:0:0:0:
402,192,8885,128,2,9176:0:0:0:0:
109,192,9176,128,2,9322:0:0:0:0:
182,192,9322,128,2,9467:0:0:0:0:
109,192,9467,128,2,9904:0:0:0:0:
182,192,9613,128,2,9904:0:0:0:0:
256,192,9759,128,2,9904:0:0:0:0:
109,192,10050,1,4,0:0:0:0:
182,192,10050,1,2,0:0:0:0:
256,192,10050,1,0,0:0:0:70:normalclap.wav
475,192,10050,1,0,0:0:0:0:
475,192,10341,1,2,0:0:0:0:
475,192,10487,1,2,0:0:0:0:
182,192,10632,1,8,0:0:0:0:
329,192,10632,1,2,0:0:0:0:
475,192,10778,1,2,0:0:0:0:
329,192,10924,1,2,0:0:0:0:
256,192,10924,1,0,0:0:0:70:normalclap.wav
109,192,10924,1,0,0:0:0:0:
329,192,11215,1,2,0:0:0:0:
36,192,11506,1,0,0:0:0:70:normalclap.wav
109,192,11506,1,0,0:0:0:0:
256,192,11506,1,0,0:0:0:0:
182,192,11652,1,0,0:0:0:0:
36,192,11797,1,8,0:0:0:0:
329,192,11797,1,0,0:0:0:0:
475,192,12089,128,2,12671:0:0:0:0:
36,192,12380,128,2,12963:0:0:0:0:
109,192,12380,1,0,0:0:0:70:normalclap.wav
256,192,12380,1,0,0:0:0:0:
182,192,12817,1,0,0:0:0:0:
329,192,12963,1,8,0:0:0:0:
475,192,12963,1,0,0:0:0:0:
256,192,13108,1,0,0:0:0:0:
36,192,13254,128,2,13836:0:0:0:0:
109,192,13254,1,0,0:0:0:70:normalclap.wav
329,192,13254,1,0,0:0:0:0:
182,192,13399,1,0,0:0:0:70:normalwhistle.wav
256,192,13545,1,0,0:0:0:70:normalwhistle.wav
475,192,13545,128,2,13982:0:0:0:0:
109,192,13691,1,0,0:0:0:70:normalwhistle.wav
182,192,13836,1,0,0:0:0:0:
256,192,13836,1,0,0:0:0:70:normalclap.wav
402,192,13836,128,2,13982:0:0:0:0:
329,192,13982,128,2,14128:0:0:0:0:
182,192,14128,1,8,0:0:0:0:
402,192,14128,128,2,14564:0:0:0:0:
36,192,14273,1,0,0:0:0:0:
109,192,14273,1,0,0:0:0:70:normalclap.wav
329,192,14273,128,2,14564:0:0:0:0:
256,192,14419,128,2,14564:0:0:0:0:
36,192,14710,1,2,0:0:0:0:
256,192,14710,1,4,0:0:0:0:
329,192,14710,1,0,0:0:0:70:normalclap.wav
402,192,14710,1,0,0:0:0:0:
36,192,15001,1,2,0:0:0:0:
36,192,15147,1,2,0:0:0:0:
182,192,15293,1,2,0:0:0:0:
329,192,15293,1,8,0:0:0:0:
36,192,15438,1,2,0:0:0:0:
182,192,15584,1,2,0:0:0:0:
402,192,15584,1,0,0:0:0:70:normalclap.wav
475,192,15584,1,0,0:0:0:0:
182,192,15875,1,2,0:0:0:0:
256,192,16166,1,0,0:0:0:70:normalclap.wav
402,192,16166,1,0,0:0:0:0:
475,192,16166,1,0,0:0:0:0:
329,192,16312,1,0,0:0:0:0:
182,192,16458,1,0,0:0:0:0:
402,192,16458,1,8,0:0:0:0:
109,192,16749,128,2,17331:0:0:0:0:
475,192,17040,1,0,0:0:0:0:
402,192,17040,128,2,17623:0:0:0:0:
329,192,17040,1,0,0:0:0:70:normalclap.wav
256,192,17477,1,0,0:0:0:0:
109,192,17623,1,8,0:0:0:0:
182,192,17623,1,0,0:0:0:0:
329,192,17768,1,0,0:0:0:0:
36,192,17914,1,0,0:0:0:0:
256,192,17914,1,0,0:0:0:70:normalclap.wav
402,192,17914,128,2,18496:0:0:0:0:
182,192,18060,1,0,0:0:0:70:normalwhistle.wav
109,192,18205,128,2,18788:0:0:0:0:
329,192,18205,1,0,0:0:0:70:normalwhistle.wav
256,192,18351,1,0,0:0:0:70:normalwhistle.wav
329,192,18496,1,0,0:0:0:70:normalclap.wav
475,192,18496,1,0,0:0:0:0:
36,192,18788,1,2,0:0:0:0:
256,192,18788,1,8,0:0:0:0:
329,192,18861,1,0,0:0:0:70:normalwhistle.wav
109,192,18933,1,0,0:0:0:70:normalclap.wav
402,192,18933,1,0,0:0:0:0:
182,192,19006,1,0,0:0:0:70:normalwhistle.wav
256,192,19079,1,2,0:0:0:0:
475,192,19079,1,0,0:0:0:70:normalwhistle.wav
256,192,19225,1,0,0:0:0:70:normalwhistle.wav
36,192,19370,1,2,0:0:0:0:
109,192,19370,1,4,0:0:0:0:
329,192,19370,1,0,0:0:0:70:normalclap.wav
402,192,19370,1,0,0:0:0:0:
36,192,19564,128,2,19759:0:0:0:0:
109,192,19564,128,0,19759:0:0:0:0:
256,192,19759,1,2,0:0:0:0:
402,192,19807,1,0,0:0:0:70:normalwhistle.wav
109,192,19953,1,8,0:0:0:0:
182,192,19953,1,2,0:0:0:0:
475,192,19953,1,0,0:0:0:0:
329,192,20098,1,0,0:0:0:70:normalwhistle.wav
109,192,20147,128,2,20341:0:0:0:0:
182,192,20147,128,0,20341:0:0:0:0:
402,192,20244,1,0,0:0:0:70:normalwhistle.wav
475,192,20244,1,0,0:0:0:70:normalclap.wav
36,192,20341,1,2,0:0:0:0:
182,192,20535,1,2,0:0:0:0:
256,192,20535,1,0,0:0:0:70:normalwhistle.wav
182,192,20729,128,2,20924:0:0:0:0:
256,192,20729,128,0,20924:0:0:0:0:
329,192,20827,1,0,0:0:0:70:normalclap.wav
475,192,20827,1,0,0:0:0:0:
109,192,20924,1,2,0:0:0:0:
402,192,20972,1,0,0:0:0:70:normalwhistle.wav
36,192,21118,1,2,0:0:0:0:
329,192,21118,1,8,0:0:0:0:
475,192,21118,1,0,0:0:0:0:
109,192,21409,128,0,21700:0:0:0:70:normalwhistle.wav
402,192,21409,128,0,21700:0:0:0:0:
36,192,21700,1,0,0:0:0:70:normalclap.wav
182,192,21700,1,0,0:0:0:0:
329,192,21700,1,0,0:0:0:0:
402,192,21992,128,2,22137:0:0:0:0:
475,192,21992,128,0,22137:0:0:0:70:normalwhistle.wav
256,192,22137,1,0,0:0:0:70:normalwhistle.wav
329,192,22283,1,8,0:0:0:0:
475,192,22283,1,0,0:0:0:0:
36,192,22429,128,2,22574:0:0:0:0:
109,192,22429,128,0,22574:0:0:0:70:normalwhistle.wav
182,192,22429,1,0,0:0:0:0:
256,192,22574,1,0,0:0:0:70:normalclap.wav
402,192,22574,1,0,0:0:0:0:
475,192,22574,1,0,0:0:0:0:
182,192,22720,1,0,0:0:0:70:normalwhistle.wav
36,192,22865,1,2,0:0:0:0:
109,192,22865,1,0,0:0:0:70:normalwhistle.wav
256,192,23011,1,2,0:0:0:0:
402,192,23011,1,0,0:0:0:70:normalwhistle.wav
36,192,23157,1,2,0:0:0:0:
182,192,23157,1,0,0:0:0:70:normalclap.wav
475,192,23157,1,0,0:0:0:0:
329,192,23448,128,2,23885:0:0:0:0:
475,192,23448,128,8,23885:0:0:0:0:
36,192,23594,1,0,0:0:0:70:normalclap.wav
109,192,23594,1,0,0:0:0:0:
256,192,23594,1,0,0:0:0:0:
182,192,23739,1,0,0:0:0:70:normalwhistle.wav
36,192,23885,1,0,0:0:0:70:normalwhistle.wav
182,192,24030,1,2,0:0:0:0:
329,192,24030,1,4,0:0:0:0:
402,192,24030,1,0,0:0:0:70:normalclap.wav
475,192,24030,1,0,0:0:0:0:
402,192,24225,128,2,24419:0:0:0:0:
475,192,24225,128,0,24419:0:0:0:0:
256,192,24419,1,2,0:0:0:0:
109,192,24467,1,0,0:0:0:70:normalwhistle.wav
36,192,24613,1,2,0:0:0:0:
329,192,24613,1,8,0:0:0:0:
402,192,24613,1,0,0:0:0:0:
182,192,24759,1,0,0:0:0:70:normalwhistle.wav
402,192,24807,128,0,25001:0:0:0:0:
329,192,24807,128,2,25001:0:0:0:0:
36,192,24904,1,0,0:0:0:70:normalclap.wav
109,192,24904,1,0,0:0:0:0:
475,192,25001,1,2,0:0:0:0:
256,192,25196,1,2,0:0:0:0:
329,192,25196,1,0,0:0:0:0:
329,192,25390,128,0,25584:0:0:0:0:
256,192,25390,128,2,25584:0:0:0:0:
36,192,25487,1,0,0:0:0:70:normalclap.wav
182,192,25487,1,0,0:0:0:0:
402,192,25584,1,2,0:0:0:0:
109,192,25632,1,0,0:0:0:70:normalwhistle.wav
36,192,25778,128,2,26215:0:0:0:0:
182,192,25778,128,8,26215:0:0:0:0:
475,192,25778,1,0,0:0:0:0:
256,192,26069,1,0,0:0:0:70:normalwhistle.wav
36,192,26361,1,0,0:0:0:70:normalclap.wav
182,192,26361,1,0,0:0:0:0:
329,192,26652,1,0,0:0:0:70:normalwhistle.wav
475,192,26797,1,0,0:0:0:70:normalwhistle.wav
182,192,26943,1,2,0:0:0:0:
402,192,26943,1,8,0:0:0:0:
36,192,27089,1,0,0:0:0:70:normalwhistle.wav
109,192,27234,1,2,0:0:0:0:
256,192,27234,1,0,0:0:0:70:normalclap.wav
402,192,27234,1,0,0:0:0:0:
329,192,27380,1,0,0:0:0:0:
182,192,27526,1,0,0:0:0:70:normalclap.wav
109,192,27671,1,0,0:0:0:70:normalwhistle.wav
36,192,27817,1,2,0:0:0:0:
256,192,27817,1,0,0:0:0:70:normalwhistle.wav
182,192,27963,1,0,0:0:0:70:normalwhistle.wav
36,192,28108,1,2,0:0:0:0:
109,192,28108,1,0,0:0:0:70:normalfinish.wav
256,192,28108,1,0,0:0:0:0:
182,192,28254,1,0,0:0:0:70:normalwhistle.wav
36,192,28399,1,2,0:0:0:0:
256,192,28399,1,0,0:0:0:70:normalwhistle.wav
109,192,28545,1,0,0:0:0:70:normalwhistle.wav
182,192,28691,1,8,0:0:0:0:
402,192,28691,128,2,28836:0:0:0:0:
475,192,28691,128,4,28836:0:0:0:0:
182,192,29128,1,0,0:0:0:0:
402,192,29273,128,2,29419:0:0:0:0:
475,192,29273,128,8,29419:0:0:0:0:
182,192,29564,1,0,0:0:0:0:
329,192,29710,1,2,0:0:0:0:
182,192,29856,1,8,0:0:0:0:
402,192,29856,128,2,30001:0:0:0:0:
475,192,29856,128,0,30001:0:0:0:0:
475,192,30147,128,2,30293:0:0:0:0:
182,192,30293,1,0,0:0:0:0:
329,192,30438,128,2,30584:0:0:0:0:
402,192,30438,128,8,30584:0:0:0:0:
182,192,30729,1,0,0:0:0:0:
402,192,30875,1,2,0:0:0:0:
182,192,31021,1,8,0:0:0:0:
329,192,31021,128,2,31166:0:0:0:0:
475,192,31021,128,0,31166:0:0:0:0:
329,192,31312,128,2,31458:0:0:0:0:
182,192,31458,1,0,0:0:0:0:
402,192,31603,128,2,31749:0:0:0:0:
475,192,31603,128,8,31749:0:0:0:0:
329,192,31749,1,2,0:0:0:0:
182,192,31895,1,0,0:0:0:0:
329,192,32040,1,2,0:0:0:0:
182,192,32186,1,8,0:0:0:0:
402,192,32186,128,2,32331:0:0:0:0:
475,192,32186,128,0,32331:0:0:0:0:
475,192,32477,128,2,32623:0:0:0:0:
182,192,32623,1,0,0:0:0:0:
329,192,32768,128,8,32914:0:0:0:0:
402,192,32768,128,2,32914:0:0:0:0:
182,192,33060,1,0,0:0:0:0:
256,192,33060,1,0,0:0:0:0:
109,192,33351,1,8,0:0:0:0:
329,192,33351,128,2,33496:0:0:0:0:
475,192,33351,128,0,33496:0:0:0:0:
109,192,33788,1,0,0:0:0:0:
256,192,33933,128,2,34079:0:0:0:0:
402,192,33933,128,8,34079:0:0:0:0:
109,192,34225,1,0,0:0:0:0:
329,192,34370,1,2,0:0:0:0:
109,192,34516,1,8,0:0:0:0:
402,192,34516,128,2,34662:0:0:0:0:
475,192,34516,128,0,34662:0:0:0:0:
402,192,34807,128,2,34953:0:0:0:0:
109,192,34953,1,0,0:0:0:0:
256,192,35098,128,2,35244:0:0:0:0:
329,192,35098,128,8,35244:0:0:0:0:
109,192,35390,1,0,0:0:0:0:
109,192,35681,128,2,36409:0:0:0:0:
182,192,35681,128,8,36118:0:0:0:0:
402,192,35681,128,0,35972:0:0:0:70:normalwhistle.wav
475,192,35681,128,0,35972:0:0:0:70:normalclap.wav
402,192,36118,128,0,36846:0:0:0:70:normalclap.wav
475,192,36118,128,0,36846:0:0:0:70:normalwhistle.wav
182,192,36263,128,8,36409:0:0:0:0:
109,192,36555,128,0,36700:0:0:0:70:normalclap.wav
182,192,36555,128,0,37283:0:0:0:70:normalwhistle.wav
109,192,36846,128,8,37283:0:0:0:0:
402,192,36992,128,0,37283:0:0:0:70:normalclap.wav
475,192,36992,128,0,37283:0:0:0:70:normalwhistle.wav
109,192,37429,128,2,37574:0:0:0:0:
182,192,37429,128,8,37574:0:0:0:0:
402,192,37429,128,0,37574:0:0:0:70:normalwhistle.wav
475,192,37429,128,0,37574:0:0:0:70:normalclap.wav
36,192,37720,128,2,37865:0:0:0:0:
109,192,37720,128,0,37865:0:0:0:70:normalwhistle.wav
329,192,37720,128,0,37865:0:0:0:70:normalclap.wav
402,192,37720,128,0,37865:0:0:0:0:
256,192,38011,128,0,38157:0:0:0:0:
475,192,38011,128,8,38157:0:0:0:0:
36,192,38011,1,0,0:0:0:70:normalfinish.wav
402,192,38011,128,2,38157:0:0:0:0:
109,192,38302,1,0,0:0:0:70:normalwhistle.wav
36,192,38448,1,0,0:0:0:0:
182,192,38594,1,0,0:0:0:0:
256,192,38594,128,0,38739:0:0:0:0:
329,192,38594,128,2,38739:0:0:0:0:
475,192,38594,128,8,38739:0:0:0:0:
36,192,38885,1,0,0:0:0:70:normalwhistle.wav
109,192,38885,1,0,0:0:0:0:
256,192,39030,1,2,0:0:0:0:
182,192,39176,1,0,0:0:0:0:
402,192,39176,128,8,39322:0:0:0:0:
475,192,39176,128,0,39322:0:0:0:0:
36,192,39176,1,0,0:0:0:70:normalfinish.wav
329,192,39176,128,2,39322:0:0:0:0:
475,192,39467,128,0,39613:0:0:0:0:
109,192,39467,1,0,0:0:0:70:normalwhistle.wav
402,192,39467,128,2,39613:0:0:0:0:
36,192,39613,1,0,0:0:0:0:
256,192,39759,1,8,0:0:0:0:
329,192,39759,1,0,0:0:0:0:
475,192,39759,128,2,39904:0:0:0:0:
36,192,40050,1,0,0:0:0:70:normalwhistle.wav
182,192,40050,1,0,0:0:0:0:
402,192,40196,1,2,0:0:0:0:
109,192,40341,1,0,0:0:0:0:
329,192,40341,128,8,40487:0:0:0:0:
475,192,40341,128,0,40487:0:0:0:0:
256,192,40341,128,2,40487:0:0:0:0:
36,192,40341,1,0,0:0:0:70:normalfinish.wav
475,192,40632,128,0,40778:0:0:0:0:
182,192,40632,1,0,0:0:0:70:normalwhistle.wav
402,192,40632,128,2,40778:0:0:0:0:
36,192,40778,1,0,0:0:0:70:normalwhistle.wav
109,192,40924,1,0,0:0:0:0:
329,192,40924,128,2,41069:0:0:0:0:
402,192,40924,128,8,41069:0:0:0:0:
475,192,40924,128,0,41069:0:0:0:0:
256,192,41069,128,2,41215:0:0:0:0:
36,192,41215,1,0,0:0:0:70:normalwhistle.wav
182,192,41215,1,0,0:0:0:0:
256,192,41361,128,2,41506:0:0:0:0:
109,192,41506,1,0,0:0:0:0:
402,192,41506,128,8,41652:0:0:0:0:
475,192,41506,128,0,41652:0:0:0:0:
329,192,41506,128,2,41652:0:0:0:0:
36,192,41506,1,0,0:0:0:70:normalfinish.wav
182,192,41652,1,0,0:0:0:70:normalwhistle.wav
402,192,41797,128,0,41943:0:0:0:0:
329,192,41797,128,2,41943:0:0:0:0:
256,192,41797,1,0,0:0:0:70:normalwhistle.wav
36,192,41943,1,0,0:0:0:0:
182,192,42089,1,8,0:0:0:0:
329,192,42089,128,2,42234:0:0:0:0:
475,192,42089,1,0,0:0:0:0:
36,192,42380,128,2,42671:0:0:0:0:
256,192,42380,128,0,42817:0:0:0:70:normalwhistle.wav
329,192,42526,128,0,42963:0:0:0:70:normalwhistle.wav
109,192,42671,128,2,43254:0:0:0:0:
402,192,42671,128,0,43108:0:0:0:70:normalfinish.wav
475,192,42671,1,8,0:0:0:0:
36,192,42817,128,0,43254:0:0:0:70:normalwhistle.wav
256,192,42963,128,0,43545:0:0:0:70:normalwhistle.wav
329,192,43108,128,0,43691:0:0:0:70:normalwhistle.wav
182,192,43254,128,2,43399:0:0:0:0:
402,192,43254,128,0,43836:0:0:0:70:normalfinish.wav
475,192,43254,1,8,0:0:0:0:
36,192,43399,128,0,43836:0:0:0:70:normalwhistle.wav
182,192,43545,128,0,44128:0:0:0:70:normalwhistle.wav
256,192,43691,128,0,43982:0:0:0:70:normalwhistle.wav
109,192,43836,128,2,44273:0:0:0:0:
329,192,43836,128,0,44273:0:0:0:70:normalfinish.wav
475,192,43836,1,8,0:0:0:0:
402,192,43982,128,0,44273:0:0:0:70:normalwhistle.wav
256,192,44128,128,0,44564:0:0:0:70:normalwhistle.wav
182,192,44273,128,2,44710:0:0:0:0:
475,192,44273,128,0,44419:0:0:0:70:normalwhistle.wav
109,192,44419,128,8,44856:0:0:0:0:
329,192,44419,128,0,44710:0:0:0:70:normalfinish.wav
475,192,44564,128,0,45001:0:0:0:70:normalwhistle.wav
256,192,44710,128,2,45001:0:0:0:0:
402,192,44710,128,0,45001:0:0:0:70:normalwhistle.wav
182,192,44856,128,0,45001:0:0:0:70:normalwhistle.wav
36,192,45001,1,0,0:0:0:70:normalclap.wav
109,192,45001,1,0,0:0:0:0:
475,192,45074,1,0,0:0:0:70:normalwhistle.wav
329,192,45147,1,0,0:0:0:70:normalwhistle.wav
182,192,45220,1,0,0:0:0:70:normalwhistle.wav
36,192,45293,1,0,0:0:0:70:normalclap.wav
402,192,45293,1,0,0:0:0:0:
256,192,45365,1,0,0:0:0:70:normalwhistle.wav
109,192,45438,1,0,0:0:0:70:normalwhistle.wav
475,192,45511,1,0,0:0:0:70:normalwhistle.wav
182,192,45584,1,0,0:0:0:70:normalclap.wav
329,192,45584,1,0,0:0:0:0:
36,192,45657,1,0,0:0:0:70:normalwhistle.wav
402,192,45729,1,0,0:0:0:70:normalwhistle.wav
256,192,45802,1,0,0:0:0:70:normalwhistle.wav
109,192,45875,1,0,0:0:0:70:normalclap.wav
475,192,45875,1,0,0:0:0:0:
329,192,45948,1,0,0:0:0:70:normalwhistle.wav
182,192,46021,1,0,0:0:0:70:normalwhistle.wav
36,192,46094,1,0,0:0:0:70:normalwhistle.wav
256,192,46166,1,0,0:0:0:70:normalclap.wav
475,192,46166,1,0,0:0:0:0:
475,192,46749,1,2,0:0:0:0:
329,192,47040,1,2,0:0:0:0:
36,192,47331,1,2,0:0:0:0:
36,192,47768,1,2,0:0:0:0:
36,192,48060,1,2,0:0:0:0:
182,192,48205,1,2,0:0:0:0:
182,192,48496,1,2,0:0:0:0:
182,192,48933,1,2,0:0:0:0:
182,192,49225,1,2,0:0:0:0:
329,192,49370,1,2,0:0:0:0:
329,192,49662,1,2,0:0:0:0:
329,192,50098,1,2,0:0:0:0:
329,192,50390,1,2,0:0:0:0:
475,192,50535,1,2,0:0:0:0:
329,192,50681,1,2,0:0:0:0:
182,192,50827,1,2,0:0:0:0:
109,192,51409,128,2,51555:0:0:0:0:
182,192,51409,128,0,51555:0:0:0:0:
329,192,51409,128,0,51555:0:0:0:0:
402,192,51409,128,0,51555:0:0:0:0:
109,192,51700,128,2,51846:0:0:0:0:
256,192,51700,128,0,51846:0:0:0:0:
402,192,51700,128,0,51846:0:0:0:0:
36,192,51992,128,2,52210:0:0:0:0:
109,192,51992,128,4,52137:0:0:0:0:
182,192,51992,128,0,52064:0:0:0:70:normalwhistle.wav
475,192,51992,1,0,0:0:0:70:normalclap.wav
402,192,52064,1,0,0:0:0:0:
329,192,52137,1,0,0:0:0:0:
182,192,52210,128,0,52429:0:0:0:0:
109,192,52283,128,0,52429:0:0:0:70:normalwhistle.wav
475,192,52283,1,0,0:0:0:0:
36,192,52356,128,0,52429:0:0:0:0:
256,192,52429,128,0,52574:0:0:0:70:normalwhistle.wav
36,192,52574,1,8,0:0:0:0:
109,192,52574,1,0,0:0:0:70:normalwhistle.wav
475,192,52574,1,0,0:0:0:70:normalfinish.wav
182,192,52865,128,0,53011:0:0:0:70:normalwhistle.wav
402,192,52865,1,0,0:0:0:70:normalclap.wav
109,192,53157,128,0,53448:0:0:0:70:normalwhistle.wav
256,192,53157,128,0,53302:0:0:0:0:
256,192,53448,128,0,53739:0:0:0:70:normalwhistle.wav
402,192,53448,1,0,0:0:0:70:normalclap.wav
475,192,53448,1,0,0:0:0:0:
109,192,53594,128,0,53739:0:0:0:70:normalwhistle.wav
329,192,53594,1,0,0:0:0:0:
36,192,53739,1,8,0:0:0:0:
402,192,53739,1,0,0:0:0:70:normalwhistle.wav
475,192,53739,1,0,0:0:0:70:normalfinish.wav
256,192,54030,128,0,54176:0:0:0:70:normalwhistle.wav
36,192,54322,1,4,0:0:0:0:
329,192,54322,128,0,54395:0:0:0:70:normalwhistle.wav
402,192,54322,128,0,54467:0:0:0:70:normalclap.wav
475,192,54322,128,0,54540:0:0:0:0:
109,192,54395,1,0,0:0:0:0:
182,192,54467,1,0,0:0:0:0:
329,192,54540,128,0,54759:0:0:0:0:
36,192,54613,1,0,0:0:0:70:normalwhistle.wav
402,192,54613,128,0,54759:0:0:0:0:
475,192,54686,128,0,54759:0:0:0:0:
256,192,54759,128,0,54904:0:0:0:70:normalwhistle.wav
36,192,54904,1,8,0:0:0:0:
402,192,54904,1,0,0:0:0:70:normalwhistle.wav
475,192,54904,1,0,0:0:0:70:normalfinish.wav
402,192,55050,128,0,55196:0:0:0:0:
475,192,55050,128,0,55196:0:0:0:0:
36,192,55196,128,4,55414:0:0:0:0:
109,192,55196,128,0,55341:0:0:0:70:normalwhistle.wav
182,192,55196,128,0,55268:0:0:0:70:normalclap.wav
329,192,55196,1,0,0:0:0:0:
256,192,55268,1,0,0:0:0:0:
402,192,55341,128,0,55487:0:0:0:70:normalclap.wav
182,192,55414,128,0,55632:0:0:0:0:
109,192,55487,128,0,55632:0:0:0:70:normalwhistle.wav
475,192,55487,128,0,55778:0:0:0:0:
36,192,55560,128,0,55632:0:0:0:0:
256,192,55632,1,0,0:0:0:70:normalwhistle.wav
402,192,55632,1,0,0:0:0:70:normalclap.wav
36,192,55778,1,0,0:0:0:70:normalwhistle.wav
182,192,55778,1,0,0:0:0:70:normalclap.wav
329,192,55778,1,0,0:0:0:0:
36,192,56069,128,2,56215:0:0:0:0:
109,192,56069,128,8,56215:0:0:0:0:
402,192,56069,128,0,56215:0:0:0:70:normalwhistle.wav
475,192,56069,128,0,56215:0:0:0:70:normalfinish.wav
256,192,56215,1,0,0:0:0:70:normalclap.wav
109,192,56361,128,2,56506:0:0:0:0:
256,192,56361,128,0,56506:0:0:0:70:normalwhistle.wav
402,192,56361,128,0,56506:0:0:0:0:
36,192,56652,1,2,0:0:0:0:
329,192,56652,128,4,56725:0:0:0:0:
402,192,56652,128,0,56797:0:0:0:70:normalwhistle.wav
475,192,56652,128,0,56870:0:0:0:70:normalclap.wav
109,192,56725,1,0,0:0:0:0:
182,192,56797,1,0,0:0:0:0:
256,192,56870,128,0,57089:0:0:0:0:
36,192,56943,1,0,0:0:0:70:normalwhistle.wav
329,192,56943,128,0,57089:0:0:0:0:
402,192,57016,128,0,57089:0:0:0:0:
182,192,57089,128,0,57234:0:0:0:70:normalwhistle.wav
36,192,57234,1,8,0:0:0:0:
402,192,57234,1,0,0:0:0:70:normalwhistle.wav
475,192,57234,1,0,0:0:0:70:normalfinish.wav
256,192,57526,128,0,57671:0:0:0:70:normalwhistle.wav
329,192,57526,1,0,0:0:0:70:normalclap.wav
256,192,57817,128,0,58108:0:0:0:70:normalwhistle.wav
329,192,57817,128,0,57963:0:0:0:0:
36,192,58108,1,0,0:0:0:70:normalwhistle.wav
109,192,58108,1,0,0:0:0:70:normalclap.wav
329,192,58108,128,0,58399:0:0:0:0:
182,192,58254,1,0,0:0:0:70:normalwhistle.wav
256,192,58254,128,0,58399:0:0:0:0:
36,192,58399,1,8,0:0:0:0:
109,192,58399,1,0,0:0:0:70:normalwhistle.wav
475,192,58399,1,0,0:0:0:70:normalfinish.wav
329,192,58691,128,0,58836:0:0:0:70:normalwhistle.wav
36,192,58982,128,4,59200:0:0:0:0:
109,192,58982,128,0,59128:0:0:0:70:normalwhistle.wav
182,192,58982,128,0,59055:0:0:0:70:normalclap.wav
475,192,58982,1,0,0:0:0:0:
402,192,59055,1,0,0:0:0:0:
329,192,59128,1,0,0:0:0:0:
256,192,59200,128,0,59419:0:0:0:0:
182,192,59273,128,0,59419:0:0:0:70:normalwhistle.wav
475,192,59273,1,0,0:0:0:0:
109,192,59346,128,0,59419:0:0:0:0:
329,192,59419,128,0,59564:0:0:0:70:normalwhistle.wav
402,192,59419,128,0,59564:0:0:0:0:
109,192,59564,1,8,0:0:0:0:
256,192,59564,1,0,0:0:0:70:normalwhistle.wav
475,192,59564,1,0,0:0:0:70:normalfinish.wav
109,192,59710,128,0,59856:0:0:0:0:
256,192,59710,128,0,59856:0:0:0:0:
36,192,59856,1,4,0:0:0:0:
329,192,59856,128,0,59929:0:0:0:70:normalwhistle.wav
402,192,59856,128,0,60001:0:0:0:70:normalclap.wav
475,192,59856,128,0,60074:0:0:0:0:
182,192,59929,1,0,0:0:0:0:
109,192,60001,128,0,60147:0:0:0:70:normalclap.wav
256,192,60074,128,0,60293:0:0:0:0:
36,192,60147,128,0,60438:0:0:0:70:normalwhistle.wav
329,192,60147,128,0,60293:0:0:0:0:
402,192,60220,128,0,60293:0:0:0:0:
182,192,60293,1,0,0:0:0:70:normalwhistle.wav
475,192,60293,1,0,0:0:0:70:normalclap.wav
109,192,60438,1,0,0:0:0:70:normalwhistle.wav
256,192,60438,1,0,0:0:0:70:normalclap.wav
402,192,60438,1,0,0:0:0:0:
256,192,60584,1,0,0:0:0:0:
329,192,60657,1,0,0:0:0:0:
36,192,60729,1,8,0:0:0:0:
182,192,60729,1,0,0:0:0:70:normalwhistle.wav
402,192,60729,1,0,0:0:0:70:normalfinish.wav
36,192,60875,1,0,0:0:0:70:normalclap.wav
329,192,60875,1,0,0:0:0:0:
182,192,61021,1,0,0:0:0:0:
475,192,61166,1,0,0:0:0:0:
36,192,61312,128,4,61385:0:0:0:0:
109,192,61312,128,0,61458:0:0:0:70:normalwhistle.wav
182,192,61312,128,0,61530:0:0:0:70:normalclap.wav
402,192,61312,1,0,0:0:0:0:
329,192,61385,1,0,0:0:0:0:
475,192,61458,128,0,61603:0:0:0:70:normalwhistle.wav
36,192,61530,128,0,61749:0:0:0:0:
109,192,61603,128,0,61749:0:0:0:70:normalwhistle.wav
402,192,61603,1,0,0:0:0:0:
182,192,61676,128,0,61749:0:0:0:0:
475,192,61749,128,0,61895:0:0:0:70:normalwhistle.wav
109,192,61895,1,8,0:0:0:0:
402,192,61895,1,0,0:0:0:70:normalfinish.wav
256,192,61895,128,2,62040:0:0:0:0:
36,192,61895,1,0,0:0:0:70:normalwhistle.wav
182,192,62040,1,0,0:0:0:70:normalwhistle.wav
329,192,62113,128,2,62259:0:0:0:0:
36,192,62186,1,0,0:0:0:70:normalwhistle.wav
109,192,62186,1,0,0:0:0:70:normalclap.wav
475,192,62186,1,0,0:0:0:0:
182,192,62331,128,2,62477:0:0:0:0:
402,192,62331,1,0,0:0:0:70:normalwhistle.wav
36,192,62477,128,2,63060:0:0:0:0:
256,192,62477,128,0,63060:0:0:0:70:normalwhistle.wav
329,192,62477,1,0,0:0:0:0:
182,192,62623,1,0,0:0:0:70:normalwhistle.wav
329,192,62768,1,0,0:0:0:70:normalwhistle.wav
475,192,62768,1,0,0:0:0:70:normalclap.wav
109,192,62914,1,0,0:0:0:70:normalwhistle.wav
182,192,63060,128,10,63496:0:0:0:0:
329,192,63060,1,0,0:0:0:70:normalwhistle.wav
475,192,63060,128,0,63496:0:0:0:70:normalfinish.wav
256,192,63205,1,0,0:0:0:70:normalwhistle.wav
109,192,63351,128,2,63496:0:0:0:0:
402,192,63351,128,0,63496:0:0:0:70:normalwhistle.wav
256,192,63496,1,0,0:0:0:70:normalwhistle.wav
182,192,63642,128,2,63788:0:0:0:0:
329,192,63642,128,4,63861:0:0:0:0:
402,192,63642,128,0,63788:0:0:0:70:normalwhistle.wav
475,192,63642,128,0,63715:0:0:0:70:normalclap.wav
109,192,63715,128,0,63788:0:0:0:0:
36,192,63788,128,2,63933:0:0:0:0:
475,192,63861,128,0,64079:0:0:0:0:
109,192,63933,1,0,0:0:0:70:normalwhistle.wav
402,192,63933,128,0,64079:0:0:0:0:
329,192,64006,128,0,64079:0:0:0:0:
182,192,64079,128,0,64225:0:0:0:70:normalwhistle.wav
402,192,64225,1,0,0:0:0:70:normalwhistle.wav
475,192,64225,1,0,0:0:0:70:normalfinish.wav
256,192,64225,128,2,64370:0:0:0:0:
109,192,64225,1,8,0:0:0:0:
329,192,64370,1,0,0:0:0:70:normalwhistle.wav
182,192,64443,128,2,64589:0:0:0:0:
36,192,64516,128,4,64734:0:0:0:0:
109,192,64516,128,0,64662:0:0:0:70:normalwhistle.wav
402,192,64516,1,0,0:0:0:70:normalclap.wav
475,192,64516,1,0,0:0:0:0:
256,192,64589,1,0,0:0:0:0:
329,192,64662,128,0,64807:0:0:0:70:normalwhistle.wav
182,192,64734,128,0,65390:0:0:0:0:
109,192,64807,128,2,64953:0:0:0:0:
402,192,64807,1,0,0:0:0:70:normalwhistle.wav
475,192,64807,128,0,65390:0:0:0:0:
36,192,64880,128,0,64953:0:0:0:0:
329,192,64953,1,0,0:0:0:70:normalwhistle.wav
36,192,65098,1,0,0:0:0:70:normalwhistle.wav
402,192,65098,1,0,0:0:0:70:normalclap.wav
256,192,65244,1,0,0:0:0:70:normalwhistle.wav
36,192,65390,128,10,65827:0:0:0:0:
109,192,65390,1,0,0:0:0:70:normalwhistle.wav
329,192,65390,128,0,65827:0:0:0:70:normalfinish.wav
402,192,65535,1,0,0:0:0:70:normalwhistle.wav
475,192,65535,1,0,0:0:0:70:normalclap.wav
256,192,65681,128,0,65827:0:0:0:70:normalwhistle.wav
475,192,65827,1,0,0:0:0:70:normalwhistle.wav
36,192,65972,128,2,66191:0:0:0:0:
109,192,65972,128,4,66118:0:0:0:0:
182,192,65972,128,0,66045:0:0:0:70:normalwhistle.wav
329,192,65972,1,0,0:0:0:70:normalclap.wav
402,192,66045,1,0,0:0:0:0:
475,192,66118,1,0,0:0:0:70:normalwhistle.wav
182,192,66191,128,0,66409:0:0:0:0:
109,192,66263,128,0,66409:0:0:0:70:normalwhistle.wav
329,192,66263,1,0,0:0:0:0:
36,192,66336,128,0,66409:0:0:0:0:
256,192,66409,128,0,66555:0:0:0:70:normalwhistle.wav
36,192,66555,1,8,0:0:0:0:
182,192,66555,1,0,0:0:0:70:normalwhistle.wav
402,192,66555,1,0,0:0:0:70:normalfinish.wav
329,192,66700,1,0,0:0:0:70:normalwhistle.wav
36,192,66846,128,2,66992:0:0:0:0:
109,192,66846,1,0,0:0:0:70:normalwhistle.wav
256,192,66846,128,0,66992:0:0:0:70:normalclap.wav
475,192,66992,1,0,0:0:0:70:normalwhistle.wav
109,192,67137,128,2,67283:0:0:0:0:
182,192,67137,128,0,67283:0:0:0:70:normalwhistle.wav
256,192,67137,128,0,67429:0:0:0:0:
329,192,67283,1,0,0:0:0:70:normalwhistle.wav
109,192,67429,128,0,67720:0:0:0:70:normalwhistle.wav
402,192,67429,1,0,0:0:0:70:normalclap.wav
475,192,67429,1,0,0:0:0:0:
182,192,67574,128,2,67720:0:0:0:0:
256,192,67574,128,0,67720:0:0:0:70:normalwhistle.wav
36,192,67720,1,8,0:0:0:0:
329,192,67720,1,0,0:0:0:70:normalwhistle.wav
475,192,67720,1,0,0:0:0:70:normalfinish.wav
182,192,67865,1,0,0:0:0:70:normalwhistle.wav
256,192,68011,128,2,68157:0:0:0:0:
475,192,68011,128,0,68157:0:0:0:70:normalwhistle.wav
402,192,68157,1,0,0:0:0:70:normalwhistle.wav
109,192,68302,128,4,68521:0:0:0:0:
182,192,68302,128,2,68448:0:0:0:0:
256,192,68302,128,0,68375:0:0:0:70:normalwhistle.wav
329,192,68302,1,0,0:0:0:70:normalclap.wav
402,192,68375,1,0,0:0:0:0:
475,192,68448,128,0,68885:0:0:0:70:normalwhistle.wav
182,192,68521,128,0,68739:0:0:0:0:
109,192,68594,128,0,68739:0:0:0:70:normalwhistle.wav
36,192,68666,128,0,68739:0:0:0:0:
256,192,68739,1,0,0:0:0:70:normalwhistle.wav
36,192,68885,1,2,0:0:0:0:
182,192,68885,1,8,0:0:0:0:
329,192,68885,128,0,69030:0:0:0:70:normalwhistle.wav
402,192,68885,1,0,0:0:0:70:normalfinish.wav
36,192,69030,128,2,69467:0:0:0:0:
256,192,69030,1,0,0:0:0:0:
109,192,69176,1,4,0:0:0:0:
256,192,69176,128,0,69249:0:0:0:70:normalwhistle.wav
329,192,69176,128,0,69322:0:0:0:70:normalclap.wav
402,192,69176,128,0,69395:0:0:0:0:
182,192,69249,1,0,0:0:0:0:
256,192,69322,1,0,0:0:0:70:normalwhistle.wav
329,192,69395,128,0,69613:0:0:0:0:
402,192,69467,128,0,69613:0:0:0:70:normalwhistle.wav
475,192,69540,128,0,69613:0:0:0:0:
36,192,69613,1,2,0:0:0:0:
182,192,69613,1,0,0:0:0:70:normalwhistle.wav
256,192,69613,128,0,70050:0:0:0:70:normalclap.wav
329,192,69759,1,0,0:0:0:70:normalwhistle.wav
475,192,69759,1,0,0:0:0:70:normalclap.wav
182,192,69904,1,0,0:0:0:70:normalwhistle.wav
36,192,70050,1,10,0:0:0:0:
402,192,70050,1,0,0:0:0:70:normalwhistle.wav
475,192,70050,1,0,0:0:0:70:normalfinish.wav
109,192,70196,1,0,0:0:0:70:normalwhistle.wav
256,192,70196,1,0,0:0:0:70:normalclap.wav
329,192,70196,1,0,0:0:0:0:
182,192,70341,1,0,0:0:0:70:normalwhistle.wav
256,192,70487,1,0,0:0:0:70:normalwhistle.wav
475,192,70924,1,2,0:0:0:0:
329,192,71069,1,2,0:0:0:0:
402,192,71215,128,2,71361:0:0:0:0:
329,192,71361,128,2,71506:0:0:0:0:
36,192,71506,1,2,0:0:0:0:
182,192,71652,128,2,71797:0:0:0:0:
109,192,71797,128,2,72089:0:0:0:0:
182,192,71943,128,2,72089:0:0:0:0:
475,192,72089,128,2,72234:0:0:0:0:
329,192,72234,128,2,72380:0:0:0:0:
402,192,72380,128,2,72817:0:0:0:0:
329,192,72526,128,2,72817:0:0:0:0:
182,192,72671,128,2,72817:0:0:0:0:
109,192,72817,1,2,0:0:0:0:
109,192,72963,1,2,0:0:0:0:
182,192,72963,1,4,0:0:0:0:
329,192,72963,1,0,0:0:0:70:normalclap.wav
402,192,72963,1,0,0:0:0:0:
36,192,73254,1,0,0:0:0:70:normalwhistle.wav
182,192,73399,1,0,0:0:0:70:normalwhistle.wav
329,192,73545,1,0,0:0:0:70:normalwhistle.wav
109,192,73836,1,0,0:0:0:70:normalclap.wav
256,192,73836,1,0,0:0:0:0:
329,192,73836,1,0,0:0:0:0:
402,192,74128,1,0,0:0:0:70:normalfinish.wav
475,192,74128,1,0,0:0:0:0:
329,192,74419,1,0,0:0:0:70:normalclap.wav
109,192,74419,128,2,74564:0:0:0:0:
36,192,74419,1,0,0:0:0:70:normalwhistle.wav
182,192,74564,128,2,74856:0:0:0:0:
475,192,74564,1,0,0:0:0:0:
402,192,74710,128,2,74856:0:0:0:0:
109,192,74710,1,0,0:0:0:70:normalwhistle.wav
329,192,74856,128,2,75147:0:0:0:0:
182,192,75001,128,2,75147:0:0:0:0:
402,192,75001,1,0,0:0:0:0:
182,192,75293,1,2,0:0:0:0:
329,192,75293,1,0,0:0:0:70:normalwhistle.wav
475,192,75293,1,0,0:0:0:70:normalclap.wav
109,192,75584,1,0,0:0:0:70:normalwhistle.wav
256,192,75729,1,0,0:0:0:70:normalwhistle.wav
402,192,75875,1,0,0:0:0:70:normalwhistle.wav
182,192,76021,1,0,0:0:0:0:
36,192,76166,1,2,0:0:0:0:
256,192,76166,1,0,0:0:0:70:normalclap.wav
329,192,76166,1,0,0:0:0:0:
182,192,76312,1,0,0:0:0:70:normalwhistle.wav
109,192,76458,1,0,0:0:0:70:normalfinish.wav
475,192,76458,1,0,0:0:0:0:
329,192,76603,1,0,0:0:0:70:normalwhistle.wav
109,192,76749,128,2,76895:0:0:0:0:
402,192,76749,1,0,0:0:0:70:normalclap.wav
475,192,76749,1,0,0:0:0:0:
256,192,76895,128,2,77040:0:0:0:0:
182,192,77040,128,2,77477:0:0:0:0:
256,192,77186,128,2,77477:0:0:0:0:
402,192,77331,128,2,77477:0:0:0:0:
475,192,77477,1,2,0:0:0:0:
182,192,77623,1,2,0:0:0:0:
256,192,77623,1,4,0:0:0:0:
402,192,77623,1,0,0:0:0:70:normalclap.wav
475,192,77623,1,0,0:0:0:0:
402,192,77914,1,0,0:0:0:70:normalwhistle.wav
256,192,78060,1,0,0:0:0:70:normalwhistle.wav
109,192,78205,1,0,0:0:0:70:normalwhistle.wav
109,192,78496,1,0,0:0:0:70:normalclap.wav
329,192,78496,1,0,0:0:0:0:
475,192,78496,1,0,0:0:0:0:
36,192,78788,1,0,0:0:0:70:normalfinish.wav
182,192,78788,1,0,0:0:0:0:
475,192,79079,1,0,0:0:0:70:normalclap.wav
329,192,79079,128,2,79225:0:0:0:0:
109,192,79079,1,0,0:0:0:70:normalwhistle.wav
36,192,79225,1,0,0:0:0:0:
402,192,79225,128,2,79516:0:0:0:0:
182,192,79370,128,2,79516:0:0:0:0:
329,192,79370,1,0,0:0:0:70:normalwhistle.wav
109,192,79516,128,2,79807:0:0:0:0:
402,192,79662,128,2,79807:0:0:0:0:
182,192,79662,1,0,0:0:0:70:normalwhistle.wav
109,192,79953,1,2,0:0:0:0:
256,192,79953,1,0,0:0:0:70:normalwhistle.wav
402,192,79953,1,0,0:0:0:70:normalclap.wav
329,192,80244,1,0,0:0:0:70:normalwhistle.wav
182,192,80390,1,0,0:0:0:70:normalwhistle.wav
36,192,80535,1,0,0:0:0:70:normalwhistle.wav
329,192,80681,1,0,0:0:0:0:
109,192,80827,1,2,0:0:0:0:
256,192,80827,1,0,0:0:0:70:normalwhistle.wav
402,192,80827,1,0,0:0:0:70:normalclap.wav
329,192,80972,1,0,0:0:0:0:
109,192,81118,1,0,0:0:0:70:normalwhistle.wav
329,192,81118,1,0,0:0:0:70:normalfinish.wav
182,192,81191,1,0,0:0:0:70:normalwhistle.wav
475,192,81263,1,0,0:0:0:70:normalwhistle.wav
329,192,81336,1,0,0:0:0:70:normalwhistle.wav
182,192,81409,1,0,0:0:0:70:normalwhistle.wav
182,192,81555,1,0,0:0:0:70:normalwhistle.wav
402,192,81700,1,0,0:0:0:70:normalwhistle.wav
329,192,81773,1,0,0:0:0:70:normalwhistle.wav
36,192,81846,1,0,0:0:0:70:normalwhistle.wav
182,192,81919,1,0,0:0:0:70:normalwhistle.wav
329,192,81992,1,0,0:0:0:70:normalwhistle.wav
329,192,82137,1,0,0:0:0:70:normalwhistle.wav
109,192,82283,1,4,0:0:0:0:
256,192,82283,1,2,0:0:0:0:
402,192,82283,1,0,0:0:0:70:normalclap.wav
475,192,82283,1,0,0:0:0:0:
109,192,82574,1,2,0:0:0:0:
475,192,82574,1,0,0:0:0:70:normalwhistle.wav
182,192,82720,1,0,0:0:0:70:normalwhistle.wav
256,192,82865,1,10,0:0:0:0:
329,192,82865,1,0,0:0:0:70:normalwhistle.wav
182,192,83011,1,2,0:0:0:0:
36,192,83157,1,2,0:0:0:0:
402,192,83157,1,0,0:0:0:70:normalwhistle.wav
475,192,83157,1,0,0:0:0:70:normalclap.wav
182,192,83448,1,2,0:0:0:0:
475,192,83448,1,0,0:0:0:70:normalwhistle.wav
182,192,83739,1,2,0:0:0:0:
329,192,83739,1,0,0:0:0:70:normalwhistle.wav
402,192,83739,1,0,0:0:0:70:normalclap.wav
256,192,83885,1,2,0:0:0:0:
402,192,84030,1,2,0:0:0:0:
475,192,84030,1,8,0:0:0:0:
36,192,84322,1,2,0:0:0:0:
182,192,84322,1,0,0:0:0:70:normalwhistle.wav
36,192,84613,1,2,0:0:0:0:
256,192,84613,1,0,0:0:0:70:normalclap.wav
329,192,84613,1,0,0:0:0:0:
182,192,84759,1,2,0:0:0:0:
36,192,84904,1,2,0:0:0:0:
402,192,84904,1,0,0:0:0:70:normalwhistle.wav
329,192,85050,1,0,0:0:0:70:normalwhistle.wav
256,192,85196,1,10,0:0:0:0:
475,192,85196,1,0,0:0:0:70:normalwhistle.wav
109,192,85341,1,0,0:0:0:0:
182,192,85487,1,2,0:0:0:0:
402,192,85487,1,0,0:0:0:70:normalwhistle.wav
475,192,85487,1,0,0:0:0:70:normalclap.wav
109,192,85632,1,0,0:0:0:0:
36,192,85778,1,2,0:0:0:0:
329,192,85778,1,0,0:0:0:70:normalwhistle.wav
256,192,85924,1,2,0:0:0:0:
182,192,86069,1,2,0:0:0:0:
329,192,86069,1,0,0:0:0:70:normalclap.wav
402,192,86069,1,0,0:0:0:0:
109,192,86361,1,10,0:0:0:0:
475,192,86361,1,0,0:0:0:70:normalwhistle.wav
329,192,86409,1,0,0:0:0:0:
36,192,86458,1,0,0:0:0:0:
182,192,86506,1,0,0:0:0:70:normalclap.wav
329,192,86555,1,0,0:0:0:0:
475,192,86603,1,0,0:0:0:0:
36,192,86652,1,2,0:0:0:0:
109,192,86652,1,0,0:0:0:0:
256,192,86700,1,0,0:0:0:0:
402,192,86749,1,0,0:0:0:0:
182,192,86797,1,0,0:0:0:0:
36,192,86846,1,0,0:0:0:0:
402,192,86895,1,0,0:0:0:0:
256,192,86943,128,2,87526:0:0:0:0:
182,192,87526,1,8,0:0:0:0:
36,192,87598,1,0,0:0:0:0:
475,192,87671,1,0,0:0:0:0:
329,192,87744,1,0,0:0:0:0:
36,192,87817,1,6,0:0:0:0:
182,192,87817,1,0,0:0:0:70:normalwhistle.wav
256,192,87817,1,0,0:0:0:70:normalclap.wav
182,192,87963,1,2,0:0:0:0:
109,192,88108,1,2,0:0:0:0:
402,192,88108,1,0,0:0:0:70:normalwhistle.wav
109,192,88399,1,2,0:0:0:0:
402,192,88399,1,0,0:0:0:70:normalwhistle.wav
475,192,88399,1,0,0:0:0:70:normalclap.wav
256,192,88545,1,2,0:0:0:0:
36,192,88691,1,8,0:0:0:0:
182,192,88691,1,0,0:0:0:0:
329,192,88982,1,2,0:0:0:0:
182,192,89128,1,2,0:0:0:0:
256,192,89273,1,2,0:0:0:0:
402,192,89273,1,0,0:0:0:70:normalwhistle.wav
475,192,89273,1,0,0:0:0:70:normalclap.wav
402,192,89564,1,0,0:0:0:70:normalwhistle.wav
109,192,89710,1,0,0:0:0:70:normalwhistle.wav
182,192,89856,1,10,0:0:0:0:
402,192,89856,1,0,0:0:0:70:normalwhistle.wav
109,192,90147,1,2,0:0:0:0:
256,192,90147,1,0,0:0:0:70:normalclap.wav
329,192,90147,1,0,0:0:0:70:normalwhistle.wav
329,192,90438,1,0,0:0:0:70:normalwhistle.wav
402,192,90584,1,0,0:0:0:70:normalwhistle.wav
256,192,90729,1,2,0:0:0:0:
475,192,90729,1,0,0:0:0:70:normalwhistle.wav
329,192,90875,1,0,0:0:0:70:normalwhistle.wav
256,192,91021,1,0,0:0:0:70:normalwhistle.wav
402,192,91021,1,0,0:0:0:70:normalfinish.wav
475,192,91021,1,0,0:0:0:0:
329,192,91166,1,0,0:0:0:70:normalwhistle.wav
256,192,91312,1,2,0:0:0:0:
475,192,91312,1,0,0:0:0:70:normalwhistle.wav
402,192,91458,1,0,0:0:0:70:normalwhistle.wav
36,192,91603,128,4,91749:0:0:0:0:
109,192,91603,128,2,91749:0:0:0:0:
329,192,91603,1,8,0:0:0:0:
329,192,92040,1,0,0:0:0:70:normalwhistle.wav
36,192,92186,128,8,92331:0:0:0:0:
109,192,92186,128,2,92331:0:0:0:0:
329,192,92477,1,0,0:0:0:70:normalwhistle.wav
182,192,92623,1,2,0:0:0:0:
36,192,92768,128,8,92914:0:0:0:0:
109,192,92768,128,2,92914:0:0:0:0:
329,192,92768,1,0,0:0:0:0:
36,192,93060,128,2,93205:0:0:0:0:
402,192,93060,1,0,0:0:0:70:normalwhistle.wav
329,192,93205,1,0,0:0:0:0:
109,192,93351,128,8,93496:0:0:0:0:
182,192,93351,128,2,93496:0:0:0:0:
329,192,93642,1,0,0:0:0:0:
109,192,93788,1,2,0:0:0:0:
36,192,93933,128,8,94079:0:0:0:0:
182,192,93933,128,2,94079:0:0:0:0:
329,192,93933,1,0,0:0:0:0:
182,192,94225,128,2,94370:0:0:0:0:
329,192,94370,1,0,0:0:0:70:normalwhistle.wav
36,192,94516,128,8,94662:0:0:0:0:
109,192,94516,128,2,94662:0:0:0:0:
182,192,94662,1,2,0:0:0:0:
329,192,94807,1,0,0:0:0:70:normalwhistle.wav
182,192,94953,1,2,0:0:0:0:
36,192,95098,128,8,95244:0:0:0:0:
109,192,95098,128,2,95244:0:0:0:0:
329,192,95098,1,0,0:0:0:0:
256,192,95244,1,0,0:0:0:70:normalwhistle.wav
36,192,95390,128,2,95535:0:0:0:0:
182,192,95390,1,0,0:0:0:70:normalwhistle.wav
329,192,95535,1,0,0:0:0:0:
109,192,95681,128,2,95827:0:0:0:0:
182,192,95681,128,8,95827:0:0:0:0:
109,192,95972,1,0,0:0:0:0:
182,192,96045,1,0,0:0:0:0:
402,192,96118,1,0,0:0:0:0:
329,192,96191,1,0,0:0:0:0:
36,192,96263,128,8,96409:0:0:0:0:
182,192,96263,128,2,96409:0:0:0:0:
256,192,96263,1,0,0:0:0:0:
402,192,96700,1,0,0:0:0:70:normalwhistle.wav
109,192,96846,128,8,96992:0:0:0:0:
256,192,96846,128,2,96992:0:0:0:0:
402,192,97137,1,0,0:0:0:70:normalwhistle.wav
182,192,97283,1,2,0:0:0:0:
36,192,97429,128,8,97574:0:0:0:0:
109,192,97429,128,2,97574:0:0:0:0:
402,192,97429,1,0,0:0:0:0:
109,192,97720,128,2,97865:0:0:0:0:
256,192,97720,1,0,0:0:0:70:normalwhistle.wav
402,192,97865,1,0,0:0:0:0:
182,192,98011,128,8,98157:0:0:0:0:
256,192,98011,128,2,98157:0:0:0:0:
402,192,98302,1,0,0:0:0:0:
329,192,98375,1,0,0:0:0:0:
256,192,98448,1,0,0:0:0:0:
182,192,98521,1,0,0:0:0:0:
36,192,98594,128,8,98885:0:0:0:0:
109,192,98594,128,2,98885:0:0:0:0:
329,192,98594,128,0,99030:0:0:0:70:normalwhistle.wav
402,192,98594,128,0,99322:0:0:0:70:normalclap.wav
36,192,99030,128,0,99759:0:0:0:70:normalclap.wav
109,192,99030,128,0,99759:0:0:0:70:normalwhistle.wav
329,192,99176,128,8,99322:0:0:0:0:
329,192,99467,128,0,100196:0:0:0:70:normalclap.wav
402,192,99467,128,0,99613:0:0:0:70:normalwhistle.wav
402,192,99759,128,8,100196:0:0:0:0:
36,192,99904,128,0,100196:0:0:0:70:normalclap.wav
109,192,99904,128,0,100196:0:0:0:70:normalwhistle.wav
36,192,100341,128,2,100487:0:0:0:0:
109,192,100341,128,8,100487:0:0:0:0:
329,192,100341,128,0,100487:0:0:0:70:normalwhistle.wav
402,192,100341,128,0,100487:0:0:0:70:normalclap.wav
109,192,100632,128,2,100778:0:0:0:0:
182,192,100632,128,0,100778:0:0:0:70:normalwhistle.wav
402,192,100632,128,0,100778:0:0:0:70:normalclap.wav
475,192,100632,128,0,100778:0:0:0:0:
36,192,100924,128,2,101069:0:0:0:0:
109,192,100924,128,8,101069:0:0:0:0:
256,192,100924,128,0,101069:0:0:0:0:
475,192,100924,1,0,0:0:0:70:normalfinish.wav
402,192,101215,1,0,0:0:0:70:normalwhistle.wav
475,192,101361,1,0,0:0:0:0:
36,192,101506,128,8,101652:0:0:0:0:
182,192,101506,128,2,101652:0:0:0:0:
256,192,101506,128,0,101652:0:0:0:0:
329,192,101506,1,0,0:0:0:0:
402,192,101797,1,0,0:0:0:70:normalwhistle.wav
475,192,101797,1,0,0:0:0:0:
256,192,101943,1,2,0:0:0:0:
36,192,102089,128,8,102234:0:0:0:0:
182,192,102089,128,2,102234:0:0:0:0:
475,192,102089,1,0,0:0:0:0:
109,192,102089,128,0,102234:0:0:0:0:
329,192,102089,1,0,0:0:0:70:normalfinish.wav
109,192,102380,128,2,102526:0:0:0:0:
36,192,102380,128,0,102526:0:0:0:0:
402,192,102380,1,0,0:0:0:70:normalwhistle.wav
475,192,102526,1,0,0:0:0:0:
36,192,102671,128,2,102817:0:0:0:0:
182,192,102671,1,8,0:0:0:0:
256,192,102671,1,0,0:0:0:0:
329,192,102963,1,0,0:0:0:70:normalwhistle.wav
475,192,102963,1,0,0:0:0:0:
109,192,103108,1,2,0:0:0:0:
36,192,103254,128,8,103399:0:0:0:0:
256,192,103254,128,2,103399:0:0:0:0:
402,192,103254,1,0,0:0:0:0:
182,192,103254,128,0,103399:0:0:0:0:
475,192,103254,1,0,0:0:0:70:normalfinish.wav
36,192,103545,128,2,103691:0:0:0:0:
109,192,103545,128,0,103691:0:0:0:0:
329,192,103545,1,0,0:0:0:70:normalwhistle.wav
475,192,103691,1,0,0:0:0:70:normalwhistle.wav
36,192,103836,128,8,103982:0:0:0:0:
109,192,103836,128,2,103982:0:0:0:0:
182,192,103836,128,0,103982:0:0:0:0:
402,192,103836,1,0,0:0:0:0:
256,192,103982,128,2,104128:0:0:0:0:
329,192,104128,1,0,0:0:0:70:normalwhistle.wav
475,192,104128,1,0,0:0:0:0:
256,192,104273,128,2,104419:0:0:0:0:
402,192,104273,1,0,0:0:0:0:
109,192,104419,128,8,104564:0:0:0:0:
36,192,104419,128,2,104564:0:0:0:0:
329,192,104419,1,0,0:0:0:0:
182,192,104419,128,0,104564:0:0:0:0:
475,192,104419,1,0,0:0:0:70:normalfinish.wav
329,192,104564,1,0,0:0:0:70:normalwhistle.wav
109,192,104710,128,2,104856:0:0:0:0:
182,192,104710,128,0,104856:0:0:0:0:
256,192,104710,1,0,0:0:0:70:normalwhistle.wav
475,192,104856,1,0,0:0:0:0:
36,192,105001,1,8,0:0:0:0:
182,192,105001,128,2,105147:0:0:0:0:
329,192,105001,1,0,0:0:0:0:
256,192,105293,128,2,105729:0:0:0:0:
475,192,105293,128,0,105584:0:0:0:70:normalwhistle.wav
182,192,105438,128,0,105875:0:0:0:70:normalwhistle.wav
109,192,105584,128,2,106021:0:0:0:0:
402,192,105584,128,0,106166:0:0:0:70:normalfinish.wav
36,192,105584,1,8,0:0:0:0:
475,192,105729,128,0,106166:0:0:0:70:normalwhistle.wav
256,192,105875,128,0,106458:0:0:0:70:normalwhistle.wav
182,192,106021,128,0,106603:0:0:0:70:normalwhistle.wav
109,192,106166,128,2,106749:0:0:0:0:
329,192,106166,128,0,106312:0:0:0:70:normalfinish.wav
36,192,106166,1,8,0:0:0:0:
475,192,106312,128,0,106749:0:0:0:70:normalwhistle.wav
329,192,106458,128,0,107040:0:0:0:70:normalwhistle.wav
256,192,106603,128,0,106895:0:0:0:70:normalwhistle.wav
182,192,106749,128,2,107186:0:0:0:0:
402,192,106749,128,0,107186:0:0:0:70:normalfinish.wav
36,192,106749,1,8,0:0:0:0:
109,192,106895,128,0,107186:0:0:0:70:normalwhistle.wav
256,192,107040,128,0,107477:0:0:0:70:normalwhistle.wav
36,192,107186,128,2,107331:0:0:0:0:
329,192,107186,128,0,107623:0:0:0:70:normalwhistle.wav
182,192,107331,128,8,107623:0:0:0:0:
402,192,107331,128,0,107768:0:0:0:70:normalfinish.wav
36,192,107477,128,0,107914:0:0:0:70:normalwhistle.wav
109,192,107623,128,2,107914:0:0:0:0:
256,192,107623,128,0,107914:0:0:0:70:normalwhistle.wav
329,192,107768,128,0,107914:0:0:0:70:normalwhistle.wav
402,192,107914,1,0,0:0:0:70:normalclap.wav
475,192,107914,1,0,0:0:0:0:
36,192,107987,1,0,0:0:0:70:normalwhistle.wav
182,192,108060,1,0,0:0:0:70:normalwhistle.wav
329,192,108132,1,0,0:0:0:70:normalwhistle.wav
109,192,108205,1,0,0:0:0:70:normalclap.wav
475,192,108205,1,0,0:0:0:0:
256,192,108278,1,0,0:0:0:70:normalwhistle.wav
402,192,108351,1,0,0:0:0:70:normalwhistle.wav
36,192,108424,1,0,0:0:0:70:normalwhistle.wav
182,192,108496,1,0,0:0:0:70:normalclap.wav
329,192,108496,1,0,0:0:0:0:
475,192,108569,1,0,0:0:0:70:normalwhistle.wav
109,192,108642,1,0,0:0:0:70:normalwhistle.wav
256,192,108715,1,0,0:0:0:70:normalwhistle.wav
36,192,108788,1,0,0:0:0:70:normalclap.wav
402,192,108788,1,0,0:0:0:0:
182,192,108861,1,0,0:0:0:70:normalwhistle.wav
329,192,108933,1,0,0:0:0:70:normalwhistle.wav
475,192,109006,1,0,0:0:0:70:normalwhistle.wav
36,192,109079,1,0,0:0:0:70:normalclap.wav
256,192,109079,1,0,0:0:0:0:
329,192,109662,128,2,109807:0:0:0:0:
256,192,109953,128,2,110098:0:0:0:0:
36,192,110244,128,2,110463:0:0:0:0:
109,192,110244,128,4,110390:0:0:0:0:
182,192,110244,128,0,110317:0:0:0:70:normalwhistle.wav
475,192,110244,1,0,0:0:0:70:normalclap.wav
402,192,110317,1,0,0:0:0:0:
329,192,110390,1,0,0:0:0:0:
256,192,110463,128,0,110681:0:0:0:0:
182,192,110535,128,0,110681:0:0:0:70:normalwhistle.wav
475,192,110535,1,0,0:0:0:0:
109,192,110608,128,0,110681:0:0:0:0:
402,192,110681,128,0,110827:0:0:0:70:normalwhistle.wav
36,192,110827,1,8,0:0:0:0:
182,192,110827,1,0,0:0:0:70:normalwhistle.wav
256,192,110827,1,0,0:0:0:70:normalfinish.wav
329,192,110972,1,2,0:0:0:0:
475,192,111118,128,0,111263:0:0:0:70:normalwhistle.wav
109,192,111118,1,0,0:0:0:70:normalclap.wav
402,192,111118,128,2,111263:0:0:0:0:
36,192,111409,128,2,111555:0:0:0:0:
182,192,111409,128,0,111700:0:0:0:70:normalwhistle.wav
329,192,111409,128,0,111555:0:0:0:0:
256,192,111700,128,0,111992:0:0:0:70:normalwhistle.wav
329,192,111700,1,0,0:0:0:70:normalclap.wav
109,192,111846,128,2,111992:0:0:0:0:
402,192,111846,128,0,111992:0:0:0:70:normalwhistle.wav
36,192,111992,1,8,0:0:0:0:
182,192,111992,1,0,0:0:0:70:normalwhistle.wav
475,192,111992,1,0,0:0:0:70:normalfinish.wav
256,192,112137,1,2,0:0:0:0:
109,192,112283,128,2,112429:0:0:0:0:
182,192,112283,128,0,112429:0:0:0:70:normalwhistle.wav
36,192,112574,1,4,0:0:0:0:
329,192,112574,128,2,112647:0:0:0:0:
402,192,112574,128,0,112720:0:0:0:70:normalwhistle.wav
475,192,112574,128,0,112793:0:0:0:70:normalclap.wav
109,192,112647,1,0,0:0:0:0:
182,192,112720,1,0,0:0:0:0:
256,192,112793,128,0,113011:0:0:0:0:
36,192,112865,1,0,0:0:0:70:normalwhistle.wav
329,192,112865,128,0,113011:0:0:0:0:
402,192,112938,128,0,113011:0:0:0:0:
109,192,113011,128,0,113157:0:0:0:70:normalwhistle.wav
182,192,113157,1,8,0:0:0:0:
256,192,113157,1,0,0:0:0:70:normalwhistle.wav
475,192,113157,1,0,0:0:0:70:normalfinish.wav
256,192,113302,128,2,113448:0:0:0:0:
402,192,113302,128,0,113448:0:0:0:0:
36,192,113448,128,4,113666:0:0:0:0:
109,192,113448,128,2,113594:0:0:0:0:
182,192,113448,128,0,113521:0:0:0:70:normalwhistle.wav
329,192,113448,128,0,113594:0:0:0:70:normalclap.wav
475,192,113521,128,0,113594:0:0:0:0:
402,192,113594,128,0,113739:0:0:0:70:normalclap.wav
256,192,113666,128,0,113885:0:0:0:0:
182,192,113739,128,2,113885:0:0:0:0:
475,192,113739,128,0,114030:0:0:0:70:normalwhistle.wav
109,192,113812,128,0,113885:0:0:0:0:
36,192,113885,1,0,0:0:0:70:normalwhistle.wav
329,192,113885,1,0,0:0:0:70:normalclap.wav
109,192,114030,1,0,0:0:0:70:normalwhistle.wav
256,192,114030,1,0,0:0:0:70:normalclap.wav
402,192,114030,1,0,0:0:0:0:
36,192,114322,128,2,114467:0:0:0:0:
182,192,114322,128,8,114467:0:0:0:0:
329,192,114322,128,0,114467:0:0:0:70:normalwhistle.wav
475,192,114322,128,0,114467:0:0:0:70:normalfinish.wav
256,192,114467,1,0,0:0:0:70:normalclap.wav
36,192,114613,128,2,114759:0:0:0:0:
256,192,114613,128,0,114759:0:0:0:70:normalwhistle.wav
475,192,114613,128,0,114759:0:0:0:0:
36,192,114904,128,2,115050:0:0:0:0:
256,192,114904,128,4,114977:0:0:0:0:
329,192,114904,128,0,115050:0:0:0:70:normalwhistle.wav
402,192,114904,128,0,115123:0:0:0:70:normalclap.wav
109,192,114977,128,0,115050:0:0:0:0:
182,192,115050,1,0,0:0:0:0:
475,192,115123,128,0,115341:0:0:0:0:
256,192,115196,128,0,115341:0:0:0:70:normalwhistle.wav
329,192,115196,1,0,0:0:0:0:
36,192,115268,128,0,115341:0:0:0:0:
182,192,115341,128,0,115487:0:0:0:70:normalwhistle.wav
109,192,115487,1,8,0:0:0:0:
329,192,115487,1,0,0:0:0:70:normalwhistle.wav
475,192,115487,1,0,0:0:0:70:normalfinish.wav
182,192,115632,1,2,0:0:0:0:
402,192,115778,128,0,115924:0:0:0:70:normalwhistle.wav
109,192,115778,1,0,0:0:0:70:normalclap.wav
329,192,115778,128,2,115924:0:0:0:0:
109,192,116069,128,2,116361:0:0:0:0:
182,192,116069,128,0,116215:0:0:0:70:normalwhistle.wav
475,192,116069,128,0,116215:0:0:0:0:
182,192,116361,128,0,116652:0:0:0:70:normalwhistle.wav
329,192,116361,1,0,0:0:0:70:normalclap.wav
109,192,116506,128,2,116652:0:0:0:0:
402,192,116506,128,0,116652:0:0:0:70:normalwhistle.wav
36,192,116652,1,8,0:0:0:0:
256,192,116652,1,0,0:0:0:70:normalwhistle.wav
475,192,116652,1,0,0:0:0:70:normalfinish.wav
182,192,116797,1,2,0:0:0:0:
36,192,116943,128,2,117089:0:0:0:0:
109,192,116943,128,0,117089:0:0:0:70:normalwhistle.wav
109,192,117234,128,4,117453:0:0:0:0:
182,192,117234,128,2,117380:0:0:0:0:
256,192,117234,128,0,117307:0:0:0:70:normalwhistle.wav
475,192,117234,1,0,0:0:0:70:normalclap.wav
402,192,117307,1,0,0:0:0:0:
329,192,117380,1,0,0:0:0:0:
36,192,117453,128,0,117671:0:0:0:0:
182,192,117526,1,0,0:0:0:70:normalwhistle.wav
256,192,117526,128,0,117671:0:0:0:0:
475,192,117598,128,0,117671:0:0:0:0:
329,192,117671,128,0,117817:0:0:0:70:normalwhistle.wav
109,192,117817,1,8,0:0:0:0:
256,192,117817,1,0,0:0:0:70:normalwhistle.wav
402,192,117817,1,0,0:0:0:70:normalfinish.wav
109,192,117963,128,2,118108:0:0:0:0:
256,192,117963,128,0,118108:0:0:0:0:
182,192,118108,128,4,118254:0:0:0:0:
329,192,118108,128,2,118181:0:0:0:0:
402,192,118108,128,0,118254:0:0:0:70:normalwhistle.wav
475,192,118108,128,0,118327:0:0:0:70:normalclap.wav
36,192,118181,128,0,118254:0:0:0:0:
109,192,118254,128,0,118399:0:0:0:70:normalclap.wav
256,192,118327,128,0,118545:0:0:0:0:
36,192,118399,128,2,118691:0:0:0:0:
329,192,118399,128,0,118545:0:0:0:70:normalwhistle.wav
402,192,118472,128,0,118545:0:0:0:0:
182,192,118545,1,0,0:0:0:70:normalwhistle.wav
475,192,118545,1,0,0:0:0:70:normalclap.wav
109,192,118691,1,0,0:0:0:70:normalwhistle.wav
256,192,118691,1,0,0:0:0:70:normalclap.wav
402,192,118691,1,0,0:0:0:0:
36,192,118836,1,0,0:0:0:0:
109,192,118909,1,0,0:0:0:0:
182,192,118982,128,8,119128:0:0:0:0:
329,192,118982,128,0,119273:0:0:0:70:normalwhistle.wav
475,192,118982,128,0,119419:0:0:0:70:normalfinish.wav
36,192,119128,1,0,0:0:0:70:normalclap.wav
109,192,119128,128,0,119419:0:0:0:0:
256,192,119273,128,0,119419:0:0:0:0:
402,192,119419,1,0,0:0:0:0:
36,192,119564,128,4,119783:0:0:0:0:
182,192,119564,128,0,119710:0:0:0:70:normalwhistle.wav
329,192,119564,128,0,119637:0:0:0:70:normalclap.wav
475,192,119564,1,0,0:0:0:0:
402,192,119637,1,0,0:0:0:0:
329,192,119710,128,0,119856:0:0:0:70:normalwhistle.wav
109,192,119783,128,0,120001:0:0:0:0:
256,192,119856,128,0,120001:0:0:0:70:normalwhistle.wav
475,192,119856,1,0,0:0:0:0:
402,192,119929,128,0,120001:0:0:0:0:
36,192,120001,128,0,120147:0:0:0:70:normalwhistle.wav
109,192,120147,1,8,0:0:0:0:
256,192,120147,128,2,120293:0:0:0:0:
402,192,120147,1,0,0:0:0:70:normalwhistle.wav
475,192,120147,1,0,0:0:0:70:normalfinish.wav
329,192,120293,1,0,0:0:0:70:normalwhistle.wav
182,192,120365,128,2,120511:0:0:0:0:
36,192,120438,1,0,0:0:0:70:normalwhistle.wav
402,192,120438,1,0,0:0:0:70:normalclap.wav
475,192,120438,1,0,0:0:0:0:
109,192,120584,1,0,0:0:0:70:normalwhistle.wav
329,192,120584,128,2,120729:0:0:0:0:
182,192,120729,1,2,0:0:0:0:
256,192,120729,128,0,121312:0:0:0:70:normalwhistle.wav
475,192,120729,128,0,121312:0:0:0:0:
402,192,120875,1,0,0:0:0:70:normalwhistle.wav
36,192,121021,1,0,0:0:0:70:normalwhistle.wav
109,192,121021,1,0,0:0:0:70:normalclap.wav
329,192,121166,1,0,0:0:0:70:normalwhistle.wav
109,192,121312,128,10,121749:0:0:0:0:
182,192,121312,1,0,0:0:0:70:normalwhistle.wav
402,192,121312,128,0,121749:0:0:0:70:normalfinish.wav
256,192,121458,1,0,0:0:0:70:normalwhistle.wav
36,192,121603,128,2,121749:0:0:0:0:
475,192,121603,128,0,121749:0:0:0:70:normalwhistle.wav
256,192,121749,1,0,0:0:0:70:normalwhistle.wav
36,192,121895,1,2,0:0:0:0:
182,192,121895,128,4,121967:0:0:0:0:
329,192,121895,128,0,122040:0:0:0:70:normalwhistle.wav
475,192,121895,128,0,122113:0:0:0:70:normalclap.wav
109,192,121967,1,0,0:0:0:0:
182,192,122040,128,2,122186:0:0:0:0:
402,192,122113,128,0,122331:0:0:0:0:
36,192,122186,1,0,0:0:0:70:normalwhistle.wav
256,192,122186,128,0,122331:0:0:0:0:
109,192,122259,128,0,122331:0:0:0:0:
475,192,122331,128,0,122477:0:0:0:70:normalwhistle.wav
109,192,122477,1,8,0:0:0:0:
402,192,122477,1,0,0:0:0:70:normalfinish.wav
256,192,122477,128,2,122623:0:0:0:0:
36,192,122477,1,0,0:0:0:70:normalwhistle.wav
182,192,122623,1,0,0:0:0:70:normalwhistle.wav
329,192,122696,128,2,122841:0:0:0:0:
36,192,122768,1,4,0:0:0:0:
109,192,122768,1,0,0:0:0:70:normalwhistle.wav
402,192,122768,128,0,122914:0:0:0:70:normalclap.wav
475,192,122768,128,0,122987:0:0:0:0:
256,192,122841,1,0,0:0:0:0:
182,192,122914,128,0,123060:0:0:0:70:normalwhistle.wav
329,192,122987,128,0,123642:0:0:0:0:
36,192,123060,128,2,123642:0:0:0:0:
109,192,123060,1,0,0:0:0:70:normalwhistle.wav
402,192,123060,128,0,123205:0:0:0:0:
475,192,123132,128,0,123205:0:0:0:0:
182,192,123205,1,0,0:0:0:70:normalwhistle.wav
109,192,123351,1,0,0:0:0:70:normalwhistle.wav
475,192,123351,1,0,0:0:0:70:normalclap.wav
256,192,123496,1,0,0:0:0:70:normalwhistle.wav
182,192,123642,128,10,124079:0:0:0:0:
402,192,123642,1,0,0:0:0:70:normalwhistle.wav
475,192,123642,128,0,124079:0:0:0:70:normalfinish.wav
36,192,123788,1,0,0:0:0:70:normalwhistle.wav
109,192,123788,1,0,0:0:0:70:normalclap.wav
329,192,123933,1,0,0:0:0:70:normalwhistle.wav
256,192,124079,1,0,0:0:0:70:normalwhistle.wav
182,192,124225,1,2,0:0:0:0:
329,192,124225,128,4,124297:0:0:0:0:
402,192,124225,128,0,124370:0:0:0:70:normalwhistle.wav
475,192,124225,128,0,124443:0:0:0:70:normalclap.wav
109,192,124297,1,0,0:0:0:0:
36,192,124370,1,0,0:0:0:70:normalwhistle.wav
329,192,124443,128,0,124662:0:0:0:0:
182,192,124516,1,0,0:0:0:70:normalwhistle.wav
402,192,124516,128,0,124662:0:0:0:0:
475,192,124589,128,0,124662:0:0:0:0:
256,192,124662,128,0,124807:0:0:0:70:normalwhistle.wav
109,192,124807,1,8,0:0:0:0:
329,192,124807,1,0,0:0:0:70:normalwhistle.wav
475,192,124807,1,0,0:0:0:70:normalfinish.wav
182,192,124953,1,0,0:0:0:70:normalwhistle.wav
256,192,125098,128,2,125244:0:0:0:0:
402,192,125098,1,0,0:0:0:70:normalwhistle.wav
475,192,125098,128,0,125244:0:0:0:70:normalclap.wav
109,192,125244,1,0,0:0:0:70:normalwhistle.wav
36,192,125390,128,2,125681:0:0:0:0:
256,192,125390,128,0,125535:0:0:0:70:normalwhistle.wav
402,192,125390,128,0,125535:0:0:0:0:
182,192,125535,1,0,0:0:0:70:normalwhistle.wav
109,192,125681,1,0,0:0:0:70:normalwhistle.wav
329,192,125681,1,0,0:0:0:70:normalclap.wav
402,192,125681,128,0,125972:0:0:0:0:
36,192,125827,128,2,125972:0:0:0:0:
256,192,125827,128,0,125972:0:0:0:70:normalwhistle.wav
109,192,125972,1,8,0:0:0:0:
182,192,125972,1,0,0:0:0:70:normalwhistle.wav
475,192,125972,1,0,0:0:0:70:normalfinish.wav
329,192,126118,1,0,0:0:0:70:normalwhistle.wav
36,192,126263,128,2,126409:0:0:0:0:
256,192,126263,128,0,126409:0:0:0:70:normalwhistle.wav
182,192,126409,1,0,0:0:0:70:normalwhistle.wav
109,192,126555,128,4,126628:0:0:0:0:
256,192,126555,128,2,126700:0:0:0:0:
402,192,126555,128,0,126773:0:0:0:70:normalwhistle.wav
475,192,126555,1,0,0:0:0:70:normalclap.wav
182,192,126628,1,0,0:0:0:0:
36,192,126700,128,0,127137:0:0:0:70:normalwhistle.wav
182,192,126773,128,0,126992:0:0:0:0:
329,192,126846,128,0,126992:0:0:0:70:normalwhistle.wav
475,192,126919,128,0,126992:0:0:0:0:
109,192,126992,1,0,0:0:0:70:normalwhistle.wav
182,192,127137,1,8,0:0:0:0:
256,192,127137,128,2,127283:0:0:0:0:
329,192,127137,1,0,0:0:0:70:normalwhistle.wav
475,192,127137,1,0,0:0:0:70:normalfinish.wav
109,192,127283,1,0,0:0:0:0:
475,192,127283,128,2,127720:0:0:0:0:
36,192,127429,128,4,127647:0:0:0:0:
182,192,127429,128,0,127574:0:0:0:70:normalwhistle.wav
329,192,127429,128,0,127501:0:0:0:70:normalclap.wav
402,192,127501,1,0,0:0:0:0:
256,192,127574,1,0,0:0:0:70:normalwhistle.wav
109,192,127647,128,0,127865:0:0:0:0:
256,192,127720,128,0,127865:0:0:0:70:normalwhistle.wav
402,192,127793,128,0,127865:0:0:0:0:
36,192,127865,128,2,128302:0:0:0:0:
182,192,127865,1,0,0:0:0:70:normalwhistle.wav
475,192,127865,1,0,0:0:0:70:normalclap.wav
256,192,128011,1,0,0:0:0:70:normalwhistle.wav
402,192,128011,1,0,0:0:0:70:normalclap.wav
329,192,128157,1,0,0:0:0:70:normalwhistle.wav
109,192,128302,1,10,0:0:0:0:
182,192,128302,1,0,0:0:0:70:normalwhistle.wav
475,192,128302,1,0,0:0:0:70:normalfinish.wav
256,192,128448,1,0,0:0:0:70:normalwhistle.wav
402,192,128448,1,0,0:0:0:70:normalclap.wav
329,192,128594,1,0,0:0:0:70:normalwhistle.wav
256,192,128739,1,0,0:0:0:70:normalwhistle.wav
182,192,128885,128,2,129467:0:0:0:0:
329,192,129322,128,2,129467:0:0:0:0:
475,192,129759,128,2,129904:0:0:0:0:
182,192,130050,128,2,130632:0:0:0:0:
475,192,130050,1,0,0:0:0:0:
329,192,130487,128,2,130632:0:0:0:0:
475,192,130924,128,2,131069:0:0:0:0:
182,192,131215,128,2,131797:0:0:0:0:
329,192,131652,128,2,131797:0:0:0:0:
329,192,131943,128,2,132089:0:0:0:0:
475,192,132089,128,2,132234:0:0:0:0:
402,192,132234,128,2,132380:0:0:0:0:
36,192,132380,1,0,0:0:0:0:
329,192,132380,128,2,132963:0:0:0:0:
36,192,133254,128,2,133399:0:0:0:0:
329,192,133545,128,2,134128:0:0:0:0:
182,192,133982,128,2,134128:0:0:0:0:
36,192,134419,128,2,134564:0:0:0:0:
36,192,134710,1,0,0:0:0:0:
329,192,134710,128,2,135293:0:0:0:0:
182,192,135147,128,2,135293:0:0:0:0:
36,192,135584,128,2,135729:0:0:0:0:
329,192,135875,128,2,136458:0:0:0:0:
182,192,136312,128,2,136458:0:0:0:0:
182,192,136603,128,2,136749:0:0:0:0:
36,192,136749,128,2,136895:0:0:0:0:
109,192,136895,128,2,137040:0:0:0:0:
182,192,137040,128,2,137623:0:0:0:0:
475,192,137040,1,0,0:0:0:0:
329,192,137623,128,2,137914:0:0:0:0:
402,192,137914,128,2,139225:0:0:0:0:
36,192,138205,1,0,0:0:0:0:
256,192,138205,1,0,0:0:0:70:normalwhistle.wav
475,192,138205,128,2,139079:0:0:0:0:
329,192,138496,1,0,0:0:0:70:normalwhistle.wav
329,192,138642,128,0,139370:0:0:0:70:normalwhistle.wav
182,192,138788,1,0,0:0:0:70:normalwhistle.wav
36,192,138933,128,2,139079:0:0:0:0:
109,192,139079,128,0,139225:0:0:0:70:normalwhistle.wav
182,192,139225,128,2,139370:0:0:0:0:
36,192,139370,1,0,0:0:0:0:
475,192,139370,1,0,0:0:0:70:normalwhistle.wav
256,192,139370,128,2,139516:0:0:0:0:
402,192,139516,1,0,0:0:0:70:normalwhistle.wav
256,192,139662,128,2,139807:0:0:0:0:
329,192,139662,1,0,0:0:0:70:normalwhistle.wav
109,192,139953,1,2,0:0:0:0:
329,192,139953,128,0,140244:0:0:0:70:normalwhistle.wav
182,192,140244,1,2,0:0:0:0:
402,192,140244,128,0,141555:0:0:0:70:normalwhistle.wav
475,192,140535,128,2,141409:0:0:0:0:
256,192,140535,1,0,0:0:0:70:normalwhistle.wav
329,192,140827,1,0,0:0:0:70:normalwhistle.wav
329,192,140972,128,0,141700:0:0:0:70:normalwhistle.wav
182,192,141118,1,0,0:0:0:70:normalwhistle.wav
36,192,141263,128,2,141409:0:0:0:0:
109,192,141409,128,0,141555:0:0:0:70:normalwhistle.wav
182,192,141555,128,2,141700:0:0:0:0:
475,192,141700,1,0,0:0:0:0:
256,192,141700,128,2,141846:0:0:0:0:
36,192,141700,1,0,0:0:0:70:normalwhistle.wav
256,192,141992,128,2,142137:0:0:0:0:
402,192,141992,1,0,0:0:0:70:normalwhistle.wav
329,192,142283,128,2,142574:0:0:0:0:
109,192,142283,1,0,0:0:0:70:normalwhistle.wav
182,192,142574,1,0,0:0:0:70:normalwhistle.wav
402,192,142574,128,2,143885:0:0:0:0:
109,192,142720,1,0,0:0:0:70:normalwhistle.wav
256,192,142865,1,0,0:0:0:0:
36,192,142865,1,0,0:0:0:70:normalwhistle.wav
475,192,142865,128,2,143739:0:0:0:0:
182,192,143011,1,0,0:0:0:70:normalwhistle.wav
329,192,143157,1,0,0:0:0:70:normalwhistle.wav
329,192,143302,128,2,144030:0:0:0:0:
256,192,143302,1,0,0:0:0:70:normalwhistle.wav
109,192,143448,1,0,0:0:0:70:normalwhistle.wav
36,192,143594,128,2,143739:0:0:0:0:
182,192,143594,1,0,0:0:0:70:normalwhistle.wav
109,192,143739,128,2,143885:0:0:0:0:
256,192,143739,1,0,0:0:0:70:normalwhistle.wav
182,192,143885,128,2,144030:0:0:0:0:
36,192,143885,1,0,0:0:0:70:normalwhistle.wav
109,192,144030,1,0,0:0:0:0:
256,192,144030,128,2,144176:0:0:0:0:
475,192,144030,1,0,0:0:0:70:normalwhistle.wav
402,192,144176,1,0,0:0:0:70:normalwhistle.wav
256,192,144322,128,2,144467:0:0:0:0:
329,192,144322,1,0,0:0:0:70:normalwhistle.wav
402,192,144467,1,0,0:0:0:70:normalwhistle.wav
475,192,144613,1,0,0:0:0:70:normalwhistle.wav
256,192,144759,1,0,0:0:0:70:normalwhistle.wav
182,192,144904,128,2,145050:0:0:0:0:
475,192,144904,1,0,0:0:0:70:normalwhistle.wav
256,192,145050,1,0,0:0:0:70:normalwhistle.wav
329,192,145196,1,2,0:0:0:0:
475,192,145196,1,0,0:0:0:70:normalclap.wav
182,192,145268,1,0,0:0:0:70:normalwhistle.wav
36,192,145341,1,0,0:0:0:70:normalwhistle.wav
329,192,145414,1,0,0:0:0:70:normalwhistle.wav
109,192,145487,1,0,0:0:0:70:normalclap.wav
475,192,145487,1,0,0:0:0:0:
256,192,145560,1,0,0:0:0:70:normalwhistle.wav
402,192,145632,1,0,0:0:0:70:normalwhistle.wav
109,192,145705,1,0,0:0:0:70:normalwhistle.wav
256,192,145778,1,0,0:0:0:70:normalclap.wav
475,192,145778,1,0,0:0:0:0:
36,192,145851,1,0,0:0:0:70:normalwhistle.wav
182,192,145924,1,0,0:0:0:70:normalwhistle.wav
329,192,145996,1,0,0:0:0:70:normalwhistle.wav
109,192,146069,1,0,0:0:0:70:normalclap.wav
475,192,146069,1,0,0:0:0:0:
256,192,146142,1,0,0:0:0:70:normalwhistle.wav
402,192,146215,1,0,0:0:0:70:normalwhistle.wav
109,192,146288,1,0,0:0:0:70:normalwhistle.wav
256,192,146361,1,0,0:0:0:70:normalclap.wav
475,192,146361,1,0,0:0:0:0:
36,192,146433,1,0,0:0:0:70:normalwhistle.wav
182,192,146506,1,0,0:0:0:70:normalclap.wav
329,192,146579,1,0,0:0:0:70:normalwhistle.wav
182,192,146652,1,0,0:0:0:70:normalclap.wav
475,192,146652,1,0,0:0:0:0:
36,192,146725,1,0,0:0:0:70:normalwhistle.wav
182,192,146797,1,0,0:0:0:70:normalclap.wav
329,192,146870,1,0,0:0:0:70:normalwhistle.wav
36,192,146943,1,0,0:0:0:70:normalclap.wav
182,192,146943,1,0,0:0:0:0:
475,192,147016,1,0,0:0:0:70:normalwhistle.wav
329,192,147089,1,0,0:0:0:70:normalclap.wav
182,192,147162,1,0,0:0:0:70:normalwhistle.wav
36,192,147234,1,0,0:0:0:70:normalclap.wav
329,192,147234,1,0,0:0:0:0:
475,192,147307,1,0,0:0:0:70:normalwhistle.wav
329,192,147380,1,0,0:0:0:70:normalclap.wav
182,192,147453,1,0,0:0:0:70:normalwhistle.wav
36,192,147526,1,0,0:0:0:70:normalclap.wav
36,192,147963,1,2,0:0:0:0:
36,192,148254,1,2,0:0:0:0:
182,192,148399,1,2,0:0:0:0:
182,192,148691,1,2,0:0:0:0:
182,192,149128,1,2,0:0:0:0:
182,192,149419,1,2,0:0:0:0:
329,192,149564,1,2,0:0:0:0:
329,192,149856,1,2,0:0:0:0:
329,192,150293,1,2,0:0:0:0:
329,192,150584,1,2,0:0:0:0:
475,192,150729,1,2,0:0:0:0:
329,192,150875,1,2,0:0:0:0:
182,192,151021,1,2,0:0:0:0:
109,192,151603,128,2,151749:0:0:0:0:
182,192,151603,128,0,151749:0:0:0:0:
329,192,151603,128,0,151749:0:0:0:0:
402,192,151603,128,0,151749:0:0:0:0:
109,192,151895,128,2,152040:0:0:0:0:
256,192,151895,128,0,152040:0:0:0:0:
402,192,151895,128,0,152040:0:0:0:0:
36,192,152186,128,2,152259:0:0:0:0:
109,192,152186,128,4,152331:0:0:0:0:
182,192,152186,128,0,152404:0:0:0:70:normalwhistle.wav
475,192,152186,128,0,152331:0:0:0:70:normalclap.wav
402,192,152259,128,0,152331:0:0:0:0:
329,192,152331,1,0,0:0:0:70:normalwhistle.wav
256,192,152404,128,0,152623:0:0:0:0:
109,192,152477,1,0,0:0:0:70:normalwhistle.wav
329,192,152477,128,0,152623:0:0:0:0:
402,192,152550,128,0,152623:0:0:0:0:
182,192,152623,128,0,152768:0:0:0:70:normalwhistle.wav
36,192,152768,1,8,0:0:0:0:
329,192,152768,1,0,0:0:0:70:normalwhistle.wav
475,192,152768,1,0,0:0:0:70:normalfinish.wav
182,192,152914,1,0,0:0:0:70:normalwhistle.wav
109,192,153060,128,2,153205:0:0:0:0:
182,192,153060,128,0,153205:0:0:0:70:normalwhistle.wav
402,192,153060,1,0,0:0:0:70:normalclap.wav
329,192,153205,1,0,0:0:0:70:normalwhistle.wav
36,192,153351,128,2,153496:0:0:0:0:
109,192,153351,128,0,153496:0:0:0:70:normalwhistle.wav
475,192,153351,128,0,153642:0:0:0:0:
256,192,153496,1,0,0:0:0:70:normalwhistle.wav
36,192,153642,128,0,153933:0:0:0:70:normalwhistle.wav
109,192,153642,1,0,0:0:0:70:normalclap.wav
402,192,153788,128,2,153933:0:0:0:0:
475,192,153788,128,0,153933:0:0:0:70:normalwhistle.wav
109,192,153933,1,8,0:0:0:0:
182,192,153933,1,0,0:0:0:70:normalwhistle.wav
256,192,153933,1,0,0:0:0:70:normalfinish.wav
329,192,154079,1,0,0:0:0:70:normalwhistle.wav
329,192,154225,128,2,154370:0:0:0:0:
402,192,154225,128,0,154370:0:0:0:70:normalwhistle.wav
256,192,154370,1,0,0:0:0:70:normalwhistle.wav
36,192,154516,1,4,0:0:0:0:
329,192,154516,128,2,154734:0:0:0:0:
402,192,154516,128,0,154662:0:0:0:70:normalwhistle.wav
475,192,154516,128,0,154589:0:0:0:70:normalclap.wav
109,192,154589,1,0,0:0:0:0:
182,192,154662,1,0,0:0:0:70:normalwhistle.wav
256,192,154734,128,0,154953:0:0:0:0:
182,192,154807,128,0,154953:0:0:0:70:normalwhistle.wav
402,192,154807,1,0,0:0:0:0:
109,192,154880,128,0,154953:0:0:0:0:
329,192,154953,128,0,155098:0:0:0:70:normalwhistle.wav
36,192,155098,1,8,0:0:0:0:
182,192,155098,1,0,0:0:0:70:normalwhistle.wav
402,192,155098,1,0,0:0:0:70:normalfinish.wav
256,192,155244,128,2,155390:0:0:0:0:
475,192,155244,128,0,155390:0:0:0:70:normalwhistle.wav
36,192,155390,128,4,155463:0:0:0:0:
109,192,155390,128,2,155535:0:0:0:0:
182,192,155390,128,0,155608:0:0:0:70:normalwhistle.wav
402,192,155390,128,0,155535:0:0:0:70:normalclap.wav
329,192,155463,128,0,155535:0:0:0:0:
475,192,155535,128,0,155681:0:0:0:70:normalwhistle.wav
256,192,155608,128,0,155827:0:0:0:0:
109,192,155681,128,2,155972:0:0:0:0:
329,192,155681,128,0,155827:0:0:0:70:normalwhistle.wav
402,192,155754,128,0,155827:0:0:0:0:
182,192,155827,1,0,0:0:0:70:normalwhistle.wav
475,192,155827,1,0,0:0:0:70:normalclap.wav
36,192,155972,1,0,0:0:0:70:normalwhistle.wav
329,192,155972,1,0,0:0:0:70:normalclap.wav
402,192,155972,1,0,0:0:0:0:
256,192,156118,1,0,0:0:0:70:normalwhistle.wav
36,192,156263,128,2,156409:0:0:0:0:
182,192,156263,128,8,156409:0:0:0:0:
329,192,156263,128,0,156409:0:0:0:70:normalwhistle.wav
475,192,156263,128,0,156409:0:0:0:70:normalfinish.wav
256,192,156409,1,0,0:0:0:70:normalwhistle.wav
36,192,156555,128,2,156700:0:0:0:0:
256,192,156555,128,0,156700:0:0:0:70:normalwhistle.wav
475,192,156555,128,0,156700:0:0:0:0:
402,192,156700,1,0,0:0:0:70:normalwhistle.wav
36,192,156846,128,2,156992:0:0:0:0:
256,192,156846,128,4,157064:0:0:0:0:
402,192,156846,128,0,156992:0:0:0:70:normalwhistle.wav
475,192,156846,128,0,156919:0:0:0:70:normalclap.wav
109,192,156919,128,0,156992:0:0:0:0:
182,192,156992,1,0,0:0:0:70:normalwhistle.wav
329,192,157064,128,0,157283:0:0:0:0:
182,192,157137,128,0,157283:0:0:0:70:normalwhistle.wav
402,192,157137,1,0,0:0:0:0:
109,192,157210,128,0,157283:0:0:0:0:
402,192,157283,128,0,157429:0:0:0:70:normalwhistle.wav
109,192,157429,1,8,0:0:0:0:
256,192,157429,1,0,0:0:0:70:normalwhistle.wav
475,192,157429,1,0,0:0:0:70:normalfinish.wav
182,192,157574,1,0,0:0:0:70:normalwhistle.wav
36,192,157720,128,2,157865:0:0:0:0:
182,192,157720,128,0,157865:0:0:0:70:normalwhistle.wav
475,192,157720,1,0,0:0:0:70:normalclap.wav
329,192,157865,1,0,0:0:0:70:normalwhistle.wav
109,192,158011,128,2,158157:0:0:0:0:
256,192,158011,128,0,158157:0:0:0:70:normalwhistle.wav
402,192,158011,128,0,158302:0:0:0:0:
182,192,158157,1,0,0:0:0:70:normalwhistle.wav
109,192,158302,128,0,158594:0:0:0:70:normalwhistle.wav
329,192,158302,1,0,0:0:0:70:normalclap.wav
256,192,158448,128,2,158594:0:0:0:0:
402,192,158448,128,0,158594:0:0:0:70:normalwhistle.wav
36,192,158594,1,8,0:0:0:0:
182,192,158594,1,0,0:0:0:70:normalwhistle.wav
475,192,158594,1,0,0:0:0:70:normalfinish.wav
329,192,158739,1,0,0:0:0:70:normalwhistle.wav
329,192,158885,128,2,159030:0:0:0:0:
475,192,158885,128,0,159030:0:0:0:70:normalwhistle.wav
182,192,159030,1,0,0:0:0:70:normalwhistle.wav
36,192,159176,128,4,159249:0:0:0:0:
109,192,159176,128,2,159322:0:0:0:0:
256,192,159176,128,0,159395:0:0:0:70:normalwhistle.wav
475,192,159176,1,0,0:0:0:70:normalclap.wav
402,192,159249,1,0,0:0:0:0:
329,192,159322,1,0,0:0:0:70:normalwhistle.wav
182,192,159395,128,0,159613:0:0:0:0:
109,192,159467,1,0,0:0:0:70:normalwhistle.wav
329,192,159467,128,0,159613:0:0:0:0:
402,192,159540,128,0,159613:0:0:0:0:
109,192,159613,128,0,159759:0:0:0:70:normalwhistle.wav
182,192,159759,1,8,0:0:0:0:
329,192,159759,1,0,0:0:0:70:normalwhistle.wav
475,192,159759,1,0,0:0:0:70:normalfinish.wav
182,192,159904,128,2,160050:0:0:0:0:
329,192,159904,128,0,160050:0:0:0:70:normalwhistle.wav
36,192,160050,128,4,160196:0:0:0:0:
256,192,160050,128,2,160268:0:0:0:0:
402,192,160050,128,0,160196:0:0:0:70:normalwhistle.wav
475,192,160050,128,0,160123:0:0:0:70:normalclap.wav
109,192,160123,128,0,160196:0:0:0:0:
182,192,160196,128,0,160341:0:0:0:70:normalwhistle.wav
329,192,160268,128,0,160487:0:0:0:0:
256,192,160341,128,2,160487:0:0:0:0:
475,192,160341,128,0,160632:0:0:0:70:normalwhistle.wav
109,192,160414,128,0,160487:0:0:0:0:
36,192,160487,1,0,0:0:0:70:normalwhistle.wav
402,192,160487,1,0,0:0:0:70:normalclap.wav
109,192,160632,1,0,0:0:0:70:normalwhistle.wav
182,192,160632,1,0,0:0:0:70:normalclap.wav
329,192,160632,1,0,0:0:0:0:
256,192,160778,1,0,0:0:0:70:normalwhistle.wav
329,192,160851,1,0,0:0:0:0:
36,192,160924,1,8,0:0:0:0:
182,192,160924,1,0,0:0:0:70:normalwhistle.wav
402,192,160924,1,0,0:0:0:70:normalfinish.wav
36,192,161069,1,0,0:0:0:70:normalclap.wav
329,192,161069,1,0,0:0:0:70:normalwhistle.wav
182,192,161215,1,0,0:0:0:0:
402,192,161361,1,0,0:0:0:0:
36,192,161506,1,4,0:0:0:0:
182,192,161506,128,0,161579:0:0:0:70:normalwhistle.wav
329,192,161506,128,0,161652:0:0:0:70:normalclap.wav
475,192,161506,128,0,161725:0:0:0:0:
109,192,161579,1,0,0:0:0:0:
182,192,161652,128,0,161797:0:0:0:70:normalwhistle.wav
402,192,161725,128,0,161943:0:0:0:0:
36,192,161797,1,0,0:0:0:70:normalwhistle.wav
329,192,161797,128,0,161943:0:0:0:0:
256,192,161870,128,0,161943:0:0:0:0:
475,192,161943,128,0,162089:0:0:0:70:normalwhistle.wav
109,192,162089,1,8,0:0:0:0:
402,192,162089,1,0,0:0:0:70:normalfinish.wav
256,192,162089,128,2,162234:0:0:0:0:
36,192,162089,1,0,0:0:0:70:normalwhistle.wav
182,192,162234,1,0,0:0:0:70:normalwhistle.wav
329,192,162307,128,2,162453:0:0:0:0:
36,192,162380,1,0,0:0:0:70:normalwhistle.wav
109,192,162380,1,0,0:0:0:70:normalclap.wav
475,192,162380,1,0,0:0:0:0:
402,192,162526,1,0,0:0:0:70:normalwhistle.wav
182,192,162526,128,2,162671:0:0:0:0:
36,192,162671,128,2,163254:0:0:0:0:
256,192,162671,128,0,163254:0:0:0:70:normalwhistle.wav
329,192,162671,1,0,0:0:0:0:
109,192,162817,1,0,0:0:0:70:normalwhistle.wav
402,192,162963,1,0,0:0:0:70:normalwhistle.wav
475,192,162963,1,0,0:0:0:70:normalclap.wav
182,192,163108,1,0,0:0:0:70:normalwhistle.wav
109,192,163254,128,10,163691:0:0:0:0:
329,192,163254,1,0,0:0:0:70:normalwhistle.wav
402,192,163254,128,0,163691:0:0:0:70:normalfinish.wav
256,192,163399,1,0,0:0:0:70:normalwhistle.wav
182,192,163545,128,2,163691:0:0:0:0:
329,192,163545,128,0,163691:0:0:0:70:normalwhistle.wav
36,192,163691,1,0,0:0:0:70:normalwhistle.wav
36,192,163836,128,2,164055:0:0:0:0:
182,192,163836,128,4,163982:0:0:0:0:
329,192,163836,128,0,163909:0:0:0:70:normalwhistle.wav
475,192,163836,1,0,0:0:0:70:normalclap.wav
402,192,163909,1,0,0:0:0:0:
329,192,163982,128,2,164128:0:0:0:0:
109,192,164055,128,0,164273:0:0:0:0:
182,192,164128,128,0,164273:0:0:0:70:normalwhistle.wav
475,192,164128,1,0,0:0:0:0:
256,192,164200,128,0,164273:0:0:0:0:
36,192,164273,128,0,164419:0:0:0:70:normalwhistle.wav
109,192,164419,1,8,0:0:0:0:
256,192,164419,128,2,164564:0:0:0:0:
402,192,164419,1,0,0:0:0:70:normalwhistle.wav
475,192,164419,1,0,0:0:0:70:normalfinish.wav
329,192,164564,1,0,0:0:0:70:normalwhistle.wav
182,192,164637,128,2,164783:0:0:0:0:
36,192,164710,128,4,164929:0:0:0:0:
109,192,164710,128,0,164856:0:0:0:70:normalwhistle.wav
402,192,164710,1,0,0:0:0:70:normalclap.wav
475,192,164710,1,0,0:0:0:0:
256,192,164783,1,0,0:0:0:0:
329,192,164856,128,0,165001:0:0:0:70:normalwhistle.wav
182,192,164929,128,0,165584:0:0:0:0:
109,192,165001,128,2,165147:0:0:0:0:
402,192,165001,1,0,0:0:0:70:normalwhistle.wav
475,192,165001,128,0,165584:0:0:0:0:
36,192,165074,128,0,165147:0:0:0:0:
329,192,165147,1,0,0:0:0:70:normalwhistle.wav
36,192,165293,1,0,0:0:0:70:normalwhistle.wav
402,192,165293,1,0,0:0:0:70:normalclap.wav
256,192,165438,1,0,0:0:0:70:normalwhistle.wav
36,192,165584,128,10,166021:0:0:0:0:
109,192,165584,1,0,0:0:0:70:normalwhistle.wav
329,192,165584,128,0,166021:0:0:0:70:normalfinish.wav
402,192,165729,1,0,0:0:0:70:normalwhistle.wav
475,192,165729,1,0,0:0:0:70:normalclap.wav
182,192,165875,1,0,0:0:0:70:normalwhistle.wav
256,192,166021,1,0,0:0:0:70:normalwhistle.wav
329,192,166166,128,2,166385:0:0:0:0:
402,192,166166,128,4,166312:0:0:0:0:
475,192,166166,128,0,166239:0:0:0:70:normalwhistle.wav
109,192,166166,1,0,0:0:0:70:normalclap.wav
182,192,166239,1,0,0:0:0:0:
36,192,166312,1,0,0:0:0:70:normalwhistle.wav
109,192,166385,128,0,166603:0:0:0:0:
256,192,166458,128,0,166603:0:0:0:70:normalwhistle.wav
475,192,166458,1,0,0:0:0:0:
402,192,166530,128,0,166603:0:0:0:0:
329,192,166603,128,0,166749:0:0:0:70:normalwhistle.wav
36,192,166749,1,8,0:0:0:0:
182,192,166749,1,0,0:0:0:70:normalwhistle.wav
475,192,166749,1,0,0:0:0:70:normalfinish.wav
329,192,166895,1,0,0:0:0:70:normalwhistle.wav
36,192,167040,128,2,167186:0:0:0:0:
109,192,167040,1,0,0:0:0:70:normalwhistle.wav
329,192,167040,128,0,167186:0:0:0:70:normalclap.wav
402,192,167186,1,0,0:0:0:70:normalwhistle.wav
109,192,167331,128,2,167477:0:0:0:0:
256,192,167331,128,0,167477:0:0:0:70:normalwhistle.wav
475,192,167331,128,0,167623:0:0:0:0:
329,192,167477,1,0,0:0:0:70:normalwhistle.wav
109,192,167623,128,0,167914:0:0:0:70:normalwhistle.wav
182,192,167623,1,0,0:0:0:70:normalclap.wav
402,192,167623,1,0,0:0:0:0:
256,192,167768,128,2,167914:0:0:0:0:
475,192,167768,128,0,167914:0:0:0:70:normalwhistle.wav
36,192,167914,1,8,0:0:0:0:
329,192,167914,1,0,0:0:0:70:normalwhistle.wav
402,192,167914,1,0,0:0:0:70:normalfinish.wav
182,192,168060,1,0,0:0:0:70:normalwhistle.wav
182,192,168205,128,2,168351:0:0:0:0:
475,192,168205,128,0,168351:0:0:0:70:normalwhistle.wav
329,192,168351,1,0,0:0:0:70:normalwhistle.wav
109,192,168496,128,2,168642:0:0:0:0:
182,192,168642,128,2,169662:0:0:0:0:
402,192,169079,128,2,169225:0:0:0:0:
329,192,169225,128,2,170244:0:0:0:0:
109,192,169662,128,2,169807:0:0:0:0:
475,192,169662,128,0,170244:0:0:0:0:
182,192,169807,128,2,170244:0:0:0:0:
36,192,170244,1,2,0:0:0:0:
256,192,170244,1,0,0:0:0:70:normalfinish.wav
402,192,170244,1,0,0:0:0:0:
109,192,170535,1,0,0:0:0:70:normalclap.wav
402,192,170535,1,0,0:0:0:0:
182,192,170681,1,0,0:0:0:70:normalclap.wav
329,192,170681,1,0,0:0:0:0:
36,192,170827,1,4,0:0:0:0:
109,192,170827,128,0,170972:0:0:0:70:normalwhistle.wav
256,192,170827,128,0,170899:0:0:0:70:normalclap.wav
475,192,170827,128,0,171118:0:0:0:0:
329,192,170899,128,0,171118:0:0:0:0:
182,192,170972,128,0,171118:0:0:0:70:normalwhistle.wav
36,192,171045,128,0,171118:0:0:0:0:
402,192,171118,128,0,171409:0:0:0:70:normalwhistle.wav
36,192,171263,128,0,171409:0:0:0:70:normalwhistle.wav
256,192,171409,1,8,0:0:0:0:
109,192,171409,128,0,171482:0:0:0:70:normalwhistle.wav
329,192,171409,1,0,0:0:0:70:normalfinish.wav
475,192,171409,128,0,172137:0:0:0:0:
182,192,171482,128,0,171555:0:0:0:0:
109,192,171555,128,0,171992:0:0:0:70:normalwhistle.wav
182,192,171700,128,0,171992:0:0:0:70:normalwhistle.wav
329,192,171700,128,0,171992:0:0:0:70:normalclap.wav
256,192,171992,1,0,0:0:0:70:normalwhistle.wav
256,192,172137,128,0,172574:0:0:0:70:normalwhistle.wav
329,192,172283,128,0,172574:0:0:0:70:normalwhistle.wav
475,192,172283,128,0,172574:0:0:0:70:normalclap.wav
36,192,172574,128,8,173302:0:0:0:0:
109,192,172574,1,0,0:0:0:70:normalwhistle.wav
182,192,172574,128,0,172865:0:0:0:70:normalfinish.wav
402,192,172574,128,0,172865:0:0:0:0:
256,192,172865,128,0,173157:0:0:0:70:normalwhistle.wav
402,192,173011,128,0,173157:0:0:0:70:normalwhistle.wav
109,192,173157,128,6,173229:0:0:0:0:
329,192,173157,1,0,0:0:0:70:normalwhistle.wav
475,192,173157,128,0,173739:0:0:0:70:normalclap.wav
256,192,173229,128,0,173594:0:0:0:0:
109,192,173302,128,0,173448:0:0:0:70:normalwhistle.wav
36,192,173375,128,0,173448:0:0:0:0:
182,192,173448,128,0,173594:0:0:0:70:normalwhistle.wav
36,192,173594,128,2,173739:0:0:0:0:
109,192,173594,128,0,173739:0:0:0:70:normalwhistle.wav
182,192,173739,1,8,0:0:0:0:
256,192,173739,128,0,174030:0:0:0:70:normalwhistle.wav
329,192,173739,1,0,0:0:0:70:normalfinish.wav
402,192,173739,128,0,173885:0:0:0:0:
182,192,173885,128,0,174176:0:0:0:70:normalwhistle.wav
402,192,174030,128,0,174322:0:0:0:70:normalclap.wav
475,192,174030,128,0,174322:0:0:0:70:normalwhistle.wav
256,192,174176,128,0,174322:0:0:0:70:normalwhistle.wav
109,192,174322,128,2,174904:0:0:0:0:
182,192,174322,1,0,0:0:0:70:normalwhistle.wav
402,192,174467,1,0,0:0:0:70:normalwhistle.wav
475,192,174467,1,0,0:0:0:70:normalclap.wav
182,192,174613,1,0,0:0:0:70:normalwhistle.wav
329,192,174613,1,0,0:0:0:70:normalclap.wav
36,192,174904,1,8,0:0:0:0:
256,192,174904,1,0,0:0:0:70:normalwhistle.wav
402,192,174904,1,0,0:0:0:70:normalfinish.wav
475,192,174904,1,0,0:0:0:0:
109,192,175050,1,0,0:0:0:70:normalwhistle.wav
329,192,175050,1,0,0:0:0:70:normalclap.wav
36,192,175196,1,2,0:0:0:0:
182,192,175196,1,0,0:0:0:70:normalwhistle.wav
475,192,175268,1,0,0:0:0:0:
329,192,175341,1,0,0:0:0:70:normalwhistle.wav
182,192,175414,1,0,0:0:0:0:
36,192,175487,128,4,175778:0:0:0:0:
256,192,175487,128,0,175560:0:0:0:70:normalwhistle.wav
402,192,175487,128,0,175632:0:0:0:70:normalclap.wav
475,192,175487,1,0,0:0:0:0:
182,192,175560,128,0,175778:0:0:0:0:
329,192,175632,128,0,175778:0:0:0:70:normalwhistle.wav
475,192,175705,128,0,175778:0:0:0:0:
109,192,175778,128,2,176069:0:0:0:0:
256,192,175778,1,0,0:0:0:70:normalwhistle.wav
475,192,175924,128,0,176069:0:0:0:70:normalwhistle.wav
36,192,176069,128,8,176797:0:0:0:0:
182,192,176069,1,0,0:0:0:70:normalwhistle.wav
402,192,176069,128,0,176142:0:0:0:70:normalfinish.wav
256,192,176069,1,0,0:0:0:0:
329,192,176142,128,0,176215:0:0:0:0:
402,192,176215,128,0,176652:0:0:0:70:normalwhistle.wav
182,192,176361,128,0,176652:0:0:0:70:normalwhistle.wav
329,192,176361,128,0,176652:0:0:0:70:normalclap.wav
256,192,176652,1,0,0:0:0:70:normalwhistle.wav
256,192,176797,128,0,177234:0:0:0:70:normalwhistle.wav
36,192,176943,128,0,177234:0:0:0:70:normalwhistle.wav
182,192,176943,128,0,177234:0:0:0:70:normalclap.wav
109,192,177234,128,2,177526:0:0:0:0:
329,192,177234,128,8,177526:0:0:0:0:
402,192,177234,1,0,0:0:0:70:normalwhistle.wav
475,192,177234,128,0,177963:0:0:0:70:normalfinish.wav
256,192,177526,128,0,177817:0:0:0:70:normalwhistle.wav
109,192,177671,128,0,177817:0:0:0:70:normalwhistle.wav
36,192,177817,128,6,178399:0:0:0:0:
182,192,177817,1,0,0:0:0:70:normalwhistle.wav
402,192,177817,128,0,177890:0:0:0:70:normalclap.wav
256,192,177890,128,0,178254:0:0:0:0:
402,192,177963,128,0,178108:0:0:0:70:normalwhistle.wav
475,192,178035,128,0,178108:0:0:0:0:
329,192,178108,128,0,178254:0:0:0:70:normalwhistle.wav
402,192,178254,128,2,178399:0:0:0:0:
475,192,178254,128,0,178399:0:0:0:70:normalwhistle.wav
109,192,178399,128,8,178545:0:0:0:0:
182,192,178399,1,0,0:0:0:70:normalwhistle.wav
256,192,178399,128,0,178691:0:0:0:70:normalfinish.wav
329,192,178399,1,0,0:0:0:0:
329,192,178545,128,0,178836:0:0:0:70:normalwhistle.wav
36,192,178691,128,0,178982:0:0:0:70:normalclap.wav
109,192,178691,128,0,178982:0:0:0:70:normalwhistle.wav
256,192,178836,128,0,178982:0:0:0:70:normalwhistle.wav
329,192,178982,1,2,0:0:0:0:
402,192,178982,128,0,179564:0:0:0:70:normalwhistle.wav
36,192,179128,1,0,0:0:0:70:normalwhistle.wav
109,192,179128,1,0,0:0:0:70:normalclap.wav
182,192,179273,1,0,0:0:0:70:normalwhistle.wav
329,192,179273,1,0,0:0:0:70:normalclap.wav
36,192,179564,1,8,0:0:0:0:
109,192,179564,1,0,0:0:0:70:normalwhistle.wav
256,192,179564,1,0,0:0:0:70:normalfinish.wav
475,192,179564,1,0,0:0:0:0:
182,192,179710,1,0,0:0:0:70:normalclap.wav
402,192,179710,1,0,0:0:0:70:normalwhistle.wav
36,192,179856,1,2,0:0:0:0:
329,192,179856,128,0,179929:0:0:0:0:
475,192,179856,1,0,0:0:0:0:
182,192,179929,1,0,0:0:0:0:
329,192,180001,1,0,0:0:0:0:
36,192,180147,1,2,0:0:0:0:
109,192,180147,128,4,180438:0:0:0:0:
329,192,180147,128,0,180220:0:0:0:70:normalwhistle.wav
402,192,180147,128,0,180293:0:0:0:70:normalclap.wav
182,192,180220,128,0,180438:0:0:0:0:
256,192,180293,128,0,180438:0:0:0:70:normalwhistle.wav
329,192,180365,128,0,180438:0:0:0:0:
402,192,180438,128,0,180729:0:0:0:70:normalwhistle.wav
36,192,180584,128,0,180729:0:0:0:70:normalwhistle.wav
475,192,180729,128,8,180802:0:0:0:0:
256,192,180729,128,0,181458:0:0:0:70:normalwhistle.wav
182,192,180729,1,0,0:0:0:70:normalfinish.wav
109,192,180729,1,0,0:0:0:0:
329,192,180802,128,0,180875:0:0:0:0:
475,192,180875,128,0,181312:0:0:0:70:normalwhistle.wav
36,192,181021,128,0,181312:0:0:0:70:normalwhistle.wav
109,192,181021,128,0,181312:0:0:0:70:normalclap.wav
329,192,181021,1,0,0:0:0:0:
182,192,181166,1,0,0:0:0:70:normalwhistle.wav
402,192,181312,1,0,0:0:0:70:normalwhistle.wav
402,192,181458,128,0,181895:0:0:0:70:normalwhistle.wav
109,192,181603,1,0,0:0:0:70:normalwhistle.wav
182,192,181603,128,0,181895:0:0:0:70:normalclap.wav
256,192,181603,128,0,181895:0:0:0:0:
329,192,181749,1,0,0:0:0:70:normalwhistle.wav
36,192,181895,1,8,0:0:0:0:
109,192,181895,128,0,182623:0:0:0:70:normalwhistle.wav
329,192,181895,128,0,182186:0:0:0:70:normalfinish.wav
475,192,181895,128,0,182186:0:0:0:0:
182,192,182040,1,0,0:0:0:70:normalwhistle.wav
256,192,182186,128,0,182477:0:0:0:70:normalwhistle.wav
329,192,182331,128,0,182477:0:0:0:70:normalwhistle.wav
182,192,182477,128,6,182550:0:0:0:0:
402,192,182477,1,0,0:0:0:70:normalwhistle.wav
475,192,182477,128,0,183060:0:0:0:70:normalclap.wav
329,192,182550,128,0,182914:0:0:0:0:
182,192,182623,128,0,182768:0:0:0:70:normalwhistle.wav
109,192,182696,128,0,182768:0:0:0:0:
256,192,182768,128,0,182914:0:0:0:70:normalwhistle.wav
109,192,182914,128,2,183060:0:0:0:0:
182,192,182914,128,0,183060:0:0:0:70:normalwhistle.wav
36,192,183060,1,8,0:0:0:0:
256,192,183060,128,0,183351:0:0:0:70:normalwhistle.wav
329,192,183060,128,0,183205:0:0:0:70:normalfinish.wav
402,192,183060,1,0,0:0:0:0:
182,192,183205,128,0,183496:0:0:0:70:normalwhistle.wav
475,192,183351,128,0,183642:0:0:0:70:normalclap.wav
329,192,183351,128,0,183642:0:0:0:70:normalwhistle.wav
256,192,183496,128,0,183642:0:0:0:70:normalwhistle.wav
109,192,183642,128,2,184225:0:0:0:0:
182,192,183642,1,0,0:0:0:70:normalwhistle.wav
402,192,183788,1,0,0:0:0:70:normalwhistle.wav
475,192,183788,1,0,0:0:0:70:normalclap.wav
182,192,183933,1,0,0:0:0:70:normalwhistle.wav
329,192,183933,1,0,0:0:0:70:normalclap.wav
256,192,184079,1,0,0:0:0:70:normalwhistle.wav
36,192,184225,1,8,0:0:0:0:
256,192,184225,1,0,0:0:0:70:normalwhistle.wav
402,192,184225,1,0,0:0:0:70:normalfinish.wav
475,192,184225,1,0,0:0:0:0:
109,192,184370,1,0,0:0:0:70:normalwhistle.wav
329,192,184370,1,0,0:0:0:70:normalclap.wav
36,192,184516,1,2,0:0:0:0:
329,192,184516,128,0,184589:0:0:0:70:normalwhistle.wav
475,192,184516,1,0,0:0:0:0:
182,192,184589,1,0,0:0:0:0:
329,192,184662,1,0,0:0:0:70:normalwhistle.wav
109,192,184807,128,2,184953:0:0:0:0:
182,192,184807,128,4,184880:0:0:0:0:
402,192,184807,128,0,185098:0:0:0:70:normalwhistle.wav
475,192,184807,1,0,0:0:0:70:normalclap.wav
329,192,184880,128,0,185098:0:0:0:0:
256,192,184953,128,0,185098:0:0:0:70:normalwhistle.wav
182,192,185026,128,0,185098:0:0:0:0:
109,192,185098,128,0,185390:0:0:0:70:normalwhistle.wav
475,192,185244,128,0,185390:0:0:0:70:normalwhistle.wav
329,192,185390,1,8,0:0:0:0:
256,192,185390,128,0,186118:0:0:0:70:normalfinish.wav
36,192,185390,128,0,185463:0:0:0:0:
402,192,185390,1,0,0:0:0:70:normalwhistle.wav
182,192,185463,128,0,185535:0:0:0:0:
36,192,185535,128,0,185972:0:0:0:70:normalwhistle.wav
182,192,185681,1,0,0:0:0:70:normalwhistle.wav
402,192,185681,128,0,185972:0:0:0:70:normalclap.wav
475,192,185681,128,0,185972:0:0:0:0:
329,192,185827,1,0,0:0:0:70:normalwhistle.wav
109,192,185972,1,0,0:0:0:70:normalwhistle.wav
109,192,186118,128,0,186555:0:0:0:70:normalwhistle.wav
256,192,186263,128,0,186555:0:0:0:70:normalwhistle.wav
329,192,186263,128,0,186555:0:0:0:70:normalclap.wav
402,192,186263,1,0,0:0:0:0:
182,192,186409,1,0,0:0:0:70:normalwhistle.wav
36,192,186555,128,8,186846:0:0:0:0:
182,192,186555,128,0,186846:0:0:0:70:normalwhistle.wav
402,192,186555,1,0,0:0:0:70:normalfinish.wav
475,192,186555,128,0,187574:0:0:0:0:
256,192,186700,1,0,0:0:0:70:normalwhistle.wav
329,192,186846,128,0,187137:0:0:0:70:normalwhistle.wav
109,192,186992,128,0,187137:0:0:0:70:normalwhistle.wav
36,192,187137,1,2,0:0:0:0:
182,192,187137,1,0,0:0:0:70:normalwhistle.wav
256,192,187137,128,0,187429:0:0:0:70:normalclap.wav
402,192,187137,128,0,187283:0:0:0:0:
36,192,187283,128,2,187865:0:0:0:0:
182,192,187283,128,0,188011:0:0:0:70:normalwhistle.wav
402,192,187429,128,0,187574:0:0:0:70:normalwhistle.wav
256,192,187574,128,0,187720:0:0:0:70:normalwhistle.wav
329,192,187720,1,10,0:0:0:0:
402,192,187720,1,0,0:0:0:70:normalwhistle.wav
475,192,187720,1,0,0:0:0:70:normalfinish.wav
329,192,187865,128,2,188448:0:0:0:0:
475,192,187865,128,0,188302:0:0:0:70:normalwhistle.wav
36,192,188011,128,0,188448:0:0:0:70:normalwhistle.wav
182,192,188157,128,0,188302:0:0:0:70:normalwhistle.wav
109,192,188302,1,2,0:0:0:0:
256,192,188302,1,0,0:0:0:70:normalwhistle.wav
109,192,188448,128,2,188885:0:0:0:0:
256,192,188448,128,0,188885:0:0:0:70:normalwhistle.wav
475,192,188448,128,0,188885:0:0:0:70:normalclap.wav
36,192,188594,128,0,188885:0:0:0:70:normalwhistle.wav
329,192,188594,128,0,188885:0:0:0:70:normalclap.wav
402,192,188885,128,2,189322:0:0:0:0:
