osu file format v14

[General]
AudioFilename: audio.mp3
AudioLeadIn: 0
PreviewTime: 58703
Countdown: 0
SampleSet: Soft
StackLeniency: 0.7
Mode: 0
LetterboxInBreaks: 0
WidescreenStoryboard: 0

[Editor]
Bookmarks: 23533,38533,53533,76033,106033,121033,136033,158533,173543
DistanceSpacing: 0.9
BeatDivisor: 3
GridSize: 8
TimelineZoom: 2.2

[Metadata]
Title:Adios
TitleUnicode:Adios
Artist:EVERGLOW
ArtistUnicode:에버글로우
Creator:iYiyo
Version:Extra
Source:
Tags:Dora- CharmCaster Fragmented TmacBoris korean korea kpop k-pop pop hush E:U 이유 Sihyeon 시현 Mia 미아 Onda 온다 Aisha 아샤 Yiren 이런 1st mini album Reminiscence
BeatmapID:2174965
BeatmapSetID:1028706

[Difficulty]
HPDrainRate:6
CircleSize:3.8
OverallDifficulty:8
ApproachRate:9.2
SliderMultiplier:2.4
SliderTickRate:1

[Events]
//Background and Video events
0,0,"adios.jpg",0,0
//Break Periods
2,38580,45510
2,53580,60041
2,136080,142541
//Storyboard Layer 0 (Background)
//Storyboard Layer 1 (Fail)
//Storyboard Layer 2 (Pass)
//Storyboard Layer 3 (Foreground)
//Storyboard Layer 4 (Overlay)
//Storyboard Sound Samples

[TimingPoints]
1080,937.5,4,2,2,45,1,0
8580,468.75,4,2,2,65,1,0
8580,-133.333333333333,4,2,2,65,0,0
20298,-133.333333333333,4,2,2,30,0,0
20610,-133.333333333333,4,2,2,60,0,0
20611,-133.333333333333,4,2,2,60,0,0
20767,-133.333333333333,4,2,2,65,0,0
23111,-100,4,2,2,65,0,0
23580,-100,4,2,2,65,0,0
26548,-100,4,2,2,55,0,0
27330,-100,4,2,2,65,0,0
30610,-100,4,2,2,55,0,0
30611,-100,4,2,2,55,0,0
31080,-100,4,2,2,65,0,0
34048,-100,4,2,2,55,0,0
34830,-100,4,2,2,50,0,0
38580,-100,4,2,3,60,0,0
40455,495.867768595041,4,2,3,60,1,0
41198,485.82995951417,4,2,3,60,1,0
41562,469.483568075117,4,2,3,60,1,0
41914,431.654676258993,4,2,3,60,1,0
42345,476.190476190476,4,2,3,60,1,0
44249,487.190476190476,4,2,3,60,1,0
45710,370.37037037037,4,2,3,60,1,0
46080,468.75,4,2,3,70,1,0
49830,-100,4,2,3,75,0,0
51705,-100,4,2,3,85,0,0
52642,-100,4,2,3,90,0,0
53345,-100,4,2,3,40,0,0
53580,-333.333333333333,4,2,3,40,0,0
58736,-333.333333333333,4,2,3,30,0,0
60611,-66.6666666666667,4,2,4,80,0,0
61080,-83.3333333333333,4,2,4,85,0,1
74205,-83.3333333333333,4,2,4,90,0,1
75611,-83.3333333333333,4,2,4,95,0,1
76080,-83.3333333333333,4,2,4,90,0,1
89205,-83.3333333333333,4,2,4,45,0,1
91080,-100,4,2,2,60,0,0
102798,-100,4,2,2,30,0,0
103110,-100,4,2,2,60,0,0
103111,-100,4,2,2,60,0,0
103267,-100,4,2,2,65,0,0
106080,-100,4,2,2,65,0,0
111705,-100,4,2,2,85,0,0
112017,-100,4,2,2,75,0,0
112330,-100,4,2,2,65,0,0
112642,-100,4,2,2,80,0,0
113580,-100,4,2,2,65,0,0
117330,-100,4,2,2,50,0,0
121080,-100,4,2,3,60,0,0
128580,-100,4,2,3,70,0,0
132330,-100,4,2,3,75,0,0
134205,-100,4,2,3,85,0,0
135142,-100,4,2,3,90,0,0
135845,-100,4,2,3,40,0,0
136080,-333.333333333333,4,2,3,40,0,0
141705,-333.333333333333,4,2,3,30,0,0
143111,-66.6666666666667,4,2,4,80,0,0
143580,-83.3333333333333,4,2,4,85,0,1
156705,-83.3333333333333,4,2,4,90,0,1
158111,-83.3333333333333,4,2,4,95,0,1
158580,-83.3333333333333,4,2,4,90,0,1
171705,-83.3333333333333,4,2,5,65,0,1
172642,-83.3333333333333,4,2,4,70,0,1
173111,-83.3333333333333,4,2,4,80,0,1
173580,-66.6666666666667,4,2,6,85,0,1
173892,-66.6666666666667,4,2,4,85,0,1
174517,-66.6666666666667,4,2,10,85,0,1
174830,-66.6666666666667,4,2,4,85,0,1
175455,-66.6666666666667,4,2,11,85,0,1
175611,-66.6666666666667,4,2,4,85,0,1
176392,-66.6666666666667,4,2,12,85,0,1
176861,-66.6666666666667,4,2,4,85,0,1
178267,-66.6666666666667,4,2,10,85,0,1
178580,-66.6666666666667,4,2,4,85,0,1
179205,-66.6666666666667,4,2,10,85,0,1
179673,-66.6666666666667,4,2,14,85,0,1
180142,-66.6666666666667,4,2,4,85,0,1
181080,-66.6666666666667,4,2,6,85,0,1
181392,-66.6666666666667,4,2,4,85,0,1
182017,-66.6666666666667,4,2,10,85,0,1
182330,-66.6666666666667,4,2,4,85,0,1
182955,-66.6666666666667,4,2,11,85,0,1
183111,-66.6666666666667,4,2,4,85,0,1
183892,-66.6666666666667,4,2,12,85,0,1
184361,-66.6666666666667,4,2,4,85,0,1
184830,-83.3333333333333,4,2,4,85,0,1
185298,-83.3333333333333,4,2,4,70,0,1
186685,468.75,4,2,1,30,1,0

[Colours]
Combo1 : 255,102,102
Combo2 : 148,148,148
Combo3 : 255,255,136
Combo4 : 128,128,255

[HitObjects]
384,331,1080,6,0,P|374:293|381:254,1,80,2|0,0:2|0:0,0:0:0:0:
454,232,1548,2,0,P|464:193|457:154,1,80,2|0,0:2|0:0,0:0:0:0:
396,108,2017,1,2,0:2:0:0:
192,327,2330,1,0,0:0:0:0:
192,327,2486,2,0,P|182:288|189:249,1,80,2|0,0:2|0:0,0:0:0:0:
226,183,2955,2,0,L|264:192,2,40,2|0|0,0:2|0:0|0:0,0:0:0:0:
303,127,3423,2,0,L|340:157,2,40,2|0|0,0:2|0:0|0:0,0:0:0:0:
396,108,3892,2,0,L|447:216,1,120,2|0,0:2|0:0,0:0:0:0:
128,331,4830,6,0,P|138:293|131:254,1,80,2|0,0:2|0:0,0:0:0:0:
58,232,5298,2,0,P|48:193|55:154,1,80,2|0,0:2|0:0,0:0:0:0:
116,108,5767,1,2,0:2:0:0:
320,327,6080,1,0,0:0:0:0:
320,327,6236,2,0,P|330:288|323:249,1,80,2|0,0:2|0:0,0:0:0:0:
286,183,6705,2,0,L|247:192,2,40,2|0|0,0:2|0:0|0:0,0:0:0:0:
209,127,7173,2,0,L|171:157,2,40,2|0|0,0:2|0:0|0:0,0:0:0:0:
116,108,7642,2,0,L|64:216,1,120,2|0,0:2|0:0,0:0:0:0:
441,311,8580,6,0,P|390:281|331:290,1,120.000004577637,0|0,3:2|0:0,0:0:0:0:
276,356,9048,2,0,L|277:237,1,120.000004577637,2|0,0:2|0:0,0:0:0:0:
235,162,9517,1,0,1:2:0:0:
155,136,9673,1,0,0:0:0:0:
77,167,9830,1,0,0:0:0:0:
43,244,9986,1,2,3:2:0:0:
235,162,10298,5,0,0:0:0:0:
235,162,10455,2,0,L|225:234,2,60.0000022888184
320,160,10923,2,0,L|330:232,2,60.0000022888184,0|0|0,3:2|0:0|0:0,0:0:0:0:
276,87,11392,1,2,1:2:0:0:
438,44,11548,5,0,0:0:0:0:
435,64,11705,1,0,0:0:0:0:
466,131,11861,1,2,3:2:0:0:
463,151,12018,1,0,0:0:0:0:
494,218,12174,1,0,0:0:0:0:
467,293,12330,6,0,L|347:279,1,120.000004577637,2|0,3:2|0:0,0:0:0:0:
308,205,12798,2,0,L|188:218,1,120.000004577637,2|0,0:2|0:0,0:0:0:0:
147,292,13267,1,0,1:2:0:0:
70,258,13423,1,0,0:0:0:0:
43,180,13580,1,0,0:0:0:0:
65,101,13736,1,2,3:2:0:0:
313,59,14048,5,0,0:0:0:0:
313,59,14205,2,0,L|383:53,2,60.0000022888184
313,142,14673,2,0,L|383:148,2,60.0000022888184,0|0|0,3:2|0:0|0:0,0:0:0:0:
236,106,15142,1,2,1:2:0:0:
488,106,15611,1,2,3:2:0:0:
342,348,15923,5,0,0:0:0:0:
342,348,16080,2,0,B|319:315|319:315|335:237,1,120.000004577637,2|0,3:2|0:0,0:0:0:0:
276,177,16548,2,0,L|300:60,1,120.000004577637,2|2,0:2|0:2,0:0:0:0:
224,22,17017,1,0,1:2:0:0:
146,53,17173,1,0,0:0:0:0:
112,130,17330,1,0,0:0:0:0:
142,208,17486,1,2,3:2:0:0:
441,234,17798,5,0,0:0:0:0:
441,234,17955,2,0,P|444:263|438:293,2,60.0000022888184
375,181,18423,2,0,P|371:151|377:121,2,60.0000022888184,0|0|0,3:2|0:0|0:0,0:0:0:0:
319,244,18892,1,2,1:2:0:0:
162,46,19205,1,0,0:0:0:0:
162,46,19361,1,2,3:2:0:0:
28,259,19673,5,0,0:0:0:0:
28,259,19830,2,0,L|147:262,1,120.000004577637,2|2,3:2|0:2,0:0:0:0:
185,187,20298,2,0,L|214:187,4,30.0000011444092,2|0|0|0|2,1:2|1:2|1:2|1:2|1:2,0:0:0:0:
156,101,20767,1,2,1:2:0:0:
221,39,20923,1,0,0:0:0:0:
311,30,21080,1,0,0:0:0:0:
389,76,21236,2,0,L|382:195,1,120.000004577637,2|2,3:2|0:2,0:0:0:0:
449,257,21705,6,0,P|394:233|334:238,1,120.000004577637,2|2,0:2|1:2,0:0:0:0:
282,311,22173,1,2,3:2:0:0:
53,365,22486,1,0,0:0:0:0:
53,365,22642,2,0,L|51:245,1,120.000004577637,2|0,1:2|0:0,0:0:0:0:
0,186,23111,2,0,P|76:204|151:177,1,160,2|0,3:1|0:0,0:0:0:0:
355,55,23580,5,8,3:2:0:0:
432,34,23736,1,8,0:2:0:0:
488,90,23892,1,8,0:2:0:0:
468,168,24048,1,10,0:2:0:0:
390,188,24205,1,10,0:2:0:0:
334,132,24361,1,10,0:2:0:0:
355,54,24517,2,0,P|393:44|431:54,2,80,10|8|8,1:2|0:2|0:2,0:0:0:0:
263,165,24986,1,10,3:2:0:0:
186,186,25142,1,10,0:2:0:0:
130,130,25298,1,10,0:2:0:0:
150,52,25455,2,0,P|111:41|73:51,2,80,10|8|8,0:2|0:2|0:2,0:0:0:0:
227,253,25923,1,10,3:2:0:0:
304,232,26079,1,10,0:2:0:0:
360,288,26235,1,10,0:2:0:0:
45,342,26392,5,2,1:2:0:0:
54,326,26548,1,8,0:3:0:0:
63,310,26705,1,8,0:3:0:0:
15,154,26861,1,8,0:3:0:0:
24,138,27017,1,8,0:3:0:0:
33,122,27174,1,8,0:3:0:0:
164,279,27330,6,0,B|193:319|193:319|297:281,1,160,8|8,3:2|0:2,0:0:0:0:
462,107,27798,1,10,0:2:0:0:
384,87,27955,1,10,0:2:0:0:
328,143,28111,1,10,0:2:0:0:
349,221,28267,2,0,L|428:215,2,80,10|8|8,1:2|0:2|0:2,0:0:0:0:
265,95,28736,1,10,3:2:0:0:
188,74,28892,1,10,0:2:0:0:
132,130,29048,1,10,0:2:0:0:
152,208,29205,2,0,L|73:210,2,80,10|8|8,0:2|0:2|0:2,0:0:0:0:
384,87,29673,1,10,3:2:0:0:
440,143,29829,1,10,0:2:0:0:
419,220,29985,1,10,0:2:0:0:
341,240,30142,2,0,B|258:232|258:232|362:114,1,240,2|2,1:2|0:2,0:0:0:0:
150,324,31080,6,0,L|309:338,1,160,8|10,3:2|0:2,0:0:0:0:
392,263,31548,2,0,L|232:248,1,160,8|10,0:2|0:2,0:0:0:0:
149,240,32017,1,8,1:2:0:0:
467,84,32330,1,10,0:2:0:0:
384,76,32486,2,0,L|224:61,1,160,8|10,3:2|0:2,0:0:0:0:
91,45,32955,5,10,0:2:0:0:
25,90,33111,1,10,0:2:0:0:
32,169,33267,1,10,0:2:0:0:
104,204,33423,1,10,3:2:0:0:
170,157,33580,1,10,0:2:0:0:
163,78,33736,1,10,0:2:0:0:
391,40,33892,5,2,1:2:0:0:
382,56,34048,1,8,0:3:0:0:
373,72,34205,1,8,0:3:0:0:
421,228,34361,1,8,0:3:0:0:
412,244,34517,1,8,0:3:0:0:
403,260,34674,1,8,0:3:0:0:
247,308,34830,5,12,0:3:0:0:
193,78,36236,1,8,0:3:0:0:
193,78,37173,1,8,0:3:0:0:
428,124,46080,6,0,B|386:205|386:205|416:288,1,180,8|0,3:2|0:0,0:0:0:0:
275,342,46548,2,0,B|317:261|317:261|287:177,1,180,10|0,3:2|0:0,0:0:0:0:
340,116,47017,1,10,3:2:0:0:
22,216,47369,1,8,0:2:0:0:
22,215,47486,2,0,P|72:186|128:202,1,120,8|8,3:2|0:2,0:0:0:0:
218,335,47955,6,0,L|207:155,1,180,10|2,3:2|0:2,0:0:0:0:
310,67,48423,2,0,L|320:246,1,180,8|0,3:2|0:0,0:0:0:0:
311,337,48892,1,8,3:2:0:0:
27,165,49361,2,0,L|206:154,1,180,10|0,3:2|0:0,0:0:0:0:
372,72,49830,5,10,3:2:0:0:
480,62,50064,1,8,3:2:0:0:
489,170,50298,1,10,3:2:0:0:
382,180,50533,1,8,3:2:0:0:
140,72,50767,5,10,3:2:0:0:
32,62,51001,1,8,3:2:0:0:
23,170,51235,1,10,3:2:0:0:
130,180,51470,1,8,3:2:0:0:
301,322,51705,5,2,3:3:0:0:
264,343,51822,1,0,3:2:0:0:
223,336,51939,1,0,3:2:0:0:
196,304,52056,1,0,3:2:0:0:
196,261,52173,1,2,3:2:0:0:
223,229,52290,1,0,3:2:0:0:
264,222,52408,1,0,3:2:0:0:
301,243,52525,1,0,3:2:0:0:
315,283,52642,1,4,3:3:0:0:
411,156,60611,6,0,P|370:52|257:55,1,240.000009155274,8|0,0:1|0:0,0:0:0:0:
273,293,61080,6,0,B|334:250|334:250|315:134,1,191.999994140625,6|0,3:2|0:0,0:0:0:0:
155,32,61548,2,0,B|94:75|94:75|112:190,1,191.999994140625,2|0,3:2|0:0,0:0:0:0:
137,331,62017,1,2,3:2:0:0:
430,201,62330,1,0,0:0:0:0:
430,201,62486,2,0,P|342:165|251:188,1,191.999994140625,2|0,3:2|0:0,0:0:0:0:
82,343,62955,5,2,3:2:0:0:
52,158,63111,1,2,0:2:0:0:
184,290,63267,1,2,0:2:0:0:
0,261,63423,1,2,3:2:0:0:
166,176,63580,1,2,0:2:0:0:
82,343,63736,1,2,0:2:0:0:
52,158,63892,1,2,3:2:0:0:
326,352,64361,2,0,B|346:320|346:320|328:299|328:299|347:285|347:285|319:236|338:181,1,191.999994140625,8|0,3:1|0:0,0:0:0:0:
18,234,64830,6,0,P|108:271|200:232,1,191.999994140625,6|0,3:2|0:0,0:0:0:0:
308,79,65298,2,0,P|218:42|125:80,1,191.999994140625,2|0,3:2|0:0,0:0:0:0:
18,234,65767,1,2,3:2:0:0:
227,330,66080,1,0,0:0:0:0:
227,330,66236,2,0,P|314:294|405:317,1,191.999994140625,2|0,3:2|0:0,0:0:0:0:
451,120,66705,6,0,L|460:215,2,95.9999970703126,10|2|2,3:2|0:2|0:2,0:0:0:0:
330,61,67173,2,0,L|339:156,2,95.9999970703126,10|2|2,3:2|0:2|0:2,0:0:0:0:
208,119,67642,1,10,3:2:0:0:
29,273,68111,2,0,P|111:230|200:258,1,191.999994140625,8|0,3:1|0:0,0:0:0:0:
179,347,68580,6,0,L|370:332,1,191.999994140625,6|0,3:2|0:0,0:0:0:0:
429,147,69048,2,0,L|237:161,1,191.999994140625,2|0,3:2|0:0,0:0:0:0:
64,181,69517,1,2,3:2:0:0:
263,35,69830,1,0,0:0:0:0:
263,35,69986,2,0,P|299:122|276:213,1,191.999994140625,2|0,3:2|0:0,0:0:0:0:
113,347,70455,5,2,3:2:0:0:
143,162,70611,1,2,0:2:0:0:
11,294,70767,1,2,0:2:0:0:
194,265,70923,1,2,3:2:0:0:
29,180,71080,1,2,0:2:0:0:
113,347,71236,1,2,0:2:0:0:
143,162,71392,1,2,3:2:0:0:
411,317,71861,2,0,B|423:245|423:245|399:208|399:208|412:135,1,191.999994140625,8|8,3:1|0:2,0:0:0:0:
407,29,72330,6,0,B|315:59|315:59|226:22,1,191.999994140625,14|0,3:2|0:0,0:0:0:0:
54,124,72798,2,0,B|146:94|146:94|234:130,1,191.999994140625,2|0,3:2|0:0,0:0:0:0:
360,194,73267,1,2,3:2:0:0:
151,322,73580,1,0,0:0:0:0:
151,322,73736,2,0,P|115:235|138:144,1,191.999994140625,2|2,3:2|0:2,0:0:0:0:
424,42,74205,5,0,3:2:0:0:
274,78,74361,1,0,3:2:0:0:
381,189,74517,1,0,3:2:0:0:
124,42,74673,5,0,3:2:0:0:
274,78,74829,1,0,3:2:0:0:
167,189,74985,1,0,3:2:0:0:
424,42,75142,5,0,3:2:0:0:
381,189,75298,1,0,3:2:0:0:
124,42,75455,1,0,3:2:0:0:
167,189,75611,2,0,P|236:192|175:159,1,191.999994140625,8|0,3:1|0:0,0:0:0:0:
95,316,76080,6,0,L|287:308,1,191.999994140625,4|0,3:2|0:0,0:0:0:0:
358,181,76548,2,0,L|166:189,1,191.999994140625,10|0,1:2|0:0,0:0:0:0:
99,96,77017,1,10,3:2:0:0:
291,320,77330,1,0,0:0:0:0:
291,320,77486,2,0,L|99:312,1,191.999994140625,10|0,1:2|0:0,0:0:0:0:
4,243,77955,5,2,3:2:0:0:
44,166,78111,1,2,0:2:0:0:
127,140,78267,1,2,0:2:0:0:
204,179,78423,1,10,1:2:0:0:
229,261,78580,1,2,0:2:0:0:
190,336,78736,1,2,0:2:0:0:
107,360,78892,2,0,P|185:319|295:351,1,191.999994140625,10|0,3:2|0:0,0:0:0:0:
363,309,79361,1,8,3:1:0:0:
55,73,79830,6,0,P|139:106|203:41,1,191.999994140625,4|0,3:2|0:0,0:0:0:0:
425,104,80298,2,0,P|340:70|276:135,1,191.999994140625,10|0,1:2|0:0,0:0:0:0:
199,182,80767,1,10,3:2:0:0:
429,308,81080,1,0,0:0:0:0:
428,307,81236,2,0,P|337:282|245:305,1,191.999994140625,10|0,1:2|0:0,0:0:0:0:
67,323,81705,6,0,L|35:232,1,95.9999970703126,10|2,3:2|0:2,0:0:0:0:
144,96,82017,1,2,0:2:0:0:
144,96,82173,2,0,L|238:114,1,95.9999970703126,10|2,1:2|0:2,0:0:0:0:
302,276,82486,1,2,0:2:0:0:
302,276,82642,2,0,B|226:365|226:365|204:293,1,191.999994140625,10|0,3:2|0:0,0:0:0:0:
144,96,83111,1,8,3:1:0:0:
464,27,83580,6,0,L|438:217,1,191.999994140625,4|0,3:2|0:0,0:0:0:0:
293,271,84048,2,0,L|318:80,1,191.999994140625,10|0,1:2|0:0,0:0:0:0:
197,21,84517,1,10,3:2:0:0:
36,236,84830,1,0,0:0:0:0:
36,236,84986,2,0,P|127:210|219:233,1,191.999994140625,10|0,1:2|0:0,0:0:0:0:
277,335,85455,5,2,3:2:0:0:
362,334,85611,1,2,0:2:0:0:
422,273,85767,1,2,0:2:0:0:
421,188,85923,1,10,1:2:0:0:
359,127,86080,1,2,0:2:0:0:
271,127,86236,1,2,0:2:0:0:
208,188,86392,2,0,P|283:137|273:46,1,191.999994140625,10|0,3:2|0:0,0:0:0:0:
192,14,86861,1,8,3:1:0:0:
53,317,87330,6,0,P|143:288|233:317,1,191.999994140625,4|0,3:2|0:0,0:0:0:0:
480,240,87798,2,0,P|390:270|300:240,1,191.999994140625,8|0,1:2|0:0,0:0:0:0:
207,190,88267,1,8,3:2:0:0:
434,81,88580,1,0,0:0:0:0:
434,81,88736,2,0,P|463:171|434:261,1,191.999994140625,8|0,1:2|0:0,0:0:0:0:
347,301,89205,1,2,0:2:0:0:
216,288,91080,5,0,3:2:0:0:
423,203,91392,2,0,L|463:220,2,40,0|0|2,0:0|0:0|0:2,0:0:0:0:
349,171,91705,1,0,0:0:0:0:
307,102,91861,1,0,0:0:0:0:
236,64,92017,2,0,L|159:86,1,80,2|0,1:2|0:0,0:0:0:0:
39,100,92330,1,0,0:0:0:0:
6,172,92486,2,0,L|28:248,1,80,2|0,3:2|0:0,0:0:0:0:
93,295,92798,1,0,0:0:0:0:
212,322,92955,6,0,L|288:299,1,80,2|0,0:2|0:0,0:0:0:0:
449,304,93423,1,2,3:2:0:0:
462,224,93580,1,2,0:2:0:0:
413,160,93736,1,2,0:2:0:0:
426,80,93892,2,0,L|266:96,1,160,10|8,1:2|0:2,0:0:0:0:
434,39,94361,2,0,L|274:55,1,160,10|8,3:2|0:2,0:0:0:0:
197,32,94830,5,0,3:2:0:0:
42,193,95298,1,2,0:2:0:0:
110,151,95455,1,0,0:0:0:0:
144,223,95611,1,0,0:0:0:0:
178,295,95767,2,0,L|257:291,1,80,2|0,1:2|0:0,0:0:0:0:
348,198,96080,1,0,0:0:0:0:
382,270,96236,2,0,L|461:266,1,80,2|0,3:2|0:0,0:0:0:0:
486,140,96548,1,0,0:0:0:0:
452,68,96705,6,0,L|372:71,1,80,2|0,0:2|0:0,0:0:0:0:
197,32,97173,1,2,3:2:0:0:
184,112,97330,1,2,0:2:0:0:
233,176,97486,1,2,0:2:0:0:
220,256,97642,2,0,L|380:240,1,160,10|8,1:2|0:2,0:0:0:0:
212,297,98111,2,0,L|372:281,1,160,10|8,3:2|0:2,0:0:0:0:
437,327,98580,5,2,3:2:0:0:
469,170,98892,2,0,L|476:130,2,40,0|0|2,0:0|0:0|0:2,0:0:0:0:
425,68,99205,1,0,0:0:0:0:
346,82,99361,1,0,0:0:0:0:
281,34,99517,1,2,1:2:0:0:
202,48,99673,1,0,0:0:0:0:
174,123,99830,1,0,0:0:0:0:
95,137,99986,1,2,3:2:0:0:
93,343,100455,6,0,P|130:355|170:354,2,80,2|0|0,0:2|0:0|0:0,0:0:0:0:
243,324,100923,2,0,P|283:322|321:335,2,80,2|0|0,3:2|0:0|0:0,0:0:0:0:
178,275,101392,2,0,P|151:170|254:135,1,240,2|0,1:2|3:2,0:0:0:0:
458,36,102330,5,2,3:2:0:0:
381,176,102642,1,0,0:0:0:0:
427,240,102798,2,0,L|466:245,4,40,0|0|0|0|2,1:2|1:2|1:2|1:2|1:2,0:0:0:0:
346,247,103267,1,0,1:2:0:0:
311,318,103423,1,0,0:0:0:0:
232,323,103580,1,0,0:0:0:0:
188,257,103736,1,2,3:2:0:0:
132,200,103891,1,0,0:0:0:0:
55,219,104048,1,0,0:0:0:0:
32,295,104205,6,0,L|191:287,1,160,2|0,0:2|1:2,0:0:0:0:
235,354,104673,2,0,L|394:346,1,160,2|0,3:2|0:0,0:0:0:0:
475,342,105142,1,2,1:2:0:0:
454,102,105611,1,0,3:2:0:0:
217,61,106080,5,10,3:2:0:0:
224,140,106236,1,8,0:2:0:0:
180,207,106392,1,10,0:2:0:0:
187,286,106548,1,8,0:2:0:0:
254,329,106705,1,8,0:2:0:0:
333,322,106861,1,8,0:2:0:0:
394,271,107017,2,0,L|387:191,2,80,10|8|10,1:2|0:2|0:2,0:0:0:0:
458,153,107486,2,0,L|451:73,2,80,8|8|8,3:2|0:2|0:2,0:0:0:0:
313,21,107955,5,10,0:2:0:0:
235,41,108111,1,8,0:2:0:0:
215,119,108268,1,8,0:2:0:0:
271,175,108424,1,10,3:2:0:0:
349,155,108580,1,10,0:2:0:0:
370,77,108736,1,10,0:2:0:0:
313,21,108892,2,0,L|317:100,1,80,10|8,1:2|0:3,0:0:0:0:
332,280,109205,1,8,0:3:0:0:
315,285,109361,1,8,0:3:0:0:
298,290,109517,1,8,0:3:0:0:
281,295,109674,1,8,0:3:0:0:
82,219,109830,5,10,3:2:0:0:
156,190,109986,1,8,0:2:0:0:
170,111,110142,1,10,0:2:0:0:
244,82,110298,1,8,0:2:0:0:
314,120,110455,1,8,0:2:0:0:
343,194,110611,1,8,0:2:0:0:
424,200,110767,2,0,L|395:274,2,80,10|8|10,1:2|0:2|0:2,0:0:0:0:
315,274,111236,2,0,L|345:353,2,80,8|8|8,3:2|0:2|0:2,0:0:0:0:
211,71,111705,6,0,B|198:186|198:186|167:153,2,160,10|10|10,0:2|0:2|0:2,0:0:0:0:
39,333,112642,1,10,1:2:0:0:
89,136,112798,1,2,1:2:0:0:
140,333,112955,1,2,1:2:0:0:
190,136,113111,1,2,1:2:0:0:
241,333,113267,1,2,1:2:0:0:
291,136,113423,1,2,1:2:0:0:
450,330,113580,5,8,3:2:0:0:
422,280,113736,1,8,0:2:0:0:
450,231,113892,1,8,0:2:0:0:
421,180,114048,2,0,P|406:144|410:105,2,80,8|8|8,0:2|0:2|0:2,0:0:0:0:
233,25,114517,5,8,1:2:0:0:
261,75,114673,1,8,0:2:0:0:
233,124,114829,1,8,0:2:0:0:
261,174,114985,2,0,P|276:210|272:249,2,80,8|8|8,3:2|0:2|0:2,0:0:0:0:
114,323,115455,5,8,0:2:0:0:
86,273,115611,1,8,0:2:0:0:
114,224,115767,1,8,0:2:0:0:
85,173,115923,2,0,P|69:136|73:97,2,80,8|8|8,3:2|0:2|0:2,0:0:0:0:
284,53,116392,5,8,1:2:0:0:
293,69,116548,1,8,0:3:0:0:
302,85,116705,1,8,0:3:0:0:
254,241,116861,1,8,0:3:0:0:
263,257,117017,1,8,0:3:0:0:
272,273,117174,1,8,0:3:0:0:
428,321,117330,5,12,0:3:0:0:
462,77,118736,1,8,0:3:0:0:
462,77,119673,1,8,0:3:0:0:
318,331,121080,6,0,P|286:249|327:171,1,180,12|0,2:2|0:0,0:0:0:0:
407,96,121548,2,0,P|438:177|397:255,1,180,10|0,2:2|0:0,0:0:0:0:
325,172,122017,1,10,2:2:0:0:
125,134,122369,1,8,2:2:0:0:
125,134,122486,2,0,L|165:264,1,120,8|8,2:2|2:2,0:0:0:0:
287,351,122955,6,0,B|328:306|328:306|293:192,1,180,10|2,2:2|2:2,0:0:0:0:
426,112,123423,2,0,B|385:157|385:157|419:270,1,180,8|0,2:2|0:0,0:0:0:0:
404,358,123892,1,8,2:2:0:0:
224,265,124361,2,0,P|140:257|96:330,1,180,10|0,2:2|0:0,0:0:0:0:
270,368,124830,6,0,B|233:259|233:259|260:194,1,180,8|0,2:2|0:0,0:0:0:0:
140,46,125298,2,0,B|177:152|177:152|151:219,1,180,10|0,2:2|0:0,0:0:0:0:
113,293,125767,1,10,2:2:0:0:
351,97,126119,1,8,2:2:0:0:
351,97,126236,2,0,P|366:154|345:209,1,120,8|8,2:2|2:2,0:0:0:0:
260,320,126705,6,0,L|449:339,1,180,10|2,2:2|2:2,0:0:0:0:
477,255,127173,2,0,L|297:236,1,180,8|0,2:2|0:0,0:0:0:0:
215,225,127642,1,8,2:2:0:0:
386,98,128111,2,0,B|445:86|445:86|425:204,1,180,10|0,2:2|0:0,0:0:0:0:
397,302,128580,6,0,P|314:267|226:278,1,180,8|0,3:2|0:0,0:0:0:0:
122,340,129048,2,0,P|132:251|98:169,1,180,10|0,3:2|0:0,0:0:0:0:
11,139,129517,1,10,3:2:0:0:
228,55,129869,1,8,0:2:0:0:
228,55,129986,2,0,B|275:77|275:77|338:52,1,120,8|8,3:2|0:2,0:0:0:0:
471,123,130455,6,0,B|409:153|409:153|433:261,1,180,10|2,3:2|0:2,0:0:0:0:
290,337,130923,2,0,B|352:307|352:307|327:198,1,180,8|0,3:2|0:0,0:0:0:0:
301,104,131392,1,8,3:2:0:0:
81,158,131861,2,0,P|112:235|195:223,1,180,10|0,3:2|0:0,0:0:0:0:
372,312,132330,5,10,3:2:0:0:
480,322,132564,1,8,3:2:0:0:
489,214,132798,1,10,3:2:0:0:
382,204,133033,1,8,3:2:0:0:
140,312,133267,5,10,3:2:0:0:
32,322,133501,1,8,3:2:0:0:
23,214,133735,1,10,3:2:0:0:
130,204,133970,1,8,3:2:0:0:
301,62,134205,5,2,3:3:0:0:
264,41,134322,1,0,3:2:0:0:
223,48,134439,1,0,3:2:0:0:
196,80,134556,1,0,3:2:0:0:
196,123,134673,1,2,3:2:0:0:
223,155,134790,1,0,3:2:0:0:
264,162,134908,1,0,3:2:0:0:
301,141,135025,1,0,3:2:0:0:
315,101,135142,1,4,3:3:0:0:
234,65,143111,6,0,P|121:61|80:166,1,240.000009155274,8|0,0:1|0:0,0:0:0:0:
156,335,143580,6,0,L|176:145,1,191.999994140625,6|0,3:2|0:0,0:0:0:0:
327,34,144048,2,0,L|346:224,1,191.999994140625,2|0,3:2|0:0,0:0:0:0:
359,351,144517,1,2,3:2:0:0:
59,245,144830,1,0,0:0:0:0:
59,244,144986,2,0,P|145:209|235:237,1,191.999994140625,2|0,3:2|0:0,0:0:0:0:
493,146,145455,5,2,3:2:0:0:
322,67,145611,1,2,0:2:0:0:
414,230,145767,1,2,0:2:0:0:
436,45,145924,1,2,3:2:0:0:
309,181,146080,1,2,0:2:0:0:
493,146,146236,1,2,0:2:0:0:
322,67,146392,1,2,3:2:0:0:
56,269,146861,2,0,B|88:249|88:249|109:267|109:267|123:248|123:248|172:276|227:257,1,191.999994140625,8|0,3:1|0:0,0:0:0:0:
412,313,147330,6,0,P|440:222|420:129,1,191.999994140625,6|0,3:2|0:0,0:0:0:0:
263,27,147798,2,0,P|234:117|254:210,1,191.999994140625,2|0,3:2|0:0,0:0:0:0:
412,313,148267,1,2,3:2:0:0:
121,319,148580,1,0,0:0:0:0:
121,319,148736,2,0,L|103:127,1,191.999994140625,2|0,3:2|0:0,0:0:0:0:
252,74,149205,6,0,L|243:169,2,95.9999970703126,10|2|2,3:2|0:2|0:2,0:0:0:0:
373,15,149673,2,0,L|364:110,2,95.9999970703126,10|2|2,3:2|0:2|0:2,0:0:0:0:
495,73,150142,1,10,3:2:0:0:
291,266,150611,2,0,P|307:189|366:242,1,191.999994140625,8|0,3:1|0:0,0:0:0:0:
430,347,151080,6,0,B|293:378|293:378|248:351,1,191.999994140625,6|0,3:2|0:0,0:0:0:0:
109,270,151548,2,0,B|246:239|246:239|291:266,1,191.999994140625,2|0,3:2|0:0,0:0:0:0:
387,259,152017,1,2,3:2:0:0:
96,79,152330,1,0,0:0:0:0:
96,79,152486,2,0,L|109:270,1,191.999994140625,2|0,3:2|0:0,0:0:0:0:
366,291,152955,5,2,3:2:0:0:
345,103,153111,1,2,0:2:0:0:
470,243,153267,1,2,0:2:0:0:
288,204,153423,1,2,3:2:0:0:
458,128,153580,1,2,0:2:0:0:
366,291,153736,1,2,0:2:0:0:
345,103,153892,1,2,3:2:0:0:
23,275,154361,2,0,P|93:331|171:286,1,191.999994140625,8|8,3:1|0:2,0:0:0:0:
248,180,154830,6,0,B|365:152|365:152|429:188,1,191.999994140625,14|0,3:2|0:0,0:0:0:0:
483,309,155298,2,0,B|366:337|366:337|301:300,1,191.999994140625,2|0,3:2|0:0,0:0:0:0:
248,180,155767,1,2,3:2:0:0:
57,344,156080,1,0,0:0:0:0:
57,344,156236,2,0,L|60:152,1,191.999994140625,2|2,3:2|0:2,0:0:0:0:
409,39,156705,5,0,3:2:0:0:
275,115,156861,1,0,3:2:0:0:
408,192,157017,1,0,3:2:0:0:
141,191,157173,5,0,3:2:0:0:
275,115,157329,1,0,3:2:0:0:
142,38,157485,1,0,3:2:0:0:
408,192,157642,5,0,3:2:0:0:
141,191,157798,1,0,3:2:0:0:
275,115,157955,1,0,3:2:0:0:
274,323,158111,2,0,P|200:294|262:244,1,191.999994140625,8|0,3:1|0:0,0:0:0:0:
367,296,158580,6,0,P|448:330|497:256,1,191.999994140625,4|0,3:2|0:0,0:0:0:0:
456,78,159048,2,0,P|374:43|325:117,1,191.999994140625,10|0,1:2|0:0,0:0:0:0:
367,296,159517,1,10,3:2:0:0:
121,309,159830,1,0,0:0:0:0:
121,309,159986,2,0,B|170:237|170:237|138:137,1,191.999994140625,10|0,1:2|0:0,0:0:0:0:
132,52,160455,5,2,3:2:0:0:
211,18,160611,1,2,0:2:0:0:
287,56,160767,1,2,0:2:0:0:
306,138,160923,1,10,1:2:0:0:
255,205,161080,1,2,0:2:0:0:
170,208,161236,1,2,0:2:0:0:
112,142,161392,2,0,P|163:91|151:162,1,191.999994140625,10|0,3:2|0:0,0:0:0:0:
29,166,161861,1,8,3:1:0:0:
52,326,162330,6,0,B|98:358|98:358|229:323,1,191.999994140625,4|0,3:2|0:0,0:0:0:0:
207,164,162798,2,0,B|161:132|161:132|29:166,1,191.999994140625,10|0,1:2|0:0,0:0:0:0:
52,326,163267,1,10,3:2:0:0:
378,338,163580,1,0,0:0:0:0:
378,338,163736,2,0,B|374:284|340:246|340:246|371:152,1,191.999994140625,10|0,1:2|0:0,0:0:0:0:
84,71,164205,6,0,L|52:162,1,95.9999970703126,10|2,3:2|0:2,0:0:0:0:
161,298,164517,1,2,0:2:0:0:
161,298,164673,2,0,L|255:280,1,95.9999970703126,10|2,1:2|0:2,0:0:0:0:
319,118,164986,1,2,0:2:0:0:
319,118,165142,2,0,B|243:29|243:29|221:101,1,191.999994140625,10|0,3:2|0:0,0:0:0:0:
161,298,165611,1,8,3:1:0:0:
469,333,166080,6,0,P|392:285|313:330,1,191.999994140625,4|0,3:2|0:0,0:0:0:0:
111,225,166548,2,0,P|188:273|267:228,1,191.999994140625,10|0,1:2|0:0,0:0:0:0:
284,135,167017,1,10,3:2:0:0:
123,27,167330,1,0,0:0:0:0:
123,27,167486,2,0,L|137:229,1,191.999994140625,10|0,1:2|0:0,0:0:0:0:
172,297,167955,5,2,3:2:0:0:
251,331,168111,1,2,0:2:0:0:
319,279,168267,1,2,0:2:0:0:
307,194,168423,1,10,1:2:0:0:
375,142,168580,1,2,0:2:0:0:
454,174,168736,1,2,0:2:0:0:
464,258,168892,2,0,L|255:228,1,191.999994140625,10|0,3:2|0:0,0:0:0:0:
162,212,169361,1,8,3:1:0:0:
367,23,169830,6,0,B|404:72|404:72|363:196,1,191.999994140625,4|0,3:2|0:0,0:0:0:0:
162,212,170298,2,0,B|125:163|125:163|165:38,1,191.999994140625,8|0,1:2|0:0,0:0:0:0:
367,23,170767,1,8,3:2:0:0:
470,276,171080,1,0,0:0:0:0:
470,276,171236,2,0,P|383:238|290:257,1,191.999994140625,8|0,1:2|0:0,0:0:0:0:
81,334,171705,5,10,0:2:0:0:
72,242,171861,1,2,0:2:0:0:
63,150,172017,1,2,0:2:0:0:
54,58,172173,1,10,0:2:0:0:
81,334,172486,5,0,0:0:0:0:
54,58,172642,1,8,3:2:0:0:
300,355,172798,1,0,3:2:0:0:
273,79,172954,1,0,3:2:0:0:
81,334,173111,6,0,B|209:345|209:345|186:320|176:290,1,191.999994140625,10|0,3:1|0:0,0:0:0:0:
273,79,173580,6,0,P|376:57|377:163,1,240.000009155274,14|8,3:1|0:2,0:0:0:0:
243,334,174048,2,0,P|276:234|368:285,1,240.000009155274,8|8,1:2|0:2,0:0:0:0:
124,338,174517,1,12,3:2:0:0:
60,60,174830,1,8,0:2:0:0:
60,60,174986,2,0,B|124:15|124:15|275:79,1,240.000009155274,8|8,1:2|0:2,0:0:0:0:
438,178,175455,5,12,3:2:0:0:
309,358,175611,1,8,0:2:0:0:
220,151,175767,1,8,0:2:0:0:
427,305,175923,5,8,1:2:0:0:
335,104,176079,1,8,0:2:0:0:
204,278,176235,1,8,0:2:0:0:
438,178,176392,6,0,B|457:129|492:96|492:96|409:117|354:93,1,240.000009155274,12|0,3:2|0:0,0:0:0:0:
293,153,176861,2,0,P|283:43|390:14,1,240.000009155274,8|0,3:1|0:0,0:0:0:0:
467,290,177330,6,0,P|360:238|242:251,1,240.000009155274,4|8,3:2|0:2,0:0:0:0:
37,300,177798,2,0,B|154:280|154:280|180:342|249:342,1,240.000009155274,8|8,1:2|0:2,0:0:0:0:
293,153,178267,1,4,3:2:0:0:
42,45,178580,1,8,0:2:0:0:
42,45,178736,2,0,B|81:119|81:119|50:186|50:186|89:258,1,240.000009155274,8|8,1:2|0:2,0:0:0:0:
270,331,179205,5,12,3:2:0:0:
329,121,179361,1,8,0:2:0:0:
487,276,179517,1,8,0:2:0:0:
239,206,179673,5,12,1:2:0:0:
396,368,179829,1,8,0:2:0:0:
452,153,179985,1,8,0:2:0:0:
270,331,180142,6,0,P|176:272|94:348,1,240.000009155274,12|0,3:2|0:0,0:0:0:0:
185,363,180611,2,0,L|184:117,1,240.000009155274,8|0,0:1|0:0,0:0:0:0:
502,66,181080,6,0,B|448:109|448:109|284:58,1,240.000009155274,6|8,3:1|0:2,0:0:0:0:
148,191,181548,2,0,B|202:148|202:148|366:199,1,240.000009155274,8|8,1:2|0:2,0:0:0:0:
480,238,182017,1,4,3:2:0:0:
160,285,182330,1,8,0:2:0:0:
160,285,182486,2,0,P|60:233|81:122,1,240.000009155274,8|8,1:2|0:2,0:0:0:0:
349,29,182955,5,12,3:2:0:0:
223,211,183111,1,8,0:2:0:0:
448,224,183267,1,8,0:2:0:0:
233,82,183423,5,8,1:2:0:0:
453,100,183579,1,8,0:2:0:0:
335,283,183735,1,8,0:2:0:0:
349,29,183892,6,0,B|278:32|251:79|251:79|196:32|137:37,1,240.000009155274,4|0,3:2|0:0,0:0:0:0:
89,198,184361,2,0,P|185:217|149:125,1,240.000009155274,8|0,0:1|0:0,0:0:0:0:
171,332,184830,6,0,P|258:364|331:308,1,191.999994140625,4|0,3:2|0:0,0:0:0:0:
315,205,185298,2,0,P|229:172|156:228,1,191.999994140625,0|0,1:2|0:0,0:0:0:0:
243,267,185767,1,8,0:2:0:0:
454,258,186080,1,0,0:0:0:0:
454,258,186236,2,0,B|437:216|441:160|441:160|437:213|410:247,1,191.999994140625,0|0,1:2|0:0,0:0:0:0:
