osu file format v14

[General]
AudioFilename: Say A Vengeance.mp3
AudioLeadIn: 0
PreviewTime: 22117
Countdown: 0
SampleSet: Normal
StackLeniency: 0.7
Mode: 3
LetterboxInBreaks: 0
SpecialStyle: 0
WidescreenStoryboard: 1

[Editor]
DistanceSpacing: 0.9
BeatDivisor: 4
GridSize: 8
TimelineZoom: 1

[Metadata]
Title:Say A Vengeance
TitleUnicode:Say A Vengeance
Artist:ETIA. feat.Jenga
ArtistUnicode:ETIA. feat.Jenga
Creator:LeiN-
Version:Beginner
Source:BMS
Tags:bof2012 coremotion deadblue238 篠乃ちよ bbu2 Fresh_Chicken
BeatmapID:342370
BeatmapSetID:136881

[Difficulty]
HPDrainRate:7
CircleSize:4
OverallDifficulty:7
ApproachRate:5
SliderMultiplier:1.4
SliderTickRate:1

[Events]
//Background and Video events
Video,-920,"bga_02.avi"
0,0,"bg.png",0,0
//Break Periods
//Storyboard Layer 0 (Background)
//Storyboard Layer 1 (Fail)
//Storyboard Layer 2 (Pass)
//Storyboard Layer 3 (Foreground)
//Storyboard Sound Samples

[TimingPoints]
1361,324.324324324324,4,1,1,50,1,0
22117,-100,4,1,1,50,0,1
42874,-100,4,1,1,50,0,0
107739,-100,4,1,1,50,0,1
128496,-100,4,1,1,50,0,0

[HitObjects]
64,192,1361,5,2,2:0:0:40:
320,192,1685,1,8,0:0:0:40:
64,192,2009,1,2,2:0:0:40:
448,192,2333,1,8,1:0:0:40:
64,192,2658,1,2,2:0:0:40:
320,192,2982,1,8,0:0:0:40:
64,192,3306,1,2,2:0:0:40:
192,192,3631,1,8,0:0:0:40:
64,192,3955,1,2,2:0:0:40:
448,192,4279,1,8,0:0:0:40:
64,192,4604,1,2,2:0:0:40:
448,192,4928,1,8,0:0:0:40:
64,192,5252,1,2,2:0:0:40:
320,192,5577,1,8,0:0:0:40:
64,192,5901,1,2,2:0:0:40:
192,192,6225,1,8,0:0:0:40:
64,192,6550,1,2,2:0:0:40:
320,192,6874,1,8,0:0:0:40:
64,192,7198,1,2,2:0:0:40:
448,192,7523,1,8,0:0:0:40:
64,192,7847,1,2,2:0:0:40:
320,192,8171,1,8,0:0:0:40:
64,192,8496,1,2,2:0:0:40:
320,192,8820,1,8,0:0:0:40:
64,192,9144,1,2,2:0:0:40:
448,192,9469,1,8,0:0:0:40:
64,192,9793,1,2,2:0:0:40:
320,192,10117,1,8,0:0:0:40:
64,192,10442,1,2,2:0:0:40:
192,192,10766,1,8,0:0:0:40:
64,192,11090,1,4,0:0:0:40:
64,192,11415,1,4,0:0:0:40:
64,192,11739,1,2,2:0:0:40:
448,192,11739,1,0,0:0:0:40:crash1.wav
320,192,12063,1,8,0:0:0:40:
64,192,12388,1,2,2:0:0:40:
448,192,12712,1,8,0:0:0:40:
64,192,13036,1,2,2:0:0:40:
320,192,13360,1,8,0:0:0:40:
64,192,13685,1,2,2:0:0:40:
192,192,14009,1,8,0:0:0:40:
64,192,14333,1,2,0:0:0:40:
448,192,14658,1,8,0:0:0:40:
64,192,14982,1,2,0:0:0:40:
448,192,15306,1,8,0:0:0:40:
64,192,15631,1,2,0:0:0:40:
320,192,15955,1,8,0:0:0:40:
64,192,16279,1,2,0:0:0:40:
320,192,16442,128,0,16604:0:0:0:40:bass1_002.wav
192,192,16604,1,8,0:0:0:40:
64,192,16928,1,2,2:0:0:40:
448,192,16928,128,0,18225:0:0:0:40:crash1.wav
64,192,18225,1,2,2:0:0:40:
192,192,18550,1,8,0:0:0:40:
320,192,18874,1,2,2:0:0:40:
448,192,19198,1,8,0:0:0:40:
64,192,19523,128,2,20820:2:0:0:40:
448,192,20820,128,4,22117:0:0:0:40:
320,192,20820,1,0,0:0:0:40:crash2.wav
192,192,22117,1,0,0:0:0:40:crash1.wav
448,192,22279,1,0,0:0:0:40:
64,192,22523,1,0,0:0:0:40:
192,192,22766,1,0,0:0:0:40:
320,192,23009,1,0,0:0:0:40:
448,192,23252,1,0,0:0:0:40:
64,192,23577,1,0,0:0:0:40:
448,192,23820,1,0,0:0:0:40:
320,192,24063,1,0,0:0:0:40:
192,192,24306,1,0,0:0:0:40:
64,192,24550,1,0,0:0:0:40:
448,192,24874,1,0,0:0:0:40:
64,192,25117,1,0,0:0:0:40:
320,192,25360,1,0,0:0:0:40:
192,192,25604,1,0,0:0:0:40:
64,192,25847,1,0,0:0:0:40:
448,192,26171,1,0,0:0:0:40:
192,192,26415,1,0,0:0:0:40:
320,192,26658,1,0,0:0:0:40:
64,192,26901,1,0,0:0:0:40:
192,192,27144,1,0,0:0:0:40:
448,192,27225,1,0,0:0:0:40:
64,192,27469,1,0,0:0:0:40:
448,192,27712,1,0,0:0:0:40:
320,192,27955,1,0,0:0:0:40:
192,192,28198,1,0,0:0:0:40:
64,192,28442,1,0,0:0:0:40:
448,192,28766,1,0,0:0:0:40:
64,192,29009,1,0,0:0:0:40:
192,192,29252,1,0,0:0:0:40:
320,192,29496,1,0,0:0:0:40:
448,192,29739,1,0,0:0:0:40:
320,192,30063,1,0,0:0:0:40:
64,192,30306,1,0,0:0:0:40:
192,192,30550,1,0,0:0:0:40:
320,192,30793,1,0,0:0:0:40:
448,192,31036,1,0,0:0:0:40:
448,192,31360,1,0,0:0:0:40:
64,192,31604,1,0,0:0:0:40:
320,192,31847,1,0,0:0:0:40:
192,192,32090,1,0,0:0:0:40:
320,192,32333,1,0,0:0:0:40:
64,192,32496,1,4,1:0:0:40:
448,192,32496,128,0,33793:0:0:0:40:crash1.wav
192,192,33144,1,4,1:0:0:40:
64,192,33793,128,4,35090:1:0:0:40:normal-hitfinish.wav
320,192,34442,1,4,1:0:0:40:
192,192,35090,128,4,36388:1:0:0:40:normal-hitfinish.wav
448,192,35739,1,4,1:0:0:40:
320,192,36388,128,4,37685:1:0:0:40:normal-hitfinish.wav
64,192,37036,1,4,1:0:0:40:
192,192,37685,1,0,0:0:0:40:crash1.wav
64,192,37685,1,4,1:0:0:40:
320,192,38009,1,8,0:0:0:40:
64,192,38333,1,4,1:0:0:40:
320,192,38658,1,8,0:0:0:40:
64,192,38982,128,4,40279:0:0:0:40:
448,192,40279,1,4,0:0:0:40:
192,192,40604,1,8,0:0:0:40:
448,192,40928,1,4,0:0:0:40:
192,192,41252,1,8,0:0:0:40:
448,192,41577,128,0,41901:0:0:0:40:black_lagoon1.wav
320,192,41901,128,0,42225:0:0:0:40:black_lagoon2.wav
192,192,42225,128,0,42550:0:0:0:40:black_lagoon3.wav
64,192,42550,128,0,42874:0:0:0:40:black_lagoon4.wav
448,192,42550,1,4,0:0:0:40:
320,192,42874,1,4,0:0:0:40:
64,192,43198,1,4,0:0:0:40:
448,192,43198,1,0,0:0:0:40:crash1.wav
320,192,43523,1,4,0:0:0:40:kick1.wav
64,192,43847,1,4,0:0:0:40:kick1.wav
448,192,44171,1,4,0:0:0:40:kick1.wav
320,192,44496,1,4,0:0:0:40:kick1.wav
192,192,44820,1,4,0:0:0:40:kick1.wav
64,192,45144,1,6,0:0:0:40:kick1.wav
448,192,45469,1,4,0:0:0:40:kick1.wav
192,192,45793,1,4,0:0:0:40:kick1.wav
448,192,46117,1,4,0:0:0:40:kick1.wav
192,192,46442,1,4,0:0:0:40:kick1.wav
64,192,46766,1,4,0:0:0:40:kick1.wav
320,192,47090,1,4,0:0:0:40:kick1.wav
64,192,47415,1,4,0:0:0:40:kick1.wav
320,192,47739,128,2,48063:0:0:0:40:kick1.wav
64,192,48063,1,4,0:0:0:40:
448,192,48388,1,4,0:0:0:40:
192,192,48712,1,4,0:0:0:40:
320,192,49036,1,4,0:0:0:40:
64,192,49360,1,4,0:0:0:40:
192,192,49685,1,4,0:0:0:40:
320,192,50009,1,4,0:0:0:40:
448,192,50333,1,4,0:0:0:40:
320,192,50658,1,4,0:0:0:40:
320,192,50982,1,4,0:0:0:40:
192,192,51306,1,4,0:0:0:40:
192,192,51631,1,4,0:0:0:40:
448,192,51955,1,4,0:0:0:40:
320,192,52279,1,4,0:0:0:40:
192,192,52604,1,4,0:0:0:40:
64,192,52928,1,4,0:0:0:40:
192,192,53090,1,4,0:0:0:40:
320,192,53252,1,4,0:0:0:40:
448,192,53252,128,0,53415:0:0:0:40:crash1.wav
320,192,53577,128,8,53739:0:0:0:40:
192,192,53901,128,4,54063:0:0:0:40:
64,192,54225,1,8,0:0:0:40:
320,192,54388,1,0,0:0:0:40:drum-hitnormal.wav
64,192,54550,1,4,0:0:0:40:
192,192,54874,1,8,0:0:0:40:
320,192,55198,1,4,0:0:0:40:
448,192,55523,1,8,0:0:0:40:
448,192,55847,128,4,56009:0:0:0:40:
320,192,56171,128,8,56333:0:0:0:40:
192,192,56496,128,4,56658:0:0:0:40:
64,192,56820,1,8,0:0:0:40:
320,192,56982,1,0,0:0:0:40:drum-hitnormal.wav
64,192,57144,1,4,0:0:0:40:
192,192,57469,1,8,0:0:0:40:
320,192,57793,1,4,0:0:0:40:
448,192,58117,1,8,0:0:0:40:
448,192,58442,128,4,58604:0:0:0:40:
320,192,58766,128,8,58928:0:0:0:40:
192,192,59090,128,4,59252:0:0:0:40:
64,192,59415,1,8,0:0:0:40:
320,192,59577,1,0,0:0:0:40:drum-hitnormal.wav
64,192,59739,1,4,0:0:0:40:
320,192,59901,1,0,0:0:0:40:drum-hitnormal.wav
192,192,60063,1,8,0:0:0:40:
320,192,60225,1,0,0:0:0:40:drum-hitnormal.wav
448,192,60388,1,4,0:0:0:40:
192,192,60712,1,8,0:0:0:40:
320,192,61036,1,4,0:0:0:40:
448,192,61036,128,0,63631:0:0:0:40:soft-hitfinish.wav
64,192,63631,1,0,0:0:0:40:fxkick.wav
320,192,64928,1,0,0:0:0:40:guitar2_004.wav
448,192,65698,1,0,0:0:0:40:guitar2_008.wav
320,192,65901,1,0,0:0:0:40:guitar2_009.wav
192,192,66063,1,0,0:0:0:40:guitar2_010.wav
320,192,66388,1,0,0:0:0:40:guitar2_011.wav
64,192,66550,1,0,0:0:0:50:guitar2_012.wav
320,192,66712,1,0,0:0:0:50:guitar2_013.wav
64,192,68820,1,0,0:0:0:40:guitar2_014.wav
320,192,70117,1,0,0:0:0:40:guitar2_018.wav
448,192,70888,1,0,0:0:0:40:guitar2_022.wav
320,192,71090,1,0,0:0:0:40:guitar2_023.wav
192,192,71252,1,0,0:0:0:40:guitar2_024.wav
320,192,72225,1,0,0:0:0:40:guitar2_025.wav
64,192,72388,1,0,0:0:0:50:guitar2_026.wav
320,192,72550,1,0,0:0:0:50:guitar2_027.wav
448,192,74009,1,0,0:0:0:40:crash1.wav
64,192,74009,128,0,75306:0:0:0:40:synstrings2_000.wav
192,192,75306,128,0,75955:0:0:0:40:synstrings2_001.wav
448,192,75955,128,0,76604:0:0:0:40:synstrings2_002.wav
64,192,76604,128,0,77901:0:0:0:40:synstrings2_003.wav
320,192,77901,128,0,79198:0:0:0:40:synstrings2_004.wav
448,192,79198,1,0,0:0:0:40:normal-hitwhistle.wav
192,192,79523,1,2,0:0:0:40:
448,192,79847,1,2,0:0:0:40:
192,192,80171,1,2,0:0:0:40:
448,192,80496,1,2,0:0:0:40:
64,192,80820,1,2,0:0:0:40:
448,192,81144,1,2,0:0:0:40:
64,192,81469,1,2,0:0:0:40:
448,192,81793,1,2,0:0:0:40:
192,192,82117,1,2,0:0:0:40:
448,192,82442,1,2,0:0:0:40:
192,192,82766,1,2,0:0:0:40:
448,192,82928,1,0,0:0:0:40:crash1.wav
320,192,82928,1,2,0:0:0:40:
64,192,83252,1,0,0:0:0:40:crash1.wav
192,192,83252,1,2,0:0:0:40:
448,192,83577,1,0,0:0:0:40:crash1.wav
320,192,83577,1,2,0:0:0:40:
320,192,83901,1,0,0:0:0:40:bassdrum2.wav
192,192,83982,1,0,0:0:0:40:bassdrum1.wav
64,192,84063,1,0,0:0:0:40:fxclap.wav
448,192,84388,1,0,0:0:0:40:crash1.wav
320,192,84388,1,0,0:0:0:40:
64,192,84550,1,0,0:0:0:40:bass3.wav
64,192,84874,1,0,0:0:0:40:bass3.wav
320,192,85198,1,0,0:0:0:40:bass3.wav
64,192,85523,1,0,0:0:0:40:bass3.wav
192,192,85685,1,0,0:0:0:40:
320,192,85847,1,0,0:0:0:40:bass4.wav
320,192,86171,1,0,0:0:0:40:bass4.wav
192,192,86496,1,0,0:0:0:40:bass4.wav
320,192,86820,1,0,0:0:0:40:bass4.wav
448,192,86982,1,0,0:0:0:40:
192,192,87144,1,0,0:0:0:40:bass2.wav
192,192,87469,1,0,0:0:0:40:bass2.wav
448,192,87793,1,0,0:0:0:40:bass2.wav
192,192,88117,1,0,0:0:0:40:bass2.wav
64,192,88279,1,0,0:0:0:40:
448,192,88442,1,0,0:0:0:40:bass6.wav
64,192,88766,1,0,0:0:0:40:bass6.wav
64,192,89090,1,0,0:0:0:40:bass6.wav
448,192,89415,1,0,0:0:0:40:bass6.wav
320,192,89577,1,0,0:0:0:40:
64,192,89739,1,0,0:0:0:40:bass3.wav
64,192,90063,1,0,0:0:0:40:bass3.wav
320,192,90388,1,0,0:0:0:40:bass3.wav
64,192,90712,1,0,0:0:0:40:bass3.wav
448,192,90874,1,0,0:0:0:40:
192,192,91036,1,0,0:0:0:40:bass5.wav
192,192,91360,1,0,0:0:0:40:bass5.wav
448,192,91685,1,0,0:0:0:40:bass5.wav
192,192,92009,1,0,0:0:0:40:bass5.wav
64,192,92171,1,0,0:0:0:40:
320,192,92333,1,0,0:0:0:40:bass6.wav
320,192,92658,1,0,0:0:0:40:bass6.wav
64,192,92982,1,0,0:0:0:40:bass6.wav
320,192,93306,1,0,0:0:0:40:bass6.wav
192,192,93469,1,0,0:0:0:40:
448,192,93631,1,0,0:0:0:40:bass7.wav
448,192,93955,1,0,0:0:0:40:bass7.wav
64,192,94117,1,0,0:0:0:40:snare.wav
192,192,94117,1,4,0:0:0:40:
320,192,94442,1,4,0:0:0:40:
448,192,94442,1,0,0:0:0:40:snare.wav
64,192,94766,1,0,0:0:0:40:crash1.wav
192,192,94766,1,4,0:0:0:40:
320,192,95090,1,4,0:0:0:40:normal-hitfinish.wav
64,192,95415,1,4,0:0:0:40:normal-hitfinish.wav
320,192,95739,1,4,0:0:0:40:normal-hitfinish.wav
64,192,96063,1,4,0:0:0:40:normal-hitfinish.wav
448,192,96388,1,4,0:0:0:40:normal-hitfinish.wav
320,192,96712,1,4,0:0:0:40:normal-hitfinish.wav
192,192,97036,1,4,0:0:0:40:normal-hitfinish.wav
64,192,97360,1,4,0:0:0:40:normal-hitfinish.wav
320,192,97685,1,4,0:0:0:40:
64,192,98009,1,4,0:0:0:40:
320,192,98333,1,4,0:0:0:40:
64,192,98658,1,4,0:0:0:40:
192,192,98982,1,4,0:0:0:40:
320,192,99306,1,4,0:0:0:40:
448,192,99631,1,4,0:0:0:40:
320,192,99793,1,4,0:0:0:40:
192,192,99955,1,4,0:0:0:40:
64,192,99955,128,0,101252:0:0:0:40:crash1.wav
448,192,101252,128,0,102550:0:0:0:40:crash1.wav
320,192,101252,1,4,0:0:0:40:
192,192,102550,128,0,103198:0:0:0:40:crash1.wav
64,192,102550,1,4,0:0:0:40:
320,192,103198,128,0,103847:0:0:0:40:crash1.wav
64,192,103198,1,4,0:0:0:40:
64,192,103847,128,4,105144:0:0:0:40:
448,192,103847,1,0,0:0:0:40:crash1.wav
192,192,105144,1,0,0:0:0:40:crash1.wav
448,192,105469,1,0,0:0:0:40:lead3_001.wav
320,192,105955,1,0,0:0:0:40:lead3_002.wav
192,192,106442,1,0,0:0:0:40:lead3_003.wav
64,192,106928,1,0,0:0:0:40:lead3_004.wav
448,192,107415,1,0,0:0:0:40:fxclap.wav
64,192,107415,1,4,0:0:0:40:
192,192,107739,1,4,0:0:0:40:
320,192,107739,1,0,0:0:0:40:crash1.wav
448,192,107901,1,0,0:0:0:40:
64,192,108144,1,0,0:0:0:40:
192,192,108388,1,0,0:0:0:40:
320,192,108631,1,0,0:0:0:40:
448,192,108874,1,0,0:0:0:40:
64,192,109198,1,0,0:0:0:40:
448,192,109442,1,0,0:0:0:40:
320,192,109685,1,0,0:0:0:40:
192,192,109928,1,0,0:0:0:40:
64,192,110171,1,0,0:0:0:40:
448,192,110496,1,0,0:0:0:40:
64,192,110739,1,0,0:0:0:40:
320,192,110982,1,0,0:0:0:40:
192,192,111225,1,0,0:0:0:40:
64,192,111469,1,0,0:0:0:40:
448,192,111793,1,0,0:0:0:40:
192,192,112036,1,0,0:0:0:40:
320,192,112279,1,0,0:0:0:40:
64,192,112523,1,0,0:0:0:40:
192,192,112766,1,0,0:0:0:40:
448,192,112847,1,0,0:0:0:40:
64,192,113090,1,0,0:0:0:40:
448,192,113333,1,0,0:0:0:40:
320,192,113577,1,0,0:0:0:40:
192,192,113820,1,0,0:0:0:40:
64,192,114063,1,0,0:0:0:40:
448,192,114388,1,0,0:0:0:40:
64,192,114631,1,0,0:0:0:40:
192,192,114874,1,0,0:0:0:40:
320,192,115117,1,0,0:0:0:40:
448,192,115360,1,0,0:0:0:40:
320,192,115685,1,0,0:0:0:40:
64,192,115928,1,0,0:0:0:40:
192,192,116171,1,0,0:0:0:40:
320,192,116415,1,0,0:0:0:40:
448,192,116658,1,0,0:0:0:40:
448,192,116982,1,0,0:0:0:40:
64,192,117225,1,0,0:0:0:40:
320,192,117469,1,0,0:0:0:40:
192,192,117712,1,0,0:0:0:40:
64,192,117955,1,0,0:0:0:40:
320,192,118117,1,0,0:0:0:40:crash1.wav
448,192,118117,128,4,119415:0:0:0:40:
192,192,118766,1,4,0:0:0:40:
64,192,119415,128,4,120712:0:0:0:40:
320,192,120063,1,4,0:0:0:40:
192,192,120712,128,4,122009:0:0:0:40:
448,192,121360,1,4,0:0:0:40:
320,192,122009,128,4,123306:0:0:0:40:
64,192,122658,1,4,0:0:0:40:
64,192,123306,1,4,0:0:0:40:
192,192,123306,1,0,0:0:0:40:
320,192,123631,1,0,0:0:0:40:
64,192,123955,1,4,0:0:0:40:
320,192,124279,1,4,0:0:0:40:
192,192,124442,1,4,0:0:0:40:
64,192,124604,128,4,125901:0:0:0:40:
192,192,125577,1,4,0:0:0:40:
320,192,125739,1,4,0:0:0:40:
448,192,125901,128,4,127198:0:0:0:40:
192,192,126550,128,4,127198:0:0:0:40:
320,192,127360,1,4,0:0:0:40:
64,192,127604,1,4,0:0:0:40:
448,192,127847,1,0,0:0:0:40:soft-hitfinish.wav
192,192,128090,1,0,0:0:0:40:
64,192,128090,1,0,0:0:0:40:soft-hitfinish.wav
320,192,128333,1,0,0:0:0:40:
448,192,128333,1,0,0:0:0:40:soft-hitfinish.wav
64,192,128496,1,4,0:0:0:40:
64,192,128820,1,4,0:0:0:40:windfx.wav
448,192,128820,1,0,0:0:0:50:crash1.wav
