osu file format v14

[General]
AudioFilename: audio.mp3
AudioLeadIn: 0
PreviewTime: 34788
Countdown: 0
SampleSet: Normal
StackLeniency: 0.7
Mode: 1
LetterboxInBreaks: 0
WidescreenStoryboard: 1

[Editor]
Bookmarks: 12387
DistanceSpacing: 0.5
BeatDivisor: 4
GridSize: 32
TimelineZoom: 1.9

[Metadata]
Title:On And On!!
TitleUnicode:On And On!!
Artist:ETIA. feat. Jenga
ArtistUnicode:ETIA. feat. Jenga
Creator:[_Chichinya_]
Version:Noko's Muzukashii!!
Source:
Tags:Electronic UK hardcore Japanese Video game Instrumental J-CORE G2R2018 #D3V1L BMS G2R GO BACK 2 YOUR ROOTS 2018 climax Noko_BSF Noko
BeatmapID:1838613
BeatmapSetID:874912

[Difficulty]
HPDrainRate:6
CircleSize:5
OverallDifficulty:5
ApproachRate:5
SliderMultiplier:1.4
SliderTickRate:1

[Events]
//Background and Video events
0,0,"E.jpg",0,0
//Break Periods
//Storyboard Layer 0 (Background)
//Storyboard Layer 1 (Fail)
//Storyboard Layer 2 (Pass)
//Storyboard Layer 3 (Foreground)
//Storyboard Layer 4 (Overlay)
//Storyboard Sound Samples

[TimingPoints]
1140,352.941176470588,4,1,0,80,1,0
6787,-100,4,1,0,90,0,0
12434,-95.2380952380952,4,1,0,100,0,1
23728,-95.2380952380952,4,1,0,90,0,0
24081,-95.2380952380952,4,1,0,100,0,1
34669,-96.1538461538461,4,1,0,100,0,1
34757,-97.0873786407767,4,1,0,100,0,1
34845,-98.0392156862745,4,1,0,100,0,1
35022,-100,4,1,0,80,0,0
46316,-100,4,1,0,85,0,0
57610,-100,4,1,0,90,0,0
67492,-100,4,1,0,95,0,0
68904,-95.2380952380952,4,1,0,100,0,1
79492,-96.1538461538461,4,1,0,100,0,1
79669,-97.0873786407767,4,1,0,100,0,1
79845,-98.0392156862745,4,1,0,100,0,1
80022,-99.009900990099,4,1,0,100,0,1
80198,-100,4,1,0,100,0,0
80287,-100,4,1,0,95,0,0
91492,-95.2380952380952,4,1,0,100,0,1
102787,-95.2380952380952,4,1,0,90,0,0
103139,-95.2380952380952,4,1,0,100,0,1
113904,-96.1538461538461,4,1,0,100,0,1
113992,-97.0873786407767,4,1,0,100,0,1
114081,-98.0392156862745,4,1,0,100,0,0
114257,-100,4,1,0,90,0,0
118316,-100,4,1,0,85,0,0
118492,-100,4,1,0,83,0,0
118669,-100,4,1,0,81,0,0
118845,-100,4,1,0,80,0,0
119198,-100,4,1,0,75,0,0

[HitObjects]
256,192,1140,5,4,0:0:0:0:
256,192,1404,1,8,0:0:0:0:
256,192,1492,1,0,0:0:0:0:
256,192,1669,1,8,0:0:0:0:
256,192,1845,1,0,0:0:0:0:
256,192,2022,1,0,0:0:0:0:
256,192,2110,1,0,0:0:0:0:
256,192,2198,1,0,0:0:0:0:
256,192,2375,1,8,0:0:0:0:
256,192,2551,1,0,0:0:0:0:
256,192,2904,1,0,0:0:0:0:
256,192,3257,1,0,0:0:0:0:
256,192,3434,1,0,0:0:0:0:
256,192,3522,1,0,0:0:0:0:
256,192,3610,1,0,0:0:0:0:
256,192,3787,1,8,0:0:0:0:
256,192,3963,1,0,0:0:0:0:
256,192,4228,1,8,0:0:0:0:
256,192,4316,1,0,0:0:0:0:
256,192,4492,1,8,0:0:0:0:
256,192,4669,1,0,0:0:0:0:
256,192,4845,1,0,0:0:0:0:
256,192,4934,1,0,0:0:0:0:
256,192,5022,1,0,0:0:0:0:
256,192,5198,1,8,0:0:0:0:
256,192,5375,1,0,0:0:0:0:
256,192,5728,1,0,0:0:0:0:
256,192,6081,1,0,0:0:0:0:
256,192,6257,1,0,0:0:0:0:
256,192,6345,1,0,0:0:0:0:
256,192,6434,1,0,0:0:0:0:
256,192,6610,1,8,0:0:0:0:
256,192,6787,1,4,0:0:0:0:
256,192,7051,1,8,0:0:0:0:
256,192,7139,1,0,0:0:0:0:
256,192,7316,1,8,0:0:0:0:
256,192,7492,1,0,0:0:0:0:
256,192,7669,1,0,0:0:0:0:
256,192,7757,1,0,0:0:0:0:
256,192,7845,1,0,0:0:0:0:
256,192,8022,1,8,0:0:0:0:
256,192,8198,1,4,0:0:0:0:
256,192,8904,1,4,0:0:0:0:
256,192,9257,1,0,0:0:0:0:
256,192,9434,1,8,0:0:0:0:
256,192,9610,1,4,0:0:0:0:
256,192,9875,1,8,0:0:0:0:
256,192,9963,1,0,0:0:0:0:
256,192,10139,1,8,0:0:0:0:
256,192,10316,1,0,0:0:0:0:
256,192,10492,1,0,0:0:0:0:
256,192,10581,1,0,0:0:0:0:
256,192,10669,1,0,0:0:0:0:
256,192,10845,1,8,0:0:0:0:
256,192,11022,1,0,0:0:0:0:
256,192,11198,1,8,0:0:0:0:
256,192,11375,1,8,0:0:0:0:
256,192,11551,1,0,0:0:0:0:
256,192,11728,1,0,0:0:0:0:
256,192,12434,1,12,0:0:0:0:
256,192,12787,1,0,0:0:0:0:
256,192,12963,1,0,0:0:0:0:
256,192,13139,1,8,0:0:0:0:
256,192,13316,1,8,0:0:0:0:
256,192,13492,1,0,0:0:0:0:
256,192,13845,1,8,0:0:0:0:
256,192,14022,1,0,0:0:0:0:
256,192,14110,1,0,0:0:0:0:
256,192,14198,1,0,0:0:0:0:
256,192,14375,1,8,0:0:0:0:
256,192,14551,1,8,0:0:0:0:
256,192,14728,1,0,0:0:0:0:
256,192,15081,1,8,0:0:0:0:
256,192,15434,1,8,0:0:0:0:
256,192,15522,1,8,0:0:0:0:
256,192,15610,1,8,0:0:0:0:
256,192,15786,1,8,0:0:0:0:
256,192,15963,1,0,0:0:0:0:
256,192,16669,1,4,0:0:0:0:
256,192,17022,1,0,0:0:0:0:
256,192,17198,1,12,0:0:0:0:
256,192,17551,1,12,0:0:0:0:
256,192,18081,1,4,0:0:0:0:
256,192,18434,1,8,0:0:0:0:
256,192,18610,1,8,0:0:0:0:
256,192,18787,1,8,0:0:0:0:
256,192,18963,1,8,0:0:0:0:
256,192,19139,1,0,0:0:0:0:
256,192,19492,1,8,0:0:0:0:
256,192,19669,1,0,0:0:0:0:
256,192,19757,1,0,0:0:0:0:
256,192,19845,1,0,0:0:0:0:
256,192,20022,1,8,0:0:0:0:
256,192,20198,1,0,0:0:0:0:
256,192,20375,1,8,0:0:0:0:
256,192,20728,1,12,0:0:0:0:
256,192,21257,1,4,0:0:0:0:
256,192,21787,1,12,0:0:0:0:
256,192,22316,1,4,0:0:0:0:
256,192,22581,1,8,0:0:0:0:
256,192,22669,1,0,0:0:0:0:
256,192,22845,1,12,0:0:0:0:
256,192,23198,1,4,0:0:0:0:
256,192,24081,1,12,0:0:0:0:
256,192,24434,1,8,0:0:0:0:
256,192,24610,1,8,0:0:0:0:
256,192,24787,1,0,0:0:0:0:
256,192,25139,1,8,0:0:0:0:
256,192,25316,1,0,0:0:0:0:
256,192,25404,1,0,0:0:0:0:
256,192,25492,1,0,0:0:0:0:
256,192,25669,1,8,0:0:0:0:
256,192,25845,1,8,0:0:0:0:
256,192,26022,1,0,0:0:0:0:
256,192,26375,1,8,0:0:0:0:
256,192,26728,1,8,0:0:0:0:
256,192,26816,1,8,0:0:0:0:
256,192,26904,1,8,0:0:0:0:
256,192,27081,1,8,0:0:0:0:
256,192,27257,1,0,0:0:0:0:
256,192,27963,1,4,0:0:0:0:
256,192,28316,1,0,0:0:0:0:
256,192,28492,1,12,0:0:0:0:
256,192,28845,1,12,0:0:0:0:
256,192,29375,1,4,0:0:0:0:
256,192,29728,1,0,0:0:0:0:
256,192,29904,1,0,0:0:0:0:
256,192,30081,1,0,0:0:0:0:
256,192,30257,1,8,0:0:0:0:
256,192,30434,1,0,0:0:0:0:
256,192,30787,1,8,0:0:0:0:
256,192,30963,1,0,0:0:0:0:
256,192,31051,1,0,0:0:0:0:
256,192,31139,1,0,0:0:0:0:
256,192,31316,1,8,0:0:0:0:
256,192,31492,1,0,0:0:0:0:
256,192,31669,1,8,0:0:0:0:
256,192,31845,1,0,0:0:0:0:
256,192,32022,1,4,0:0:0:0:
256,192,32551,1,4,0:0:0:0:
256,192,33081,1,4,0:0:0:0:
256,192,33610,1,12,0:0:0:0:
256,192,34139,1,12,0:0:0:0:
256,192,34669,1,8,0:0:0:0:
256,192,34757,1,8,0:0:0:0:
256,192,34845,1,8,0:0:0:0:
256,192,35022,1,4,0:0:0:0:
256,192,35728,1,8,0:0:0:0:
256,192,37139,1,8,0:0:0:0:
256,192,38375,1,8,0:0:0:0:
256,192,39080,1,8,0:0:0:0:
256,192,40139,1,8,0:0:0:0:
256,192,40669,1,0,0:0:0:0:
256,192,41375,1,8,0:0:0:0:
256,192,42787,1,8,0:0:0:0:
256,192,44022,1,8,0:0:0:0:
256,192,44728,1,8,0:0:0:0:
256,192,45434,1,8,0:0:0:0:
256,192,45787,1,0,0:0:0:0:
256,192,46316,1,4,0:0:0:0:
256,192,46669,1,8,0:0:0:0:
256,192,46846,1,8,0:0:0:0:
256,192,47022,1,0,0:0:0:0:
256,192,47375,1,8,0:0:0:0:
256,192,47552,1,0,0:0:0:0:
256,192,47728,1,0,0:0:0:0:
256,192,47905,1,0,0:0:0:0:
256,192,48081,1,8,0:0:0:0:
256,192,48258,1,8,0:0:0:0:
256,192,48434,1,0,0:0:0:0:
256,192,48963,1,0,0:0:0:0:
256,192,49316,1,0,0:0:0:0:
256,192,49492,1,8,0:0:0:0:
256,192,49669,1,8,0:0:0:0:
256,192,50022,1,0,0:0:0:0:
256,192,50198,1,0,0:0:0:0:
256,192,50375,1,8,0:0:0:0:
256,192,50551,1,8,0:0:0:0:
256,192,50904,1,0,0:0:0:0:
256,192,51081,1,8,0:0:0:0:
256,192,51434,1,8,0:0:0:0:
256,192,51787,1,8,0:0:0:0:
256,192,51963,1,0,0:0:0:0:
256,192,53022,1,0,0:0:0:0:
256,192,53198,1,8,0:0:0:0:
256,192,54081,1,0,0:0:0:0:
256,192,54257,1,8,0:0:0:0:
256,192,54434,1,0,0:0:0:0:
256,192,54610,1,8,0:0:0:0:
256,192,54787,1,8,0:0:0:0:
256,192,55315,1,0,0:0:0:0:
256,192,55492,1,8,0:0:0:0:
256,192,56022,1,4,0:0:0:0:
256,192,57610,1,4,0:0:0:0:
256,192,57963,1,8,0:0:0:0:
256,192,58316,1,8,0:0:0:0:
256,192,58669,1,8,0:0:0:0:
256,192,59022,1,0,0:0:0:0:
256,192,59375,1,0,0:0:0:0:
256,192,59728,1,0,0:0:0:0:
256,192,60081,1,8,0:0:0:0:
256,192,60434,1,0,0:0:0:0:
256,192,60787,1,8,0:0:0:0:
256,192,61139,1,8,0:0:0:0:
256,192,61492,1,8,0:0:0:0:
256,192,61845,1,0,0:0:0:0:
256,192,62198,1,0,0:0:0:0:
256,192,62551,1,12,0:0:0:0:
256,192,62904,1,4,0:0:0:0:
256,192,63257,1,4,0:0:0:0:
256,192,63787,1,8,0:0:0:0:
256,192,63963,1,0,0:0:0:0:
256,192,64316,1,8,0:0:0:0:
256,192,64669,1,4,0:0:0:0:
256,192,65022,1,8,0:0:0:0:
256,192,65198,1,8,0:0:0:0:
256,192,65375,1,4,0:0:0:0:
256,192,65728,1,8,0:0:0:0:
256,192,66081,1,4,0:0:0:0:
256,192,66257,1,0,0:0:0:0:
256,192,66434,1,4,0:0:0:0:
256,192,66610,1,0,0:0:0:0:
256,192,66787,1,12,0:0:0:0:
256,192,66963,1,0,0:0:0:0:
256,192,67139,1,12,0:0:0:0:
256,192,67316,1,0,0:0:0:0:
256,192,67492,1,8,0:0:0:0:
256,192,67845,1,8,0:0:0:0:
256,192,68198,1,8,0:0:0:0:
256,192,68904,1,4,0:0:0:0:
256,192,69257,1,8,0:0:0:0:
256,192,69434,1,0,0:0:0:0:
256,192,69522,1,0,0:0:0:0:
256,192,69610,1,0,0:0:0:0:
256,192,69787,1,8,0:0:0:0:
256,192,69963,1,8,0:0:0:0:
256,192,70139,1,0,0:0:0:0:
256,192,70492,1,0,0:0:0:0:
256,192,70669,1,8,0:0:0:0:
256,192,70845,1,0,0:0:0:0:
256,192,71022,1,8,0:0:0:0:
256,192,71375,1,8,0:0:0:0:
256,192,71551,1,8,0:0:0:0:
256,192,71728,1,0,0:0:0:0:
256,192,72081,1,8,0:0:0:0:
256,192,72257,1,0,0:0:0:0:
256,192,72345,1,0,0:0:0:0:
256,192,72434,1,0,0:0:0:0:
256,192,72610,1,0,0:0:0:0:
256,192,72787,1,8,0:0:0:0:
256,192,72963,1,8,0:0:0:0:
256,192,73316,1,0,0:0:0:0:
256,192,73492,1,8,0:0:0:0:
256,192,73669,1,0,0:0:0:0:
256,192,73845,1,8,0:0:0:0:
256,192,74022,1,8,0:0:0:0:
256,192,74198,1,0,0:0:0:0:
256,192,74904,1,0,0:0:0:0:
256,192,75081,1,0,0:0:0:0:
256,192,75169,1,0,0:0:0:0:
256,192,75257,1,0,0:0:0:0:
256,192,75434,1,0,0:0:0:0:
256,192,75610,1,8,0:0:0:0:
256,192,75787,1,8,0:0:0:0:
256,192,76139,1,8,0:0:0:0:
256,192,76228,1,8,0:0:0:0:
256,192,76316,1,8,0:0:0:0:
256,192,76492,1,8,0:0:0:0:
256,192,76669,1,0,0:0:0:0:
256,192,76845,1,0,0:0:0:0:
256,192,77022,1,8,0:0:0:0:
256,192,77198,1,8,0:0:0:0:
256,192,77375,1,0,0:0:0:0:
256,192,77728,1,0,0:0:0:0:
256,192,77904,1,0,0:0:0:0:
256,192,77992,1,0,0:0:0:0:
256,192,78081,1,0,0:0:0:0:
256,192,78257,1,0,0:0:0:0:
256,192,78434,1,8,0:0:0:0:
256,192,78610,1,8,0:0:0:0:
256,192,78963,1,0,0:0:0:0:
256,192,79139,1,8,0:0:0:0:
256,192,79316,1,0,0:0:0:0:
256,192,79492,1,8,0:0:0:0:
256,192,79669,1,8,0:0:0:0:
256,192,79845,1,0,0:0:0:0:
256,192,80022,1,8,0:0:0:0:
256,192,80198,1,0,0:0:0:0:
256,192,80552,1,0,0:0:0:0:
256,192,80728,1,8,0:0:0:0:
256,192,80816,1,8,0:0:0:0:
256,192,80905,1,8,0:0:0:0:
256,192,81081,1,0,0:0:0:0:
256,192,81258,1,8,0:0:0:0:
256,192,81434,1,8,0:0:0:0:
256,192,81787,1,8,0:0:0:0:
256,192,81963,1,0,0:0:0:0:
256,192,82139,1,8,0:0:0:0:
256,192,82316,1,8,0:0:0:0:
256,192,82492,1,0,0:0:0:0:
256,192,82581,1,0,0:0:0:0:
256,192,82669,1,0,0:0:0:0:
256,192,82845,1,8,0:0:0:0:
256,192,83022,1,0,0:0:0:0:
256,192,83728,1,8,0:0:0:0:
256,192,84081,1,8,0:0:0:0:
256,192,84434,1,8,0:0:0:0:
256,192,84610,1,0,0:0:0:0:
256,192,84698,1,0,0:0:0:0:
256,192,84787,1,0,0:0:0:0:
256,192,84963,1,0,0:0:0:0:
256,192,85139,1,12,0:0:0:0:
256,192,85492,1,12,0:0:0:0:
256,192,85845,1,4,0:0:0:0:
256,192,86198,1,0,0:0:0:0:
256,192,86375,1,0,0:0:0:0:
256,192,86463,1,0,0:0:0:0:
256,192,86551,1,0,0:0:0:0:
256,192,86728,1,0,0:0:0:0:
256,192,86904,1,8,0:0:0:0:
256,192,87081,1,0,0:0:0:0:
256,192,87434,1,0,0:0:0:0:
256,192,87522,1,0,0:0:0:0:
256,192,87610,1,0,0:0:0:0:
256,192,87787,1,0,0:0:0:0:
256,192,87963,1,8,0:0:0:0:
256,192,88139,1,8,0:0:0:0:
256,192,88316,1,0,0:0:0:0:
256,192,88492,1,0,0:0:0:0:
256,192,89022,1,8,0:0:0:0:
256,192,89375,1,8,0:0:0:0:
256,192,89728,1,0,0:0:0:0:
256,192,90081,1,0,0:0:0:0:
256,192,90257,1,0,0:0:0:0:
256,192,90434,1,8,0:0:0:0:
256,192,90610,1,8,0:0:0:0:
256,192,90787,1,0,0:0:0:0:
256,192,91492,1,12,0:0:0:0:
256,192,91845,1,0,0:0:0:0:
256,192,92021,1,0,0:0:0:0:
256,192,92197,1,8,0:0:0:0:
256,192,92374,1,8,0:0:0:0:
256,192,92550,1,0,0:0:0:0:
256,192,92903,1,8,0:0:0:0:
256,192,93080,1,0,0:0:0:0:
256,192,93168,1,0,0:0:0:0:
256,192,93256,1,0,0:0:0:0:
256,192,93433,1,8,0:0:0:0:
256,192,93609,1,8,0:0:0:0:
256,192,93786,1,0,0:0:0:0:
256,192,94139,1,8,0:0:0:0:
256,192,94492,1,8,0:0:0:0:
256,192,94580,1,8,0:0:0:0:
256,192,94668,1,8,0:0:0:0:
256,192,94844,1,8,0:0:0:0:
256,192,95021,1,0,0:0:0:0:
256,192,95727,1,4,0:0:0:0:
256,192,96080,1,0,0:0:0:0:
256,192,96256,1,12,0:0:0:0:
256,192,96610,1,12,0:0:0:0:
256,192,97139,1,4,0:0:0:0:
256,192,97492,1,8,0:0:0:0:
256,192,97668,1,8,0:0:0:0:
256,192,97845,1,8,0:0:0:0:
256,192,98021,1,8,0:0:0:0:
256,192,98197,1,0,0:0:0:0:
256,192,98550,1,8,0:0:0:0:
256,192,98727,1,0,0:0:0:0:
256,192,98815,1,0,0:0:0:0:
256,192,98903,1,0,0:0:0:0:
256,192,99080,1,8,0:0:0:0:
256,192,99256,1,0,0:0:0:0:
256,192,99433,1,8,0:0:0:0:
256,192,99786,1,12,0:0:0:0:
256,192,100315,1,4,0:0:0:0:
256,192,100845,1,12,0:0:0:0:
256,192,101374,1,4,0:0:0:0:
256,192,101639,1,8,0:0:0:0:
256,192,101728,1,0,0:0:0:0:
256,192,101903,1,12,0:0:0:0:
256,192,102256,1,4,0:0:0:0:
256,192,102787,1,4,0:0:0:0:
256,192,103139,1,12,0:0:0:0:
256,192,103492,1,8,0:0:0:0:
256,192,103668,1,8,0:0:0:0:
256,192,103845,1,0,0:0:0:0:
256,192,104197,1,8,0:0:0:0:
256,192,104374,1,0,0:0:0:0:
256,192,104462,1,0,0:0:0:0:
256,192,104550,1,0,0:0:0:0:
256,192,104727,1,8,0:0:0:0:
256,192,104903,1,8,0:0:0:0:
256,192,105080,1,0,0:0:0:0:
256,192,105434,1,8,0:0:0:0:
256,192,105786,1,8,0:0:0:0:
256,192,105874,1,8,0:0:0:0:
256,192,105962,1,8,0:0:0:0:
256,192,106139,1,8,0:0:0:0:
256,192,106315,1,0,0:0:0:0:
256,192,107021,1,4,0:0:0:0:
256,192,107375,1,0,0:0:0:0:
256,192,107551,1,12,0:0:0:0:
256,192,107903,1,12,0:0:0:0:
256,192,108433,1,12,0:0:0:0:
256,192,108786,1,0,0:0:0:0:
256,192,108962,1,0,0:0:0:0:
256,192,109139,1,0,0:0:0:0:
256,192,109315,1,8,0:0:0:0:
256,192,109492,1,0,0:0:0:0:
256,192,109845,1,8,0:0:0:0:
256,192,110021,1,0,0:0:0:0:
256,192,110109,1,0,0:0:0:0:
256,192,110197,1,0,0:0:0:0:
256,192,110374,1,8,0:0:0:0:
256,192,110550,1,0,0:0:0:0:
256,192,110727,1,8,0:0:0:0:
256,192,110903,1,0,0:0:0:0:
256,192,111081,1,4,0:0:0:0:
256,192,111434,1,8,0:0:0:0:
256,192,111522,1,8,0:0:0:0:
256,192,111610,1,8,0:0:0:0:
256,192,111787,1,0,0:0:0:0:
256,192,111963,1,8,0:0:0:0:
256,192,112139,1,8,0:0:0:0:
256,192,112316,1,0,0:0:0:0:
256,192,112492,1,0,0:0:0:0:
256,192,112669,1,12,0:0:0:0:
256,192,113022,1,0,0:0:0:0:
256,192,113198,1,12,0:0:0:0:
256,192,113551,1,12,0:0:0:0:
256,192,113904,1,8,0:0:0:0:
256,192,114081,1,4,0:0:0:0:
256,192,114787,1,0,0:0:0:0:
256,192,115139,1,0,0:0:0:0:
256,192,115316,1,8,0:0:0:0:
256,192,115492,1,0,0:0:0:0:
256,192,115845,1,0,0:0:0:0:
256,192,116198,1,0,0:0:0:0:
256,192,116375,1,0,0:0:0:0:
256,192,116463,1,0,0:0:0:0:
256,192,116551,1,0,0:0:0:0:
256,192,116728,1,8,0:0:0:0:
256,192,116904,1,0,0:0:0:0:
256,192,117081,1,0,0:0:0:0:
256,192,117169,1,0,0:0:0:0:
256,192,117257,1,0,0:0:0:0:
256,192,117434,1,8,0:0:0:0:
256,192,117610,1,0,0:0:0:0:
256,192,117787,1,0,0:0:0:0:
256,192,117875,1,0,0:0:0:0:
256,192,117963,1,0,0:0:0:0:
256,192,118139,1,8,0:0:0:0:
256,192,118316,1,0,0:0:0:0:
256,192,118492,1,0,0:0:0:0:
256,192,118669,1,8,0:0:0:0:
256,192,118845,1,8,0:0:0:0:
256,192,119198,1,8,0:0:0:0:
