osu file format v14

[General]
AudioFilename: audio.mp3
AudioLeadIn: 0
PreviewTime: 34788
Countdown: 0
SampleSet: Normal
StackLeniency: 0.7
Mode: 1
LetterboxInBreaks: 0
WidescreenStoryboard: 1

[Editor]
DistanceSpacing: 0.5
BeatDivisor: 4
GridSize: 32
TimelineZoom: 2.4

[Metadata]
Title:On And On!!
TitleUnicode:On And On!!
Artist:ETIA. feat. Jenga
ArtistUnicode:ETIA. feat. Jenga
Creator:[_Chichinya_]
Version:Kantan!!
Source:
Tags:Electronic UK hardcore Japanese Video game Instrumental J-CORE G2R2018 #D3V1L BMS G2R GO BACK 2 YOUR ROOTS 2018 climax Noko_BSF Noko
BeatmapID:1838295
BeatmapSetID:874912

[Difficulty]
HPDrainRate:8
CircleSize:5
OverallDifficulty:3
ApproachRate:5
SliderMultiplier:1.4
SliderTickRate:1

[Events]
//Background and Video events
0,0,"E.jpg",0,0
//Break Periods
//Storyboard Layer 0 (Background)
//Storyboard Layer 1 (Fail)
//Storyboard Layer 2 (Pass)
//Storyboard Layer 3 (Foreground)
//Storyboard Layer 4 (Overlay)
//Storyboard Sound Samples

[TimingPoints]
1140,352.941176470588,4,1,0,80,1,0
6698,-100,4,1,0,90,0,0
12434,-100,4,1,0,100,0,1
23728,-100,4,1,0,90,0,0
24081,-100,4,1,0,100,0,1
35022,-100,4,1,0,100,0,0
35198,-100,4,1,0,80,0,0
46316,-100,4,1,0,85,0,0
57610,-100,4,1,0,90,0,0
67492,-100,4,1,0,95,0,0
68904,-100,4,1,0,100,0,1
80198,-100,4,1,0,100,0,0
80287,-100,4,1,0,95,0,0
91492,-100,4,1,0,100,0,1
102787,-100,4,1,0,90,0,0
103139,-100,4,1,0,100,0,1
114081,-100,4,1,0,100,0,0
114169,-100,4,1,0,90,0,0
118316,-100,4,1,0,85,0,0
118845,-100,4,1,0,80,0,0
119198,-100,4,1,0,75,0,0

[HitObjects]
256,192,1140,5,4,0:0:0:0:
256,192,1845,1,8,0:0:0:0:
256,192,2198,1,0,0:0:0:0:
256,192,2551,1,0,0:0:0:0:
256,192,3963,1,0,0:0:0:0:
256,192,4669,1,0,0:0:0:0:
256,192,5022,1,0,0:0:0:0:
256,192,5375,1,0,0:0:0:0:
256,192,6434,1,8,0:0:0:0:
256,192,6787,1,4,0:0:0:0:
256,192,8198,1,4,0:0:0:0:
256,192,8904,1,12,0:0:0:0:
256,192,9610,1,8,0:0:0:0:
256,192,9963,1,8,0:0:0:0:
256,192,10316,1,0,0:0:0:0:
256,192,10669,1,0,0:0:0:0:
256,192,11022,1,8,0:0:0:0:
256,192,12081,1,8,0:0:0:0:
256,192,12434,1,4,0:0:0:0:
256,192,13492,1,0,0:0:0:0:
256,192,13845,1,8,0:0:0:0:
256,192,14375,1,8,0:0:0:0:
256,192,14728,1,8,0:0:0:0:
256,192,15081,1,0,0:0:0:0:
256,192,15610,1,8,0:0:0:0:
256,192,16669,1,4,0:0:0:0:
256,192,17375,1,8,0:0:0:0:
256,192,17728,1,8,0:0:0:0:
256,192,18081,1,4,0:0:0:0:
256,192,19139,1,0,0:0:0:0:
256,192,19492,1,0,0:0:0:0:
256,192,20022,1,8,0:0:0:0:
256,192,20728,1,12,0:0:0:0:
256,192,21257,1,12,0:0:0:0:
256,192,21787,1,4,0:0:0:0:
256,192,22316,1,12,0:0:0:0:
256,192,22845,1,12,0:0:0:0:
256,192,23198,1,4,0:0:0:0:
256,192,23728,1,0,0:0:0:0:
256,192,24081,1,12,0:0:0:0:
256,192,25139,1,0,0:0:0:0:
256,192,25669,1,8,0:0:0:0:
256,192,26375,1,8,0:0:0:0:
256,192,26904,1,8,0:0:0:0:
256,192,27257,1,0,0:0:0:0:
256,192,27963,1,8,0:0:0:0:
256,192,28492,1,0,0:0:0:0:
256,192,28845,1,0,0:0:0:0:
256,192,29375,1,12,0:0:0:0:
256,192,30434,1,0,0:0:0:0:
256,192,30787,1,8,0:0:0:0:
256,192,31316,1,8,0:0:0:0:
256,192,32022,1,4,0:0:0:0:
256,192,32551,1,12,0:0:0:0:
256,192,33081,1,4,0:0:0:0:
256,192,33610,1,12,0:0:0:0:
256,192,34139,1,4,0:0:0:0:
256,192,35022,1,4,0:0:0:0:
256,192,37845,1,8,0:0:0:0:
256,192,39081,1,8,0:0:0:0:
256,192,40669,1,0,0:0:0:0:
256,192,41904,1,8,0:0:0:0:
256,192,43492,1,0,0:0:0:0:
256,192,44728,1,8,0:0:0:0:
256,192,46316,1,12,0:0:0:0:
256,192,47022,1,0,0:0:0:0:
256,192,47728,1,0,0:0:0:0:
256,192,48787,1,0,0:0:0:0:
256,192,49139,1,0,0:0:0:0:
256,192,49845,1,8,0:0:0:0:
256,192,50198,1,0,0:0:0:0:
256,192,50551,1,8,0:0:0:0:
256,192,51610,1,0,0:0:0:0:
256,192,51963,1,0,0:0:0:0:
256,192,52669,1,0,0:0:0:0:
256,192,53198,1,8,0:0:0:0:
256,192,54081,1,0,0:0:0:0:
256,192,54787,1,8,0:0:0:0:
256,192,55492,1,0,0:0:0:0:
256,192,56022,1,12,0:0:0:0:
256,192,57610,1,4,0:0:0:0:
256,192,59022,1,0,0:0:0:0:
256,192,60434,1,8,0:0:0:0:
256,192,61845,1,0,0:0:0:0:
256,192,62551,1,12,0:0:0:0:
256,192,63257,1,4,0:0:0:0:
256,192,64669,1,4,0:0:0:0:
256,192,65375,1,4,0:0:0:0:
256,192,66081,1,4,0:0:0:0:
256,192,66434,1,4,0:0:0:0:
256,192,66787,1,4,0:0:0:0:
256,192,67492,1,8,0:0:0:0:
256,192,68904,1,4,0:0:0:0:
256,192,69610,1,8,0:0:0:0:
256,192,70139,1,0,0:0:0:0:
256,192,70669,1,0,0:0:0:0:
256,192,71022,1,0,0:0:0:0:
256,192,71728,1,8,0:0:0:0:
256,192,72434,1,8,0:0:0:0:
256,192,72963,1,0,0:0:0:0:
256,192,73845,1,4,0:0:0:0:
256,192,74198,1,12,0:0:0:0:
256,192,74551,1,4,0:0:0:0:
256,192,75787,1,8,0:0:0:0:
256,192,76316,1,0,0:0:0:0:
256,192,76669,1,0,0:0:0:0:
256,192,77375,1,8,0:0:0:0:
256,192,78081,1,8,0:0:0:0:
256,192,78610,1,0,0:0:0:0:
256,192,79492,1,4,0:0:0:0:
256,192,79845,1,12,0:0:0:0:
256,192,80198,5,0,0:0:0:0:
256,192,80904,1,8,0:0:0:0:
256,192,81257,1,4,0:0:0:0:
256,192,82316,1,8,0:0:0:0:
256,192,83022,1,0,0:0:0:0:
256,192,83728,1,8,0:0:0:0:
256,192,84434,1,0,0:0:0:0:
256,192,85139,1,12,0:0:0:0:
256,192,85492,1,4,0:0:0:0:
256,192,85845,1,4,0:0:0:0:
256,192,86551,1,8,0:0:0:0:
256,192,86904,1,0,0:0:0:0:
256,192,87963,1,8,0:0:0:0:
256,192,88669,1,8,0:0:0:0:
256,192,89375,1,8,0:0:0:0:
256,192,90081,1,0,0:0:0:0:
256,192,91139,1,8,0:0:0:0:
256,192,91492,1,4,0:0:0:0:
256,192,92551,1,0,0:0:0:0:
256,192,92904,1,8,0:0:0:0:
256,192,93434,1,8,0:0:0:0:
256,192,94139,1,0,0:0:0:0:
256,192,95728,1,4,0:0:0:0:
256,192,96257,1,8,0:0:0:0:
256,192,96610,1,8,0:0:0:0:
256,192,97139,1,4,0:0:0:0:
256,192,98551,1,0,0:0:0:0:
256,192,99081,1,8,0:0:0:0:
256,192,99787,1,12,0:0:0:0:
256,192,100316,1,4,0:0:0:0:
256,192,100845,1,12,0:0:0:0:
256,192,101375,1,4,0:0:0:0:
256,192,101904,1,12,0:0:0:0:
256,192,102257,5,4,0:0:0:0:
256,192,102787,1,0,0:0:0:0:
256,192,103139,5,12,0:0:0:0:
256,192,104198,1,0,0:0:0:0:
256,192,104728,1,8,0:0:0:0:
256,192,105081,1,8,0:0:0:0:
256,192,105434,1,0,0:0:0:0:
256,192,106316,1,0,0:0:0:0:
256,192,107022,1,8,0:0:0:0:
256,192,108434,1,12,0:0:0:0:
256,192,109492,1,0,0:0:0:0:
256,192,109845,1,12,0:0:0:0:
256,192,110375,1,8,0:0:0:0:
256,192,110728,1,8,0:0:0:0:
256,192,111081,1,8,0:0:0:0:
256,192,111610,1,0,0:0:0:0:
256,192,112316,1,8,0:0:0:0:
256,192,112669,1,4,0:0:0:0:
256,192,113198,1,12,0:0:0:0:
256,192,113551,1,12,0:0:0:0:
256,192,114081,1,4,0:0:0:0:
256,192,114787,1,8,0:0:0:0:
256,192,115492,1,0,0:0:0:0:
256,192,116198,1,0,0:0:0:0:
256,192,116904,1,8,0:0:0:0:
256,192,117610,1,0,0:0:0:0:
256,192,117963,1,0,0:0:0:0:
256,192,118316,1,4,0:0:0:0:
256,192,118845,1,8,0:0:0:0:
256,192,119198,1,8,0:0:0:0:
