osu file format v14

[General]
AudioFilename: audio.mp3
AudioLeadIn: 500
PreviewTime: 89215
Countdown: 0
SampleSet: Normal
StackLeniency: 0.7
Mode: 1
LetterboxInBreaks: 0
WidescreenStoryboard: 0

[Editor]
Bookmarks: 65952,89266
DistanceSpacing: 2.2
BeatDivisor: 8
GridSize: 16
TimelineZoom: 2

[Metadata]
Title:Singularity
TitleUnicode:Singularity
Artist:ETIA.
ArtistUnicode:ETIA.
Creator:Lundlerol
Version:Future 9+
Source:Arcaea
Tags:
BeatmapID:1693100
BeatmapSetID:806607

[Difficulty]
HPDrainRate:6
CircleSize:7
OverallDifficulty:5
ApproachRate:10
SliderMultiplier:1.4599999666214
SliderTickRate:1

[Events]
//Background and Video events
0,0,"f280c97b2c370.jpg",0,0
//Break Periods
//Storyboard Layer 0 (Background)
//Storyboard Layer 1 (Fail)
//Storyboard Layer 2 (Pass)
//Storyboard Layer 3 (Foreground)
//Storyboard Sound Samples

[TimingPoints]
1487,342.857142857143,4,1,0,70,1,0
6972,-100,4,1,0,90,0,0
34487,-100,4,1,0,50,0,0
45299,-100,4,1,0,70,0,0
65944,-83.3333333333333,4,1,0,5,0,0
66544,-100,4,1,0,50,0,0
67229,-100,4,1,0,70,0,0
89229,-100,4,1,0,90,0,1
111201,-100,4,1,0,90,0,0

[HitObjects]
256,193,1144,5,8,0:0:0:0:
252,192,1201,1,8,0:0:0:0:
252,192,1258,1,8,0:0:0:0:
252,192,1315,1,8,0:0:0:0:
252,187,1372,1,8,0:0:0:0:
252,187,1429,1,8,0:0:0:0:
256,193,1487,1,0,0:0:0:0:
256,198,1572,1,0,0:0:0:0:
244,197,1658,1,8,0:0:0:0:
239,201,1744,1,8,0:0:0:0:
241,198,1829,1,8,0:0:0:0:
231,206,1915,1,8,0:0:0:0:
222,203,2001,1,0,0:0:0:0:
220,200,2172,1,8,0:0:0:0:
220,200,2258,1,8,0:0:0:0:
220,200,2344,1,0,0:0:0:0:
220,200,2429,1,8,0:0:0:0:
209,201,2515,1,0,0:0:0:0:
256,186,2858,1,0,0:0:0:0:
249,202,2944,1,0,0:0:0:0:
249,202,3029,1,8,0:0:0:0:
249,202,3115,1,8,0:0:0:0:
238,197,3201,1,0,0:0:0:0:
222,202,3287,1,8,0:0:0:0:
214,202,3372,1,0,0:0:0:0:
238,197,3544,1,0,0:0:0:0:
226,199,3629,1,0,0:0:0:0:
183,192,3715,1,8,0:0:0:0:
183,192,3801,1,8,0:0:0:0:
238,197,3887,1,0,0:0:0:0:
256,185,4229,1,0,0:0:0:0:
236,205,4315,1,0,0:0:0:0:
226,199,4401,1,8,0:0:0:0:
226,197,4487,1,8,0:0:0:0:
226,200,4572,1,0,0:0:0:0:
212,202,4658,1,8,0:0:0:0:
256,185,4744,1,0,0:0:0:0:
209,202,4915,1,0,0:0:0:0:
209,202,5001,1,0,0:0:0:0:
211,202,5087,1,8,0:0:0:0:
215,200,5172,1,8,0:0:0:0:
256,185,5258,1,0,0:0:0:0:
263,184,5601,1,0,0:0:0:0:
224,198,5687,1,0,0:0:0:0:
256,185,5772,1,8,0:0:0:0:
243,197,5858,1,8,0:0:0:0:
235,196,5944,1,8,0:0:0:0:
232,196,6115,1,0,0:0:0:0:
256,185,6287,1,8,0:0:0:0:
244,193,6372,1,8,0:0:0:0:
244,192,6458,1,0,0:0:0:0:
243,190,6544,1,0,0:0:0:0:
238,187,6629,1,8,0:0:0:0:
238,186,6715,1,8,0:0:0:0:
238,186,6801,1,0,0:0:0:0:
234,185,6887,1,8,0:0:0:0:
246,178,6972,1,4,0:0:0:0:
246,178,7144,1,0,0:0:0:0:
246,178,7229,1,0,0:0:0:0:
240,194,7315,1,8,0:0:0:0:
240,194,7572,1,8,0:0:0:0:
236,196,7658,1,0,0:0:0:0:
236,196,7829,1,8,0:0:0:0:
212,190,8001,1,0,0:0:0:0:
249,175,8172,1,8,0:0:0:0:
246,182,8344,1,4,0:0:0:0:
264,190,8515,1,0,0:0:0:0:
264,190,8601,1,0,0:0:0:0:
276,203,8687,1,8,0:0:0:0:
267,202,8944,1,8,0:0:0:0:
267,202,9029,1,0,0:0:0:0:
267,200,9201,1,8,0:0:0:0:
271,199,9372,1,0,0:0:0:0:
257,205,9544,1,8,0:0:0:0:
267,195,9601,1,8,0:0:0:0:
257,187,9658,1,8,0:0:0:0:
246,182,9715,1,0,0:0:0:0:
251,190,9801,1,0,0:0:0:0:
251,190,9887,1,0,0:0:0:0:
251,190,9972,1,0,0:0:0:0:
251,190,10058,1,0,0:0:0:0:
251,190,10144,1,0,0:0:0:0:
251,190,10229,1,0,0:0:0:0:
252,189,10315,1,0,0:0:0:0:
264,176,10401,1,8,0:0:0:0:
237,196,10487,1,0,0:0:0:0:
260,196,10572,1,0,0:0:0:0:
260,196,10629,1,0,0:0:0:0:
239,186,10687,1,0,0:0:0:0:
266,203,10744,1,8,0:0:0:0:
261,201,10829,1,0,0:0:0:0:
251,205,10915,1,0,0:0:0:0:
251,190,10972,1,0,0:0:0:0:
251,190,11029,1,0,0:0:0:0:
246,182,11087,1,8,0:0:0:0:
249,203,11172,1,0,0:0:0:0:
246,202,11258,1,8,0:0:0:0:
245,202,11344,1,8,0:0:0:0:
245,202,11429,1,8,0:0:0:0:
244,202,11515,1,8,0:0:0:0:
243,202,11601,1,0,0:0:0:0:
241,201,11687,1,0,0:0:0:0:
241,201,11772,1,8,0:0:0:0:
241,201,11858,1,8,0:0:0:0:
240,202,11944,1,0,0:0:0:0:
240,202,12029,1,8,0:0:0:0:
238,202,12115,1,8,0:0:0:0:
236,202,12201,1,8,0:0:0:0:
236,202,12287,1,0,0:0:0:0:
235,202,12372,1,8,0:0:0:0:
255,178,12458,1,0,0:0:0:0:
255,178,12544,1,8,0:0:0:0:
255,178,12629,1,0,0:0:0:0:
255,178,12715,1,0,0:0:0:0:
255,178,12801,1,8,0:0:0:0:
260,187,12887,1,8,0:0:0:0:
260,187,12972,1,8,0:0:0:0:
225,174,13144,1,8,0:0:0:0:
220,184,13229,1,8,0:0:0:0:
220,184,13315,1,0,0:0:0:0:
220,184,13401,1,0,0:0:0:0:
220,184,13487,1,8,0:0:0:0:
197,178,13572,1,0,0:0:0:0:
197,178,13658,1,8,0:0:0:0:
228,176,13829,1,0,0:0:0:0:
225,174,14087,1,8,0:0:0:0:
225,174,14172,1,0,0:0:0:0:
228,176,14344,1,0,0:0:0:0:
222,175,14429,1,0,0:0:0:0:
222,175,14515,1,8,0:0:0:0:
197,178,14601,1,0,0:0:0:0:
197,178,14687,1,8,0:0:0:0:
197,178,14858,1,8,0:0:0:0:
197,178,14944,1,8,0:0:0:0:
197,178,15029,1,8,0:0:0:0:
217,175,15201,1,0,0:0:0:0:
227,188,15287,1,0,0:0:0:0:
227,188,15372,1,8,0:0:0:0:
227,188,15458,1,8,0:0:0:0:
227,188,15544,1,0,0:0:0:0:
226,187,15715,1,0,0:0:0:0:
212,187,15887,1,0,0:0:0:0:
210,188,15972,1,0,0:0:0:0:
210,188,16058,1,8,0:0:0:0:
208,188,16229,1,8,0:0:0:0:
206,188,16315,1,0,0:0:0:0:
207,188,16401,1,8,0:0:0:0:
216,175,16572,1,0,0:0:0:0:
220,173,16658,1,8,0:0:0:0:
216,175,16829,1,8,0:0:0:0:
216,175,16915,1,0,0:0:0:0:
201,182,17087,1,8,0:0:0:0:
195,182,17258,1,8,0:0:0:0:
195,182,17344,1,8,0:0:0:0:
195,182,17429,1,8,0:0:0:0:
196,182,17515,1,8,0:0:0:0:
196,182,17601,1,0,0:0:0:0:
196,182,17687,1,8,0:0:0:0:
196,182,17772,1,0,0:0:0:0:
221,188,17944,1,0,0:0:0:0:
201,186,18029,1,0,0:0:0:0:
201,186,18115,1,8,0:0:0:0:
200,187,18201,1,0,0:0:0:0:
200,187,18287,1,8,0:0:0:0:
204,187,18458,1,0,0:0:0:0:
211,189,18629,1,0,0:0:0:0:
211,189,18715,1,8,0:0:0:0:
212,189,18801,1,8,0:0:0:0:
212,189,18887,1,8,0:0:0:0:
210,189,18972,1,0,0:0:0:0:
211,189,19058,1,8,0:0:0:0:
211,189,19144,1,0,0:0:0:0:
211,189,19315,1,0,0:0:0:0:
211,189,19572,1,8,0:0:0:0:
211,189,19658,1,0,0:0:0:0:
212,189,19829,1,0,0:0:0:0:
212,189,19915,1,8,0:0:0:0:
210,189,20001,1,8,0:0:0:0:
215,189,20087,1,0,0:0:0:0:
215,189,20172,1,8,0:0:0:0:
215,189,20344,1,0,0:0:0:0:
215,189,20429,1,0,0:0:0:0:
215,189,20515,1,8,0:0:0:0:
207,188,20687,1,0,0:0:0:0:
220,193,20772,1,0,0:0:0:0:
219,193,20858,1,0,0:0:0:0:
219,193,20944,1,8,0:0:0:0:
219,193,21029,1,0,0:0:0:0:
218,193,21115,1,0,0:0:0:0:
218,193,21201,1,8,0:0:0:0:
218,193,21372,1,0,0:0:0:0:
218,193,21458,1,0,0:0:0:0:
218,193,21544,1,8,0:0:0:0:
215,193,21715,1,8,0:0:0:0:
215,193,21801,1,0,0:0:0:0:
219,193,21887,1,8,0:0:0:0:
207,188,22058,1,0,0:0:0:0:
214,192,22144,1,8,0:0:0:0:
218,193,22315,1,8,0:0:0:0:
218,193,22401,1,0,0:0:0:0:
218,193,22572,1,0,0:0:0:0:
215,193,22658,1,8,0:0:0:0:
215,193,22744,1,0,0:0:0:0:
209,191,22829,1,8,0:0:0:0:
212,192,22915,1,8,0:0:0:0:
212,192,23001,1,8,0:0:0:0:
212,192,23087,1,0,0:0:0:0:
208,191,23172,1,8,0:0:0:0:
209,191,23258,1,8,0:0:0:0:
209,191,23344,1,8,0:0:0:0:
206,186,23429,1,0,0:0:0:0:
217,202,23772,1,8,0:0:0:0:
239,196,24115,1,8,0:0:0:0:
218,206,24201,1,8,0:0:0:0:
219,206,24287,1,8,0:0:0:0:
239,196,24458,1,0,0:0:0:0:
239,196,24629,1,8,0:0:0:0:
229,206,24801,1,0,0:0:0:0:
230,206,24887,1,8,0:0:0:0:
230,206,25058,1,8,0:0:0:0:
231,205,25144,1,0,0:0:0:0:
241,204,25315,1,8,0:0:0:0:
230,227,25401,1,8,0:0:0:0:
243,212,25487,1,0,0:0:0:0:
203,221,25572,1,0,0:0:0:0:
203,221,25658,1,0,0:0:0:0:
195,221,25829,1,0,0:0:0:0:
245,197,25915,1,0,0:0:0:0:
245,198,26001,1,8,0:0:0:0:
251,193,26172,1,0,0:0:0:0:
246,203,26258,1,0,0:0:0:0:
246,203,26344,1,8,0:0:0:0:
228,202,26429,1,0,0:0:0:0:
228,202,26515,1,8,0:0:0:0:
314,234,26687,1,0,0:0:0:0:
251,193,26858,1,8,0:0:0:0:
220,203,26944,1,8,0:0:0:0:
221,203,27029,1,0,0:0:0:0:
251,193,27201,1,8,0:0:0:0:
251,193,27372,1,0,0:0:0:0:
243,205,27544,1,0,0:0:0:0:
225,206,27629,1,8,0:0:0:0:
231,207,27801,1,8,0:0:0:0:
231,207,27887,1,0,0:0:0:0:
247,209,28058,1,0,0:0:0:0:
215,202,28229,1,0,0:0:0:0:
215,197,28315,1,0,0:0:0:0:
233,214,28401,1,8,0:0:0:0:
212,199,28572,1,8,0:0:0:0:
198,191,28658,1,0,0:0:0:0:
198,191,28744,1,8,0:0:0:0:
264,183,28915,1,0,0:0:0:0:
264,183,29001,1,0,0:0:0:0:
264,183,29087,1,8,0:0:0:0:
255,183,29172,1,0,0:0:0:0:
236,224,29258,1,8,0:0:0:0:
297,186,29344,1,8,0:0:0:0:
450,291,29429,1,0,0:0:0:0:
264,183,29601,1,0,0:0:0:0:
222,223,29687,1,8,0:0:0:0:
264,183,29772,1,0,0:0:0:0:
217,222,29944,1,8,0:0:0:0:
264,183,30115,1,8,0:0:0:0:
106,174,30201,1,8,0:0:0:0:
106,174,30287,1,0,0:0:0:0:
249,187,30372,1,0,0:0:0:0:
251,190,30458,1,8,0:0:0:0:
106,174,30629,1,0,0:0:0:0:
217,222,30801,1,8,0:0:0:0:
247,214,30972,1,0,0:0:0:0:
232,212,31058,1,0,0:0:0:0:
264,183,31144,1,0,0:0:0:0:
106,174,31315,1,8,0:0:0:0:
106,174,31401,1,8,0:0:0:0:
106,174,31487,1,0,0:0:0:0:
264,183,31658,1,0,0:0:0:0:
256,184,31744,1,0,0:0:0:0:
256,184,31829,1,0,0:0:0:0:
106,174,32001,1,8,0:0:0:0:
253,200,32087,1,8,0:0:0:0:
252,200,32172,1,8,0:0:0:0:
101,173,32344,1,0,0:0:0:0:
236,202,32515,1,8,0:0:0:0:
236,202,32601,1,8,0:0:0:0:
101,173,32687,1,8,0:0:0:0:
263,183,32858,1,0,0:0:0:0:
263,183,33029,1,4,0:0:0:0:
254,183,33201,1,0,0:0:0:0:
278,177,33287,1,0,0:0:0:0:
273,179,33372,1,8,0:0:0:0:
273,179,33458,1,8,0:0:0:0:
273,180,33544,1,0,0:0:0:0:
273,180,33629,1,0,0:0:0:0:
263,183,33715,1,8,0:0:0:0:
259,183,33801,1,8,0:0:0:0:
263,183,33887,1,0,0:0:0:0:
263,183,33972,1,0,0:0:0:0:
263,183,34058,1,8,0:0:0:0:
264,182,34115,1,8,0:0:0:0:
264,182,34172,1,8,0:0:0:0:
260,187,34229,1,8,0:0:0:0:
260,187,34287,1,8,0:0:0:0:
264,182,34344,1,8,0:0:0:0:
263,183,34401,1,0,0:0:0:0:
255,199,35601,1,0,0:0:0:0:
263,185,36972,1,0,0:0:0:0:
259,187,37487,1,8,0:0:0:0:
259,187,38001,1,8,0:0:0:0:
259,187,38515,1,8,0:0:0:0:
259,187,39029,1,8,0:0:0:0:
251,192,39544,1,8,0:0:0:0:
259,187,39887,1,0,0:0:0:0:
267,182,41087,1,0,0:0:0:0:
257,176,41601,1,8,0:0:0:0:
259,187,42458,1,0,0:0:0:0:
198,174,42972,1,8,0:0:0:0:
198,174,43487,1,8,0:0:0:0:
259,187,43829,1,0,0:0:0:0:
229,187,44515,1,8,0:0:0:0:
258,189,45372,1,4,0:0:0:0:
258,189,46058,1,8,0:0:0:0:
258,189,46401,1,8,0:0:0:0:
258,189,46572,1,0,0:0:0:0:
231,173,47087,1,0,0:0:0:0:
258,189,47429,1,8,0:0:0:0:
258,189,47601,1,8,0:0:0:0:
258,189,47772,1,8,0:0:0:0:
258,189,47944,1,0,0:0:0:0:
252,178,48458,1,8,0:0:0:0:
249,179,48801,1,0,0:0:0:0:
243,182,49144,1,8,0:0:0:0:
260,165,49315,1,0,0:0:0:0:
265,164,49658,1,0,0:0:0:0:
266,164,49829,1,0,0:0:0:0:
247,168,50001,1,0,0:0:0:0:
247,168,50172,1,8,0:0:0:0:
242,167,50344,1,0,0:0:0:0:
265,164,50515,1,8,0:0:0:0:
241,170,50858,1,0,0:0:0:0:
266,164,51201,1,8,0:0:0:0:
236,168,51544,1,0,0:0:0:0:
236,168,51715,1,8,0:0:0:0:
236,168,51887,1,8,0:0:0:0:
233,165,52058,1,8,0:0:0:0:
236,168,52229,1,0,0:0:0:0:
229,161,52744,1,8,0:0:0:0:
229,161,53087,1,8,0:0:0:0:
229,161,53429,1,8,0:0:0:0:
229,161,53601,1,0,0:0:0:0:
219,169,53944,1,8,0:0:0:0:
217,169,54287,1,0,0:0:0:0:
229,161,54801,1,0,0:0:0:0:
213,171,54972,1,12,0:0:0:0:
204,253,55144,1,0,0:0:0:0:
238,270,55315,1,0,0:0:0:0:
198,251,55487,1,0,0:0:0:0:
183,243,55658,1,8,0:0:0:0:
183,242,55829,1,0,0:0:0:0:
185,242,56001,1,0,0:0:0:0:
183,242,56172,1,8,0:0:0:0:
242,166,56344,1,4,0:0:0:0:
221,177,56515,1,8,0:0:0:0:
221,177,56601,1,8,0:0:0:0:
221,177,56687,1,8,0:0:0:0:
204,173,56858,1,0,0:0:0:0:
204,173,57029,1,8,0:0:0:0:
204,173,57115,1,8,0:0:0:0:
204,173,57201,1,8,0:0:0:0:
199,174,57372,1,0,0:0:0:0:
248,186,57715,1,0,0:0:0:0:
246,189,57887,1,8,0:0:0:0:
230,187,57972,1,8,0:0:0:0:
246,189,58058,1,8,0:0:0:0:
231,188,58229,1,8,0:0:0:0:
241,190,58401,1,0,0:0:0:0:
229,193,58487,1,8,0:0:0:0:
230,194,58572,1,8,0:0:0:0:
226,197,58744,1,0,0:0:0:0:
246,186,59087,1,0,0:0:0:0:
226,200,59258,1,8,0:0:0:0:
216,168,59344,1,8,0:0:0:0:
226,201,59429,1,8,0:0:0:0:
216,168,59601,1,0,0:0:0:0:
219,204,59772,1,0,0:0:0:0:
222,204,59858,1,8,0:0:0:0:
222,204,59944,1,8,0:0:0:0:
222,204,60115,1,0,0:0:0:0:
247,185,60458,1,0,0:0:0:0:
220,183,60544,1,0,0:0:0:0:
238,199,60629,1,8,0:0:0:0:
235,193,60715,1,8,0:0:0:0:
237,198,60801,1,0,0:0:0:0:
214,185,60887,1,8,0:0:0:0:
220,183,60972,1,0,0:0:0:0:
231,198,61144,1,0,0:0:0:0:
222,197,61229,1,0,0:0:0:0:
231,198,61315,1,0,0:0:0:0:
223,197,61401,1,0,0:0:0:0:
231,198,61487,1,8,0:0:0:0:
224,197,61572,1,0,0:0:0:0:
228,198,61658,1,8,0:0:0:0:
250,201,61744,1,8,0:0:0:0:
248,185,61829,1,4,0:0:0:0:
256,182,62172,1,8,0:0:0:0:
254,182,62429,1,8,0:0:0:0:
253,181,62515,1,0,0:0:0:0:
251,180,62687,1,0,0:0:0:0:
251,180,62858,1,8,0:0:0:0:
256,182,63029,1,8,0:0:0:0:
248,185,63201,1,4,0:0:0:0:
240,179,63372,1,8,0:0:0:0:
237,178,63458,1,8,0:0:0:0:
240,179,63544,1,8,0:0:0:0:
240,177,63715,1,8,0:0:0:0:
254,178,63887,1,4,0:0:0:0:
245,179,64058,1,8,0:0:0:0:
263,188,64144,1,8,0:0:0:0:
263,188,64229,1,8,0:0:0:0:
248,188,64401,1,8,0:0:0:0:
247,178,64458,1,8,0:0:0:0:
247,178,64515,1,8,0:0:0:0:
250,184,64572,1,0,0:0:0:0:
256,163,64658,1,8,0:0:0:0:
256,163,64744,1,8,0:0:0:0:
256,163,64829,1,8,0:0:0:0:
267,172,64915,1,0,0:0:0:0:
256,163,65001,1,8,0:0:0:0:
256,163,65087,1,8,0:0:0:0:
256,163,65172,1,8,0:0:0:0:
267,172,65258,1,0,0:0:0:0:
256,163,65344,1,8,0:0:0:0:
256,163,65429,1,8,0:0:0:0:
256,163,65515,1,8,0:0:0:0:
267,172,65601,1,0,0:0:0:0:
256,169,65687,1,8,0:0:0:0:
275,165,65772,1,8,0:0:0:0:
256,163,65829,1,8,0:0:0:0:
256,163,65887,1,8,0:0:0:0:
255,180,66629,1,0,0:0:0:0:
255,181,66715,1,0,0:0:0:0:
255,181,66801,1,0,0:0:0:0:
251,171,66972,1,0,0:0:0:0:
235,169,67058,1,0,0:0:0:0:
235,169,67144,1,0,0:0:0:0:
205,172,67315,1,12,0:0:0:0:
258,206,67658,1,4,0:0:0:0:
254,204,67915,1,4,0:0:0:0:
251,202,68087,1,12,0:0:0:0:
251,202,68172,1,4,0:0:0:0:
248,202,68344,1,12,0:0:0:0:
244,207,68515,1,8,0:0:0:0:
244,207,68601,1,8,0:0:0:0:
258,206,68687,1,0,0:0:0:0:
257,205,68772,1,8,0:0:0:0:
242,213,68858,1,0,0:0:0:0:
223,206,68944,1,8,0:0:0:0:
211,200,69029,1,0,0:0:0:0:
243,214,69201,1,4,0:0:0:0:
239,214,69458,1,12,0:0:0:0:
217,215,69544,1,4,0:0:0:0:
229,213,69715,1,12,0:0:0:0:
226,214,69887,1,4,0:0:0:0:
232,212,69972,1,0,0:0:0:0:
234,207,70058,1,12,0:0:0:0:
218,210,70144,1,8,0:0:0:0:
223,203,70229,1,0,0:0:0:0:
221,217,70401,1,4,0:0:0:0:
215,227,70658,1,12,0:0:0:0:
213,227,70829,1,12,0:0:0:0:
244,193,70915,1,4,0:0:0:0:
255,193,71087,1,12,0:0:0:0:
255,193,71258,1,0,0:0:0:0:
253,189,71429,1,8,0:0:0:0:
254,166,71487,1,8,0:0:0:0:
254,166,71544,1,8,0:0:0:0:
246,184,71601,1,4,0:0:0:0:
205,200,71772,1,4,0:0:0:0:
188,196,71829,1,8,0:0:0:0:
261,176,71887,1,8,0:0:0:0:
244,179,71944,1,8,0:0:0:0:
250,178,72029,1,4,0:0:0:0:
245,189,72201,1,12,0:0:0:0:
250,186,72287,1,4,0:0:0:0:
256,194,72458,1,8,0:0:0:0:
243,189,72544,1,8,0:0:0:0:
243,189,72629,1,8,0:0:0:0:
243,189,72715,1,8,0:0:0:0:
242,185,72801,1,4,0:0:0:0:
254,185,73144,1,4,0:0:0:0:
246,181,73401,1,12,0:0:0:0:
225,181,73572,1,12,0:0:0:0:
212,181,73658,1,4,0:0:0:0:
211,179,73829,1,12,0:0:0:0:
248,187,74001,1,8,0:0:0:0:
248,187,74087,1,8,0:0:0:0:
242,186,74172,1,0,0:0:0:0:
242,186,74258,1,8,0:0:0:0:
242,186,74429,1,8,0:0:0:0:
242,186,74515,1,4,0:0:0:0:
256,189,74772,1,12,0:0:0:0:
246,186,74944,1,12,0:0:0:0:
245,186,75029,1,4,0:0:0:0:
242,186,75201,1,4,0:0:0:0:
235,183,75372,1,8,0:0:0:0:
236,184,75429,1,8,0:0:0:0:
237,185,75487,1,8,0:0:0:0:
252,186,75544,1,4,0:0:0:0:
219,200,75715,1,4,0:0:0:0:
234,194,75887,1,12,0:0:0:0:
236,208,76058,1,4,0:0:0:0:
234,208,76144,1,12,0:0:0:0:
226,208,76315,1,12,0:0:0:0:
241,201,76401,1,0,0:0:0:0:
225,196,76572,1,8,0:0:0:0:
228,201,76629,1,8,0:0:0:0:
228,200,76687,1,8,0:0:0:0:
228,200,76744,1,8,0:0:0:0:
234,197,76829,1,0,0:0:0:0:
181,187,76915,1,8,0:0:0:0:
241,203,77001,1,0,0:0:0:0:
241,203,77087,1,8,0:0:0:0:
241,203,77172,1,8,0:0:0:0:
238,204,77258,1,0,0:0:0:0:
231,205,77344,1,8,0:0:0:0:
199,209,77429,1,0,0:0:0:0:
193,210,77515,1,0,0:0:0:0:
192,210,77601,1,8,0:0:0:0:
187,210,77687,1,8,0:0:0:0:
240,222,77772,1,8,0:0:0:0:
217,220,77944,1,8,0:0:0:0:
256,215,78115,1,8,0:0:0:0:
257,229,78201,1,0,0:0:0:0:
260,219,78287,1,12,0:0:0:0:
254,185,78629,1,4,0:0:0:0:
246,181,78887,1,12,0:0:0:0:
225,181,79058,1,12,0:0:0:0:
212,181,79144,1,4,0:0:0:0:
211,179,79315,1,12,0:0:0:0:
239,192,79487,1,8,0:0:0:0:
239,192,79572,1,8,0:0:0:0:
240,192,79658,1,0,0:0:0:0:
237,192,79744,1,8,0:0:0:0:
231,193,79829,1,8,0:0:0:0:
231,194,79915,1,8,0:0:0:0:
216,194,80001,1,0,0:0:0:0:
254,185,80172,1,4,0:0:0:0:
247,197,80429,1,12,0:0:0:0:
221,192,80515,1,4,0:0:0:0:
209,190,80687,1,12,0:0:0:0:
197,187,80858,1,4,0:0:0:0:
188,186,81029,1,12,0:0:0:0:
173,202,81201,1,0,0:0:0:0:
173,202,81287,1,8,0:0:0:0:
189,186,81372,1,4,0:0:0:0:
198,191,81629,1,4,0:0:0:0:
183,190,81801,1,12,0:0:0:0:
186,190,81887,1,4,0:0:0:0:
177,188,82058,1,12,0:0:0:0:
244,184,82229,1,4,0:0:0:0:
257,193,82401,1,8,0:0:0:0:
254,186,82458,1,8,0:0:0:0:
243,184,82515,1,8,0:0:0:0:
243,184,82572,1,0,0:0:0:0:
236,186,82744,1,8,0:0:0:0:
236,186,82801,1,8,0:0:0:0:
236,186,82858,1,8,0:0:0:0:
223,185,82915,1,8,0:0:0:0:
256,191,83001,1,4,0:0:0:0:
250,191,83172,1,12,0:0:0:0:
250,191,83258,1,4,0:0:0:0:
244,190,83429,1,12,0:0:0:0:
246,183,83515,1,8,0:0:0:0:
243,190,83601,1,4,0:0:0:0:
250,210,83687,1,8,0:0:0:0:
230,199,83772,1,4,0:0:0:0:
247,263,83944,1,8,0:0:0:0:
256,250,84001,1,8,0:0:0:0:
256,250,84058,1,8,0:0:0:0:
218,199,84115,1,4,0:0:0:0:
244,201,84287,1,12,0:0:0:0:
216,199,84372,1,4,0:0:0:0:
216,199,84544,1,12,0:0:0:0:
169,207,84715,1,12,0:0:0:0:
226,210,84801,1,0,0:0:0:0:
166,212,84887,1,8,0:0:0:0:
153,207,84972,1,8,0:0:0:0:
142,206,85058,1,0,0:0:0:0:
241,197,85144,1,12,0:0:0:0:
231,197,85229,1,4,0:0:0:0:
226,197,85401,1,12,0:0:0:0:
225,197,85487,1,0,0:0:0:0:
216,195,85658,1,12,0:0:0:0:
177,185,85744,1,4,0:0:0:0:
229,192,85915,1,12,0:0:0:0:
191,173,86087,1,4,0:0:0:0:
215,178,86172,1,8,0:0:0:0:
193,162,86229,1,8,0:0:0:0:
179,171,86287,1,8,0:0:0:0:
194,162,86344,1,0,0:0:0:0:
195,162,86429,1,8,0:0:0:0:
249,200,86515,1,0,0:0:0:0:
244,210,86601,1,8,0:0:0:0:
244,210,86687,1,8,0:0:0:0:
244,211,86772,1,8,0:0:0:0:
235,211,86858,1,0,0:0:0:0:
214,212,86944,1,8,0:0:0:0:
214,212,87029,1,0,0:0:0:0:
251,232,87115,1,0,0:0:0:0:
251,232,87201,1,8,0:0:0:0:
241,247,87287,1,8,0:0:0:0:
229,211,87372,1,0,0:0:0:0:
223,211,87458,1,8,0:0:0:0:
224,218,87544,1,8,0:0:0:0:
247,217,87601,1,8,0:0:0:0:
247,217,87658,1,8,0:0:0:0:
239,214,87715,1,8,0:0:0:0:
239,214,87772,1,8,0:0:0:0:
239,214,87829,1,8,0:0:0:0:
239,213,87887,1,0,0:0:0:0:
263,211,88058,1,8,0:0:0:0:
271,193,88115,1,8,0:0:0:0:
269,195,88172,1,8,0:0:0:0:
269,195,88229,1,0,0:0:0:0:
273,223,88401,1,0,0:0:0:0:
253,243,88487,1,0,0:0:0:0:
253,243,88572,1,8,0:0:0:0:
271,239,88658,1,0,0:0:0:0:
271,239,88744,1,8,0:0:0:0:
238,249,88915,1,8,0:0:0:0:
279,217,88972,1,8,0:0:0:0:
316,212,89029,1,8,0:0:0:0:
279,217,89087,1,8,0:0:0:0:
279,217,89144,1,8,0:0:0:0:
279,216,89201,1,8,0:0:0:0:
255,178,89258,1,0,0:0:0:0:
255,178,89344,1,8,0:0:0:0:
255,178,89429,1,8,0:0:0:0:
255,178,89515,1,8,0:0:0:0:
255,178,89601,1,0,0:0:0:0:
260,187,89687,1,8,0:0:0:0:
260,187,89772,1,8,0:0:0:0:
225,174,89944,1,0,0:0:0:0:
220,184,90029,1,8,0:0:0:0:
220,184,90115,1,0,0:0:0:0:
220,184,90201,1,0,0:0:0:0:
220,184,90287,1,8,0:0:0:0:
197,178,90372,1,0,0:0:0:0:
197,178,90458,1,8,0:0:0:0:
216,174,90544,1,8,0:0:0:0:
228,176,90629,1,0,0:0:0:0:
225,174,90887,1,8,0:0:0:0:
225,174,90972,1,0,0:0:0:0:
228,176,91144,1,0,0:0:0:0:
222,175,91229,1,0,0:0:0:0:
222,175,91315,1,8,0:0:0:0:
197,178,91401,1,0,0:0:0:0:
197,178,91487,1,8,0:0:0:0:
230,184,91572,1,8,0:0:0:0:
221,187,91658,1,0,0:0:0:0:
197,178,91744,1,8,0:0:0:0:
197,178,91829,1,8,0:0:0:0:
225,177,91915,1,8,0:0:0:0:
217,175,92001,1,0,0:0:0:0:
227,188,92172,1,8,0:0:0:0:
227,188,92258,1,8,0:0:0:0:
227,188,92344,1,0,0:0:0:0:
226,203,92429,1,8,0:0:0:0:
226,187,92515,1,0,0:0:0:0:
212,187,92687,1,0,0:0:0:0:
210,188,92772,1,0,0:0:0:0:
210,188,92858,1,8,0:0:0:0:
196,216,92944,1,0,0:0:0:0:
208,188,93029,1,8,0:0:0:0:
206,188,93115,1,8,0:0:0:0:
207,188,93201,1,0,0:0:0:0:
216,175,93372,1,0,0:0:0:0:
220,173,93458,1,8,0:0:0:0:
216,175,93629,1,8,0:0:0:0:
216,175,93715,1,0,0:0:0:0:
201,182,93887,1,8,0:0:0:0:
163,149,93972,1,0,0:0:0:0:
195,182,94058,1,8,0:0:0:0:
195,182,94144,1,8,0:0:0:0:
195,182,94229,1,0,0:0:0:0:
196,182,94315,1,8,0:0:0:0:
196,182,94401,1,0,0:0:0:0:
196,182,94487,1,0,0:0:0:0:
208,177,94572,1,8,0:0:0:0:
221,188,94744,1,0,0:0:0:0:
201,186,94829,1,0,0:0:0:0:
201,186,94915,1,8,0:0:0:0:
200,187,95001,1,8,0:0:0:0:
200,187,95087,1,0,0:0:0:0:
204,187,95172,1,8,0:0:0:0:
221,188,95344,1,8,0:0:0:0:
211,189,95429,1,0,0:0:0:0:
211,189,95515,1,8,0:0:0:0:
212,189,95601,1,8,0:0:0:0:
212,189,95687,1,8,0:0:0:0:
210,189,95772,1,0,0:0:0:0:
172,182,95858,1,0,0:0:0:0:
211,189,95944,1,8,0:0:0:0:
211,189,96115,1,8,0:0:0:0:
210,192,96201,1,0,0:0:0:0:
211,189,96372,1,8,0:0:0:0:
211,189,96458,1,0,0:0:0:0:
229,192,96544,1,0,0:0:0:0:
212,189,96629,1,8,0:0:0:0:
212,189,96715,1,8,0:0:0:0:
210,189,96801,1,0,0:0:0:0:
215,189,96887,1,8,0:0:0:0:
215,189,96972,1,0,0:0:0:0:
201,189,97058,1,8,0:0:0:0:
215,189,97144,1,0,0:0:0:0:
215,189,97229,1,8,0:0:0:0:
215,189,97315,1,0,0:0:0:0:
207,188,97487,1,0,0:0:0:0:
220,193,97572,1,0,0:0:0:0:
219,193,97658,1,0,0:0:0:0:
219,193,97744,1,8,0:0:0:0:
219,193,97829,1,0,0:0:0:0:
218,193,97915,1,0,0:0:0:0:
218,193,98001,1,8,0:0:0:0:
224,177,98087,1,8,0:0:0:0:
218,193,98172,1,0,0:0:0:0:
218,193,98258,1,0,0:0:0:0:
218,193,98344,1,8,0:0:0:0:
215,193,98515,1,8,0:0:0:0:
215,193,98601,1,0,0:0:0:0:
219,193,98687,1,8,0:0:0:0:
224,178,98772,1,8,0:0:0:0:
207,188,98858,1,0,0:0:0:0:
214,192,98944,1,8,0:0:0:0:
218,193,99115,1,8,0:0:0:0:
218,193,99201,1,0,0:0:0:0:
218,193,99372,1,0,0:0:0:0:
215,193,99458,1,8,0:0:0:0:
215,193,99544,1,0,0:0:0:0:
209,191,99629,1,8,0:0:0:0:
212,192,99715,1,8,0:0:0:0:
212,192,99801,1,8,0:0:0:0:
212,192,99887,1,0,0:0:0:0:
208,191,99972,1,8,0:0:0:0:
209,191,100058,1,8,0:0:0:0:
209,191,100144,1,8,0:0:0:0:
206,186,100229,1,4,0:0:0:0:
207,196,100401,1,0,0:0:0:0:
217,202,100572,1,8,0:0:0:0:
189,199,100658,1,8,0:0:0:0:
189,199,100744,1,0,0:0:0:0:
239,196,100915,1,8,0:0:0:0:
218,206,101001,1,8,0:0:0:0:
219,206,101087,1,8,0:0:0:0:
239,196,101258,1,0,0:0:0:0:
239,196,101429,1,8,0:0:0:0:
212,203,101515,1,0,0:0:0:0:
229,206,101601,1,0,0:0:0:0:
230,206,101687,1,8,0:0:0:0:
230,206,101858,1,8,0:0:0:0:
231,205,101944,1,0,0:0:0:0:
241,204,102115,1,8,0:0:0:0:
230,227,102201,1,8,0:0:0:0:
243,212,102287,1,0,0:0:0:0:
203,221,102372,1,8,0:0:0:0:
203,221,102458,1,8,0:0:0:0:
242,207,102544,1,8,0:0:0:0:
195,221,102629,1,0,0:0:0:0:
245,197,102715,1,8,0:0:0:0:
245,198,102801,1,0,0:0:0:0:
256,179,102887,1,8,0:0:0:0:
251,193,102972,1,0,0:0:0:0:
246,203,103058,1,0,0:0:0:0:
246,203,103144,1,8,0:0:0:0:
228,202,103229,1,0,0:0:0:0:
228,202,103315,1,8,0:0:0:0:
314,234,103487,1,0,0:0:0:0:
251,193,103658,1,8,0:0:0:0:
220,203,103744,1,8,0:0:0:0:
221,203,103829,1,0,0:0:0:0:
340,215,103915,1,0,0:0:0:0:
251,193,104001,1,8,0:0:0:0:
312,211,104087,1,0,0:0:0:0:
302,208,104172,1,8,0:0:0:0:
243,205,104344,1,0,0:0:0:0:
225,206,104429,1,8,0:0:0:0:
231,207,104601,1,8,0:0:0:0:
231,207,104687,1,0,0:0:0:0:
300,201,104772,1,0,0:0:0:0:
300,201,104858,1,8,0:0:0:0:
298,201,104944,1,8,0:0:0:0:
215,202,105029,1,0,0:0:0:0:
215,197,105115,1,0,0:0:0:0:
233,214,105201,1,8,0:0:0:0:
212,199,105372,1,8,0:0:0:0:
198,191,105458,1,0,0:0:0:0:
198,191,105544,1,8,0:0:0:0:
264,183,105715,1,0,0:0:0:0:
264,183,105801,1,0,0:0:0:0:
264,183,105887,1,8,0:0:0:0:
255,183,105972,1,0,0:0:0:0:
236,224,106058,1,8,0:0:0:0:
297,186,106144,1,8,0:0:0:0:
450,291,106229,1,0,0:0:0:0:
264,183,106401,1,0,0:0:0:0:
222,223,106487,1,8,0:0:0:0:
264,183,106572,1,0,0:0:0:0:
217,222,106744,1,8,0:0:0:0:
264,183,106915,1,8,0:0:0:0:
106,174,107001,1,8,0:0:0:0:
106,174,107087,1,4,0:0:0:0:
251,190,107258,1,8,0:0:0:0:
106,174,107429,1,8,0:0:0:0:
249,223,107515,1,8,0:0:0:0:
217,222,107601,1,4,0:0:0:0:
247,214,107772,1,0,0:0:0:0:
238,220,107944,1,4,0:0:0:0:
106,174,108115,1,8,0:0:0:0:
106,174,108201,1,8,0:0:0:0:
106,174,108287,1,0,0:0:0:0:
264,183,108458,1,4,0:0:0:0:
256,184,108629,1,0,0:0:0:0:
106,174,108801,1,8,0:0:0:0:
253,200,108887,1,8,0:0:0:0:
252,200,108972,1,8,0:0:0:0:
101,173,109144,1,4,0:0:0:0:
236,202,109315,1,8,0:0:0:0:
236,202,109401,1,8,0:0:0:0:
101,173,109487,1,8,0:0:0:0:
263,183,109658,1,4,0:0:0:0:
263,183,109829,1,8,0:0:0:0:
254,183,110001,1,0,0:0:0:0:
278,177,110087,1,0,0:0:0:0:
273,179,110172,1,8,0:0:0:0:
273,179,110258,1,8,0:0:0:0:
273,180,110344,1,0,0:0:0:0:
273,180,110429,1,0,0:0:0:0:
263,183,110515,1,8,0:0:0:0:
259,183,110601,1,8,0:0:0:0:
263,183,110687,1,0,0:0:0:0:
263,183,110772,1,8,0:0:0:0:
263,183,110858,1,8,0:0:0:0:
264,182,110944,1,0,0:0:0:0:
264,182,111029,1,8,0:0:0:0:
264,182,111087,1,8,0:0:0:0:
228,169,111144,1,8,0:0:0:0:
256,193,111201,1,0,0:0:0:0:
256,198,111286,1,0,0:0:0:0:
244,197,111372,1,8,0:0:0:0:
239,201,111458,1,8,0:0:0:0:
241,198,111543,1,8,0:0:0:0:
231,206,111629,1,8,0:0:0:0:
222,203,111715,1,0,0:0:0:0:
220,200,111886,1,8,0:0:0:0:
220,200,111972,1,8,0:0:0:0:
220,200,112058,1,0,0:0:0:0:
220,200,112143,1,8,0:0:0:0:
209,201,112229,1,0,0:0:0:0:
256,186,112572,1,0,0:0:0:0:
249,202,112658,1,0,0:0:0:0:
249,202,112743,1,8,0:0:0:0:
249,202,112829,1,8,0:0:0:0:
238,197,112915,1,0,0:0:0:0:
222,202,113001,1,8,0:0:0:0:
214,202,113086,1,0,0:0:0:0:
238,197,113258,1,0,0:0:0:0:
226,199,113343,1,0,0:0:0:0:
183,192,113429,1,8,0:0:0:0:
183,192,113515,1,8,0:0:0:0:
238,197,113601,1,0,0:0:0:0:
256,185,113943,1,0,0:0:0:0:
236,205,114029,1,0,0:0:0:0:
226,199,114115,1,8,0:0:0:0:
226,197,114201,1,8,0:0:0:0:
226,200,114286,1,0,0:0:0:0:
212,202,114372,1,8,0:0:0:0:
256,185,114458,1,0,0:0:0:0:
209,202,114629,1,0,0:0:0:0:
209,202,114715,1,0,0:0:0:0:
211,202,114801,1,8,0:0:0:0:
215,200,114886,1,8,0:0:0:0:
256,185,114972,1,0,0:0:0:0:
263,184,115315,1,0,0:0:0:0:
224,198,115401,1,0,0:0:0:0:
256,185,115486,1,8,0:0:0:0:
243,197,115572,1,8,0:0:0:0:
235,196,115658,1,8,0:0:0:0:
232,196,115829,1,0,0:0:0:0:
256,185,116001,1,8,0:0:0:0:
244,193,116086,1,8,0:0:0:0:
244,192,116172,1,0,0:0:0:0:
243,190,116258,1,0,0:0:0:0:
238,187,116343,1,8,0:0:0:0:
238,186,116429,1,8,0:0:0:0:
238,186,116515,1,0,0:0:0:0:
234,185,116601,1,8,0:0:0:0:
246,178,116686,1,4,0:0:0:0:
246,178,116858,1,0,0:0:0:0:
246,178,116943,1,0,0:0:0:0:
240,194,117029,1,8,0:0:0:0:
231,197,117115,1,0,0:0:0:0:
240,194,117286,1,8,0:0:0:0:
236,196,117372,1,0,0:0:0:0:
216,191,117458,1,0,0:0:0:0:
236,196,117543,1,8,0:0:0:0:
184,172,117629,1,8,0:0:0:0:
212,190,117715,1,0,0:0:0:0:
249,175,117886,1,8,0:0:0:0:
254,217,117972,1,8,0:0:0:0:
246,182,118058,1,4,0:0:0:0:
264,190,118229,1,0,0:0:0:0:
264,190,118315,1,0,0:0:0:0:
276,203,118401,1,8,0:0:0:0:
226,179,118487,1,0,0:0:0:0:
267,202,118658,1,8,0:0:0:0:
267,202,118743,1,0,0:0:0:0:
264,193,118829,1,0,0:0:0:0:
267,200,118915,1,8,0:0:0:0:
264,193,119001,1,8,0:0:0:0:
271,199,119086,1,0,0:0:0:0:
257,205,119258,1,8,0:0:0:0:
267,195,119315,1,8,0:0:0:0:
257,187,119372,1,8,0:0:0:0:
246,182,119429,1,0,0:0:0:0:
251,190,119515,1,0,0:0:0:0:
251,190,119601,1,0,0:0:0:0:
251,190,119686,1,0,0:0:0:0:
251,190,119772,1,8,0:0:0:0:
251,190,119858,1,0,0:0:0:0:
251,190,119943,1,0,0:0:0:0:
252,189,120029,1,0,0:0:0:0:
264,176,120115,1,8,0:0:0:0:
237,196,120201,1,0,0:0:0:0:
260,196,120286,1,0,0:0:0:0:
260,196,120343,1,0,0:0:0:0:
239,186,120401,1,0,0:0:0:0:
266,203,120458,1,8,0:0:0:0:
261,201,120543,1,0,0:0:0:0:
251,205,120629,1,0,0:0:0:0:
251,190,120686,1,0,0:0:0:0:
251,190,120743,1,0,0:0:0:0:
246,182,120801,1,8,0:0:0:0:
