osu file format v14

[General]
AudioFilename: Singularity.mp3
AudioLeadIn: 0
PreviewTime: 78028
Countdown: 0
SampleSet: Normal
StackLeniency: 0.7
Mode: 1
LetterboxInBreaks: 0
EpilepsyWarning: 1
WidescreenStoryboard: 1

[Editor]
DistanceSpacing: 0.8
BeatDivisor: 4
GridSize: 4
TimelineZoom: 1.836878

[Metadata]
Title:Singularity
TitleUnicode:Singularity
Artist:ETIA.
ArtistUnicode:ETIA.
Creator:Kuo Kyoka
Version:Raytoly's Oni
Source:Arcaea
Tags:lowiro Eto Luna World Conflict Infomorph Binary Enfold UK Hardcore Video Game Instrumental Groove Coaster Critical_Star Akasha SaltedFISSH Raytoly Rhytoly
BeatmapID:2443645
BeatmapSetID:1154702

[Difficulty]
HPDrainRate:5.5
CircleSize:7
OverallDifficulty:6
ApproachRate:10
SliderMultiplier:1.4
SliderTickRate:1

[Events]
//Background and Video events
0,0,"Singularity.jpg",0,0
//Break Periods
//Storyboard Layer 0 (Background)
//Storyboard Layer 1 (Fail)
//Storyboard Layer 2 (Pass)
//Storyboard Layer 3 (Foreground)
Sprite,Foreground,Centre,"BG_Conflict_A.jpg",320,240 S,0,-2885,,0.85 F,0,77857,78028,0,1 F,0,78028,79228,1 F,0,79228,79400,1,0
Sprite,Foreground,Centre,"BG_Conflict_A.jpg",320,240 S,0,89000,,0.85 F,0,89000,90371,1
Sprite,Foreground,Centre,"BG_Conflict_A.jpg",320,240 S,0,99971,,0.85 F,0,99971,101342,1
Sprite,Foreground,Centre,"BG_Wind.jpg",320,240 M,0,89000,,320,240 S,0,89000,,0.85 F,0,89000,89171,1,0 M,0,89342,,320,240 S,0,89342,,0.85 F,0,89342,89513,1,0 M,0,89857,,320,240 S,0,89857,,0.85 F,0,89857,90028,1,0 M,0,90028,,320,240 S,0,90028,,0.85 F,0,90028,90199,1,0
Sprite,Foreground,Centre,"BG_Wind.jpg",320,240 L,0,8 F,0,101000,101042,1,0 S,0,101000,,0.85
Sprite,Foreground,Centre,"BG_Blur.jpg",320,240 S,0,117800,,0.85 F,0,117800,123285,0,1
Sprite,Foreground,Centre,"Luna_A.png",320,240 M,0,77857,78028,595,625,595,685 F,0,77857,78029,0,1 S,0,78028,,0.85 M,0,78028,79400,595,685
Sprite,Foreground,Centre,"Luna_A.png",320,240 L,0,3 M,0,101342,104084,465,685,465,690 M,0,104084,106826,465,690,465,685 M,0,106826,109568,465,685,465,680 M,0,109568,112310,465,680,465,685 S,0,79400,,0.85 M,0,79400,82142,595,685,595,690 M,0,82142,84884,595,690,595,685 M,0,84884,87626,595,685,595,680 M,0,87626,90368,595,680,595,685 M,0,90368,93110,595,685,595,690 M,0,93110,95852,595,690,595,685 M,0,95852,98594,595,685,595,680 M,0,98594,99800,595,680,595,682.4 M,0,99800,99971,595,682.2,465,682.5 M,0,99971,101342,465,682.5,465,685 F,0,133914,134257,1,0
Sprite,Foreground,Centre,"iyc.png",320,240 S,0,77857,,0.75 M,0,77857,78028,330,365,180,365 F,0,77857,78028,0,1 M,0,78028,79228,180,365,175,365 F,0,78028,79228,1 M,0,79228,79400,175,365,25,365 F,0,79228,79400,1,0
Sprite,Foreground,Centre,"mouth.png",320,240 F,0,78028,78114,0,1 F,0,78114,78200,1,0 M,0,78542,,552.5,396 S,0,78542,,0.7
Sprite,Foreground,Centre,"mouth1.png",320,240 M,0,78200,,552.5,396 S,0,78200,,0.7 F,0,78200,78371,0,1 F,0,78371,,1 R,0,78371,,-0.35 F,0,78371,78542,1,0
Sprite,Foreground,Centre,"mouth.png",320,240 M,0,78542,,552.5,396 S,0,78542,,0.7 F,0,78542,78714,0,1 F,0,78714,79057,1,0
//Storyboard Layer 4 (Overlay)
//Storyboard Sound Samples

[TimingPoints]
2600,342.857142857143,4,1,0,100,1,0
24542,-100,4,1,0,100,0,1
46485,-100,4,1,0,100,0,0
79742,-100,4,1,0,100,0,1
89000,-100,4,1,0,100,0,0
90714,-100,4,1,0,100,0,1
99971,-100,4,1,0,100,0,0
101342,-100,4,1,0,100,0,1
123285,-100,4,1,0,100,0,0

[HitObjects]
197,223,2599,5,12,0:0:0:0:
212,220,2942,1,0,0:0:0:0:
209,223,3628,1,0,0:0:0:0:
209,223,4314,1,0,0:0:0:0:
209,223,5000,1,0,0:0:0:0:
209,223,5342,1,8,0:0:0:0:
209,223,5685,1,0,0:0:0:0:
209,223,5857,1,8,0:0:0:0:
245,174,6200,1,0,0:1:0:0:
209,223,6371,1,8,0:0:0:0:
256,182,6714,1,0,0:0:0:0:
256,182,6885,1,8,0:0:0:0:
256,182,7057,1,0,0:0:0:0:
245,174,7400,1,8,0:1:0:0:
245,174,7742,1,8,0:1:0:0:
245,174,8085,1,4,0:1:0:0:
274,188,8428,1,0,0:0:0:0:
272,187,8600,1,0,0:0:0:0:
272,187,8771,1,0,0:0:0:0:
272,187,8942,1,8,0:0:0:0:
271,163,9114,1,0,0:0:0:0:
274,188,9457,1,8,0:0:0:0:
289,156,9628,1,0,0:0:0:0:
289,156,9800,1,0,0:0:0:0:
289,156,9885,1,0,0:0:0:0:
286,154,9971,1,0,0:0:0:0:
271,163,10142,1,8,0:0:0:0:
296,179,10314,1,0,0:0:0:0:
296,179,10400,1,8,0:0:0:0:
296,179,10571,1,0,0:0:0:0:
273,168,10657,1,8,0:0:0:0:
246,200,10828,1,0,0:0:0:0:
246,200,11171,1,8,0:0:0:0:
246,200,11257,1,8,0:0:0:0:
246,200,11342,1,8,0:0:0:0:
283,177,11514,1,8,0:0:0:0:
283,177,11685,1,0,0:0:0:0:
283,177,11771,1,8,0:0:0:0:
272,159,11942,1,0,0:0:0:0:
272,159,12028,1,8,0:0:0:0:
261,166,12200,1,4,0:0:0:0:
261,166,12371,1,8,0:0:0:0:
261,166,12714,1,0,0:0:0:0:
261,166,12885,1,8,0:0:0:0:
194,248,13228,1,8,0:0:0:0:
200,248,13314,1,8,0:0:0:0:
203,248,13400,1,8,0:0:0:0:
203,248,13485,1,8,0:0:0:0:
203,248,13571,1,0,0:0:0:0:
250,192,13742,1,0,0:0:0:0:
254,226,13828,1,0,0:0:0:0:
254,226,13914,1,8,0:0:0:0:
254,226,14085,1,0,0:0:0:0:
238,181,14257,1,8,0:0:0:0:
254,226,14428,1,8,0:0:0:0:
250,210,14514,1,8,0:0:0:0:
254,226,14600,1,0,0:0:0:0:
276,200,14942,1,0,0:0:0:0:
276,200,15114,1,8,0:0:0:0:
276,200,15200,1,8,0:0:0:0:
276,200,15285,1,0,0:0:0:0:
276,200,15457,1,8,0:0:0:0:
276,200,15628,1,0,0:0:0:0:
276,200,15800,1,0,0:0:0:0:
276,200,15885,1,8,0:0:0:0:
276,200,15971,1,0,0:0:0:0:
271,161,16314,1,8,0:0:0:0:
279,170,16485,1,0,0:0:0:0:
279,170,16571,1,0,0:0:0:0:
279,170,16657,1,0,0:0:0:0:
279,170,16828,1,8,0:0:0:0:
279,170,17000,1,0,0:0:0:0:
300,200,17171,1,0,0:0:0:0:
251,150,17257,1,0,0:0:0:0:
279,170,17342,1,8,0:0:0:0:
234,189,17685,1,0,0:0:0:0:
259,162,17857,1,8,0:0:0:0:
259,162,17942,1,8,0:0:0:0:
259,162,18028,1,8,0:0:0:0:
259,162,18200,1,0,0:0:0:0:
259,162,18371,1,8,0:0:0:0:
259,162,18542,1,0,0:0:0:0:
259,162,18628,1,0,0:0:0:0:
259,162,18714,1,8,0:0:0:0:
192,182,19057,1,4,0:0:0:0:
249,175,19400,1,8,0:0:0:0:
361,198,19657,1,0,0:0:0:0:
249,175,19742,1,8,0:0:0:0:
256,175,19914,1,0,0:0:0:0:
255,175,20085,1,8,0:0:0:0:
252,174,20257,1,8,0:0:0:0:
247,139,20428,1,4,0:0:0:0:
223,150,20771,1,8,0:0:0:0:
280,188,21028,1,0,0:0:0:0:
280,188,21114,1,8,0:0:0:0:
280,188,21285,1,0,0:0:0:0:
280,188,21457,1,8,0:0:0:0:
280,188,21628,1,8,0:0:0:0:
293,183,21800,1,0,0:0:0:0:
276,160,21885,1,0,0:0:0:0:
276,160,21971,1,0,0:0:0:0:
276,160,22057,1,0,0:0:0:0:
256,199,22142,1,8,0:0:0:0:
256,164,22314,1,0,0:0:0:0:
264,168,22400,1,0,0:0:0:0:
264,168,22485,1,0,0:0:0:0:
264,168,22571,1,0,0:0:0:0:
256,199,22657,1,8,0:0:0:0:
264,168,22828,1,0,0:0:0:0:
264,168,22914,1,0,0:0:0:0:
257,199,23000,1,8,0:0:0:0:
256,199,23171,1,4,0:0:0:0:
275,187,23514,1,8,0:0:0:0:
275,187,23600,1,8,0:0:0:0:
275,187,23685,1,8,0:0:0:0:
275,187,23771,1,8,0:0:0:0:
275,187,23857,1,0,0:0:0:0:
275,187,23942,1,0,0:0:0:0:
275,187,24028,1,0,0:0:0:0:
275,187,24114,1,0,0:0:0:0:
275,187,24200,1,8,0:0:0:0:
255,198,24542,1,4,0:0:0:0:
255,198,24885,1,8,0:0:0:0:
255,198,25057,1,0,0:0:0:0:
280,160,25228,1,8,0:0:0:0:
280,160,25314,1,0,0:0:0:0:
255,198,25400,1,8,0:0:0:0:
255,198,25571,1,8,0:0:0:0:
255,198,25657,1,8,0:0:0:0:
277,211,25742,1,0,0:0:0:0:
277,211,25828,1,0,0:0:0:0:
274,204,25914,1,8,0:0:0:0:
320,228,26085,1,0,0:0:0:0:
286,172,26171,1,8,0:0:0:0:
320,228,26428,1,8,0:0:0:0:
320,228,26514,1,8,0:0:0:0:
261,205,26600,1,8,0:0:0:0:
261,205,26771,1,0,0:0:0:0:
261,205,26942,1,8,0:0:0:0:
261,205,27028,1,8,0:0:0:0:
261,205,27114,1,8,0:0:0:0:
261,205,27200,1,8,0:0:0:0:
261,205,27285,1,0,0:0:0:0:
261,205,27457,1,8,0:0:0:0:
261,205,27542,1,0,0:0:0:0:
261,205,27628,1,8,0:0:0:0:
261,205,27800,1,0,0:0:0:0:
261,205,27971,1,8,0:0:0:0:
261,205,28057,1,0,0:0:0:0:
261,205,28142,1,8,0:0:0:0:
261,205,28314,1,0,0:0:0:0:
261,205,28400,1,0,0:0:0:0:
261,205,28485,1,0,0:0:0:0:
261,205,28571,1,0,0:0:0:0:
261,205,28657,1,8,0:0:0:0:
261,205,28828,1,0,0:0:0:0:
261,205,28914,1,8,0:0:0:0:
220,156,29171,1,0,0:0:0:0:
256,176,29257,1,0,0:0:0:0:
263,197,29342,1,8,0:0:0:0:
262,197,29514,1,0,0:0:0:0:
262,197,29685,1,8,0:0:0:0:
262,197,29771,1,8,0:0:0:0:
262,197,29857,1,0,0:0:0:0:
262,197,29942,1,0,0:0:0:0:
262,197,30028,1,0,0:0:0:0:
262,197,30371,1,8,0:0:0:0:
262,197,30542,1,0,0:0:0:0:
262,197,30714,1,8,0:0:0:0:
262,197,30800,1,0,0:0:0:0:
262,197,30885,1,8,0:0:0:0:
262,197,31057,1,0,0:0:0:0:
262,197,31142,1,0,0:0:0:0:
263,198,31228,1,8,0:0:0:0:
263,198,31314,1,8,0:0:0:0:
262,197,31400,1,0,0:0:0:0:
256,211,31571,1,0,0:0:0:0:
257,211,31657,1,8,0:0:0:0:
244,128,31914,1,8,0:0:0:0:
244,128,32000,1,8,0:0:0:0:
257,211,32085,1,8,0:0:0:0:
257,211,32257,1,8,0:0:0:0:
257,211,32428,1,0,0:0:0:0:
256,211,32514,1,0,0:0:0:0:
256,211,32600,1,8,0:0:0:0:
257,211,32685,1,8,0:0:0:0:
257,211,32771,1,0,0:0:0:0:
257,211,32942,1,8,0:0:0:0:
257,211,33028,1,0,0:0:0:0:
257,211,33114,1,8,0:0:0:0:
257,211,33285,1,0,0:0:0:0:
257,211,33457,1,8,0:0:0:0:
256,211,33542,1,0,0:0:0:0:
256,211,33628,1,8,0:0:0:0:
257,211,33800,1,8,0:0:0:0:
257,211,33885,1,8,0:0:0:0:
257,211,33971,1,0,0:0:0:0:
257,211,34057,1,0,0:0:0:0:
257,211,34142,1,8,0:0:0:0:
257,211,34314,1,0,0:0:0:0:
257,211,34400,1,8,0:0:0:0:
272,156,34657,1,0,0:0:0:0:
272,156,34742,1,0,0:0:0:0:
257,211,34828,1,8,0:0:0:0:
257,211,35000,1,0,0:0:0:0:
257,211,35171,1,8,0:0:0:0:
257,211,35257,1,8,0:0:0:0:
257,211,35342,1,8,0:0:0:0:
257,211,35428,1,8,0:0:0:0:
257,211,35514,1,0,0:0:0:0:
277,221,35857,1,8,0:0:0:0:
277,221,36028,1,0,0:0:0:0:
277,221,36200,1,8,0:0:0:0:
277,221,36285,1,8,0:0:0:0:
277,221,36371,1,0,0:0:0:0:
277,221,36542,1,8,0:0:0:0:
277,221,36628,1,8,0:0:0:0:
277,221,36714,1,8,0:0:0:0:
277,221,36800,1,8,0:0:0:0:
277,221,36885,1,0,0:0:0:0:
277,221,37057,1,0,0:0:0:0:
277,221,37142,1,8,0:0:0:0:
196,124,37400,1,8,0:0:0:0:
220,124,37485,1,8,0:0:0:0:
277,221,37571,1,8,0:0:0:0:
277,221,37742,1,0,0:0:0:0:
277,221,37914,1,0,0:0:0:0:
277,221,38000,1,0,0:0:0:0:
277,221,38085,1,8,0:0:0:0:
277,221,38171,1,8,0:0:0:0:
277,221,38257,1,0,0:0:0:0:
259,205,38428,1,8,0:0:0:0:
259,205,38514,1,8,0:0:0:0:
259,205,38600,1,0,0:0:0:0:
259,205,38771,1,0,0:0:0:0:
259,205,38942,1,8,0:0:0:0:
259,205,39028,1,0,0:0:0:0:
259,205,39114,1,8,0:0:0:0:
259,205,39285,1,0,0:0:0:0:
259,205,39371,1,0,0:0:0:0:
259,205,39457,1,8,0:0:0:0:
259,205,39542,1,0,0:0:0:0:
259,205,39628,1,8,0:0:0:0:
259,158,39800,1,0,0:0:0:0:
256,149,39885,1,8,0:0:0:0:
288,112,40142,1,0,0:0:0:0:
288,112,40228,1,0,0:0:0:0:
268,175,40314,1,8,0:0:0:0:
268,175,40485,1,0,0:0:0:0:
268,175,40657,1,0,0:0:0:0:
268,175,40742,1,8,0:0:0:0:
268,175,40828,1,8,0:0:0:0:
268,175,40914,1,8,0:0:0:0:
268,175,41000,1,0,0:0:0:0:
268,175,41342,1,8,0:0:0:0:
268,175,41514,1,0,0:0:0:0:
268,175,41685,1,8,0:0:0:0:
268,175,41771,1,0,0:0:0:0:
268,175,41857,1,8,0:0:0:0:
268,175,42028,1,0,0:0:0:0:
268,175,42114,1,0,0:0:0:0:
268,175,42200,1,8,0:0:0:0:
268,175,42285,1,0,0:0:0:0:
268,175,42371,1,8,0:0:0:0:
256,192,42542,1,0,0:0:0:0:
256,192,42628,1,0,0:0:0:0:
256,192,42714,1,8,0:0:0:0:
238,171,42885,1,8,0:0:0:0:
238,171,42971,1,8,0:0:0:0:
256,192,43057,1,0,0:0:0:0:
256,192,43228,1,8,0:0:0:0:
256,192,43400,1,0,0:0:0:0:
256,192,43485,1,0,0:0:0:0:
256,192,43571,1,0,0:0:0:0:
256,192,43657,1,0,0:0:0:0:
256,192,43742,1,8,0:0:0:0:
256,192,43914,1,8,0:0:0:0:
256,192,44000,1,0,0:0:0:0:
256,192,44085,1,8,0:0:0:0:
256,192,44257,1,0,0:0:0:0:
256,192,44428,1,8,0:0:0:0:
256,192,44514,1,0,0:0:0:0:
256,192,44600,1,8,0:0:0:0:
256,192,44771,1,0,0:0:0:0:
256,192,44857,1,0,0:0:0:0:
256,192,44942,1,8,0:0:0:0:
256,192,45028,1,0,0:0:0:0:
256,192,45114,1,8,0:0:0:0:
256,192,45285,1,0,0:0:0:0:
184,184,45371,1,0,0:0:0:0:
256,192,45457,1,8,0:0:0:0:
256,192,45628,1,0,0:0:0:0:
256,192,45800,1,8,0:0:0:0:
256,192,45885,1,8,0:0:0:0:
256,192,45971,1,0,0:0:0:0:
256,192,46057,1,0,0:0:0:0:
256,192,46142,1,8,0:0:0:0:
256,192,46228,1,8,0:0:0:0:
256,192,46314,1,8,0:0:0:0:
256,192,46400,1,8,0:0:0:0:
256,192,46485,1,0,0:0:0:0:
284,191,47685,1,0,0:0:0:0:
271,198,49057,1,8,0:0:0:0:
248,197,51971,1,0,0:0:0:0:
248,197,53171,1,0,0:0:0:0:
248,197,54542,1,8,0:0:0:0:
248,197,55914,1,8,0:0:0:0:
248,197,57457,1,4,0:0:0:0:
248,197,57800,1,0,0:0:0:0:
248,197,58142,1,8,0:0:0:0:
248,197,58485,1,8,0:0:0:0:
248,197,58657,1,0,0:0:0:0:
237,161,59000,1,0,0:0:0:0:
237,161,59342,1,0,0:0:0:0:
237,161,59514,1,8,0:0:0:0:
237,161,59685,1,8,0:0:0:0:
237,161,59857,1,8,0:0:0:0:
237,161,60028,1,0,0:0:0:0:
245,146,62942,1,0,0:0:0:0:
241,166,63285,1,0,0:0:0:0:
241,166,63628,1,0,0:0:0:0:
241,166,63800,1,0,0:0:0:0:
241,166,63971,1,8,0:0:0:0:
241,166,64142,1,8,0:0:0:0:
258,162,64485,1,0,0:0:0:0:
258,162,64828,1,8,0:0:0:0:
258,162,65171,1,0,0:0:0:0:
258,162,65514,1,0,0:0:0:0:
258,162,65685,1,8,0:0:0:0:
258,162,66028,1,8,0:0:0:0:
258,162,66371,1,8,0:0:0:0:
258,162,66714,1,0,0:0:0:0:
258,162,66885,1,8,0:0:0:0:
258,162,67057,1,4,0:0:0:0:
242,163,67400,1,8,0:0:0:0:
242,163,67742,1,8,0:0:0:0:
242,163,67914,1,0,0:0:0:0:
242,163,68085,1,0,0:0:0:0:
242,163,68257,1,8,0:0:0:0:
242,163,68428,1,4,0:0:0:0:
227,136,68771,1,0,0:0:0:0:
243,144,69114,1,0,0:0:0:0:
243,144,69457,1,0,0:0:0:0:
243,144,69800,1,0,0:0:0:0:
228,237,70142,1,0,0:0:0:0:
246,202,70485,1,0,0:0:0:0:
246,202,70828,1,0,0:0:0:0:
276,180,71171,1,8,0:0:0:0:
276,180,71514,1,0,0:0:0:0:
226,150,71685,1,8,0:0:0:0:
246,157,71857,1,0,0:0:0:0:
247,172,72200,1,8,0:0:0:0:
261,180,72542,1,0,0:0:0:0:
261,180,72714,1,8,0:0:0:0:
247,152,72885,1,0,0:0:0:0:
262,164,73228,1,8,0:0:0:0:
262,164,73571,1,8,0:0:0:0:
286,182,73914,1,4,0:0:0:0:
252,185,74257,1,0,0:0:0:0:
264,148,74514,1,8,0:0:0:0:
240,193,74600,1,0,0:0:0:0:
280,140,74771,1,0,0:0:0:0:
240,183,74942,1,8,0:0:0:0:
240,183,75114,1,8,0:0:0:0:
240,183,75285,1,4,0:0:0:0:
240,183,75457,1,0,0:0:0:0:
240,183,75628,1,8,0:0:0:0:
240,183,75885,1,0,0:0:0:0:
240,183,75971,1,8,0:0:0:0:
240,183,76142,1,8,0:0:0:0:
240,183,76314,1,0,0:0:0:0:
251,175,76485,1,8,0:0:0:0:
244,132,76657,1,0,0:0:0:0:
296,156,76828,1,0,0:0:0:0:
244,132,76914,1,0,0:0:0:0:
244,132,77000,1,8,0:0:0:0:
258,167,77171,1,0,0:0:0:0:
244,132,77257,1,0,0:0:0:0:
264,120,77342,1,8,0:0:0:0:
264,120,77514,1,8,0:0:0:0:
264,120,77600,1,8,0:0:0:0:
264,120,77685,1,0,0:0:0:0:
181,171,77857,1,8,0:0:0:0:
264,120,77942,1,8,0:0:0:0:
292,136,78028,1,0,0:0:0:0:
226,182,78542,1,0,0:0:0:0:
351,189,78714,1,8,0:0:0:0:
246,183,79057,1,0,0:0:0:0:
246,183,79400,1,12,0:0:0:0:
266,218,79742,1,4,0:0:0:0:
266,218,80000,1,4,0:0:0:0:
266,218,80171,1,4,0:0:0:0:
266,218,80428,1,4,0:0:0:0:
268,224,81285,1,4,0:0:0:0:
268,224,81542,1,0,0:0:0:0:
268,224,81628,1,0,0:0:0:0:
268,224,81800,1,4,0:0:0:0:
268,224,81971,1,4,0:0:0:0:
268,224,82142,1,12,0:0:0:0:
251,188,82485,1,4,0:0:0:0:
251,188,82742,1,4,0:0:0:0:
251,188,82914,1,4,0:0:0:0:
251,188,83171,1,4,0:0:0:0:
251,188,83342,1,8,0:0:0:0:
236,188,83514,1,8,0:0:0:0:
242,193,83600,1,8,0:0:0:0:
242,193,83685,1,0,0:0:0:0:
242,193,83857,1,0,0:0:0:0:
242,193,83942,1,0,0:0:0:0:
242,193,84028,1,8,0:0:0:0:
248,191,84114,1,8,0:0:0:0:
248,191,84285,1,8,0:0:0:0:
248,191,84457,1,8,0:0:0:0:
248,191,84542,1,0,0:0:0:0:
248,191,84885,1,12,0:0:0:0:
242,198,85228,1,4,0:0:0:0:
242,198,85485,1,4,0:0:0:0:
242,198,85657,1,4,0:0:0:0:
244,201,85914,1,4,0:0:0:0:
244,201,86600,1,4,0:0:0:0:
244,201,86857,1,4,0:0:0:0:
244,201,87028,1,0,0:0:0:0:
244,201,87114,1,0,0:0:0:0:
244,201,87285,1,4,0:0:0:0:
321,172,87457,1,8,0:0:0:0:
321,172,87542,1,8,0:0:0:0:
321,172,87628,1,0,0:0:0:0:
218,127,87800,1,0,0:0:0:0:
240,133,87971,1,8,0:0:0:0:
204,157,88142,1,0,0:0:0:0:
204,157,88228,1,8,0:0:0:0:
252,156,88400,1,8,0:0:0:0:
252,156,88571,1,0,0:0:0:0:
320,231,88657,1,8,0:0:0:0:
252,156,89000,1,0,0:0:0:0:
219,217,89342,1,8,0:0:0:0:
258,145,89514,1,0,0:0:0:0:
236,198,89857,1,0,0:0:0:0:
238,168,90028,1,8,0:0:0:0:
236,198,90371,1,12,0:0:0:0:
255,196,90714,1,4,0:0:0:0:
255,196,90971,1,4,0:0:0:0:
255,196,91142,1,4,0:0:0:0:
255,196,91400,1,4,0:0:0:0:
245,194,92257,1,4,0:0:0:0:
245,194,92514,1,0,0:0:0:0:
245,194,92600,1,0,0:0:0:0:
245,194,92771,1,4,0:0:0:0:
245,194,92942,1,4,0:0:0:0:
267,217,93114,1,12,0:0:0:0:
267,217,93457,1,4,0:0:0:0:
267,217,93714,1,4,0:0:0:0:
267,217,93885,1,4,0:0:0:0:
267,217,94142,1,4,0:0:0:0:
257,188,94314,1,8,0:0:0:0:
249,163,94485,1,8,0:0:0:0:
254,191,94571,1,8,0:0:0:0:
247,185,94657,1,0,0:0:0:0:
250,167,94828,1,0,0:0:0:0:
250,167,94914,1,0,0:0:0:0:
250,167,95000,1,8,0:0:0:0:
250,167,95085,1,8,0:0:0:0:
289,167,95257,1,8,0:0:0:0:
266,213,95428,1,8,0:0:0:0:
266,213,95514,1,0,0:0:0:0:
297,181,95857,1,12,0:0:0:0:
243,173,96200,1,0,0:0:0:0:
228,209,96371,1,0,0:0:0:0:
228,209,96457,1,8,0:0:0:0:
228,209,96628,1,8,0:0:0:0:
228,209,96714,1,0,0:0:0:0:
228,209,96885,1,8,0:0:0:0:
228,209,97057,1,0,0:0:0:0:
228,209,97142,1,0,0:0:0:0:
228,209,97228,1,8,0:0:0:0:
253,163,97314,1,8,0:0:0:0:
256,165,97485,1,8,0:0:0:0:
256,165,97571,1,0,0:0:0:0:
256,165,97742,1,0,0:0:0:0:
256,165,97828,1,8,0:0:0:0:
256,165,98000,1,8,0:0:0:0:
256,165,98085,1,8,0:0:0:0:
256,165,98257,1,8,0:0:0:0:
256,165,98428,1,0,0:0:0:0:
256,165,98514,1,0,0:0:0:0:
256,165,98600,1,8,0:0:0:0:
246,167,98771,1,0,0:0:0:0:
246,167,98942,1,8,0:0:0:0:
261,174,99114,1,0,0:0:0:0:
272,177,99200,1,8,0:0:0:0:
272,177,99371,1,8,0:0:0:0:
272,177,99457,1,8,0:0:0:0:
272,177,99628,1,8,0:0:0:0:
298,196,99714,1,8,0:0:0:0:
298,196,99800,1,8,0:0:0:0:
298,196,99885,1,8,0:0:0:0:
298,196,99971,1,0,0:0:0:0:
297,202,100485,1,0,0:0:0:0:
297,202,100657,1,8,0:0:0:0:
208,209,101000,1,8,0:0:0:0:
297,202,101085,1,8,0:0:0:0:
309,188,101171,1,8,0:0:0:0:
313,185,101257,1,8,0:0:0:0:
339,167,101342,1,0,0:0:0:0:
317,188,101685,1,8,0:0:0:0:
317,188,101857,1,0,0:0:0:0:
317,188,102028,1,8,0:0:0:0:
317,188,102114,1,0,0:0:0:0:
317,188,102200,1,8,0:0:0:0:
317,188,102371,1,0,0:0:0:0:
317,188,102457,1,0,0:0:0:0:
317,188,102542,1,8,0:0:0:0:
317,188,102628,1,0,0:0:0:0:
317,188,102714,1,8,0:0:0:0:
317,188,102885,1,0,0:0:0:0:
317,188,102971,1,8,0:0:0:0:
317,188,103228,1,8,0:0:0:0:
317,188,103314,1,8,0:0:0:0:
317,188,103400,1,0,0:0:0:0:
317,188,103571,1,8,0:0:0:0:
317,188,103742,1,0,0:0:0:0:
317,188,103828,1,0,0:0:0:0:
317,188,103914,1,8,0:0:0:0:
317,188,104000,1,8,0:0:0:0:
317,188,104085,1,0,0:0:0:0:
317,188,104257,1,0,0:0:0:0:
317,188,104342,1,0,0:0:0:0:
317,188,104428,1,8,0:0:0:0:
317,188,104600,1,0,0:0:0:0:
317,188,104771,1,0,0:0:0:0:
317,188,104857,1,0,0:0:0:0:
317,188,104942,1,8,0:0:0:0:
317,188,105114,1,0,0:0:0:0:
317,188,105200,1,0,0:0:0:0:
266,169,105285,1,8,0:0:0:0:
317,188,105371,1,0,0:0:0:0:
317,188,105457,1,8,0:0:0:0:
317,188,105628,1,0,0:0:0:0:
317,188,105714,1,8,0:0:0:0:
317,188,105971,1,8,0:0:0:0:
317,188,106057,1,8,0:0:0:0:
317,188,106142,1,8,0:0:0:0:
317,188,106314,1,8,0:0:0:0:
317,188,106485,1,0,0:0:0:0:
317,188,106571,1,0,0:0:0:0:
317,188,106657,1,8,0:0:0:0:
317,188,106742,1,8,0:0:0:0:
317,188,106828,1,0,0:0:0:0:
317,188,107171,1,8,0:0:0:0:
317,188,107342,1,0,0:0:0:0:
250,199,107514,1,8,0:0:0:0:
250,199,107600,1,0,0:0:0:0:
317,188,107685,1,8,0:0:0:0:
317,188,107857,1,0,0:0:0:0:
250,199,107942,1,0,0:0:0:0:
317,188,108028,1,8,0:0:0:0:
250,199,108114,1,8,0:0:0:0:
317,188,108200,1,0,0:0:0:0:
317,188,108371,1,0,0:0:0:0:
317,188,108457,1,8,0:0:0:0:
317,188,108714,1,8,0:0:0:0:
317,188,108800,1,8,0:0:0:0:
317,188,108885,1,8,0:0:0:0:
240,180,109057,1,0,0:0:0:0:
317,188,109228,1,8,0:0:0:0:
317,188,109314,1,8,0:0:0:0:
317,188,109400,1,8,0:0:0:0:
317,188,109485,1,8,0:0:0:0:
317,188,109571,1,0,0:0:0:0:
317,188,109742,1,0,0:0:0:0:
211,149,109828,1,0,0:0:0:0:
317,188,109914,1,8,0:0:0:0:
317,188,110085,1,0,0:0:0:0:
317,188,110257,1,0,0:0:0:0:
211,149,110342,1,0,0:0:0:0:
317,188,110428,1,8,0:0:0:0:
317,188,110600,1,0,0:0:0:0:
317,188,110685,1,0,0:0:0:0:
317,188,110771,1,0,0:0:0:0:
211,149,110857,1,0,0:0:0:0:
317,188,110942,1,8,0:0:0:0:
317,188,111114,1,0,0:0:0:0:
329,186,111200,1,8,0:0:0:0:
332,205,111457,1,8,0:0:0:0:
332,205,111542,1,8,0:0:0:0:
232,124,111628,1,8,0:0:0:0:
332,205,111800,1,0,0:0:0:0:
232,124,111971,1,8,0:0:0:0:
332,205,112057,1,8,0:0:0:0:
332,205,112142,1,8,0:0:0:0:
332,205,112228,1,8,0:0:0:0:
254,181,112314,1,0,0:0:0:0:
254,181,112657,1,8,0:0:0:0:
254,181,112828,1,0,0:0:0:0:
254,181,113000,1,8,0:0:0:0:
254,181,113085,1,8,0:0:0:0:
254,181,113171,1,0,0:0:0:0:
254,181,113342,1,8,0:0:0:0:
254,181,113428,1,8,0:0:0:0:
254,181,113514,1,0,0:0:0:0:
254,181,113600,1,0,0:0:0:0:
254,181,113685,1,8,0:0:0:0:
254,181,113857,1,0,0:0:0:0:
254,181,113942,1,8,0:0:0:0:
254,181,114200,1,8,0:0:0:0:
254,181,114285,1,8,0:0:0:0:
254,181,114371,1,8,0:0:0:0:
254,181,114542,1,0,0:0:0:0:
254,181,114714,1,8,0:0:0:0:
254,181,114800,1,8,0:0:0:0:
254,181,114885,1,8,0:0:0:0:
254,181,114971,1,8,0:0:0:0:
254,181,115057,1,0,0:0:0:0:
254,181,115228,1,8,0:0:0:0:
254,181,115314,1,0,0:0:0:0:
254,181,115400,1,8,0:0:0:0:
254,181,115571,1,0,0:0:0:0:
254,181,115742,1,8,0:0:0:0:
254,181,115828,1,8,0:0:0:0:
254,181,115914,1,0,0:0:0:0:
254,181,116085,1,8,0:0:0:0:
254,181,116171,1,8,0:0:0:0:
254,181,116257,1,0,0:0:0:0:
254,181,116342,1,0,0:0:0:0:
254,181,116428,1,8,0:0:0:0:
254,181,116600,1,0,0:0:0:0:
254,181,116685,1,8,0:0:0:0:
254,181,116942,1,0,0:0:0:0:
254,181,117028,1,0,0:0:0:0:
254,181,117114,1,8,0:0:0:0:
254,181,117285,1,0,0:0:0:0:
254,181,117457,1,8,0:0:0:0:
254,181,117542,1,8,0:0:0:0:
254,181,117628,1,8,0:0:0:0:
254,181,117714,1,8,0:0:0:0:
254,181,117800,1,0,0:0:0:0:
254,181,118142,1,8,0:0:0:0:
254,181,118314,1,0,0:0:0:0:
254,181,118485,1,8,0:0:0:0:
254,181,118571,1,0,0:0:0:0:
254,181,118657,1,8,0:0:0:0:
254,181,118828,1,0,0:0:0:0:
254,181,118914,1,0,0:0:0:0:
254,181,119000,1,8,0:0:0:0:
254,181,119085,1,0,0:0:0:0:
254,181,119171,1,8,0:0:0:0:
254,181,119342,1,0,0:0:0:0:
254,181,119428,1,0,0:0:0:0:
254,181,119514,1,8,0:0:0:0:
254,181,119685,1,8,0:0:0:0:
254,181,119771,1,0,0:0:0:0:
254,181,119857,1,0,0:0:0:0:
254,181,119942,1,0,0:0:0:0:
254,181,120028,1,8,0:0:0:0:
254,181,120200,1,0,0:0:0:0:
232,135,120371,1,0,0:0:0:0:
254,181,120542,1,8,0:0:0:0:
254,181,120628,1,8,0:0:0:0:
254,181,120714,1,8,0:0:0:0:
254,181,120800,1,8,0:0:0:0:
254,181,120885,1,0,0:0:0:0:
254,181,121057,1,0,0:0:0:0:
254,181,121228,1,8,0:0:0:0:
254,181,121314,1,8,0:0:0:0:
254,181,121400,1,8,0:0:0:0:
188,172,121485,1,8,0:0:0:0:
188,172,121571,1,0,0:0:0:0:
254,181,121742,1,8,0:0:0:0:
254,181,121828,1,8,0:0:0:0:
254,181,121914,1,0,0:0:0:0:
254,181,122085,1,0,0:0:0:0:
254,181,122257,1,8,0:0:0:0:
254,181,122342,1,8,0:0:0:0:
254,181,122428,1,8,0:0:0:0:
254,181,122514,1,8,0:0:0:0:
254,181,122600,1,0,0:0:0:0:
282,147,122685,1,0,0:0:0:0:
254,181,122771,1,0,0:0:0:0:
254,181,122857,1,0,0:0:0:0:
254,181,122942,1,8,0:0:0:0:
254,181,123285,1,4,0:0:0:0:
178,165,123457,1,8,0:0:0:0:
178,165,123542,1,8,0:0:0:0:
178,165,123628,1,0,0:0:0:0:
328,182,123800,1,0,0:0:0:0:
328,182,123971,1,8,0:0:0:0:
328,182,124142,1,0,0:0:0:0:
328,182,124228,1,0,0:0:0:0:
328,182,124314,1,0,0:0:0:0:
248,173,124657,1,0,0:0:0:0:
248,173,124828,1,8,0:0:0:0:
248,173,124914,1,8,0:0:0:0:
248,173,125000,1,8,0:0:0:0:
248,173,125171,1,0,0:0:0:0:
248,173,125342,1,8,0:0:0:0:
248,173,125514,1,8,0:0:0:0:
248,173,125600,1,8,0:0:0:0:
248,173,125685,1,0,0:0:0:0:
271,209,126028,1,8,0:0:0:0:
271,209,126200,1,0,0:0:0:0:
271,209,126285,1,0,0:0:0:0:
271,209,126371,1,0,0:0:0:0:
271,209,126542,1,8,0:0:0:0:
271,209,126714,1,0,0:0:0:0:
271,209,126885,1,0,0:0:0:0:
271,209,126971,1,0,0:0:0:0:
281,222,127057,1,8,0:0:0:0:
278,193,127400,1,0,0:0:0:0:
278,193,127571,1,8,0:0:0:0:
278,193,127657,1,8,0:0:0:0:
278,193,127742,1,0,0:0:0:0:
278,193,127914,1,0,0:0:0:0:
278,193,128085,1,8,0:0:0:0:
278,193,128257,1,0,0:0:0:0:
278,193,128342,1,0,0:0:0:0:
278,193,128428,1,8,0:0:0:0:
278,193,128771,1,4,0:0:0:0:
293,156,129114,1,0,0:0:0:0:
301,177,129371,1,8,0:0:0:0:
301,177,129457,1,0,0:0:0:0:
301,177,129628,1,0,0:0:0:0:
301,177,129800,1,8,0:0:0:0:
301,177,129971,1,8,0:0:0:0:
301,177,130142,1,4,0:0:0:0:
301,177,130485,1,8,0:0:0:0:
302,189,130742,1,0,0:0:0:0:
288,153,130828,1,8,0:0:0:0:
284,150,131000,1,0,0:0:0:0:
288,153,131171,1,8,0:0:0:0:
303,172,131342,1,8,0:0:0:0:
308,132,131514,1,0,0:0:0:0:
308,132,131600,1,0,0:0:0:0:
308,132,131685,1,0,0:0:0:0:
304,183,131771,1,0,0:0:0:0:
304,183,131857,1,8,0:0:0:0:
304,183,132028,1,0,0:0:0:0:
304,183,132114,1,0,0:0:0:0:
188,164,132200,1,0,0:0:0:0:
212,168,132285,1,0,0:0:0:0:
212,168,132371,1,8,0:0:0:0:
212,168,132542,1,0,0:0:0:0:
212,168,132628,1,0,0:0:0:0:
212,168,132714,1,8,0:0:0:0:
256,192,132885,12,0,134085,0:0:0:0:
229,177,134257,5,4,0:0:0:0:
