osu file format v14

[General]
AudioFilename: Singularity.mp3
AudioLeadIn: 0
PreviewTime: 78028
Countdown: 0
SampleSet: Normal
StackLeniency: 0.7
Mode: 1
LetterboxInBreaks: 0
EpilepsyWarning: 1
WidescreenStoryboard: 1

[Editor]
DistanceSpacing: 0.8
BeatDivisor: 2
GridSize: 4
TimelineZoom: 0.5368779

[Metadata]
Title:Singularity
TitleUnicode:Singularity
Artist:ETIA.
ArtistUnicode:ETIA.
Creator:Kuo Kyoka
Version:Raytoly's Futsuu
Source:Arcaea
Tags:lowiro Eto Luna World Conflict Infomorph Binary Enfold UK Hardcore Video Game Instrumental Groove Coaster Critical_Star Akasha SaltedFISSH Raytoly Rhytoly
BeatmapID:2443642
BeatmapSetID:1154702

[Difficulty]
HPDrainRate:6.5
CircleSize:7
OverallDifficulty:4
ApproachRate:10
SliderMultiplier:1.4
SliderTickRate:1

[Events]
//Background and Video events
0,0,"Singularity.jpg",0,0
//Break Periods
2,46685,57007
//Storyboard Layer 0 (Background)
//Storyboard Layer 1 (Fail)
//Storyboard Layer 2 (Pass)
//Storyboard Layer 3 (Foreground)
Sprite,Foreground,Centre,"BG_Conflict_A.jpg",320,240 S,0,-2885,,0.85 F,0,77857,78028,0,1 F,0,78028,79228,1 F,0,79228,79400,1,0
Sprite,Foreground,Centre,"BG_Conflict_A.jpg",320,240 S,0,89000,,0.85 F,0,89000,90371,1
Sprite,Foreground,Centre,"BG_Conflict_A.jpg",320,240 S,0,99971,,0.85 F,0,99971,101342,1
Sprite,Foreground,Centre,"BG_Wind.jpg",320,240 M,0,89000,,320,240 S,0,89000,,0.85 F,0,89000,89171,1,0 M,0,89342,,320,240 S,0,89342,,0.85 F,0,89342,89513,1,0 M,0,89857,,320,240 S,0,89857,,0.85 F,0,89857,90028,1,0 M,0,90028,,320,240 S,0,90028,,0.85 F,0,90028,90199,1,0
Sprite,Foreground,Centre,"BG_Wind.jpg",320,240 L,0,8 F,0,101000,101042,1,0 S,0,101000,,0.85
Sprite,Foreground,Centre,"BG_Blur.jpg",320,240 S,0,117800,,0.85 F,0,117800,123285,0,1
Sprite,Foreground,Centre,"Luna_A.png",320,240 M,0,77857,78028,595,625,595,685 F,0,77857,78029,0,1 S,0,78028,,0.85 M,0,78028,79400,595,685
Sprite,Foreground,Centre,"Luna_A.png",320,240 L,0,3 M,0,101342,104084,465,685,465,690 M,0,104084,106826,465,690,465,685 M,0,106826,109568,465,685,465,680 M,0,109568,112310,465,680,465,685 S,0,79400,,0.85 M,0,79400,82142,595,685,595,690 M,0,82142,84884,595,690,595,685 M,0,84884,87626,595,685,595,680 M,0,87626,90368,595,680,595,685 M,0,90368,93110,595,685,595,690 M,0,93110,95852,595,690,595,685 M,0,95852,98594,595,685,595,680 M,0,98594,99800,595,680,595,682.4 M,0,99800,99971,595,682.2,465,682.5 M,0,99971,101342,465,682.5,465,685 F,0,133914,134257,1,0
Sprite,Foreground,Centre,"iyc.png",320,240 S,0,77857,,0.75 M,0,77857,78028,330,365,180,365 F,0,77857,78028,0,1 M,0,78028,79228,180,365,175,365 F,0,78028,79228,1 M,0,79228,79400,175,365,25,365 F,0,79228,79400,1,0
Sprite,Foreground,Centre,"mouth.png",320,240 F,0,78028,78114,0,1 F,0,78114,78200,1,0 M,0,78542,,552.5,396 S,0,78542,,0.7
Sprite,Foreground,Centre,"mouth1.png",320,240 M,0,78200,,552.5,396 S,0,78200,,0.7 F,0,78200,78371,0,1 F,0,78371,,1 R,0,78371,,-0.35 F,0,78371,78542,1,0
Sprite,Foreground,Centre,"mouth.png",320,240 M,0,78542,,552.5,396 S,0,78542,,0.7 F,0,78542,78714,0,1 F,0,78714,79057,1,0
//Storyboard Layer 4 (Overlay)
//Storyboard Sound Samples

[TimingPoints]
2600,342.857142857143,4,1,0,100,1,0
24542,-100,4,1,0,100,0,1
46485,-100,4,1,0,100,0,0
79742,-100,4,1,0,100,0,1
89000,-100,4,1,0,100,0,0
90714,-100,4,1,0,100,0,1
99971,-100,4,1,0,100,0,0
101342,-100,4,1,0,100,0,1
123285,-100,4,1,0,100,0,0

[HitObjects]
197,223,2599,5,12,0:0:0:0:
209,223,5342,1,8,0:0:0:0:
209,223,5857,1,8,0:0:0:0:
209,223,6371,1,8,0:0:0:0:
256,182,6885,1,8,0:0:0:0:
245,174,7400,1,8,0:1:0:0:
245,174,7742,1,8,0:1:0:0:
245,174,8085,1,4,0:1:0:0:
272,187,8771,1,0,0:0:0:0:
271,163,9114,1,0,0:0:0:0:
274,188,9457,1,8,0:0:0:0:
289,156,9800,1,0,0:0:0:0:
286,154,9971,1,0,0:0:0:0:
271,163,10142,1,8,0:0:0:0:
296,179,10485,1,0,0:0:0:0:
246,200,10828,1,8,0:0:0:0:
246,200,11171,1,8,0:0:0:0:
246,200,11342,1,8,0:0:0:0:
283,177,11514,1,0,0:0:0:0:
272,159,11857,1,8,0:0:0:0:
261,166,12200,1,4,0:0:0:0:
194,248,13228,1,8,0:0:0:0:
203,248,13571,1,4,0:0:0:0:
254,226,13914,1,8,0:0:0:0:
238,181,14257,1,0,0:0:0:0:
254,226,14428,1,8,0:0:0:0:
276,200,14942,1,0,0:0:0:0:
276,200,15285,1,8,0:0:0:0:
276,200,15457,1,0,0:0:0:0:
276,200,15628,1,0,0:0:0:0:
276,200,15800,1,8,0:0:0:0:
271,161,16314,1,8,0:0:0:0:
224,108,16657,1,0,0:0:0:0:
279,170,16828,1,8,0:0:0:0:
300,200,17171,1,0,0:0:0:0:
279,170,17342,1,8,0:0:0:0:
234,189,17685,1,0,0:0:0:0:
259,162,17857,1,8,0:0:0:0:
259,162,18028,1,0,0:0:0:0:
259,162,18371,1,8,0:0:0:0:
256,136,18542,1,0,0:0:0:0:
259,162,18714,1,8,0:0:0:0:
192,182,19057,1,4,0:0:0:0:
249,175,19742,1,8,0:0:0:0:
255,175,20085,1,8,0:0:0:0:
247,139,20428,1,4,0:0:0:0:
223,150,20771,1,8,0:0:0:0:
280,188,21114,1,8,0:0:0:0:
280,188,21457,1,8,0:0:0:0:
293,183,21800,1,0,0:0:0:0:
256,199,22142,1,8,0:0:0:0:
256,164,22314,1,0,0:0:0:0:
264,168,22485,1,0,0:0:0:0:
256,199,22657,1,8,0:0:0:0:
256,199,23171,1,4,0:0:0:0:
275,187,23514,1,8,0:0:0:0:
275,187,24200,1,8,0:0:0:0:
255,198,24542,1,4,0:0:0:0:
255,198,24885,1,8,0:0:0:0:
280,160,25228,1,0,0:0:0:0:
225,133,25400,1,0,0:0:0:0:
255,198,25571,1,8,0:0:0:0:
277,211,25742,1,0,0:0:0:0:
274,204,25914,1,8,0:0:0:0:
261,205,26600,1,8,0:0:0:0:
261,205,26942,1,0,0:0:0:0:
261,205,27285,1,0,0:0:0:0:
244,196,27457,1,0,0:0:0:0:
261,205,27628,1,8,0:0:0:0:
261,205,27971,1,0,0:0:0:0:
261,205,28142,1,0,0:0:0:0:
261,205,28314,1,8,0:0:0:0:
261,205,28485,1,0,0:0:0:0:
261,205,28657,1,8,0:0:0:0:
263,197,29342,1,8,0:0:0:0:
304,172,29685,1,0,0:0:0:0:
262,197,29857,1,8,0:0:0:0:
262,197,30028,1,0,0:0:0:0:
262,197,30371,1,8,0:0:0:0:
262,197,30714,1,0,0:0:0:0:
262,197,30885,1,0,0:0:0:0:
262,197,31057,1,8,0:0:0:0:
180,122,31228,1,0,0:0:0:0:
263,198,31400,1,8,0:0:0:0:
257,211,32085,1,8,0:0:0:0:
257,211,32428,1,0,0:0:0:0:
257,211,32771,1,0,0:0:0:0:
208,136,32942,1,0,0:0:0:0:
257,211,33114,1,8,0:0:0:0:
257,211,33457,1,0,0:0:0:0:
207,128,33628,1,0,0:0:0:0:
257,211,33800,1,8,0:0:0:0:
257,211,33971,1,0,0:0:0:0:
257,211,34142,1,8,0:0:0:0:
257,211,34828,1,8,0:0:0:0:
257,211,35171,1,8,0:0:0:0:
257,211,35514,1,4,0:0:0:0:
277,221,35857,1,8,0:0:0:0:
277,221,36200,1,0,0:0:0:0:
277,221,36371,1,0,0:0:0:0:
277,221,36542,1,8,0:0:0:0:
277,221,36714,1,8,0:0:0:0:
277,221,36885,1,0,0:0:0:0:
277,221,37571,1,8,0:0:0:0:
277,221,37914,1,0,0:0:0:0:
277,221,38257,1,8,0:0:0:0:
187,130,38428,1,8,0:0:0:0:
259,205,38600,1,0,0:0:0:0:
259,205,38942,1,8,0:0:0:0:
187,130,39114,1,0,0:0:0:0:
259,205,39285,1,8,0:0:0:0:
259,205,39457,1,8,0:0:0:0:
259,205,39628,1,0,0:0:0:0:
268,175,40314,1,8,0:0:0:0:
268,175,40657,1,0,0:0:0:0:
268,175,40828,1,0,0:0:0:0:
268,175,41000,1,0,0:0:0:0:
268,175,41342,1,8,0:0:0:0:
268,175,41685,1,0,0:0:0:0:
268,175,41857,1,8,0:0:0:0:
268,175,42028,1,0,0:0:0:0:
268,175,42200,1,8,0:0:0:0:
192,132,42542,1,0,0:0:0:0:
192,132,42714,1,0,0:0:0:0:
256,192,42885,1,8,0:0:0:0:
256,192,43228,1,0,0:0:0:0:
256,192,43742,1,8,0:0:0:0:
256,192,44085,1,8,0:0:0:0:
256,192,44257,1,0,0:0:0:0:
256,192,44428,1,8,0:0:0:0:
256,192,44771,1,0,0:0:0:0:
256,192,44942,1,8,0:0:0:0:
256,192,45114,1,0,0:0:0:0:
256,192,45457,1,8,0:0:0:0:
256,192,45800,1,0,0:0:0:0:
256,192,45971,1,0,0:0:0:0:
256,192,46142,1,8,0:0:0:0:
256,192,46314,1,8,0:0:0:0:
256,192,46485,1,0,0:0:0:0:
248,197,57457,5,4,0:0:0:0:
248,197,58657,1,0,0:0:0:0:
237,161,60028,1,0,0:0:0:0:
245,146,62942,1,0,0:0:0:0:
241,166,64142,1,8,0:0:0:0:
258,162,65685,1,8,0:0:0:0:
258,162,66885,1,8,0:0:0:0:
242,163,68428,1,4,0:0:0:0:
227,136,68771,1,0,0:0:0:0:
243,144,69114,1,0,0:0:0:0:
243,144,69800,1,0,0:0:0:0:
228,237,70142,1,0,0:0:0:0:
246,202,70485,1,0,0:0:0:0:
276,180,71171,1,8,0:0:0:0:
226,150,71685,1,8,0:0:0:0:
247,172,72200,1,8,0:0:0:0:
261,180,72714,1,8,0:0:0:0:
262,164,73228,1,8,0:0:0:0:
262,164,73571,1,8,0:0:0:0:
286,182,73914,1,4,0:0:0:0:
240,193,74600,1,8,0:0:0:0:
240,183,74942,1,8,0:0:0:0:
240,183,75285,1,4,0:0:0:0:
240,183,75628,1,8,0:0:0:0:
240,183,75971,1,12,0:0:0:0:
240,183,76314,1,8,0:0:0:0:
244,132,76657,1,4,0:0:0:0:
244,132,77000,1,4,0:0:0:0:
264,120,77342,1,12,0:0:0:0:
181,171,77685,1,12,0:0:0:0:
292,136,78028,1,4,0:0:0:0:
246,183,79400,1,12,0:0:0:0:
266,218,79742,1,0,0:0:0:0:
208,144,80171,1,0,0:0:0:0:
266,218,80428,1,0,0:0:0:0:
268,224,81285,1,0,0:0:0:0:
268,224,81628,1,0,0:0:0:0:
268,224,81971,1,0,0:0:0:0:
268,224,82142,1,12,0:0:0:0:
251,188,82485,1,0,0:0:0:0:
184,128,82914,1,0,0:0:0:0:
251,188,83171,1,0,0:0:0:0:
251,188,83342,1,8,0:0:0:0:
242,193,83685,1,0,0:0:0:0:
242,193,84028,1,8,0:0:0:0:
248,191,84542,1,0,0:0:0:0:
248,191,84885,1,12,0:0:0:0:
242,198,85228,1,0,0:0:0:0:
242,198,85657,1,0,0:0:0:0:
244,201,85914,1,0,0:0:0:0:
244,201,86600,1,0,0:0:0:0:
244,201,86857,1,0,0:0:0:0:
244,201,87114,1,0,0:0:0:0:
244,201,87285,1,0,0:0:0:0:
321,172,87457,1,8,0:0:0:0:
218,127,87800,1,0,0:0:0:0:
240,133,87971,1,8,0:0:0:0:
204,157,88228,1,8,0:0:0:0:
320,231,88657,1,8,0:0:0:0:
252,156,89000,1,0,0:0:0:0:
236,198,90371,1,12,0:0:0:0:
255,196,90714,1,0,0:0:0:0:
255,196,91142,1,0,0:0:0:0:
255,196,91400,1,0,0:0:0:0:
245,194,92257,1,0,0:0:0:0:
245,194,92600,1,0,0:0:0:0:
245,194,92942,1,0,0:0:0:0:
267,217,93114,1,12,0:0:0:0:
267,217,93457,1,0,0:0:0:0:
267,217,93885,1,0,0:0:0:0:
267,217,94142,1,0,0:0:0:0:
257,188,94314,1,8,0:0:0:0:
247,185,94657,1,0,0:0:0:0:
250,167,95000,1,8,0:0:0:0:
266,213,95514,1,0,0:0:0:0:
297,181,95857,1,12,0:0:0:0:
243,173,96200,1,0,0:0:0:0:
228,209,96457,1,8,0:0:0:0:
228,209,96628,1,8,0:0:0:0:
228,209,96885,1,0,0:0:0:0:
256,165,97571,1,0,0:0:0:0:
256,165,97828,1,8,0:0:0:0:
256,165,98085,1,0,0:0:0:0:
256,165,98257,1,8,0:0:0:0:
256,165,98600,1,8,0:0:0:0:
246,167,98942,1,8,0:0:0:0:
272,177,99200,1,8,0:0:0:0:
272,177,99457,1,8,0:0:0:0:
272,177,99628,1,8,0:0:0:0:
298,196,99971,1,0,0:0:0:0:
297,202,100657,1,8,0:0:0:0:
208,209,101000,1,8,0:0:0:0:
313,185,101342,1,4,0:0:0:0:
317,188,101685,1,8,0:0:0:0:
317,188,102028,1,0,0:0:0:0:
317,188,102200,1,0,0:0:0:0:
317,188,102371,1,8,0:0:0:0:
317,188,102542,1,0,0:0:0:0:
317,188,102714,1,8,0:0:0:0:
317,188,103400,1,8,0:0:0:0:
317,188,103742,1,0,0:0:0:0:
317,188,104085,1,0,0:0:0:0:
317,188,104257,1,0,0:0:0:0:
317,188,104428,1,8,0:0:0:0:
317,188,104771,1,0,0:0:0:0:
248,136,104942,1,0,0:0:0:0:
317,188,105114,1,8,0:0:0:0:
266,169,105285,1,0,0:0:0:0:
317,188,105457,1,8,0:0:0:0:
317,188,106142,1,8,0:0:0:0:
317,188,106485,1,0,0:0:0:0:
317,188,106657,1,8,0:0:0:0:
317,188,106828,1,0,0:0:0:0:
317,188,107171,1,8,0:0:0:0:
250,199,107514,1,0,0:0:0:0:
317,188,107685,1,0,0:0:0:0:
317,188,107857,1,8,0:0:0:0:
214,147,108028,1,0,0:0:0:0:
317,188,108200,1,8,0:0:0:0:
317,188,108885,1,8,0:0:0:0:
236,165,109228,1,0,0:0:0:0:
317,188,109571,1,0,0:0:0:0:
168,120,109742,1,0,0:0:0:0:
317,188,109914,1,8,0:0:0:0:
317,188,110257,1,0,0:0:0:0:
234,164,110428,1,0,0:0:0:0:
317,188,110600,1,8,0:0:0:0:
208,124,110771,1,0,0:0:0:0:
317,188,110942,1,8,0:0:0:0:
232,124,111628,1,8,0:0:0:0:
232,124,111971,1,8,0:0:0:0:
254,181,112314,1,4,0:0:0:0:
254,181,112657,1,8,0:0:0:0:
193,159,113000,1,0,0:0:0:0:
193,159,113171,1,0,0:0:0:0:
254,181,113342,1,8,0:0:0:0:
254,181,113514,1,8,0:0:0:0:
254,181,113685,1,0,0:0:0:0:
254,181,114371,1,8,0:0:0:0:
217,191,114714,1,0,0:0:0:0:
254,181,115057,1,0,0:0:0:0:
192,120,115228,1,0,0:0:0:0:
254,181,115400,1,8,0:0:0:0:
217,191,115742,1,0,0:0:0:0:
217,191,115914,1,0,0:0:0:0:
254,181,116085,1,8,0:0:0:0:
254,181,116257,1,0,0:0:0:0:
254,181,116428,1,8,0:0:0:0:
254,181,117114,1,8,0:0:0:0:
191,140,117457,1,8,0:0:0:0:
204,144,117628,1,8,0:0:0:0:
211,177,117800,1,4,0:0:0:0:
254,181,118485,1,8,0:0:0:0:
254,181,118657,1,8,0:0:0:0:
254,181,118828,1,0,0:0:0:0:
254,181,119000,1,8,0:0:0:0:
254,181,119171,1,4,0:0:0:0:
254,181,119685,1,12,0:0:0:0:
254,181,120028,1,12,0:0:0:0:
254,181,120542,1,12,0:0:0:0:
254,181,121228,1,12,0:0:0:0:
188,172,121571,1,0,0:0:0:0:
254,181,121742,1,12,0:0:0:0:
254,181,122257,1,0,0:0:0:0:
254,181,122428,1,0,0:0:0:0:
254,181,122600,1,0,0:0:0:0:
254,181,122771,1,0,0:0:0:0:
254,181,122942,1,8,0:0:0:0:
254,181,123285,1,4,0:0:0:0:
178,165,123628,1,8,0:0:0:0:
328,182,123971,1,0,0:0:0:0:
328,182,124142,1,8,0:0:0:0:
248,173,124657,1,0,0:0:0:0:
248,173,125000,1,8,0:0:0:0:
248,173,125171,1,0,0:0:0:0:
248,173,125342,1,0,0:0:0:0:
248,173,125514,1,8,0:0:0:0:
271,209,126028,1,8,0:0:0:0:
184,88,126371,1,0,0:0:0:0:
271,209,126542,1,8,0:0:0:0:
271,209,126885,1,0,0:0:0:0:
281,222,127057,1,8,0:0:0:0:
278,193,127400,1,0,0:0:0:0:
278,193,127571,1,8,0:0:0:0:
278,193,127742,1,0,0:0:0:0:
278,193,128085,1,8,0:0:0:0:
278,193,128428,1,8,0:0:0:0:
278,193,128771,1,4,0:0:0:0:
301,177,129457,1,0,0:0:0:0:
301,177,129800,1,8,0:0:0:0:
301,177,130142,1,4,0:0:0:0:
301,177,130485,1,8,0:0:0:0:
288,153,130828,1,8,0:0:0:0:
288,153,131171,1,8,0:0:0:0:
308,132,131514,1,0,0:0:0:0:
308,132,131685,1,0,0:0:0:0:
304,183,131857,1,8,0:0:0:0:
188,164,132200,1,0,0:0:0:0:
212,168,132371,1,8,0:0:0:0:
212,168,132714,1,8,0:0:0:0:
256,192,132885,12,0,134085,0:0:0:0:
229,177,134257,5,4,0:0:0:0:
