osu file format v14

[General]
AudioFilename: Singularity.mp3
AudioLeadIn: 0
PreviewTime: 78028
Countdown: 0
SampleSet: Soft
StackLeniency: 0.7
Mode: 3
LetterboxInBreaks: 0
EpilepsyWarning: 1
SpecialStyle: 0
WidescreenStoryboard: 1

[Editor]
DistanceSpacing: 0.8
BeatDivisor: 2
GridSize: 4
TimelineZoom: 2.299999

[Metadata]
Title:Singularity
TitleUnicode:Singularity
Artist:ETIA.
ArtistUnicode:ETIA.
Creator:Kuo Kyoka
Version:Future
Source:Arcaea
Tags:lowiro Eto Luna World Conflict Infomorph Binary Enfold UK Hardcore Video Game Instrumental Groove Coaster Critical_Star Akasha SaltedFISSH Raytoly Rhytoly
BeatmapID:2409889
BeatmapSetID:1154702

[Difficulty]
HPDrainRate:7.5
CircleSize:4
OverallDifficulty:7.5
ApproachRate:5
SliderMultiplier:1.4
SliderTickRate:1

[Events]
//Background and Video events
0,0,"Singularity.jpg",0,0
//Break Periods
//Storyboard Layer 0 (Background)
//Storyboard Layer 1 (Fail)
//Storyboard Layer 2 (Pass)
//Storyboard Layer 3 (Foreground)
Sprite,Foreground,Centre,"BG_Conflict_A.jpg",320,240 S,0,-2885,,0.85 F,0,77857,78028,0,1 F,0,78028,79228,1 F,0,79228,79400,1,0
Sprite,Foreground,Centre,"BG_Conflict_A.jpg",320,240 S,0,89000,,0.85 F,0,89000,90371,1
Sprite,Foreground,Centre,"BG_Conflict_A.jpg",320,240 S,0,99971,,0.85 F,0,99971,101342,1
Sprite,Foreground,Centre,"BG_Wind.jpg",320,240 M,0,89000,,320,240 S,0,89000,,0.85 F,0,89000,89171,1,0 M,0,89342,,320,240 S,0,89342,,0.85 F,0,89342,89513,1,0 M,0,89857,,320,240 S,0,89857,,0.85 F,0,89857,90028,1,0 M,0,90028,,320,240 S,0,90028,,0.85 F,0,90028,90199,1,0
Sprite,Foreground,Centre,"BG_Wind.jpg",320,240 L,0,8 F,0,101000,101042,1,0 S,0,101000,,0.85
Sprite,Foreground,Centre,"BG_Blur.jpg",320,240 S,0,117800,,0.85 F,0,117800,123285,0,1
Sprite,Foreground,Centre,"Luna_A.png",320,240 M,0,77857,78028,595,395,595,455 F,0,77857,78029,0,1 S,0,78028,,0.85 M,0,78028,79400,595,455
Sprite,Foreground,Centre,"Luna_A.png",320,240 L,0,3 M,0,101342,104084,465,455,465,460 M,0,104084,106826,465,460,465,455 M,0,106826,109568,465,455,465,450 M,0,109568,112310,465,450,465,455 S,0,79400,,0.85 M,0,79400,82142,595,455,595,460 M,0,82142,84884,595,460,595,455 M,0,84884,87626,595,455,595,450 M,0,87626,90368,595,450,595,455 M,0,90368,93110,595,455,595,460 M,0,93110,95852,595,460,595,455 M,0,95852,98594,595,455,595,450 M,0,98594,99800,595,450,595,452.4 M,0,99800,99971,595,452.2,465,452.5 M,0,99971,101342,465,452.5,465,455 F,0,133914,134257,1,0
Sprite,Foreground,Centre,"iyc.png",320,240 S,0,77857,,0.75 M,0,77857,78028,310,240,160,240 F,0,77857,78028,0,1 M,0,78028,79228,160,240,155,240 F,0,78028,79228,1 M,0,79228,79400,155,240,5,240 F,0,79228,79400,1,0
Sprite,Foreground,Centre,"mouth.png",320,240 F,0,78028,78114,0,1 F,0,78114,78200,1,0 M,0,78542,,552.5,166 S,0,78542,,0.7
Sprite,Foreground,Centre,"mouth1.png",320,240 M,0,78200,,552.5,166 S,0,78200,,0.7 F,0,78200,78371,0,1 F,0,78371,,1 R,0,78371,,-0.35 F,0,78371,78542,1,0
Sprite,Foreground,Centre,"mouth.png",320,240 M,0,78542,,552.5,166 S,0,78542,,0.7 F,0,78542,78714,0,1 F,0,78714,79057,1,0
//Storyboard Layer 4 (Overlay)
//Storyboard Sound Samples
Sample,21800,0,"kick.wav",70
Sample,22142,0,"kick.wav",70
Sample,22485,0,"cymbal.wav",70
Sample,22828,0,"kick.wav",70
Sample,23171,0,"kick.wav",70
Sample,24200,0,"boom.wav",70
Sample,25057,0,"hihat.wav",50
Sample,26085,0,"hihat.wav",50
Sample,27800,0,"hihat.wav",50
Sample,28828,0,"hihat.wav",50
Sample,30542,0,"hihat.wav",50
Sample,31571,0,"hihat.wav",50
Sample,31742,0,"kick.wav",70
Sample,33285,0,"hihat.wav",50
Sample,34314,0,"hihat.wav",50
Sample,45114,0,"kick.wav",70
Sample,64657,0,"kick-a.wav",50
Sample,65000,0,"snareclap.wav",50
Sample,65342,0,"kick-a.wav",50
Sample,68600,0,"hihat.wav",50
Sample,69285,0,"hihat.wav",50
Sample,69628,0,"hihat.wav",50
Sample,69971,0,"hihat.wav",50
Sample,70657,0,"hihat.wav",50
Sample,71000,0,"hihat.wav",50
Sample,71342,0,"hihat.wav",50
Sample,72028,0,"hihat.wav",50
Sample,72371,0,"hihat.wav",50
Sample,73400,0,"hihat.wav",50
Sample,73742,0,"hihat.wav",50
Sample,73914,0,"snare.wav",70
Sample,76657,0,"cymbal.wav",70
Sample,77000,0,"cymbal.wav",70
Sample,77342,0,"cymbal.wav",70
Sample,77685,0,"cymbal.wav",70
Sample,82142,0,"cymbal.wav",70
Sample,93114,0,"cymbal.wav",70
Sample,101000,0,"boom.wav",70
Sample,101857,0,"hihat.wav",50
Sample,102885,0,"hihat.wav",50
Sample,104600,0,"hihat.wav",50
Sample,105628,0,"hihat.wav",50
Sample,107342,0,"hihat.wav",50
Sample,108371,0,"hihat.wav",50
Sample,110085,0,"hihat.wav",50
Sample,111114,0,"hihat.wav",50
Sample,112828,0,"hihat.wav",50
Sample,113857,0,"hihat.wav",50
Sample,115571,0,"hihat.wav",50
Sample,116600,0,"hihat.wav",50
Sample,117971,0,"hihat.wav",50
Sample,118314,0,"hihat.wav",50
Sample,119342,0,"hihat.wav",50
Sample,119685,0,"cymbal.wav",70
Sample,120028,0,"kick.wav",70
Sample,131514,0,"kick.wav",70
Sample,132200,0,"cymbal.wav",70
Sample,134257,0,"boom.wav",70

[TimingPoints]
2600,342.857142857143,4,2,1,30,1,0
79400,-100,4,2,1,30,0,1
84542,-100,4,2,1,30,0,0
84885,-100,4,2,1,30,0,1
89000,-100,4,2,1,30,0,0
90371,-100,4,2,1,30,0,1
95514,-100,4,2,1,30,0,0
95857,-100,4,2,1,30,0,1
99971,-100,4,2,1,30,0,0
101342,-100,4,2,1,30,0,1
117800,-100,4,2,1,30,0,0
121742,-100,4,2,1,30,0,1
123285,-100,4,2,1,30,0,0

[HitObjects]
448,192,2599,128,0,5342:0:0:0:70:cymbal.wav
320,192,2599,128,0,5342:0:0:0:70:kick.wav
192,192,5342,1,0,0:0:0:0:
64,192,5857,1,0,0:0:0:0:
320,192,6371,1,0,0:0:0:0:
192,192,6885,1,0,0:0:0:0:
448,192,7400,1,0,0:0:0:0:
448,192,7742,1,0,0:0:0:0:
64,192,8085,1,0,0:0:0:70:kick.wav
448,192,8085,1,0,0:0:0:0:
192,192,8171,1,0,0:0:0:0:
320,192,8257,1,0,0:0:0:50:hihat.wav
64,192,8342,1,0,0:0:0:0:
448,192,8428,1,0,0:0:0:70:kick.wav
192,192,8514,1,0,0:0:0:0:
320,192,8600,1,0,0:0:0:50:hihat.wav
448,192,8685,1,0,0:0:0:0:
192,192,8771,1,0,0:0:0:70:kick.wav
64,192,8857,1,0,0:0:0:0:
320,192,8942,1,0,0:0:0:50:hihat.wav
192,192,9028,1,0,0:0:0:0:
448,192,9114,1,0,0:0:0:70:kick.wav
320,192,9200,1,0,0:0:0:0:
64,192,9285,1,0,0:0:0:50:hihat.wav
320,192,9371,1,0,0:0:0:0:
192,192,9457,1,0,0:0:0:70:kick.wav
448,192,9542,1,0,0:0:0:0:
192,192,9628,1,0,0:0:0:50:hihat.wav
64,192,9714,1,0,0:0:0:0:
320,192,9800,1,0,0:0:0:70:kick.wav
192,192,9885,1,0,0:0:0:0:
320,192,9971,1,0,0:0:0:50:hihat.wav
192,192,10057,1,0,0:0:0:0:
448,192,10142,1,0,0:0:0:70:kick.wav
320,192,10228,1,0,0:0:0:0:
64,192,10314,1,0,0:0:0:50:hihat.wav
192,192,10400,1,0,0:0:0:0:
448,192,10485,1,0,0:0:0:70:kick.wav
64,192,10571,1,0,0:0:0:0:
320,192,10657,1,0,0:0:0:50:hihat.wav
448,192,10742,1,0,0:0:0:0:
64,192,10828,1,0,0:0:0:70:kick.wav
320,192,10914,1,0,0:0:0:0:
192,192,11000,1,0,0:0:0:50:hihat.wav
448,192,11085,1,0,0:0:0:0:
64,192,11171,1,0,0:0:0:70:kick.wav
192,192,11257,1,0,0:0:0:0:
64,192,11342,1,0,0:0:0:50:hihat.wav
192,192,11428,1,0,0:0:0:0:
448,192,11514,1,0,0:0:0:70:kick.wav
64,192,11600,1,0,0:0:0:0:
320,192,11685,1,0,0:0:0:50:hihat.wav
192,192,11771,1,0,0:0:0:0:
320,192,11857,1,0,0:0:0:70:kick.wav
192,192,11942,1,0,0:0:0:0:
448,192,12028,1,0,0:0:0:50:hihat.wav
64,192,12114,1,0,0:0:0:0:
192,192,12200,128,0,12371:0:0:0:0:
448,192,12371,128,0,12542:0:0:0:0:
64,192,12714,128,0,12885:0:0:0:0:
320,192,12885,128,0,13571:0:0:0:0:
192,192,13228,128,0,13571:0:0:0:0:
448,192,13571,1,0,0:0:0:70:cymbal.wav
64,192,13571,1,0,0:0:0:70:kick.wav
192,192,13657,1,0,0:0:0:0:
320,192,13742,1,0,0:0:0:50:hihat.wav
448,192,13828,1,0,0:0:0:0:
192,192,13914,1,0,0:0:0:70:kick.wav
64,192,14085,1,0,0:0:0:50:hihat.wav
192,192,14171,1,0,0:0:0:0:
320,192,14257,1,0,0:0:0:70:kick.wav
448,192,14342,1,0,0:0:0:0:
320,192,14428,1,0,0:0:0:50:hihat.wav
192,192,14514,1,0,0:0:0:0:
64,192,14600,1,0,0:0:0:70:kick.wav
64,192,14942,1,0,0:0:0:70:kick.wav
192,192,15028,1,0,0:0:0:0:
320,192,15114,1,0,0:0:0:50:hihat.wav
448,192,15200,1,0,0:0:0:0:
192,192,15285,1,0,0:0:0:70:kick.wav
64,192,15457,1,0,0:0:0:50:hihat.wav
192,192,15542,1,0,0:0:0:0:
320,192,15628,1,0,0:0:0:70:kick.wav
448,192,15714,1,0,0:0:0:0:
320,192,15800,1,0,0:0:0:50:hihat.wav
192,192,15885,1,0,0:0:0:0:
64,192,15971,1,0,0:0:0:70:kick.wav
64,192,16314,1,0,0:0:0:70:kick.wav
448,192,16314,1,0,0:0:0:0:
192,192,16400,1,0,0:0:0:0:
320,192,16485,1,0,0:0:0:50:hihat.wav
448,192,16571,1,0,0:0:0:0:
192,192,16657,1,0,0:0:0:70:kick.wav
64,192,16828,1,0,0:0:0:50:hihat.wav
448,192,16828,1,0,0:0:0:0:
192,192,16914,1,0,0:0:0:0:
320,192,17000,1,0,0:0:0:70:kick.wav
448,192,17085,1,0,0:0:0:0:
320,192,17171,1,0,0:0:0:50:hihat.wav
192,192,17257,1,0,0:0:0:0:
64,192,17342,1,0,0:0:0:70:kick.wav
448,192,17342,1,0,0:0:0:0:
64,192,17685,1,0,0:0:0:70:kick.wav
192,192,17771,1,0,0:0:0:0:
320,192,17857,1,0,0:0:0:50:hihat.wav
448,192,17857,1,0,0:0:0:0:
192,192,17942,1,0,0:0:0:0:
64,192,18028,1,0,0:0:0:70:kick.wav
448,192,18114,1,0,0:0:0:0:
320,192,18200,1,0,0:0:0:50:hihat.wav
448,192,18285,1,0,0:0:0:0:
192,192,18371,1,0,0:0:0:70:kick.wav
64,192,18371,1,0,0:0:0:0:
320,192,18457,1,0,0:0:0:0:
64,192,18542,1,0,0:0:0:50:hihat.wav
192,192,18628,1,0,0:0:0:0:
64,192,18714,1,0,0:0:0:70:kick.wav
448,192,18714,1,0,0:0:0:0:
320,192,18800,1,0,0:0:0:0:
192,192,18885,1,0,0:0:0:0:
320,192,18971,1,0,0:0:0:0:
448,192,19057,1,0,0:0:0:70:snare.wav
64,192,19057,1,0,0:0:0:70:cymbal.wav
192,192,19057,1,0,0:0:0:70:kick.wav
192,192,19400,1,0,0:0:0:70:snare.wav
64,192,19400,1,0,0:0:0:70:kick.wav
64,192,19657,1,0,0:0:0:70:snare.wav
192,192,19657,1,0,0:0:0:0:
448,192,19742,1,0,0:0:0:70:kick.wav
64,192,19914,1,0,0:0:0:70:snare.wav
192,192,19914,1,0,0:0:0:0:
192,192,20085,1,0,0:0:0:70:kick.wav
448,192,20085,1,0,0:0:0:0:
320,192,20257,1,0,0:0:0:70:snare.wav
64,192,20257,1,0,0:0:0:0:
320,192,20428,1,0,0:0:0:70:kick.wav
448,192,20428,1,0,0:0:0:70:cymbal.wav
320,192,20600,1,0,0:0:0:70:snare.wav
192,192,20600,1,0,0:0:0:0:
192,192,20771,1,0,0:0:0:70:kick.wav
64,192,20771,1,0,0:0:0:0:
192,192,21028,1,0,0:0:0:70:snare.wav
448,192,21028,1,0,0:0:0:0:
64,192,21114,1,0,0:0:0:70:kick.wav
448,192,21200,1,0,0:0:0:70:snare.wav
320,192,21285,1,0,0:0:0:70:snare.wav
64,192,21285,1,0,0:0:0:0:
192,192,21457,1,0,0:0:0:70:kick.wav
320,192,21457,1,0,0:0:0:0:
64,192,21628,1,0,0:0:0:70:snare.wav
192,192,21685,1,0,0:0:0:70:snare.wav
320,192,21742,1,0,0:0:0:70:snare.wav
448,192,21800,1,0,0:0:0:70:cymbal.wav
64,192,21800,1,0,0:0:0:50:drum.wav
320,192,21885,1,0,0:0:0:50:drum.wav
192,192,21971,1,0,0:0:0:50:drum.wav
64,192,22057,1,0,0:0:0:50:drum.wav
320,192,22142,1,0,0:0:0:50:drum.wav
448,192,22228,1,0,0:0:0:50:drum.wav
320,192,22314,1,0,0:0:0:50:drum.wav
448,192,22400,1,0,0:0:0:50:drum.wav
192,192,22485,1,0,0:0:0:50:drum.wav
64,192,22485,1,0,0:0:0:70:kick.wav
320,192,22571,1,0,0:0:0:50:drum.wav
192,192,22657,1,0,0:0:0:50:drum.wav
320,192,22742,1,0,0:0:0:50:drum.wav
64,192,22828,1,0,0:0:0:50:drum.wav
192,192,22914,1,0,0:0:0:50:drum.wav
64,192,23000,1,0,0:0:0:50:drum.wav
192,192,23085,1,0,0:0:0:50:drum.wav
64,192,23171,1,0,0:0:0:50:drum.wav
448,192,23171,1,0,0:0:0:70:cymbal.wav
320,192,23257,1,0,0:0:0:50:drum.wav
448,192,23342,1,0,0:0:0:50:drum.wav
320,192,23428,1,0,0:0:0:50:drum.wav
64,192,23514,1,0,0:0:0:50:drum.wav
448,192,23600,1,0,0:0:0:50:drum.wav
192,192,23685,1,0,0:0:0:50:drum.wav
320,192,23771,1,0,0:0:0:50:drum.wav
448,192,23857,1,0,0:0:0:50:drum.wav
192,192,23942,1,0,0:0:0:50:drum.wav
64,192,24028,1,0,0:0:0:50:drum.wav
320,192,24114,1,0,0:0:0:50:drum.wav
192,192,24200,1,0,0:0:0:50:drum.wav
448,192,24285,1,0,0:0:0:50:drum.wav
320,192,24371,1,0,0:0:0:50:drum.wav
64,192,24457,1,0,0:0:0:50:drum.wav
448,192,24542,1,0,0:0:0:70:cymbal.wav
192,192,24542,1,0,0:0:0:70:kick.wav
320,192,24628,1,0,0:0:0:0:
192,192,24714,1,0,0:0:0:50:hihat.wav
64,192,24800,1,0,0:0:0:0:
320,192,24885,128,0,25057:0:0:0:70:kick.wav
192,192,25228,1,0,0:0:0:70:kick.wav
448,192,25314,1,0,0:0:0:0:
192,192,25400,1,0,0:0:0:50:hihat.wav
448,192,25485,1,0,0:0:0:0:
320,192,25571,1,0,0:0:0:70:kick.wav
64,192,25657,1,0,0:0:0:0:
192,192,25742,1,0,0:0:0:50:hihat.wav
320,192,25828,1,0,0:0:0:0:
448,192,25914,128,0,26000:0:0:0:70:kick.wav
192,192,26000,128,0,26085:0:0:0:0:
320,192,26171,128,0,26257:0:0:0:0:
64,192,26257,128,0,26342:0:0:0:70:kick.wav
320,192,26428,1,0,0:0:0:50:hihat.wav
192,192,26514,1,0,0:0:0:0:
64,192,26600,1,0,0:0:0:70:kick.wav
448,192,26685,1,0,0:0:0:0:
192,192,26771,1,0,0:0:0:50:hihat.wav
320,192,26857,1,0,0:0:0:0:
448,192,26942,1,0,0:0:0:70:kick.wav
320,192,27028,1,0,0:0:0:0:
192,192,27114,1,0,0:0:0:50:hihat.wav
64,192,27200,1,0,0:0:0:0:
320,192,27285,1,0,0:0:0:70:kick.wav
192,192,27371,1,0,0:0:0:0:
320,192,27457,1,0,0:0:0:50:hihat.wav
192,192,27542,1,0,0:0:0:0:
448,192,27628,128,0,27800:0:0:0:70:kick.wav
192,192,27971,1,0,0:0:0:70:kick.wav
64,192,28057,1,0,0:0:0:0:
320,192,28142,1,0,0:0:0:50:hihat.wav
448,192,28228,1,0,0:0:0:0:
192,192,28314,1,0,0:0:0:70:kick.wav
320,192,28400,1,0,0:0:0:0:
64,192,28485,1,0,0:0:0:50:hihat.wav
192,192,28571,1,0,0:0:0:0:
320,192,28657,128,0,28742:0:0:0:70:kick.wav
64,192,28742,128,0,28828:0:0:0:0:
448,192,28914,128,0,29000:0:0:0:0:
192,192,29000,128,0,29085:0:0:0:70:kick.wav
64,192,29171,1,0,0:0:0:50:hihat.wav
192,192,29257,1,0,0:0:0:0:
320,192,29342,1,0,0:0:0:70:kick.wav
448,192,29428,1,0,0:0:0:0:
64,192,29514,1,0,0:0:0:50:hihat.wav
192,192,29600,1,0,0:0:0:0:
320,192,29685,1,0,0:0:0:70:kick.wav
448,192,29771,1,0,0:0:0:0:
320,192,29857,1,0,0:0:0:50:hihat.wav
192,192,29942,1,0,0:0:0:0:
64,192,30028,1,0,0:0:0:70:kick.wav
448,192,30114,1,0,0:0:0:0:
192,192,30200,1,0,0:0:0:50:hihat.wav
320,192,30285,1,0,0:0:0:0:
448,192,30371,128,0,30542:0:0:0:70:kick.wav
192,192,30714,1,0,0:0:0:70:kick.wav
64,192,30800,1,0,0:0:0:0:
320,192,30885,1,0,0:0:0:50:hihat.wav
192,192,30971,1,0,0:0:0:0:
448,192,31057,1,0,0:0:0:70:kick.wav
320,192,31142,1,0,0:0:0:0:
64,192,31228,1,0,0:0:0:50:hihat.wav
192,192,31314,1,0,0:0:0:0:
320,192,31400,128,0,31485:0:0:0:70:kick.wav
448,192,31485,128,0,31571:0:0:0:0:
64,192,31657,128,0,31742:0:0:0:0:
192,192,31742,128,0,31828:0:0:0:70:kick.wav
192,192,31914,1,0,0:0:0:50:hihat.wav
320,192,32000,1,0,0:0:0:0:
448,192,32085,1,0,0:0:0:70:kick.wav
64,192,32171,1,0,0:0:0:0:
320,192,32257,1,0,0:0:0:50:hihat.wav
192,192,32342,1,0,0:0:0:0:
448,192,32428,1,0,0:0:0:70:kick.wav
64,192,32514,1,0,0:0:0:0:
320,192,32600,1,0,0:0:0:50:hihat.wav
192,192,32685,1,0,0:0:0:0:
64,192,32771,1,0,0:0:0:70:kick.wav
448,192,32857,1,0,0:0:0:0:
320,192,32942,1,0,0:0:0:50:hihat.wav
448,192,33028,1,0,0:0:0:0:
320,192,33114,128,0,33285:0:0:0:70:kick.wav
64,192,33457,1,0,0:0:0:70:kick.wav
448,192,33542,1,0,0:0:0:0:
192,192,33628,1,0,0:0:0:50:hihat.wav
320,192,33714,1,0,0:0:0:0:
448,192,33800,1,0,0:0:0:70:kick.wav
320,192,33885,1,0,0:0:0:0:
192,192,33971,1,0,0:0:0:50:hihat.wav
64,192,34057,1,0,0:0:0:0:
448,192,34142,128,0,34228:0:0:0:70:kick.wav
192,192,34228,128,0,34314:0:0:0:0:
320,192,34400,128,0,34485:0:0:0:0:
64,192,34485,128,0,34571:0:0:0:70:kick.wav
448,192,34657,1,0,0:0:0:50:hihat.wav
320,192,34742,1,0,0:0:0:0:
64,192,34828,1,0,0:0:0:70:kick.wav
320,192,34914,1,0,0:0:0:0:
192,192,35000,1,0,0:0:0:50:hihat.wav
448,192,35085,1,0,0:0:0:0:
192,192,35171,1,0,0:0:0:70:kick.wav
64,192,35257,1,0,0:0:0:0:
192,192,35342,1,0,0:0:0:50:hihat.wav
320,192,35428,1,0,0:0:0:0:
448,192,35514,1,0,0:0:0:70:cymbal.wav
64,192,35514,128,0,36200:0:0:0:70:kick.wav
192,192,35685,1,0,0:0:0:50:hihat.wav
448,192,35857,1,0,0:0:0:70:kick.wav
192,192,36028,1,0,0:0:0:50:hihat.wav
320,192,36200,128,0,36542:0:0:0:70:kick.wav
448,192,36200,1,0,0:0:0:0:
64,192,36371,1,0,0:0:0:50:hihat.wav
192,192,36542,1,0,0:0:0:70:kick.wav
448,192,36542,1,0,0:0:0:0:
192,192,36714,128,0,38171:0:0:0:50:hihat.wav
64,192,36714,1,0,0:0:0:0:
448,192,36885,1,0,0:0:0:70:kick.wav
64,192,37057,1,0,0:0:0:50:hihat.wav
320,192,37228,1,0,0:0:0:70:kick.wav
64,192,37400,1,0,0:0:0:50:hihat.wav
448,192,37571,1,0,0:0:0:70:kick.wav
64,192,37742,1,0,0:0:0:50:hihat.wav
320,192,37914,1,0,0:0:0:70:kick.wav
64,192,38085,1,0,0:0:0:50:hihat.wav
192,192,38257,128,0,38942:0:0:0:70:kick.wav
448,192,38257,1,0,0:0:0:0:
64,192,38428,1,0,0:0:0:50:hihat.wav
448,192,38600,1,0,0:0:0:70:kick.wav
64,192,38771,1,0,0:0:0:50:hihat.wav
448,192,38942,128,0,39285:0:0:0:70:kick.wav
320,192,38942,1,0,0:0:0:0:
64,192,39114,1,0,0:0:0:50:hihat.wav
320,192,39285,1,0,0:0:0:70:kick.wav
192,192,39285,1,0,0:0:0:0:
320,192,39457,128,0,40914:0:0:0:50:hihat.wav
64,192,39457,1,0,0:0:0:0:
192,192,39628,1,0,0:0:0:70:kick.wav
64,192,39800,1,0,0:0:0:50:hihat.wav
448,192,39971,1,0,0:0:0:70:kick.wav
64,192,40142,1,0,0:0:0:50:hihat.wav
192,192,40314,1,0,0:0:0:70:kick.wav
64,192,40485,1,0,0:0:0:50:hihat.wav
448,192,40657,1,0,0:0:0:70:kick.wav
64,192,40828,1,0,0:0:0:50:hihat.wav
320,192,41000,128,0,41685:0:0:0:70:kick.wav
448,192,41000,1,0,0:0:0:0:
192,192,41171,1,0,0:0:0:50:hihat.wav
448,192,41342,1,0,0:0:0:70:kick.wav
192,192,41514,1,0,0:0:0:50:hihat.wav
64,192,41685,1,0,0:0:0:70:kick.wav
448,192,41685,1,0,0:0:0:0:
64,192,41857,128,0,42028:0:0:0:50:hihat.wav
192,192,41857,1,0,0:0:0:0:
448,192,42028,1,0,0:0:0:70:kick.wav
320,192,42028,1,0,0:0:0:0:
448,192,42200,128,0,42885:0:0:0:50:hihat.wav
192,192,42200,1,0,0:0:0:0:
320,192,42371,1,0,0:0:0:70:kick.wav
192,192,42542,1,0,0:0:0:50:hihat.wav
320,192,42714,1,0,0:0:0:70:kick.wav
64,192,42885,128,0,43057:0:0:0:50:hihat.wav
192,192,42885,1,0,0:0:0:0:
320,192,43057,1,0,0:0:0:70:kick.wav
320,192,43228,128,0,43742:0:0:0:50:hihat.wav
64,192,43228,1,0,0:0:0:0:
448,192,43400,1,0,0:0:0:70:kick.wav
64,192,43571,1,0,0:0:0:50:hihat.wav
64,192,43742,1,0,0:0:0:70:kick.wav
448,192,43742,1,0,0:0:0:0:
192,192,43828,1,0,0:0:0:0:
320,192,43914,1,0,0:0:0:50:hihat.wav
192,192,44000,1,0,0:0:0:0:
64,192,44085,1,0,0:0:0:70:kick.wav
448,192,44171,1,0,0:0:0:0:
192,192,44257,1,0,0:0:0:50:hihat.wav
448,192,44342,1,0,0:0:0:0:
192,192,44428,1,0,0:0:0:70:kick.wav
320,192,44514,1,0,0:0:0:0:
448,192,44600,1,0,0:0:0:50:hihat.wav
320,192,44685,1,0,0:0:0:0:
192,192,44771,1,0,0:0:0:70:kick.wav
448,192,44857,1,0,0:0:0:0:
192,192,44942,1,0,0:0:0:50:hihat.wav
448,192,45028,1,0,0:0:0:0:
320,192,45114,1,0,0:0:0:70:cymbal.wav
64,192,45114,1,0,0:0:0:50:drum.wav
192,192,45200,1,0,0:0:0:50:drum.wav
320,192,45285,1,0,0:0:0:50:drum.wav
448,192,45371,1,0,0:0:0:50:drum.wav
64,192,45457,1,0,0:0:0:50:drum.wav
192,192,45542,1,0,0:0:0:50:drum.wav
320,192,45628,1,0,0:0:0:50:drum.wav
448,192,45714,1,0,0:0:0:50:drum.wav
64,192,45800,1,0,0:0:0:50:drum.wav
192,192,45885,1,0,0:0:0:50:drum.wav
320,192,45971,1,0,0:0:0:50:drum.wav
448,192,46057,1,0,0:0:0:50:drum.wav
64,192,46142,1,0,0:0:0:50:drum.wav
192,192,46228,1,0,0:0:0:50:drum.wav
320,192,46314,1,0,0:0:0:50:drum.wav
448,192,46400,1,0,0:0:0:50:drum.wav
192,192,46485,128,0,49228:0:0:0:70:cymbal.wav
64,192,46485,128,0,49228:0:0:0:70:kick.wav
448,192,49057,128,0,49228:0:0:0:0:
448,192,49571,128,0,49742:0:0:0:0:
448,192,50085,128,0,50257:0:0:0:0:
448,192,50600,128,0,50771:0:0:0:0:
448,192,51114,128,0,51285:0:0:0:0:
448,192,51628,128,0,51800:0:0:0:0:
192,192,51971,128,0,57371:0:0:0:0:
320,192,53171,128,0,57371:0:0:0:0:
448,192,54542,128,0,57371:0:0:0:0:
64,192,55914,128,0,57371:0:0:0:0:
192,192,57457,1,0,0:0:0:50:kick-a.wav
64,192,57457,1,0,0:0:0:50:cymbal.wav
192,192,57800,1,0,0:0:0:50:kick-a.wav
192,192,58100,1,0,0:0:0:0:
448,192,58142,1,0,0:0:0:50:snareclap.wav
192,192,58485,1,0,0:0:0:0:
64,192,58657,1,0,0:0:0:50:kick.wav
320,192,58657,1,0,0:0:0:0:
320,192,59000,1,0,0:0:0:0:
320,192,59514,1,0,0:0:0:50:snareclap.wav
64,192,59557,1,0,0:0:0:0:
448,192,59685,1,0,0:0:0:0:
64,192,59857,1,0,0:0:0:0:
192,192,60028,1,0,0:0:0:50:kick.wav
448,192,60028,1,0,0:0:0:0:
192,192,60371,1,0,0:0:0:0:
320,192,60542,1,0,0:0:0:50:kick-a.wav
64,192,60885,1,0,0:0:0:50:snareclap.wav
448,192,61400,1,0,0:0:0:50:kick.wav
448,192,61914,1,0,0:0:0:50:kick.wav
64,192,62257,1,0,0:0:0:50:snareclap.wav
64,192,62942,1,0,0:0:0:0:
320,192,62942,1,0,0:0:0:0:
320,192,63285,1,0,0:0:0:50:kick-a.wav
320,192,63628,1,0,0:0:0:50:snareclap.wav
448,192,63800,1,0,0:0:0:0:
320,192,63928,1,0,0:0:0:0:
64,192,63971,1,0,0:0:0:0:
192,192,64142,1,0,0:0:0:50:kick.wav
448,192,64142,1,0,0:0:0:0:
192,192,64485,1,0,0:0:0:0:
64,192,64828,128,0,65171:0:0:0:0:
448,192,65171,128,0,65514:0:0:0:0:
192,192,65514,1,0,0:0:0:0:
192,192,65685,1,0,0:0:0:50:kick.wav
64,192,65685,1,0,0:0:0:0:
448,192,65857,1,0,0:0:0:0:
192,192,66028,1,0,0:0:0:50:kick-a.wav
448,192,66200,1,0,0:0:0:0:
192,192,66371,1,0,0:0:0:50:snareclap.wav
448,192,66542,1,0,0:0:0:0:
192,192,66714,1,0,0:0:0:0:
64,192,66842,1,0,0:0:0:0:
448,192,66885,128,0,67742:0:0:0:50:kick-a.wav
320,192,67057,1,0,0:0:0:70:cymbal.wav
64,192,67057,1,0,0:0:0:70:kick.wav
192,192,67400,1,0,0:0:0:70:kick-a.wav
192,192,67571,1,0,0:0:0:70:kick-a.wav
320,192,67742,1,0,0:0:0:70:snareclap.wav
64,192,67742,1,0,0:0:0:0:
192,192,67914,1,0,0:0:0:70:kick-a.wav
320,192,68085,1,0,0:0:0:70:kick-a.wav
64,192,68257,1,0,0:0:0:0:
192,192,68257,1,0,0:0:0:70:snareclap.wav
320,192,68428,1,0,0:0:0:70:cymbal.wav
448,192,68428,1,0,0:0:0:70:snare.wav
64,192,68428,128,0,68771:0:0:0:0:
320,192,68771,1,0,0:0:0:70:snare.wav
448,192,68771,1,0,0:0:0:0:
64,192,68942,128,0,69457:0:0:0:50:hihat.wav
320,192,69114,1,0,0:0:0:70:snare.wav
448,192,69114,1,0,0:0:0:0:
320,192,69457,1,0,0:0:0:70:snare.wav
448,192,69457,1,0,0:0:0:0:
192,192,69800,128,0,70142:0:0:0:70:snare.wav
320,192,69800,1,0,0:0:0:0:
448,192,69800,1,0,0:0:0:0:
320,192,70142,1,0,0:0:0:70:snare.wav
448,192,70142,1,0,0:0:0:0:
192,192,70314,128,0,70828:0:0:0:50:hihat.wav
320,192,70485,1,0,0:0:0:70:snare.wav
448,192,70485,1,0,0:0:0:0:
320,192,70828,1,0,0:0:0:70:snare.wav
448,192,70828,1,0,0:0:0:0:
320,192,71171,128,0,71514:0:0:0:70:snare.wav
192,192,71171,1,0,0:0:0:0:
64,192,71171,1,0,0:0:0:0:
448,192,71171,1,0,0:0:0:0:
192,192,71514,1,0,0:0:0:70:snare.wav
64,192,71514,1,0,0:0:0:0:
320,192,71685,128,0,72200:0:0:0:50:hihat.wav
448,192,71685,1,0,0:0:0:0:
64,192,71857,1,0,0:0:0:70:snare.wav
192,192,71857,1,0,0:0:0:0:
192,192,72200,1,0,0:0:0:0:
64,192,72200,1,0,0:0:0:0:
448,192,72200,1,0,0:0:0:70:snare.wav
192,192,72542,1,0,0:0:0:70:snare.wav
64,192,72542,1,0,0:0:0:0:
448,192,72542,128,0,72885:0:0:0:0:
320,192,72714,1,0,0:0:0:50:hihat.wav
192,192,72885,1,0,0:0:0:70:snare.wav
64,192,72885,1,0,0:0:0:0:
448,192,73057,128,0,73914:0:0:0:50:hihat.wav
192,192,73228,1,0,0:0:0:0:
64,192,73228,1,0,0:0:0:0:
320,192,73228,1,0,0:0:0:70:snare.wav
192,192,73571,1,0,0:0:0:0:
64,192,73571,1,0,0:0:0:0:
320,192,73571,128,0,73914:0:0:0:70:snare.wav
192,192,73914,1,0,0:0:0:70:kick.wav
64,192,73914,1,0,0:0:0:70:cymbal.wav
192,192,74257,1,0,0:0:0:70:snare.wav
64,192,74257,1,0,0:0:0:70:kick.wav
64,192,74514,1,0,0:0:0:70:snare.wav
192,192,74514,1,0,0:0:0:0:
448,192,74600,1,0,0:0:0:70:kick.wav
64,192,74771,1,0,0:0:0:70:snare.wav
192,192,74771,1,0,0:0:0:0:
192,192,74942,1,0,0:0:0:70:kick.wav
448,192,74942,1,0,0:0:0:0:
320,192,75114,1,0,0:0:0:70:snare.wav
64,192,75114,1,0,0:0:0:0:
320,192,75285,1,0,0:0:0:70:cymbal.wav
448,192,75285,1,0,0:0:0:70:kick.wav
320,192,75457,1,0,0:0:0:70:snare.wav
192,192,75457,1,0,0:0:0:0:
192,192,75628,1,0,0:0:0:70:kick.wav
64,192,75628,1,0,0:0:0:0:
192,192,75885,1,0,0:0:0:70:snare.wav
64,192,75885,1,0,0:0:0:0:
320,192,75971,1,0,0:0:0:70:kick.wav
448,192,75971,1,0,0:0:0:70:cymbal.wav
192,192,76057,1,0,0:0:0:70:snare.wav
320,192,76142,1,0,0:0:0:70:snare.wav
320,192,76314,1,0,0:0:0:70:kick.wav
64,192,76314,1,0,0:0:0:0:
448,192,76485,1,0,0:0:0:70:snare.wav
320,192,76542,1,0,0:0:0:70:snare.wav
192,192,76600,1,0,0:0:0:70:snare.wav
448,192,76657,1,0,0:0:0:70:kick.wav
64,192,76657,1,0,0:0:0:50:drum.wav
192,192,76742,1,0,0:0:0:50:drum.wav
320,192,76828,1,0,0:0:0:50:drum.wav
448,192,76914,1,0,0:0:0:50:drum.wav
192,192,77000,1,0,0:0:0:70:kick.wav
320,192,77000,1,0,0:0:0:50:drum.wav
64,192,77085,1,0,0:0:0:50:drum.wav
192,192,77171,1,0,0:0:0:50:drum.wav
320,192,77257,1,0,0:0:0:50:drum.wav
448,192,77342,1,0,0:0:0:70:kick.wav
64,192,77342,1,0,0:0:0:50:drum.wav
192,192,77428,1,0,0:0:0:50:drum.wav
320,192,77514,1,0,0:0:0:50:drum.wav
448,192,77600,1,0,0:0:0:50:drum.wav
320,192,77685,1,0,0:0:0:70:kick.wav
192,192,77685,1,0,0:0:0:50:drum.wav
64,192,77771,1,0,0:0:0:50:drum.wav
192,192,77857,1,0,0:0:0:50:drum.wav
320,192,77942,1,0,0:0:0:50:drum.wav
192,192,79400,128,0,79657:0:0:0:70:boom.wav
64,192,79400,128,0,79657:0:0:0:70:cymbal.wav
448,192,79400,1,0,0:0:0:70:kick.wav
64,192,79742,1,0,0:0:0:70:tok.wav
192,192,79742,1,0,0:0:0:0:
192,192,80000,1,0,0:0:0:70:tok.wav
64,192,80000,1,0,0:0:0:0:
192,192,80171,1,0,0:0:0:70:tok.wav
64,192,80171,1,0,0:0:0:0:
192,192,80428,1,0,0:0:0:70:tok.wav
64,192,80428,1,0,0:0:0:0:
320,192,80514,1,0,0:0:0:0:
192,192,80600,1,0,0:0:0:0:
320,192,80685,1,0,0:0:0:0:
192,192,80771,1,0,0:0:0:70:kick-a.wav
64,192,80771,1,0,0:0:0:0:
448,192,80857,1,0,0:0:0:70:snareclap.wav
320,192,81028,1,0,0:0:0:70:snareclap.wav
448,192,81028,1,0,0:0:0:0:
64,192,81114,1,0,0:0:0:70:kick-a.wav
192,192,81285,1,0,0:0:0:70:tok.wav
320,192,81285,1,0,0:0:0:0:
320,192,81542,1,0,0:0:0:70:tok.wav
192,192,81542,1,0,0:0:0:0:
64,192,81628,1,0,0:0:0:70:tok.wav
448,192,81628,1,0,0:0:0:0:
192,192,81800,1,0,0:0:0:70:tok.wav
320,192,81800,1,0,0:0:0:0:
192,192,81971,1,0,0:0:0:70:tok.wav
320,192,81971,1,0,0:0:0:0:
192,192,82142,128,0,82314:0:0:0:70:snare.wav
448,192,82314,128,0,82485:0:0:0:70:kick.wav
320,192,82485,1,0,0:0:0:70:tok.wav
64,192,82485,1,0,0:0:0:0:
320,192,82742,1,0,0:0:0:70:tok.wav
64,192,82742,1,0,0:0:0:0:
320,192,82914,1,0,0:0:0:70:tok.wav
64,192,82914,1,0,0:0:0:0:
320,192,83171,1,0,0:0:0:70:tok.wav
64,192,83171,1,0,0:0:0:0:
192,192,83514,1,0,0:0:0:70:tok.wav
448,192,83514,1,0,0:0:0:50:drum.wav
320,192,83600,1,0,0:0:0:50:drum.wav
448,192,83685,1,0,0:0:0:70:tok.wav
192,192,83685,1,0,0:0:0:50:drum.wav
192,192,83857,1,0,0:0:0:70:tok.wav
448,192,83857,1,0,0:0:0:50:drum.wav
320,192,83942,1,0,0:0:0:50:drum.wav
192,192,84028,1,0,0:0:0:50:drum.wav
320,192,84114,1,0,0:0:0:70:tok.wav
64,192,84114,1,0,0:0:0:0:
192,192,84285,1,0,0:0:0:70:tok.wav
448,192,84285,1,0,0:0:0:0:
320,192,84371,1,0,0:0:0:70:tok.wav
64,192,84371,1,0,0:0:0:0:
64,192,84542,1,0,0:0:0:70:tok.wav
320,192,84542,1,0,0:0:0:0:
320,192,84714,1,0,0:0:0:70:tok.wav
64,192,84714,1,0,0:0:0:0:
192,192,84800,1,0,0:0:0:70:tok.wav
64,192,84885,1,0,0:0:0:70:cymbal.wav
320,192,84885,128,0,85142:0:0:0:70:boom.wav
448,192,84885,128,0,85142:0:0:0:70:kick.wav
320,192,85228,1,0,0:0:0:70:tok.wav
448,192,85228,1,0,0:0:0:0:
320,192,85485,1,0,0:0:0:70:tok.wav
448,192,85485,1,0,0:0:0:0:
320,192,85657,1,0,0:0:0:70:tok.wav
448,192,85657,1,0,0:0:0:0:
320,192,85914,1,0,0:0:0:70:tok.wav
448,192,85914,1,0,0:0:0:0:
320,192,86257,1,0,0:0:0:70:snare.wav
448,192,86257,1,0,0:0:0:0:
64,192,86342,1,0,0:0:0:70:snare.wav
192,192,86342,1,0,0:0:0:0:
320,192,86514,1,0,0:0:0:70:snare.wav
448,192,86514,1,0,0:0:0:0:
192,192,86600,1,0,0:0:0:70:tok.wav
64,192,86600,1,0,0:0:0:0:
192,192,86857,1,0,0:0:0:70:tok.wav
320,192,86857,1,0,0:0:0:0:
192,192,87028,1,0,0:0:0:70:tok.wav
320,192,87028,1,0,0:0:0:0:
448,192,87114,1,0,0:0:0:70:tok.wav
64,192,87114,1,0,0:0:0:0:
192,192,87285,1,0,0:0:0:70:tok.wav
320,192,87285,1,0,0:0:0:0:
320,192,87457,1,0,0:0:0:50:drum.wav
64,192,87457,1,0,0:0:0:70:tok.wav
192,192,87542,1,0,0:0:0:50:drum.wav
448,192,87628,1,0,0:0:0:70:tok.wav
64,192,87628,1,0,0:0:0:50:drum.wav
64,192,87800,1,0,0:0:0:70:tok.wav
448,192,87800,1,0,0:0:0:0:
448,192,87971,1,0,0:0:0:70:tok.wav
64,192,87971,1,0,0:0:0:0:
64,192,88142,1,0,0:0:0:0:
192,192,88228,1,0,0:0:0:70:tok.wav
448,192,88228,1,0,0:0:0:0:
320,192,88400,1,0,0:0:0:70:tok.wav
64,192,88400,1,0,0:0:0:0:
192,192,88485,1,0,0:0:0:70:tok.wav
448,192,88485,1,0,0:0:0:0:
64,192,88657,1,0,0:0:0:70:tok.wav
448,192,88657,1,0,0:0:0:50:drum.wav
192,192,88742,1,0,0:0:0:50:drum.wav
320,192,88828,1,0,0:0:0:50:drum.wav
448,192,88914,1,0,0:0:0:50:drum.wav
192,192,89000,1,0,0:0:0:70:snareclap.wav
320,192,89171,1,0,0:0:0:70:kick-a.wav
192,192,89257,1,0,0:0:0:70:kick-a.wav
64,192,89342,1,0,0:0:0:70:snareclap.wav
192,192,89514,1,0,0:0:0:70:kick-a.wav
192,192,89685,1,0,0:0:0:70:kick-a.wav
320,192,89857,1,0,0:0:0:70:snareclap.wav
320,192,90028,1,0,0:0:0:70:snareclap.wav
448,192,90200,1,0,0:0:0:70:kick-a.wav
320,192,90285,1,0,0:0:0:70:kick-a.wav
448,192,90371,128,0,90628:0:0:0:70:cymbal.wav
64,192,90371,128,0,90628:0:0:0:70:kick.wav
192,192,90371,1,0,0:0:0:70:boom.wav
64,192,90714,1,0,0:0:0:70:tok.wav
448,192,90714,1,0,0:0:0:0:
64,192,90971,1,0,0:0:0:70:tok.wav
448,192,90971,1,0,0:0:0:0:
64,192,91142,1,0,0:0:0:70:tok.wav
448,192,91142,1,0,0:0:0:0:
448,192,91400,1,0,0:0:0:70:tok.wav
64,192,91400,1,0,0:0:0:0:
192,192,91485,1,0,0:0:0:0:
320,192,91571,1,0,0:0:0:0:
448,192,91657,1,0,0:0:0:0:
192,192,91742,1,0,0:0:0:70:kick-a.wav
64,192,91742,1,0,0:0:0:0:
320,192,91828,1,0,0:0:0:70:snareclap.wav
320,192,92000,1,0,0:0:0:70:snareclap.wav
448,192,92000,1,0,0:0:0:0:
192,192,92085,1,0,0:0:0:70:kick-a.wav
320,192,92257,1,0,0:0:0:70:tok.wav
64,192,92257,1,0,0:0:0:0:
320,192,92514,1,0,0:0:0:70:tok.wav
64,192,92514,1,0,0:0:0:0:
192,192,92600,1,0,0:0:0:70:tok.wav
448,192,92600,1,0,0:0:0:0:
64,192,92771,1,0,0:0:0:70:tok.wav
320,192,92771,1,0,0:0:0:0:
64,192,92942,1,0,0:0:0:70:tok.wav
320,192,92942,1,0,0:0:0:0:
320,192,93114,128,0,93285:0:0:0:70:snare.wav
64,192,93285,128,0,93457:0:0:0:70:kick.wav
192,192,93457,1,0,0:0:0:70:tok.wav
448,192,93457,1,0,0:0:0:0:
192,192,93714,1,0,0:0:0:70:tok.wav
448,192,93714,1,0,0:0:0:0:
448,192,93885,1,0,0:0:0:70:tok.wav
192,192,93885,1,0,0:0:0:0:
192,192,94142,1,0,0:0:0:70:tok.wav
448,192,94142,1,0,0:0:0:0:
320,192,94485,1,0,0:0:0:50:drum.wav
64,192,94485,1,0,0:0:0:70:tok.wav
192,192,94571,1,0,0:0:0:50:drum.wav
320,192,94657,1,0,0:0:0:50:drum.wav
64,192,94657,1,0,0:0:0:70:tok.wav
320,192,94828,1,0,0:0:0:70:tok.wav
64,192,94828,1,0,0:0:0:50:drum.wav
192,192,94914,1,0,0:0:0:50:drum.wav
320,192,95000,1,0,0:0:0:50:drum.wav
192,192,95085,1,0,0:0:0:70:tok.wav
448,192,95085,1,0,0:0:0:0:
64,192,95257,1,0,0:0:0:70:tok.wav
320,192,95257,1,0,0:0:0:0:
192,192,95342,1,0,0:0:0:70:tok.wav
448,192,95342,1,0,0:0:0:0:
448,192,95514,1,0,0:0:0:70:tok.wav
192,192,95514,1,0,0:0:0:0:
448,192,95685,1,0,0:0:0:70:tok.wav
192,192,95685,1,0,0:0:0:0:
320,192,95771,1,0,0:0:0:70:tok.wav
448,192,95857,1,0,0:0:0:70:cymbal.wav
192,192,95857,128,0,96114:0:0:0:70:kick.wav
64,192,95857,128,0,96114:0:0:0:70:boom.wav
320,192,96200,1,0,0:0:0:70:tok.wav
192,192,96200,1,0,0:0:0:0:
192,192,96457,1,0,0:0:0:70:tok.wav
320,192,96457,1,0,0:0:0:0:
192,192,96628,1,0,0:0:0:70:tok.wav
320,192,96628,1,0,0:0:0:0:
192,192,96885,1,0,0:0:0:70:tok.wav
320,192,96885,1,0,0:0:0:0:
448,192,96971,1,0,0:0:0:0:
320,192,97057,1,0,0:0:0:0:
448,192,97142,1,0,0:0:0:0:
192,192,97228,1,0,0:0:0:70:snare.wav
64,192,97228,1,0,0:0:0:0:
320,192,97314,1,0,0:0:0:70:snare.wav
192,192,97485,1,0,0:0:0:70:snare.wav
320,192,97571,1,0,0:0:0:70:tok.wav
448,192,97571,1,0,0:0:0:0:
320,192,97828,1,0,0:0:0:70:tok.wav
448,192,97828,1,0,0:0:0:0:
320,192,98000,1,0,0:0:0:70:tok.wav
448,192,98000,1,0,0:0:0:0:
192,192,98085,1,0,0:0:0:70:tok.wav
64,192,98085,1,0,0:0:0:0:
192,192,98257,1,0,0:0:0:70:tok.wav
320,192,98257,1,0,0:0:0:0:
64,192,98342,1,0,0:0:0:0:
192,192,98428,1,0,0:0:0:70:tok.wav
64,192,98514,1,0,0:0:0:0:
320,192,98600,1,0,0:0:0:50:drum.wav
448,192,98600,1,0,0:0:0:0:
192,192,98685,1,0,0:0:0:50:drum.wav
448,192,98771,1,0,0:0:0:50:drum.wav
320,192,98857,1,0,0:0:0:50:drum.wav
64,192,98942,1,0,0:0:0:50:drum.wav
192,192,98942,1,0,0:0:0:0:
320,192,99028,1,0,0:0:0:50:drum.wav
448,192,99114,1,0,0:0:0:50:drum.wav
192,192,99200,1,0,0:0:0:50:drum.wav
320,192,99285,1,0,0:0:0:50:drum.wav
448,192,99285,1,0,0:0:0:0:
64,192,99371,1,0,0:0:0:50:drum.wav
192,192,99457,1,0,0:0:0:50:drum.wav
320,192,99542,1,0,0:0:0:50:drum.wav
448,192,99628,1,0,0:0:0:50:drum.wav
64,192,99628,1,0,0:0:0:0:
320,192,99685,1,0,0:0:0:50:drum.wav
192,192,99742,1,0,0:0:0:50:drum.wav
64,192,99800,128,0,99971:0:0:0:50:drum.wav
448,192,99971,1,0,0:0:0:70:kick.wav
320,192,99971,1,0,0:0:0:70:cymbal.wav
192,192,101342,1,0,0:0:0:70:cymbal.wav
448,192,101342,1,0,0:0:0:70:kick.wav
320,192,101428,1,0,0:0:0:0:
64,192,101514,1,0,0:0:0:50:hihat.wav
320,192,101600,1,0,0:0:0:0:
64,192,101685,1,0,0:0:0:70:kick.wav
448,192,101685,1,0,0:0:0:0:
192,192,101771,1,0,0:0:0:0:
192,192,102028,1,0,0:0:0:70:kick.wav
448,192,102028,1,0,0:0:0:0:
64,192,102114,1,0,0:0:0:0:
320,192,102200,1,0,0:0:0:50:hihat.wav
192,192,102285,1,0,0:0:0:0:
448,192,102371,1,0,0:0:0:70:kick.wav
320,192,102371,1,0,0:0:0:0:
192,192,102457,1,0,0:0:0:0:
448,192,102542,1,0,0:0:0:50:hihat.wav
320,192,102628,1,0,0:0:0:0:
64,192,102714,1,0,0:0:0:70:kick.wav
192,192,102714,128,0,102800:0:0:0:0:
448,192,102800,128,0,102885:0:0:0:0:
64,192,102971,128,0,103057:0:0:0:0:
448,192,103057,1,0,0:0:0:0:
320,192,103057,128,0,103142:0:0:0:70:kick.wav
320,192,103228,1,0,0:0:0:50:hihat.wav
192,192,103314,1,0,0:0:0:0:
64,192,103400,1,0,0:0:0:70:kick.wav
448,192,103400,1,0,0:0:0:0:
320,192,103485,1,0,0:0:0:0:
192,192,103571,1,0,0:0:0:50:hihat.wav
448,192,103657,1,0,0:0:0:0:
64,192,103742,1,0,0:0:0:70:kick.wav
192,192,103742,1,0,0:0:0:0:
448,192,103828,1,0,0:0:0:0:
64,192,103914,1,0,0:0:0:50:hihat.wav
192,192,104000,1,0,0:0:0:0:
320,192,104085,1,0,0:0:0:70:kick.wav
448,192,104085,1,0,0:0:0:0:
64,192,104171,1,0,0:0:0:0:
320,192,104257,1,0,0:0:0:50:hihat.wav
64,192,104342,1,0,0:0:0:0:
192,192,104428,1,0,0:0:0:70:kick.wav
448,192,104428,1,0,0:0:0:0:
64,192,104514,1,0,0:0:0:0:
320,192,104771,1,0,0:0:0:70:kick.wav
64,192,104771,1,0,0:0:0:0:
192,192,104857,1,0,0:0:0:0:
320,192,104942,1,0,0:0:0:50:hihat.wav
192,192,105028,1,0,0:0:0:0:
320,192,105114,1,0,0:0:0:70:kick.wav
448,192,105114,1,0,0:0:0:0:
64,192,105200,1,0,0:0:0:0:
192,192,105285,1,0,0:0:0:50:hihat.wav
320,192,105371,1,0,0:0:0:0:
448,192,105457,1,0,0:0:0:0:
192,192,105457,128,0,105542:0:0:0:70:kick.wav
64,192,105542,128,0,105628:0:0:0:0:
448,192,105714,128,0,105800:0:0:0:0:
64,192,105800,1,0,0:0:0:0:
320,192,105800,128,0,105885:0:0:0:70:kick.wav
192,192,105971,1,0,0:0:0:50:hihat.wav
320,192,106057,1,0,0:0:0:0:
192,192,106142,1,0,0:0:0:70:kick.wav
64,192,106142,1,0,0:0:0:0:
320,192,106228,1,0,0:0:0:0:
64,192,106314,1,0,0:0:0:50:hihat.wav
192,192,106400,1,0,0:0:0:0:
320,192,106485,1,0,0:0:0:70:kick.wav
448,192,106485,1,0,0:0:0:0:
192,192,106571,1,0,0:0:0:0:
64,192,106657,1,0,0:0:0:50:hihat.wav
448,192,106742,1,0,0:0:0:0:
320,192,106828,1,0,0:0:0:70:kick.wav
64,192,106828,1,0,0:0:0:0:
448,192,106914,1,0,0:0:0:0:
192,192,107000,1,0,0:0:0:50:hihat.wav
320,192,107085,1,0,0:0:0:0:
192,192,107171,1,0,0:0:0:70:kick.wav
64,192,107171,1,0,0:0:0:0:
320,192,107257,1,0,0:0:0:0:
192,192,107514,1,0,0:0:0:70:kick.wav
448,192,107514,1,0,0:0:0:0:
64,192,107600,1,0,0:0:0:0:
320,192,107685,1,0,0:0:0:50:hihat.wav
448,192,107771,1,0,0:0:0:0:
192,192,107857,1,0,0:0:0:70:kick.wav
320,192,107857,1,0,0:0:0:0:
64,192,107942,1,0,0:0:0:0:
192,192,108028,1,0,0:0:0:50:hihat.wav
448,192,108114,1,0,0:0:0:0:
64,192,108200,1,0,0:0:0:0:
320,192,108200,128,0,108285:0:0:0:70:kick.wav
448,192,108285,128,0,108371:0:0:0:0:
64,192,108457,128,0,108542:0:0:0:0:
448,192,108542,1,0,0:0:0:0:
192,192,108542,128,0,108628:0:0:0:70:kick.wav
320,192,108714,1,0,0:0:0:50:hihat.wav
448,192,108800,1,0,0:0:0:0:
192,192,108885,1,0,0:0:0:70:kick.wav
64,192,108885,1,0,0:0:0:0:
320,192,108971,1,0,0:0:0:0:
64,192,109057,1,0,0:0:0:50:hihat.wav
192,192,109142,1,0,0:0:0:0:
320,192,109228,1,0,0:0:0:70:kick.wav
448,192,109228,1,0,0:0:0:0:
192,192,109314,1,0,0:0:0:0:
64,192,109400,1,0,0:0:0:50:hihat.wav
448,192,109485,1,0,0:0:0:0:
192,192,109571,1,0,0:0:0:70:kick.wav
320,192,109571,1,0,0:0:0:0:
448,192,109657,1,0,0:0:0:0:
64,192,109742,1,0,0:0:0:50:hihat.wav
192,192,109828,1,0,0:0:0:0:
64,192,109914,1,0,0:0:0:70:kick.wav
320,192,109914,1,0,0:0:0:0:
448,192,110000,1,0,0:0:0:0:
192,192,110257,1,0,0:0:0:70:kick.wav
64,192,110257,1,0,0:0:0:0:
448,192,110342,1,0,0:0:0:0:
192,192,110428,1,0,0:0:0:50:hihat.wav
448,192,110514,1,0,0:0:0:0:
320,192,110600,1,0,0:0:0:70:kick.wav
64,192,110600,1,0,0:0:0:0:
192,192,110685,1,0,0:0:0:0:
64,192,110771,1,0,0:0:0:50:hihat.wav
320,192,110857,1,0,0:0:0:0:
64,192,110942,1,0,0:0:0:70:kick.wav
192,192,110942,128,0,111028:0:0:0:0:
448,192,111028,128,0,111114:0:0:0:0:
64,192,111200,128,0,111285:0:0:0:0:
448,192,111285,1,0,0:0:0:0:
320,192,111285,128,0,111371:0:0:0:70:kick.wav
320,192,111457,1,0,0:0:0:50:hihat.wav
192,192,111542,1,0,0:0:0:0:
64,192,111628,1,0,0:0:0:70:kick.wav
448,192,111628,1,0,0:0:0:0:
320,192,111714,1,0,0:0:0:0:
448,192,111800,1,0,0:0:0:50:hihat.wav
192,192,111885,1,0,0:0:0:0:
320,192,111971,1,0,0:0:0:70:kick.wav
448,192,111971,1,0,0:0:0:0:
192,192,112057,1,0,0:0:0:0:
320,192,112142,1,0,0:0:0:50:hihat.wav
64,192,112228,1,0,0:0:0:0:
192,192,112314,1,0,0:0:0:70:kick.wav
448,192,112314,1,0,0:0:0:70:cymbal.wav
320,192,112400,1,0,0:0:0:0:
192,192,112485,1,0,0:0:0:50:hihat.wav
64,192,112571,1,0,0:0:0:0:
320,192,112657,1,0,0:0:0:70:kick.wav
448,192,112657,1,0,0:0:0:0:
192,192,112742,1,0,0:0:0:0:
192,192,113000,1,0,0:0:0:70:kick.wav
448,192,113000,1,0,0:0:0:0:
320,192,113085,1,0,0:0:0:0:
192,192,113171,1,0,0:0:0:50:hihat.wav
64,192,113257,1,0,0:0:0:0:
320,192,113342,1,0,0:0:0:70:kick.wav
448,192,113342,1,0,0:0:0:0:
192,192,113428,1,0,0:0:0:0:
448,192,113514,128,0,114971:0:0:0:50:hihat.wav
64,192,113600,1,0,0:0:0:0:
192,192,113685,1,0,0:0:0:70:kick.wav
320,192,113771,1,0,0:0:0:0:
192,192,113942,1,0,0:0:0:0:
64,192,114028,1,0,0:0:0:70:kick.wav
64,192,114200,1,0,0:0:0:50:hihat.wav
192,192,114285,1,0,0:0:0:0:
320,192,114371,1,0,0:0:0:70:kick.wav
192,192,114457,1,0,0:0:0:0:
64,192,114542,1,0,0:0:0:50:hihat.wav
320,192,114628,1,0,0:0:0:0:
192,192,114714,1,0,0:0:0:70:kick.wav
64,192,114800,1,0,0:0:0:0:
320,192,114885,1,0,0:0:0:50:hihat.wav
192,192,114971,1,0,0:0:0:0:
64,192,115057,1,0,0:0:0:70:kick.wav
448,192,115057,1,0,0:0:0:0:
320,192,115142,1,0,0:0:0:0:
448,192,115228,1,0,0:0:0:50:hihat.wav
64,192,115314,1,0,0:0:0:0:
192,192,115400,1,0,0:0:0:70:kick.wav
320,192,115400,1,0,0:0:0:0:
64,192,115485,1,0,0:0:0:0:
192,192,115742,1,0,0:0:0:70:kick.wav
448,192,115742,1,0,0:0:0:0:
320,192,115828,1,0,0:0:0:0:
64,192,115914,1,0,0:0:0:50:hihat.wav
192,192,116000,1,0,0:0:0:0:
320,192,116085,1,0,0:0:0:70:kick.wav
448,192,116085,1,0,0:0:0:0:
192,192,116171,1,0,0:0:0:0:
64,192,116257,128,0,117714:0:0:0:50:hihat.wav
448,192,116342,1,0,0:0:0:0:
192,192,116428,1,0,0:0:0:70:kick.wav
320,192,116514,1,0,0:0:0:0:
320,192,116685,1,0,0:0:0:0:
448,192,116771,1,0,0:0:0:70:kick.wav
448,192,116942,1,0,0:0:0:50:hihat.wav
320,192,117028,1,0,0:0:0:0:
192,192,117114,1,0,0:0:0:70:kick.wav
320,192,117200,1,0,0:0:0:0:
448,192,117285,1,0,0:0:0:50:hihat.wav
192,192,117371,1,0,0:0:0:0:
320,192,117457,1,0,0:0:0:70:kick.wav
448,192,117542,1,0,0:0:0:0:
192,192,117628,1,0,0:0:0:50:hihat.wav
320,192,117714,1,0,0:0:0:0:
64,192,117800,1,0,0:0:0:70:cymbal.wav
448,192,117800,128,0,118485:0:0:0:70:kick.wav
64,192,118485,1,0,0:0:0:0:
192,192,118657,1,0,0:0:0:50:hihat.wav
320,192,118828,1,0,0:0:0:0:
192,192,119000,128,0,119685:0:0:0:50:hihat.wav
448,192,119171,1,0,0:0:0:70:kick.wav
64,192,119171,1,0,0:0:0:70:cymbal.wav
448,192,119685,128,0,119857:0:0:0:70:kick.wav
64,192,119685,1,0,0:0:0:0:
320,192,120028,128,0,120542:0:0:0:0:
192,192,120028,128,0,120542:0:0:0:70:cymbal.wav
64,192,120542,1,0,0:0:0:70:cymbal.wav
448,192,120542,1,0,0:0:0:70:kick.wav
192,192,120628,1,0,0:0:0:0:
320,192,120714,1,0,0:0:0:0:
64,192,120800,1,0,0:0:0:0:
448,192,120885,1,0,0:0:0:0:
192,192,120971,1,0,0:0:0:0:
320,192,121057,1,0,0:0:0:0:
448,192,121142,1,0,0:0:0:0:
192,192,121228,1,0,0:0:0:70:cymbal.wav
64,192,121228,1,0,0:0:0:70:kick.wav
320,192,121314,1,0,0:0:0:0:
64,192,121400,1,0,0:0:0:0:
192,192,121485,1,0,0:0:0:0:
320,192,121571,1,0,0:0:0:0:
192,192,121657,1,0,0:0:0:0:
64,192,121742,1,0,0:0:0:70:kick.wav
448,192,121742,1,0,0:0:0:70:cymbal.wav
320,192,121828,1,0,0:0:0:0:
448,192,121914,1,0,0:0:0:50:drum.wav
192,192,122000,1,0,0:0:0:50:drum.wav
320,192,122085,1,0,0:0:0:50:drum.wav
192,192,122171,1,0,0:0:0:50:drum.wav
448,192,122257,1,0,0:0:0:50:drum.wav
320,192,122342,1,0,0:0:0:50:drum.wav
448,192,122428,1,0,0:0:0:50:drum.wav
64,192,122514,1,0,0:0:0:50:drum.wav
192,192,122600,1,0,0:0:0:50:drum.wav
64,192,122685,1,0,0:0:0:50:drum.wav
448,192,122771,1,0,0:0:0:50:drum.wav
320,192,122857,1,0,0:0:0:50:drum.wav
448,192,122942,1,0,0:0:0:50:drum.wav
64,192,123028,1,0,0:0:0:50:drum.wav
192,192,123114,1,0,0:0:0:50:drum.wav
320,192,123200,1,0,0:0:0:50:drum.wav
448,192,123285,1,0,0:0:0:70:cymbal.wav
64,192,123285,1,0,0:0:0:70:kick.wav
192,192,123371,1,0,0:0:0:0:
320,192,123457,1,0,0:0:0:50:hihat.wav
448,192,123542,1,0,0:0:0:0:
192,192,123628,1,0,0:0:0:70:kick.wav
64,192,123800,1,0,0:0:0:50:hihat.wav
192,192,123885,1,0,0:0:0:0:
320,192,123971,1,0,0:0:0:70:kick.wav
448,192,124057,1,0,0:0:0:0:
320,192,124142,1,0,0:0:0:50:hihat.wav
192,192,124228,1,0,0:0:0:0:
64,192,124314,1,0,0:0:0:70:kick.wav
64,192,124657,1,0,0:0:0:70:kick.wav
192,192,124742,1,0,0:0:0:0:
320,192,124828,1,0,0:0:0:50:hihat.wav
448,192,124914,1,0,0:0:0:0:
192,192,125000,1,0,0:0:0:70:kick.wav
64,192,125171,1,0,0:0:0:50:hihat.wav
192,192,125257,1,0,0:0:0:0:
320,192,125342,1,0,0:0:0:70:kick.wav
448,192,125428,1,0,0:0:0:0:
320,192,125514,1,0,0:0:0:50:hihat.wav
192,192,125600,1,0,0:0:0:0:
64,192,125685,1,0,0:0:0:70:kick.wav
64,192,126028,1,0,0:0:0:70:kick.wav
448,192,126028,1,0,0:0:0:0:
192,192,126114,1,0,0:0:0:0:
320,192,126200,1,0,0:0:0:50:hihat.wav
448,192,126285,1,0,0:0:0:0:
192,192,126371,1,0,0:0:0:70:kick.wav
64,192,126542,1,0,0:0:0:50:hihat.wav
448,192,126542,1,0,0:0:0:0:
192,192,126628,1,0,0:0:0:0:
320,192,126714,1,0,0:0:0:70:kick.wav
448,192,126800,1,0,0:0:0:0:
320,192,126885,1,0,0:0:0:50:hihat.wav
192,192,126971,1,0,0:0:0:0:
64,192,127057,1,0,0:0:0:70:kick.wav
448,192,127057,1,0,0:0:0:0:
64,192,127400,1,0,0:0:0:70:kick.wav
192,192,127485,1,0,0:0:0:0:
320,192,127571,1,0,0:0:0:50:hihat.wav
448,192,127571,1,0,0:0:0:0:
192,192,127657,1,0,0:0:0:0:
64,192,127742,1,0,0:0:0:70:kick.wav
448,192,127828,1,0,0:0:0:0:
320,192,127914,1,0,0:0:0:50:hihat.wav
448,192,128000,1,0,0:0:0:0:
192,192,128085,1,0,0:0:0:70:kick.wav
64,192,128085,1,0,0:0:0:0:
320,192,128171,1,0,0:0:0:0:
64,192,128257,1,0,0:0:0:50:hihat.wav
192,192,128342,1,0,0:0:0:0:
64,192,128428,1,0,0:0:0:70:kick.wav
448,192,128428,1,0,0:0:0:0:
320,192,128514,1,0,0:0:0:0:
192,192,128600,1,0,0:0:0:0:
320,192,128685,1,0,0:0:0:0:
448,192,128771,1,0,0:0:0:70:snare.wav
64,192,128771,1,0,0:0:0:70:cymbal.wav
192,192,128771,1,0,0:0:0:70:kick.wav
192,192,129114,1,0,0:0:0:70:snare.wav
64,192,129114,1,0,0:0:0:70:kick.wav
64,192,129371,1,0,0:0:0:70:snare.wav
192,192,129371,1,0,0:0:0:0:
448,192,129457,1,0,0:0:0:70:kick.wav
64,192,129628,1,0,0:0:0:70:snare.wav
192,192,129628,1,0,0:0:0:0:
192,192,129800,1,0,0:0:0:70:kick.wav
448,192,129800,1,0,0:0:0:0:
320,192,129971,1,0,0:0:0:70:snare.wav
64,192,129971,1,0,0:0:0:0:
320,192,130142,1,0,0:0:0:70:kick.wav
448,192,130142,1,0,0:0:0:70:cymbal.wav
320,192,130314,1,0,0:0:0:70:snare.wav
192,192,130314,1,0,0:0:0:0:
192,192,130485,1,0,0:0:0:70:kick.wav
64,192,130485,1,0,0:0:0:0:
192,192,130742,1,0,0:0:0:70:snare.wav
448,192,130742,1,0,0:0:0:0:
64,192,130828,1,0,0:0:0:70:kick.wav
448,192,130914,1,0,0:0:0:70:snare.wav
320,192,131000,1,0,0:0:0:70:snare.wav
64,192,131000,1,0,0:0:0:0:
448,192,131171,1,0,0:0:0:70:kick.wav
320,192,131171,1,0,0:0:0:0:
64,192,131342,1,0,0:0:0:70:snare.wav
192,192,131400,1,0,0:0:0:70:snare.wav
320,192,131457,1,0,0:0:0:70:snare.wav
448,192,131514,1,0,0:0:0:70:cymbal.wav
64,192,131514,1,0,0:0:0:50:drum.wav
320,192,131600,1,0,0:0:0:50:drum.wav
192,192,131685,1,0,0:0:0:50:drum.wav
64,192,131771,1,0,0:0:0:50:drum.wav
320,192,131857,1,0,0:0:0:50:drum.wav
448,192,131857,1,0,0:0:0:70:kick.wav
192,192,131942,1,0,0:0:0:50:drum.wav
448,192,132028,1,0,0:0:0:50:drum.wav
320,192,132114,1,0,0:0:0:50:drum.wav
192,192,132200,1,0,0:0:0:50:drum.wav
64,192,132200,1,0,0:0:0:70:kick.wav
320,192,132285,1,0,0:0:0:50:drum.wav
448,192,132371,1,0,0:0:0:50:drum.wav
192,192,132457,1,0,0:0:0:50:drum.wav
320,192,132542,1,0,0:0:0:50:drum.wav
448,192,132542,1,0,0:0:0:70:kick.wav
64,192,132628,1,0,0:0:0:50:drum.wav
192,192,132714,1,0,0:0:0:50:drum.wav
320,192,132800,1,0,0:0:0:50:drum.wav
448,192,132885,1,0,0:0:0:70:cymbal.wav
64,192,132885,1,0,0:0:0:70:kick.wav
192,192,132971,1,0,0:0:0:0:
64,192,133057,1,0,0:0:0:0:
192,192,133142,1,0,0:0:0:0:
448,192,133228,1,0,0:0:0:0:
64,192,133314,1,0,0:0:0:0:
320,192,133400,1,0,0:0:0:0:
448,192,133485,1,0,0:0:0:0:
320,192,133571,1,0,0:0:0:0:
448,192,133657,1,0,0:0:0:0:
192,192,133742,1,0,0:0:0:0:
64,192,133828,1,0,0:0:0:0:
320,192,133914,1,0,0:0:0:0:
192,192,134000,1,0,0:0:0:0:
448,192,134085,1,0,0:0:0:0:
320,192,134171,1,0,0:0:0:0:
192,192,134257,128,0,137000:0:0:0:70:cymbal.wav
64,192,134257,128,0,137000:0:0:0:70:kick.wav
320,192,137000,1,0,0:0:0:0:
448,192,137514,1,0,0:0:0:0:
192,192,138028,1,0,0:0:0:0:
320,192,138542,1,0,0:0:0:0:
64,192,139057,1,0,0:0:0:0:
64,192,139400,1,0,0:0:0:0:
448,192,139742,1,0,0:0:0:0:
