osu file format v14

[General]
AudioFilename: Singularity.mp3
AudioLeadIn: 0
PreviewTime: 78028
Countdown: 0
SampleSet: Soft
StackLeniency: 0.7
Mode: 3
LetterboxInBreaks: 0
EpilepsyWarning: 1
SpecialStyle: 0
WidescreenStoryboard: 1

[Editor]
DistanceSpacing: 0.8
BeatDivisor: 4
GridSize: 4
TimelineZoom: 2.336877

[Metadata]
Title:Singularity
TitleUnicode:Singularity
Artist:ETIA.
ArtistUnicode:ETIA.
Creator:Kuo Kyoka
Version:Awaken
Source:Arcaea
Tags:lowiro Eto Luna World Conflict Infomorph Binary Enfold UK Hardcore Video Game Instrumental Groove Coaster Critical_Star Akasha SaltedFISSH Raytoly Rhytoly
BeatmapID:2409886
BeatmapSetID:1154702

[Difficulty]
HPDrainRate:8.5
CircleSize:4
OverallDifficulty:8.3
ApproachRate:5
SliderMultiplier:1.4
SliderTickRate:1

[Events]
//Background and Video events
0,0,"Singularity.jpg",0,0
//Break Periods
//Storyboard Layer 0 (Background)
//Storyboard Layer 1 (Fail)
//Storyboard Layer 2 (Pass)
//Storyboard Layer 3 (Foreground)
Sprite,Foreground,Centre,"BG_Conflict_A.jpg",320,240 S,0,89000,,0.85 F,0,89000,90371,1
Sprite,Foreground,Centre,"BG_Conflict_A.jpg",320,240 S,0,99971,,0.85 F,0,99971,101342,1
Sprite,Foreground,Centre,"BG_Wind.jpg",320,240 M,0,89000,,320,240 S,0,89000,,0.85 F,0,89000,89171,1,0 M,0,89342,,320,240 S,0,89342,,0.85 F,0,89342,89513,1,0 M,0,89857,,320,240 S,0,89857,,0.85 F,0,89857,90028,1,0 M,0,90028,,320,240 S,0,90028,,0.85 F,0,90028,90199,1,0
Sprite,Foreground,Centre,"BG_Wind.jpg",320,240 L,0,8 F,0,101000,101042,1,0 S,0,101000,,0.85
Sprite,Foreground,Centre,"BG_Blur.jpg",320,240 S,0,117800,,0.85 F,0,117800,123285,0,1
Sprite,Foreground,Centre,"Luna_A.png",320,240 L,0,3 M,0,101342,104084,465,455,465,460 M,0,104084,106826,465,460,465,455 M,0,106826,109568,465,455,465,450 M,0,109568,112310,465,450,465,455 S,0,79400,,0.85 M,0,79400,82142,595,455,595,460 M,0,82142,84884,595,460,595,455 M,0,84884,87626,595,455,595,450 M,0,87626,90368,595,450,595,455 M,0,90368,93110,595,455,595,460 M,0,93110,95852,595,460,595,455 M,0,95852,98594,595,455,595,450 M,0,98594,99800,595,450,595,452.4 M,0,99800,99971,595,452.2,465,452.5 M,0,99971,101342,465,452.5,465,455 F,0,133914,134257,1,0
//Storyboard Layer 4 (Overlay)
Sprite,Overlay,Centre,"BG_Conflict_A.jpg",320,240 S,0,-2885,,0.85 F,0,77857,78028,0,1 F,0,78028,79228,1 F,0,79228,79400,1,0
Sprite,Overlay,Centre,"Luna_A.png",320,240 M,0,77857,78028,595,395,595,455 F,0,77857,78029,0,1 S,0,78028,,0.85 M,0,78028,79400,595,455
Sprite,Overlay,Centre,"iyc.png",320,240 S,0,77857,,0.75 M,0,77857,78028,310,240,160,240 F,0,77857,78028,0,1 M,0,78028,79228,160,240,155,240 F,0,78028,79228,1 M,0,79228,79400,155,240,5,240 F,0,79228,79400,1,0
Sprite,Overlay,Centre,"mouth.png",320,240 F,0,78028,78114,0,1 F,0,78114,78200,1,0 M,0,78542,,552.5,166 S,0,78542,,0.7
Sprite,Overlay,Centre,"mouth1.png",320,240 M,0,78200,,552.5,166 S,0,78200,,0.7 F,0,78200,78371,0,1 F,0,78371,,1 R,0,78371,,-0.35 F,0,78371,78542,1,0
Sprite,Overlay,Centre,"mouth.png",320,240 M,0,78542,,552.5,166 S,0,78542,,0.7 F,0,78542,78714,0,1 F,0,78714,79057,1,0
Sprite,Overlay,Centre,"white.png",320,240 F,0,99971,101000,1,0 S,0,99971,,1.4
//Storyboard Sound Samples
Sample,9628,0,"drum.wav",50
Sample,9971,0,"drum.wav",50
Sample,10314,0,"drum.wav",50
Sample,10657,0,"hihat.wav",50
Sample,11000,0,"hihat.wav",50
Sample,11342,0,"hihat.wav",50
Sample,11685,0,"hihat.wav",50
Sample,12028,0,"hihat.wav",50
Sample,21800,0,"kick.wav",70
Sample,22485,0,"cymbal.wav",70
Sample,23171,0,"kick.wav",70
Sample,25057,0,"hihat.wav",50
Sample,26085,0,"hihat.wav",50
Sample,27800,0,"hihat.wav",50
Sample,28828,0,"hihat.wav",50
Sample,30542,0,"hihat.wav",50
Sample,31571,0,"hihat.wav",50
Sample,33285,0,"hihat.wav",50
Sample,34314,0,"hihat.wav",50
Sample,36028,0,"hihat.wav",50
Sample,37057,0,"hihat.wav",50
Sample,38771,0,"hihat.wav",50
Sample,39800,0,"hihat.wav",50
Sample,41514,0,"hihat.wav",50
Sample,45114,0,"kick.wav",70
Sample,69628,0,"hihat.wav",50
Sample,71000,0,"hihat.wav",50
Sample,72371,0,"hihat.wav",50
Sample,76657,0,"cymbal.wav",70
Sample,77000,0,"cymbal.wav",70
Sample,77342,0,"cymbal.wav",70
Sample,77685,0,"cymbal.wav",70
Sample,101857,0,"hihat.wav",50
Sample,102885,0,"hihat.wav",50
Sample,104600,0,"hihat.wav",50
Sample,105628,0,"hihat.wav",50
Sample,107342,0,"hihat.wav",50
Sample,108371,0,"hihat.wav",50
Sample,110085,0,"hihat.wav",50
Sample,111114,0,"hihat.wav",50
Sample,112828,0,"hihat.wav",50
Sample,113857,0,"hihat.wav",50
Sample,115571,0,"hihat.wav",50
Sample,116600,0,"hihat.wav",50
Sample,117971,0,"hihat.wav",50
Sample,118314,0,"hihat.wav",50
Sample,119342,0,"hihat.wav",50
Sample,131514,0,"kick.wav",70
Sample,132200,0,"cymbal.wav",70
Sample,134257,0,"boom.wav",70

[TimingPoints]
2600,342.857142857143,4,2,1,30,1,0
14600,-35.7142857142857,4,2,1,30,0,0
14642,-250,4,2,1,30,0,0
14900,-35.7142857142857,4,2,1,30,0,0
14942,-100,4,2,1,30,0,0
15971,-35.7142857142857,4,2,1,30,0,0
16013,-250,4,2,1,30,0,0
16271,-35.7142857142857,4,2,1,30,0,0
16313,-100,4,2,1,30,0,0
17342,-35.7142857142857,4,2,1,30,0,0
17384,-250,4,2,1,30,0,0
17642,-35.7142857142857,4,2,1,30,0,0
17684,-100,4,2,1,30,0,0
69457,-35.7142857142857,4,2,1,30,0,0
69499,-250,4,2,1,30,0,0
69757,-35.7142857142857,4,2,1,30,0,0
69799,-100,4,2,1,30,0,0
70828,-35.7142857142857,4,2,1,30,0,0
70870,-250,4,2,1,30,0,0
71128,-35.7142857142857,4,2,1,30,0,0
71170,-100,4,2,1,30,0,0
72200,-35.7142857142857,4,2,1,30,0,0
72242,-250,4,2,1,30,0,0
72500,-35.7142857142857,4,2,1,30,0,0
72542,-100,4,2,1,30,0,0
78028,-10000,4,2,1,30,0,0
79228,-100,4,2,1,30,0,0
79400,-28.169014084507,4,2,1,30,0,1
79485,-666.666666666667,4,2,1,30,0,1
79742,-100,4,2,1,30,0,1
84542,-57.1428571428571,4,2,1,30,0,0
84585,-400,4,2,1,30,0,0
84628,-57.1428571428571,4,2,1,30,0,0
84671,-400,4,2,1,30,0,0
84714,-57.1428571428571,4,2,1,30,0,0
84757,-400,4,2,1,30,0,0
84800,-57.1428571428571,4,2,1,30,0,0
84843,-400,4,2,1,30,0,0
84885,-28.169014084507,4,2,1,30,0,1
84970,-666.666666666667,4,2,1,30,0,1
85227,-100,4,2,1,30,0,1
86257,-59.8802395209581,4,2,1,30,0,1
86300,-303.030303030303,4,2,1,30,0,1
86342,-59.8802395209581,4,2,1,30,0,1
86428,-303.030303030303,4,2,1,30,0,1
86514,-59.8802395209581,4,2,1,30,0,1
86557,-303.030303030303,4,2,1,30,0,1
86600,-100,4,2,1,30,0,1
89000,-27.027027027027,4,2,1,30,0,0
89021,-1000,4,2,1,30,0,0
89085,-100,4,2,1,30,0,0
89342,-27.027027027027,4,2,1,30,0,0
89363,-1000,4,2,1,30,0,0
89427,-100,4,2,1,30,0,0
89857,-27.027027027027,4,2,1,30,0,0
89878,-1000,4,2,1,30,0,0
89942,-100,4,2,1,30,0,0
90028,-27.027027027027,4,2,1,30,0,0
90049,-1000,4,2,1,30,0,0
90113,-100,4,2,1,30,0,0
90371,-28.169014084507,4,2,1,30,0,1
90456,-666.666666666667,4,2,1,30,0,1
90713,-100,4,2,1,30,0,1
95514,-57.1428571428571,4,2,1,30,0,0
95557,-400,4,2,1,30,0,0
95600,-57.1428571428571,4,2,1,30,0,0
95643,-400,4,2,1,30,0,0
95686,-57.1428571428571,4,2,1,30,0,0
95729,-400,4,2,1,30,0,0
95772,-57.1428571428571,4,2,1,30,0,0
95815,-400,4,2,1,30,0,0
95857,-28.169014084507,4,2,1,30,0,1
95942,-666.666666666667,4,2,1,30,0,1
96199,-100,4,2,1,30,0,1
96885,-57.1428571428571,4,2,1,30,0,1
96928,-400,4,2,1,30,0,1
96971,-57.1428571428571,4,2,1,30,0,1
97014,-400,4,2,1,30,0,1
97057,-57.1428571428571,4,2,1,30,0,1
97100,-400,4,2,1,30,0,1
97143,-57.1428571428571,4,2,1,30,0,1
97186,-400,4,2,1,30,0,1
97228,-59.8802395209581,4,2,1,30,0,1
97271,-303.030303030303,4,2,1,30,0,1
97313,-59.8802395209581,4,2,1,30,0,1
97399,-303.030303030303,4,2,1,30,0,1
97485,-59.8802395209581,4,2,1,30,0,1
97528,-303.030303030303,4,2,1,30,0,1
97571,-100,4,2,1,30,0,1
99971,-303.030303030303,4,2,1,30,0,0
101000,-32.258064516129,4,2,1,30,0,0
101021,-333.333333333333,4,2,1,30,0,0
101085,-32.258064516129,4,2,1,30,0,0
101106,-333.333333333333,4,2,1,30,0,0
101171,-32.258064516129,4,2,1,30,0,0
101192,-333.333333333333,4,2,1,30,0,0
101257,-32.258064516129,4,2,1,30,0,0
101278,-333.333333333333,4,2,1,30,0,0
101342,-100,4,2,1,30,0,1
117800,-100,4,2,1,30,0,0
121742,-100,4,2,1,30,0,1
123285,-100,4,2,1,30,0,0
124314,-35.7142857142857,4,2,1,30,0,0
124356,-250,4,2,1,30,0,0
124614,-35.7142857142857,4,2,1,30,0,0
124656,-100,4,2,1,30,0,0
125685,-35.7142857142857,4,2,1,30,0,0
125727,-250,4,2,1,30,0,0
125985,-35.7142857142857,4,2,1,30,0,0
126027,-100,4,2,1,30,0,0
127057,-35.7142857142857,4,2,1,30,0,0
127099,-250,4,2,1,30,0,0
127357,-35.7142857142857,4,2,1,30,0,0
127399,-100,4,2,1,30,0,0

[HitObjects]
320,192,2599,128,0,6200:0:0:0:70:kick.wav
448,192,2599,128,0,7228:0:0:0:70:cymbal.wav
192,192,2942,1,0,0:0:0:70:clap.wav
64,192,2942,1,0,0:0:0:0:
192,192,3628,1,0,0:0:0:70:clap.wav
64,192,3628,1,0,0:0:0:0:
192,192,4314,1,0,0:0:0:70:clap.wav
64,192,4314,1,0,0:0:0:0:
192,192,5000,1,0,0:0:0:70:clap.wav
64,192,5000,1,0,0:0:0:0:
192,192,5342,128,0,5685:0:0:0:0:
64,192,5685,1,0,0:0:0:70:clap.wav
64,192,5857,128,0,6200:0:0:0:0:
192,192,6371,1,0,0:0:0:70:clap.wav
320,192,6371,128,0,6714:0:0:0:0:
192,192,6885,128,0,7228:0:0:0:0:
320,192,7057,1,0,0:0:0:70:clap.wav
64,192,7400,128,0,8085:0:0:0:0:
448,192,7742,1,0,0:0:0:70:clap.wav
192,192,7742,128,0,8085:0:0:0:0:
320,192,8085,1,0,0:0:0:70:kick.wav
448,192,8085,1,0,0:0:0:0:
64,192,8171,1,0,0:0:0:0:
192,192,8257,1,0,0:0:0:50:hihat.wav
320,192,8342,1,0,0:0:0:0:
192,192,8428,1,0,0:0:0:70:kick.wav
448,192,8428,1,0,0:0:0:0:
64,192,8514,1,0,0:0:0:0:
320,192,8600,1,0,0:0:0:50:hihat.wav
192,192,8685,1,0,0:0:0:0:
320,192,8771,1,0,0:0:0:70:kick.wav
448,192,8771,1,0,0:0:0:0:
192,192,8857,1,0,0:0:0:0:
448,192,8942,1,0,0:0:0:50:hihat.wav
320,192,9028,1,0,0:0:0:0:
192,192,9114,1,0,0:0:0:70:kick.wav
64,192,9114,1,0,0:0:0:0:
320,192,9200,1,0,0:0:0:0:
448,192,9285,1,0,0:0:0:50:hihat.wav
192,192,9371,1,0,0:0:0:0:
320,192,9457,1,0,0:0:0:70:kick.wav
448,192,9457,1,0,0:0:0:50:drum.wav
64,192,9542,1,0,0:0:0:50:drum.wav
192,192,9628,1,0,0:0:0:50:hihat.wav
320,192,9714,1,0,0:0:0:0:
192,192,9800,1,0,0:0:0:70:kick.wav
448,192,9800,1,0,0:0:0:50:drum.wav
64,192,9885,1,0,0:0:0:50:drum.wav
320,192,9971,1,0,0:0:0:50:hihat.wav
448,192,10057,1,0,0:0:0:0:
320,192,10142,1,0,0:0:0:70:kick.wav
192,192,10142,1,0,0:0:0:50:drum.wav
448,192,10228,1,0,0:0:0:50:drum.wav
64,192,10314,1,0,0:0:0:50:hihat.wav
192,192,10400,1,0,0:0:0:0:
320,192,10485,1,0,0:0:0:50:drum.wav
64,192,10485,1,0,0:0:0:70:kick.wav
448,192,10571,1,0,0:0:0:50:drum.wav
192,192,10657,1,0,0:0:0:50:drum.wav
64,192,10742,1,0,0:0:0:0:
192,192,10828,1,0,0:0:0:50:drum.wav
320,192,10828,1,0,0:0:0:70:kick.wav
64,192,10914,1,0,0:0:0:50:drum.wav
448,192,11000,1,0,0:0:0:50:drum.wav
192,192,11085,1,0,0:0:0:0:
320,192,11171,1,0,0:0:0:70:kick.wav
64,192,11171,1,0,0:0:0:50:drum.wav
448,192,11257,1,0,0:0:0:50:drum.wav
64,192,11342,1,0,0:0:0:50:drum.wav
192,192,11428,1,0,0:0:0:0:
320,192,11514,1,0,0:0:0:50:drum.wav
64,192,11514,1,0,0:0:0:70:kick.wav
448,192,11600,1,0,0:0:0:50:drum.wav
192,192,11685,1,0,0:0:0:50:drum.wav
64,192,11771,1,0,0:0:0:0:
320,192,11857,1,0,0:0:0:50:drum.wav
448,192,11857,1,0,0:0:0:70:kick.wav
192,192,11942,1,0,0:0:0:50:drum.wav
320,192,12028,1,0,0:0:0:50:drum.wav
192,192,12114,1,0,0:0:0:0:
320,192,12200,128,0,12714:0:0:0:0:
448,192,12371,128,0,12885:0:0:0:0:
64,192,12714,128,0,13228:0:0:0:0:
192,192,12885,128,0,13228:0:0:0:0:
448,192,13228,1,0,0:0:0:50:drum.wav
320,192,13228,1,0,0:0:0:0:
192,192,13314,1,0,0:0:0:50:drum.wav
64,192,13314,1,0,0:0:0:0:
320,192,13485,1,0,0:0:0:50:drum.wav
448,192,13485,1,0,0:0:0:0:
192,192,13571,1,0,0:0:0:70:cymbal.wav
64,192,13571,1,0,0:0:0:70:kick.wav
448,192,13657,1,0,0:0:0:0:
192,192,13742,1,0,0:0:0:50:hihat.wav
448,192,13828,1,0,0:0:0:0:
320,192,13914,1,0,0:0:0:70:kick.wav
64,192,13914,1,0,0:0:0:0:
192,192,14000,1,0,0:0:0:0:
320,192,14085,1,0,0:0:0:50:hihat.wav
192,192,14171,1,0,0:0:0:0:
64,192,14257,1,0,0:0:0:70:kick.wav
448,192,14257,1,0,0:0:0:0:
320,192,14342,1,0,0:0:0:0:
64,192,14428,1,0,0:0:0:50:hihat.wav
320,192,14514,1,0,0:0:0:0:
192,192,14600,1,0,0:0:0:70:kick.wav
448,192,14600,1,0,0:0:0:0:
192,192,14942,1,0,0:0:0:70:kick.wav
64,192,14942,1,0,0:0:0:0:
448,192,15028,1,0,0:0:0:0:
192,192,15114,1,0,0:0:0:50:hihat.wav
448,192,15200,1,0,0:0:0:0:
320,192,15285,1,0,0:0:0:70:kick.wav
64,192,15285,1,0,0:0:0:0:
192,192,15371,1,0,0:0:0:0:
320,192,15457,1,0,0:0:0:50:hihat.wav
192,192,15542,1,0,0:0:0:0:
64,192,15628,1,0,0:0:0:70:kick.wav
448,192,15628,1,0,0:0:0:0:
320,192,15714,1,0,0:0:0:0:
64,192,15800,1,0,0:0:0:50:hihat.wav
320,192,15885,1,0,0:0:0:0:
192,192,15971,1,0,0:0:0:70:kick.wav
448,192,15971,1,0,0:0:0:0:
64,192,16314,1,0,0:0:0:70:kick.wav
192,192,16314,1,0,0:0:0:0:
448,192,16400,1,0,0:0:0:0:
192,192,16485,1,0,0:0:0:50:hihat.wav
448,192,16571,1,0,0:0:0:0:
64,192,16657,1,0,0:0:0:70:kick.wav
320,192,16657,1,0,0:0:0:0:
192,192,16742,1,0,0:0:0:0:
320,192,16828,1,0,0:0:0:50:hihat.wav
192,192,16914,1,0,0:0:0:0:
448,192,17000,1,0,0:0:0:70:kick.wav
64,192,17000,1,0,0:0:0:0:
320,192,17085,1,0,0:0:0:0:
64,192,17171,1,0,0:0:0:50:hihat.wav
320,192,17257,1,0,0:0:0:0:
448,192,17342,1,0,0:0:0:70:kick.wav
192,192,17342,1,0,0:0:0:0:
192,192,17685,1,0,0:0:0:70:kick.wav
64,192,17685,1,0,0:0:0:0:
448,192,17771,1,0,0:0:0:0:
320,192,17857,1,0,0:0:0:50:hihat.wav
192,192,17942,1,0,0:0:0:0:
320,192,18028,1,0,0:0:0:70:kick.wav
64,192,18028,1,0,0:0:0:0:
448,192,18114,1,0,0:0:0:0:
192,192,18200,1,0,0:0:0:50:hihat.wav
320,192,18285,1,0,0:0:0:0:
192,192,18371,1,0,0:0:0:70:kick.wav
64,192,18371,1,0,0:0:0:0:
320,192,18457,1,0,0:0:0:0:
64,192,18542,1,0,0:0:0:50:hihat.wav
192,192,18628,1,0,0:0:0:0:
320,192,18714,1,0,0:0:0:70:kick.wav
64,192,18714,1,0,0:0:0:0:
448,192,18800,1,0,0:0:0:0:
320,192,18885,1,0,0:0:0:0:
192,192,18971,1,0,0:0:0:0:
448,192,19057,1,0,0:0:0:70:snare.wav
64,192,19057,1,0,0:0:0:70:cymbal.wav
320,192,19057,1,0,0:0:0:70:kick.wav
64,192,19400,1,0,0:0:0:70:snare.wav
192,192,19400,1,0,0:0:0:70:kick.wav
192,192,19657,1,0,0:0:0:70:snare.wav
64,192,19657,1,0,0:0:0:0:
320,192,19742,1,0,0:0:0:70:kick.wav
448,192,19742,1,0,0:0:0:0:
320,192,19914,1,0,0:0:0:70:snare.wav
448,192,19914,1,0,0:0:0:0:
320,192,20085,1,0,0:0:0:70:kick.wav
64,192,20085,1,0,0:0:0:0:
192,192,20257,1,0,0:0:0:70:snare.wav
448,192,20257,1,0,0:0:0:0:
192,192,20428,1,0,0:0:0:70:kick.wav
64,192,20428,1,0,0:0:0:70:cymbal.wav
448,192,20428,1,0,0:0:0:0:
192,192,20600,1,0,0:0:0:70:snare.wav
320,192,20600,1,0,0:0:0:0:
448,192,20771,1,0,0:0:0:70:kick.wav
320,192,20771,1,0,0:0:0:0:
448,192,20942,1,0,0:0:0:0:
320,192,21028,1,0,0:0:0:70:snare.wav
64,192,21028,1,0,0:0:0:0:
448,192,21114,1,0,0:0:0:70:kick.wav
320,192,21200,1,0,0:0:0:70:snare.wav
192,192,21200,1,0,0:0:0:0:
448,192,21285,1,0,0:0:0:70:snare.wav
64,192,21285,1,0,0:0:0:0:
192,192,21457,1,0,0:0:0:70:kick.wav
64,192,21457,1,0,0:0:0:0:
448,192,21628,1,0,0:0:0:70:snare.wav
320,192,21685,1,0,0:0:0:70:snare.wav
192,192,21742,1,0,0:0:0:70:snare.wav
448,192,21800,1,0,0:0:0:70:cymbal.wav
64,192,21800,1,0,0:0:0:50:drum.wav
192,192,21885,1,0,0:0:0:50:drum.wav
320,192,21971,1,0,0:0:0:50:drum.wav
448,192,21971,1,0,0:0:0:0:
192,192,22057,1,0,0:0:0:50:drum.wav
64,192,22142,1,0,0:0:0:50:drum.wav
448,192,22142,1,0,0:0:0:70:kick.wav
320,192,22228,1,0,0:0:0:50:drum.wav
192,192,22314,1,0,0:0:0:50:drum.wav
64,192,22314,1,0,0:0:0:0:
320,192,22400,1,0,0:0:0:50:drum.wav
448,192,22485,1,0,0:0:0:50:drum.wav
64,192,22485,1,0,0:0:0:70:kick.wav
64,192,22571,1,0,0:0:0:50:drum.wav
448,192,22657,1,0,0:0:0:50:drum.wav
320,192,22714,1,0,0:0:0:50:drum.wav
192,192,22771,1,0,0:0:0:50:drum.wav
64,192,22828,1,0,0:0:0:50:drum.wav
448,192,22828,1,0,0:0:0:70:kick.wav
448,192,22914,1,0,0:0:0:50:drum.wav
320,192,23000,1,0,0:0:0:50:drum.wav
64,192,23042,1,0,0:0:0:50:drum.wav
192,192,23085,1,0,0:0:0:50:drum.wav
320,192,23128,1,0,0:0:0:50:drum.wav
448,192,23171,1,0,0:0:0:70:cymbal.wav
64,192,23171,1,0,0:0:0:50:drum.wav
320,192,23228,1,0,0:0:0:50:drum.wav
192,192,23285,1,0,0:0:0:50:drum.wav
448,192,23342,1,0,0:0:0:50:drum.wav
64,192,23342,1,0,0:0:0:0:
448,192,23428,1,0,0:0:0:50:drum.wav
64,192,23514,1,0,0:0:0:50:drum.wav
192,192,23571,1,0,0:0:0:50:drum.wav
320,192,23628,1,0,0:0:0:50:drum.wav
448,192,23685,1,0,0:0:0:50:drum.wav
64,192,23685,1,0,0:0:0:0:
64,192,23771,1,0,0:0:0:50:drum.wav
448,192,23857,1,0,0:0:0:50:drum.wav
320,192,23914,1,0,0:0:0:50:drum.wav
192,192,23971,1,0,0:0:0:50:drum.wav
448,192,24028,1,0,0:0:0:50:drum.wav
64,192,24028,1,0,0:0:0:0:
448,192,24114,1,0,0:0:0:50:drum.wav
64,192,24200,1,0,0:0:0:50:drum.wav
192,192,24242,1,0,0:0:0:50:drum.wav
320,192,24285,1,0,0:0:0:50:drum.wav
448,192,24328,1,0,0:0:0:50:drum.wav
64,192,24371,1,0,0:0:0:50:drum.wav
192,192,24414,1,0,0:0:0:50:drum.wav
320,192,24457,1,0,0:0:0:50:drum.wav
448,192,24500,1,0,0:0:0:50:drum.wav
192,192,24542,1,0,0:0:0:70:cymbal.wav
64,192,24542,1,0,0:0:0:70:kick.wav
320,192,24628,1,0,0:0:0:0:
192,192,24714,1,0,0:0:0:50:hihat.wav
320,192,24800,1,0,0:0:0:0:
64,192,24885,1,0,0:0:0:70:kick.wav
192,192,24885,1,0,0:0:0:0:
320,192,24971,128,0,25142:0:0:0:0:
320,192,25228,1,0,0:0:0:70:kick.wav
448,192,25228,1,0,0:0:0:0:
64,192,25314,1,0,0:0:0:0:
192,192,25400,1,0,0:0:0:50:hihat.wav
320,192,25485,1,0,0:0:0:0:
448,192,25571,1,0,0:0:0:70:kick.wav
192,192,25571,1,0,0:0:0:0:
64,192,25657,1,0,0:0:0:0:
320,192,25742,1,0,0:0:0:50:hihat.wav
192,192,25828,1,0,0:0:0:0:
64,192,25914,1,0,0:0:0:0:
320,192,25914,128,0,26000:0:0:0:70:kick.wav
448,192,26000,128,0,26085:0:0:0:0:
64,192,26171,128,0,26257:0:0:0:0:
448,192,26257,1,0,0:0:0:0:
192,192,26257,128,0,26342:0:0:0:70:kick.wav
320,192,26428,1,0,0:0:0:50:hihat.wav
192,192,26514,1,0,0:0:0:0:
64,192,26600,1,0,0:0:0:70:kick.wav
320,192,26600,1,0,0:0:0:0:
448,192,26685,1,0,0:0:0:0:
192,192,26771,1,0,0:0:0:50:hihat.wav
320,192,26857,1,0,0:0:0:0:
192,192,26942,1,0,0:0:0:70:kick.wav
64,192,26942,1,0,0:0:0:0:
320,192,27028,1,0,0:0:0:0:
64,192,27114,1,0,0:0:0:50:hihat.wav
192,192,27200,1,0,0:0:0:0:
320,192,27285,1,0,0:0:0:70:kick.wav
64,192,27285,1,0,0:0:0:0:
448,192,27371,1,0,0:0:0:0:
320,192,27457,1,0,0:0:0:50:hihat.wav
448,192,27542,1,0,0:0:0:0:
192,192,27628,1,0,0:0:0:70:kick.wav
64,192,27628,1,0,0:0:0:0:
320,192,27714,128,0,27885:0:0:0:0:
320,192,27971,1,0,0:0:0:70:kick.wav
192,192,27971,1,0,0:0:0:0:
64,192,28057,1,0,0:0:0:0:
320,192,28142,1,0,0:0:0:50:hihat.wav
448,192,28228,1,0,0:0:0:0:
192,192,28314,1,0,0:0:0:70:kick.wav
64,192,28314,1,0,0:0:0:0:
320,192,28400,1,0,0:0:0:0:
64,192,28485,1,0,0:0:0:50:hihat.wav
192,192,28571,1,0,0:0:0:0:
448,192,28657,1,0,0:0:0:0:
320,192,28657,128,0,28742:0:0:0:70:kick.wav
64,192,28742,128,0,28828:0:0:0:0:
448,192,28914,128,0,29000:0:0:0:0:
64,192,29000,1,0,0:0:0:0:
192,192,29000,128,0,29085:0:0:0:70:kick.wav
192,192,29171,1,0,0:0:0:50:hihat.wav
320,192,29257,1,0,0:0:0:0:
192,192,29342,1,0,0:0:0:70:kick.wav
64,192,29342,1,0,0:0:0:0:
320,192,29428,1,0,0:0:0:0:
64,192,29514,1,0,0:0:0:50:hihat.wav
192,192,29600,1,0,0:0:0:0:
320,192,29685,1,0,0:0:0:70:kick.wav
64,192,29685,1,0,0:0:0:0:
448,192,29771,1,0,0:0:0:0:
320,192,29857,1,0,0:0:0:50:hihat.wav
192,192,29942,1,0,0:0:0:0:
64,192,30028,1,0,0:0:0:70:kick.wav
448,192,30028,1,0,0:0:0:0:
320,192,30114,1,0,0:0:0:0:
448,192,30200,1,0,0:0:0:50:hihat.wav
192,192,30285,1,0,0:0:0:0:
64,192,30371,1,0,0:0:0:70:kick.wav
320,192,30371,1,0,0:0:0:0:
192,192,30457,128,0,30628:0:0:0:0:
192,192,30714,1,0,0:0:0:70:kick.wav
448,192,30714,1,0,0:0:0:0:
320,192,30800,1,0,0:0:0:0:
448,192,30885,1,0,0:0:0:50:hihat.wav
64,192,30971,1,0,0:0:0:0:
192,192,31057,1,0,0:0:0:70:kick.wav
448,192,31057,1,0,0:0:0:0:
320,192,31142,1,0,0:0:0:0:
192,192,31228,1,0,0:0:0:50:hihat.wav
64,192,31314,1,0,0:0:0:0:
448,192,31400,1,0,0:0:0:0:
320,192,31400,128,0,31485:0:0:0:70:kick.wav
192,192,31485,128,0,31571:0:0:0:0:
320,192,31657,128,0,31742:0:0:0:0:
64,192,31742,1,0,0:0:0:0:
192,192,31742,128,0,31828:0:0:0:70:kick.wav
192,192,31914,1,0,0:0:0:50:hihat.wav
64,192,32000,1,0,0:0:0:0:
320,192,32085,1,0,0:0:0:70:kick.wav
448,192,32085,1,0,0:0:0:0:
192,192,32171,1,0,0:0:0:0:
448,192,32257,1,0,0:0:0:50:hihat.wav
320,192,32342,1,0,0:0:0:0:
192,192,32428,1,0,0:0:0:70:kick.wav
64,192,32428,1,0,0:0:0:0:
448,192,32514,1,0,0:0:0:0:
320,192,32600,1,0,0:0:0:50:hihat.wav
192,192,32685,1,0,0:0:0:0:
64,192,32771,1,0,0:0:0:70:kick.wav
448,192,32771,1,0,0:0:0:0:
320,192,32857,1,0,0:0:0:0:
448,192,32942,1,0,0:0:0:50:hihat.wav
64,192,33028,1,0,0:0:0:0:
320,192,33114,1,0,0:0:0:70:kick.wav
192,192,33114,1,0,0:0:0:0:
64,192,33200,128,0,33371:0:0:0:0:
64,192,33457,1,0,0:0:0:70:kick.wav
320,192,33457,1,0,0:0:0:0:
448,192,33542,1,0,0:0:0:0:
192,192,33628,1,0,0:0:0:50:hihat.wav
448,192,33714,1,0,0:0:0:0:
192,192,33800,1,0,0:0:0:70:kick.wav
320,192,33800,1,0,0:0:0:0:
64,192,33885,1,0,0:0:0:0:
192,192,33971,1,0,0:0:0:50:hihat.wav
64,192,34057,1,0,0:0:0:0:
448,192,34142,1,0,0:0:0:0:
320,192,34142,128,0,34228:0:0:0:70:kick.wav
64,192,34228,128,0,34314:0:0:0:0:
448,192,34400,128,0,34485:0:0:0:0:
64,192,34485,1,0,0:0:0:70:kick.wav
192,192,34485,128,0,34571:0:0:0:0:
448,192,34657,1,0,0:0:0:50:hihat.wav
320,192,34742,1,0,0:0:0:0:
192,192,34828,1,0,0:0:0:70:kick.wav
64,192,34828,1,0,0:0:0:0:
448,192,34914,1,0,0:0:0:0:
320,192,35000,1,0,0:0:0:50:hihat.wav
192,192,35085,1,0,0:0:0:0:
64,192,35171,1,0,0:0:0:70:kick.wav
320,192,35171,1,0,0:0:0:0:
448,192,35257,1,0,0:0:0:0:
64,192,35342,1,0,0:0:0:50:hihat.wav
192,192,35428,1,0,0:0:0:0:
320,192,35514,1,0,0:0:0:70:cymbal.wav
64,192,35514,1,0,0:0:0:70:kick.wav
448,192,35600,1,0,0:0:0:0:
192,192,35685,1,0,0:0:0:50:hihat.wav
64,192,35771,1,0,0:0:0:0:
320,192,35857,1,0,0:0:0:70:kick.wav
448,192,35857,1,0,0:0:0:0:
192,192,35942,128,0,36114:0:0:0:0:
192,192,36200,1,0,0:0:0:70:kick.wav
64,192,36200,1,0,0:0:0:0:
448,192,36285,1,0,0:0:0:0:
320,192,36371,1,0,0:0:0:50:hihat.wav
192,192,36457,1,0,0:0:0:0:
64,192,36542,1,0,0:0:0:70:kick.wav
320,192,36542,1,0,0:0:0:0:
448,192,36628,1,0,0:0:0:0:
64,192,36714,1,0,0:0:0:50:hihat.wav
192,192,36800,1,0,0:0:0:0:
448,192,36885,1,0,0:0:0:0:
320,192,36885,128,0,36971:0:0:0:70:kick.wav
64,192,36971,128,0,37057:0:0:0:0:
192,192,37142,128,0,37228:0:0:0:0:
64,192,37228,1,0,0:0:0:0:
448,192,37228,128,0,37314:0:0:0:70:kick.wav
192,192,37400,1,0,0:0:0:50:hihat.wav
64,192,37485,1,0,0:0:0:0:
320,192,37571,1,0,0:0:0:70:kick.wav
448,192,37571,1,0,0:0:0:0:
192,192,37657,1,0,0:0:0:0:
448,192,37742,1,0,0:0:0:50:hihat.wav
320,192,37828,1,0,0:0:0:0:
64,192,37914,1,0,0:0:0:70:kick.wav
192,192,37914,1,0,0:0:0:0:
320,192,38000,1,0,0:0:0:0:
448,192,38085,1,0,0:0:0:50:hihat.wav
64,192,38171,1,0,0:0:0:0:
192,192,38257,1,0,0:0:0:70:kick.wav
448,192,38257,1,0,0:0:0:0:
320,192,38342,1,0,0:0:0:0:
192,192,38428,1,0,0:0:0:50:hihat.wav
64,192,38514,1,0,0:0:0:0:
320,192,38600,1,0,0:0:0:70:kick.wav
448,192,38600,1,0,0:0:0:0:
192,192,38685,128,0,38857:0:0:0:0:
192,192,38942,1,0,0:0:0:70:kick.wav
64,192,38942,1,0,0:0:0:0:
448,192,39028,1,0,0:0:0:0:
192,192,39114,1,0,0:0:0:50:hihat.wav
448,192,39200,1,0,0:0:0:0:
320,192,39285,1,0,0:0:0:70:kick.wav
64,192,39285,1,0,0:0:0:0:
192,192,39371,1,0,0:0:0:0:
64,192,39457,1,0,0:0:0:50:hihat.wav
320,192,39542,1,0,0:0:0:0:
448,192,39628,1,0,0:0:0:70:kick.wav
192,192,39628,128,0,39714:0:0:0:0:
320,192,39714,128,0,39800:0:0:0:0:
192,192,39885,128,0,39971:0:0:0:0:
64,192,39971,1,0,0:0:0:0:
320,192,39971,128,0,40057:0:0:0:70:kick.wav
448,192,40142,1,0,0:0:0:50:hihat.wav
192,192,40228,1,0,0:0:0:0:
320,192,40314,1,0,0:0:0:70:kick.wav
64,192,40314,1,0,0:0:0:0:
448,192,40400,1,0,0:0:0:0:
64,192,40485,1,0,0:0:0:50:hihat.wav
192,192,40571,1,0,0:0:0:0:
320,192,40657,1,0,0:0:0:70:kick.wav
448,192,40657,1,0,0:0:0:0:
64,192,40742,1,0,0:0:0:0:
192,192,40828,1,0,0:0:0:50:hihat.wav
320,192,40914,1,0,0:0:0:0:
448,192,41000,1,0,0:0:0:70:kick.wav
64,192,41000,1,0,0:0:0:0:
192,192,41085,1,0,0:0:0:0:
320,192,41171,1,0,0:0:0:50:hihat.wav
192,192,41257,1,0,0:0:0:0:
64,192,41342,1,0,0:0:0:70:kick.wav
320,192,41342,1,0,0:0:0:0:
448,192,41428,128,0,41600:0:0:0:0:
192,192,41685,1,0,0:0:0:70:kick.wav
448,192,41685,1,0,0:0:0:0:
320,192,41771,1,0,0:0:0:0:
192,192,41857,1,0,0:0:0:50:hihat.wav
64,192,41942,1,0,0:0:0:0:
320,192,42028,1,0,0:0:0:70:kick.wav
448,192,42028,1,0,0:0:0:0:
192,192,42114,1,0,0:0:0:0:
448,192,42200,1,0,0:0:0:50:hihat.wav
320,192,42285,1,0,0:0:0:0:
192,192,42371,1,0,0:0:0:70:kick.wav
64,192,42371,1,0,0:0:0:0:
320,192,42457,1,0,0:0:0:0:
448,192,42542,1,0,0:0:0:50:hihat.wav
192,192,42628,1,0,0:0:0:0:
320,192,42714,1,0,0:0:0:70:kick.wav
448,192,42714,1,0,0:0:0:0:
64,192,42800,1,0,0:0:0:0:
192,192,42885,1,0,0:0:0:50:hihat.wav
320,192,42971,1,0,0:0:0:0:
192,192,43057,1,0,0:0:0:70:kick.wav
448,192,43057,1,0,0:0:0:0:
64,192,43142,1,0,0:0:0:0:
320,192,43228,1,0,0:0:0:50:hihat.wav
192,192,43314,1,0,0:0:0:0:
320,192,43400,1,0,0:0:0:70:kick.wav
448,192,43400,1,0,0:0:0:0:
192,192,43485,1,0,0:0:0:0:
448,192,43571,1,0,0:0:0:50:hihat.wav
320,192,43657,1,0,0:0:0:0:
192,192,43742,1,0,0:0:0:70:kick.wav
64,192,43742,1,0,0:0:0:0:
448,192,43828,1,0,0:0:0:0:
320,192,43914,1,0,0:0:0:50:hihat.wav
64,192,43914,1,0,0:0:0:0:
192,192,44000,1,0,0:0:0:0:
64,192,44085,1,0,0:0:0:70:kick.wav
448,192,44085,1,0,0:0:0:0:
320,192,44171,1,0,0:0:0:0:
192,192,44257,1,0,0:0:0:50:hihat.wav
64,192,44257,1,0,0:0:0:0:
320,192,44342,1,0,0:0:0:0:
448,192,44428,1,0,0:0:0:70:kick.wav
64,192,44428,1,0,0:0:0:0:
192,192,44514,1,0,0:0:0:0:
448,192,44600,1,0,0:0:0:50:hihat.wav
320,192,44600,1,0,0:0:0:0:
192,192,44685,1,0,0:0:0:0:
64,192,44771,1,0,0:0:0:70:kick.wav
448,192,44771,1,0,0:0:0:0:
320,192,44857,1,0,0:0:0:0:
64,192,44942,1,0,0:0:0:50:hihat.wav
192,192,44942,1,0,0:0:0:0:
320,192,45028,1,0,0:0:0:0:
448,192,45114,1,0,0:0:0:70:cymbal.wav
64,192,45114,1,0,0:0:0:50:drum.wav
320,192,45171,1,0,0:0:0:50:drum.wav
192,192,45228,1,0,0:0:0:50:drum.wav
448,192,45285,1,0,0:0:0:50:drum.wav
64,192,45285,1,0,0:0:0:0:
448,192,45371,1,0,0:0:0:50:drum.wav
64,192,45457,1,0,0:0:0:50:drum.wav
192,192,45514,1,0,0:0:0:50:drum.wav
320,192,45571,1,0,0:0:0:50:drum.wav
448,192,45628,1,0,0:0:0:50:drum.wav
64,192,45628,1,0,0:0:0:0:
64,192,45714,1,0,0:0:0:50:drum.wav
448,192,45800,1,0,0:0:0:50:drum.wav
320,192,45857,1,0,0:0:0:50:drum.wav
192,192,45914,1,0,0:0:0:50:drum.wav
448,192,45971,1,0,0:0:0:50:drum.wav
64,192,45971,1,0,0:0:0:0:
448,192,46057,1,0,0:0:0:50:drum.wav
64,192,46142,1,0,0:0:0:50:drum.wav
192,192,46185,1,0,0:0:0:50:drum.wav
448,192,46228,1,0,0:0:0:50:drum.wav
320,192,46271,1,0,0:0:0:50:drum.wav
64,192,46314,1,0,0:0:0:50:drum.wav
192,192,46357,1,0,0:0:0:50:drum.wav
448,192,46400,1,0,0:0:0:50:drum.wav
320,192,46442,1,0,0:0:0:50:drum.wav
192,192,46485,128,0,48885:0:0:0:70:cymbal.wav
64,192,46485,128,0,49057:0:0:0:70:kick.wav
320,192,49057,128,0,49228:0:0:0:0:
448,192,49057,128,0,51971:0:0:0:0:
320,192,49571,128,0,49742:0:0:0:0:
320,192,50085,128,0,50257:0:0:0:0:
320,192,50600,128,0,50771:0:0:0:0:
320,192,51114,128,0,51285:0:0:0:0:
320,192,51628,128,0,51800:0:0:0:0:
64,192,51971,128,0,57371:0:0:0:0:
192,192,53171,128,0,57371:0:0:0:0:
448,192,54542,128,0,57371:0:0:0:0:
320,192,55914,128,0,57371:0:0:0:0:
320,192,57457,1,0,0:0:0:50:cymbal.wav
64,192,57457,128,0,57542:0:0:0:50:kick-a.wav
448,192,57500,1,0,0:0:0:0:
64,192,57800,128,0,57885:0:0:0:50:kick-a.wav
320,192,57800,1,0,0:0:0:0:
448,192,57842,1,0,0:0:0:0:
192,192,58142,1,0,0:0:0:50:snareclap.wav
320,192,58185,1,0,0:0:0:0:
448,192,58485,128,0,58571:0:0:0:0:
192,192,58657,128,0,58742:0:0:0:50:kick.wav
64,192,58657,1,0,0:0:0:0:
192,192,59000,128,0,59085:0:0:0:0:
448,192,59514,128,0,59600:0:0:0:50:snareclap.wav
64,192,59514,1,0,0:0:0:0:
192,192,59557,1,0,0:0:0:0:
320,192,59685,128,0,59771:0:0:0:0:
192,192,59857,128,0,59942:0:0:0:0:
448,192,60028,1,0,0:0:0:50:kick.wav
64,192,60028,128,0,60114:0:0:0:0:
64,192,60371,128,0,60457:0:0:0:0:
320,192,60542,1,0,0:0:0:50:kick-a.wav
64,192,60885,1,0,0:0:0:50:snareclap.wav
448,192,61400,1,0,0:0:0:50:kick.wav
448,192,61914,1,0,0:0:0:50:kick.wav
64,192,62257,1,0,0:0:0:50:snareclap.wav
192,192,62942,1,0,0:0:0:0:
448,192,62942,128,0,63028:0:0:0:0:
64,192,62985,1,0,0:0:0:0:
192,192,63285,1,0,0:0:0:50:kick-a.wav
448,192,63285,128,0,63371:0:0:0:0:
64,192,63328,1,0,0:0:0:0:
192,192,63628,128,0,63714:0:0:0:50:snareclap.wav
448,192,63628,1,0,0:0:0:0:
64,192,63800,128,0,63885:0:0:0:0:
320,192,63928,1,0,0:0:0:0:
448,192,63971,128,0,64057:0:0:0:0:
320,192,64142,128,0,64228:0:0:0:50:kick.wav
64,192,64142,1,0,0:0:0:0:
320,192,64485,128,0,64571:0:0:0:0:
64,192,64657,1,0,0:0:0:50:kick-a.wav
192,192,64828,128,0,64914:0:0:0:0:
448,192,65000,1,0,0:0:0:50:snareclap.wav
64,192,65171,128,0,65257:0:0:0:0:
448,192,65342,1,0,0:0:0:50:kick-a.wav
64,192,65514,128,0,65600:0:0:0:0:
448,192,65685,128,0,65771:0:0:0:50:kick.wav
320,192,65685,1,0,0:0:0:0:
192,192,65857,1,0,0:0:0:0:
320,192,66028,1,0,0:0:0:50:kick-a.wav
192,192,66200,1,0,0:0:0:0:
320,192,66371,1,0,0:0:0:50:snareclap.wav
192,192,66542,1,0,0:0:0:0:
320,192,66714,1,0,0:0:0:0:
448,192,66842,1,0,0:0:0:0:
192,192,66885,128,0,67142:0:0:0:50:kick-a.wav
320,192,67057,1,0,0:0:0:70:cymbal.wav
64,192,67057,1,0,0:0:0:70:kick.wav
448,192,67057,1,0,0:0:0:0:
192,192,67228,128,0,67400:0:0:0:0:
448,192,67400,1,0,0:0:0:70:kick-a.wav
448,192,67571,1,0,0:0:0:70:kick-a.wav
192,192,67571,128,0,67657:0:0:0:0:
320,192,67742,1,0,0:0:0:70:snareclap.wav
64,192,67742,1,0,0:0:0:0:
448,192,67914,1,0,0:0:0:70:kick-a.wav
448,192,68085,1,0,0:0:0:70:kick-a.wav
64,192,68257,1,0,0:0:0:70:snareclap.wav
320,192,68257,1,0,0:0:0:0:
64,192,68428,1,0,0:0:0:70:cymbal.wav
448,192,68428,1,0,0:0:0:70:snare.wav
320,192,68428,1,0,0:0:0:0:
192,192,68514,1,0,0:0:0:0:
320,192,68600,1,0,0:0:0:50:hihat.wav
448,192,68685,1,0,0:0:0:0:
192,192,68771,1,0,0:0:0:70:snare.wav
64,192,68771,1,0,0:0:0:0:
320,192,68857,1,0,0:0:0:0:
64,192,68942,1,0,0:0:0:50:hihat.wav
192,192,69028,1,0,0:0:0:0:
320,192,69114,1,0,0:0:0:70:snare.wav
64,192,69114,1,0,0:0:0:0:
448,192,69200,1,0,0:0:0:0:
320,192,69285,1,0,0:0:0:50:hihat.wav
192,192,69371,1,0,0:0:0:0:
64,192,69457,1,0,0:0:0:70:snare.wav
448,192,69457,1,0,0:0:0:0:
448,192,69800,1,0,0:0:0:70:snare.wav
64,192,69800,1,0,0:0:0:0:
192,192,69885,1,0,0:0:0:0:
320,192,69971,1,0,0:0:0:50:hihat.wav
448,192,70057,1,0,0:0:0:0:
64,192,70142,1,0,0:0:0:70:snare.wav
192,192,70142,1,0,0:0:0:0:
320,192,70228,1,0,0:0:0:0:
64,192,70314,1,0,0:0:0:50:hihat.wav
192,192,70400,1,0,0:0:0:0:
64,192,70485,1,0,0:0:0:70:snare.wav
320,192,70485,1,0,0:0:0:0:
448,192,70571,1,0,0:0:0:0:
320,192,70657,1,0,0:0:0:50:hihat.wav
192,192,70742,1,0,0:0:0:0:
448,192,70828,1,0,0:0:0:70:snare.wav
64,192,70828,1,0,0:0:0:0:
64,192,71171,1,0,0:0:0:70:snare.wav
448,192,71171,1,0,0:0:0:0:
192,192,71257,1,0,0:0:0:0:
320,192,71342,1,0,0:0:0:50:hihat.wav
448,192,71428,1,0,0:0:0:0:
192,192,71514,1,0,0:0:0:70:snare.wav
64,192,71514,1,0,0:0:0:0:
320,192,71600,1,0,0:0:0:0:
64,192,71685,1,0,0:0:0:50:hihat.wav
192,192,71771,1,0,0:0:0:0:
320,192,71857,1,0,0:0:0:70:snare.wav
64,192,71857,1,0,0:0:0:0:
448,192,71942,1,0,0:0:0:0:
320,192,72028,1,0,0:0:0:50:hihat.wav
192,192,72114,1,0,0:0:0:0:
64,192,72200,1,0,0:0:0:70:snare.wav
448,192,72200,1,0,0:0:0:0:
448,192,72542,1,0,0:0:0:70:snare.wav
64,192,72542,1,0,0:0:0:0:
320,192,72628,1,0,0:0:0:0:
192,192,72714,1,0,0:0:0:50:hihat.wav
320,192,72800,1,0,0:0:0:0:
64,192,72885,1,0,0:0:0:70:snare.wav
448,192,72885,1,0,0:0:0:0:
192,192,72971,1,0,0:0:0:0:
320,192,73057,1,0,0:0:0:50:hihat.wav
192,192,73142,1,0,0:0:0:0:
320,192,73228,1,0,0:0:0:70:snare.wav
64,192,73228,1,0,0:0:0:0:
448,192,73314,1,0,0:0:0:0:
64,192,73400,1,0,0:0:0:50:hihat.wav
192,192,73485,1,0,0:0:0:0:
320,192,73571,1,0,0:0:0:70:snare.wav
64,192,73571,1,0,0:0:0:0:
448,192,73657,1,0,0:0:0:0:
320,192,73742,1,0,0:0:0:50:hihat.wav
192,192,73828,1,0,0:0:0:0:
448,192,73914,1,0,0:0:0:70:kick.wav
320,192,73914,1,0,0:0:0:70:cymbal.wav
64,192,73914,1,0,0:0:0:70:snare.wav
320,192,74257,1,0,0:0:0:70:snare.wav
448,192,74257,1,0,0:0:0:70:kick.wav
320,192,74514,1,0,0:0:0:70:snare.wav
448,192,74514,1,0,0:0:0:0:
192,192,74600,1,0,0:0:0:70:kick.wav
64,192,74600,1,0,0:0:0:0:
64,192,74771,1,0,0:0:0:70:snare.wav
192,192,74771,1,0,0:0:0:0:
192,192,74942,1,0,0:0:0:70:kick.wav
448,192,74942,1,0,0:0:0:0:
320,192,75114,1,0,0:0:0:70:snare.wav
64,192,75114,1,0,0:0:0:0:
320,192,75285,1,0,0:0:0:70:cymbal.wav
448,192,75285,1,0,0:0:0:70:kick.wav
64,192,75285,1,0,0:0:0:0:
320,192,75457,1,0,0:0:0:70:snare.wav
192,192,75457,1,0,0:0:0:0:
192,192,75628,1,0,0:0:0:70:kick.wav
64,192,75628,1,0,0:0:0:0:
448,192,75800,1,0,0:0:0:0:
320,192,75885,1,0,0:0:0:70:snare.wav
64,192,75885,1,0,0:0:0:0:
448,192,75971,1,0,0:0:0:70:kick.wav
192,192,75971,1,0,0:0:0:70:cymbal.wav
64,192,76057,1,0,0:0:0:70:snare.wav
448,192,76142,1,0,0:0:0:70:snare.wav
320,192,76142,1,0,0:0:0:0:
192,192,76314,1,0,0:0:0:70:kick.wav
64,192,76314,1,0,0:0:0:0:
448,192,76485,1,0,0:0:0:70:snare.wav
320,192,76542,1,0,0:0:0:70:snare.wav
192,192,76600,1,0,0:0:0:70:snare.wav
64,192,76657,1,0,0:0:0:70:kick.wav
448,192,76657,1,0,0:0:0:50:drum.wav
448,192,76742,1,0,0:0:0:50:drum.wav
192,192,76828,1,0,0:0:0:50:drum.wav
320,192,76914,1,0,0:0:0:50:drum.wav
448,192,77000,1,0,0:0:0:70:kick.wav
64,192,77000,1,0,0:0:0:50:drum.wav
64,192,77085,1,0,0:0:0:50:drum.wav
320,192,77171,1,0,0:0:0:50:drum.wav
192,192,77257,1,0,0:0:0:50:drum.wav
64,192,77342,1,0,0:0:0:70:kick.wav
448,192,77342,1,0,0:0:0:50:drum.wav
448,192,77428,1,0,0:0:0:50:drum.wav
64,192,77514,1,0,0:0:0:50:drum.wav
192,192,77571,1,0,0:0:0:50:drum.wav
320,192,77628,1,0,0:0:0:50:drum.wav
448,192,77685,1,0,0:0:0:70:kick.wav
64,192,77685,1,0,0:0:0:50:drum.wav
64,192,77771,1,0,0:0:0:50:drum.wav
448,192,77857,1,0,0:0:0:50:drum.wav
320,192,77900,1,0,0:0:0:50:drum.wav
192,192,77942,1,0,0:0:0:50:drum.wav
64,192,77985,1,0,0:0:0:50:drum.wav
448,192,79400,1,0,0:0:0:70:boom.wav
320,192,79400,1,0,0:0:0:70:cymbal.wav
192,192,79400,1,0,0:0:0:70:kick.wav
64,192,79400,1,0,0:0:0:0:
192,192,79742,1,0,0:0:0:70:tok.wav
320,192,79742,1,0,0:0:0:0:
448,192,79742,1,0,0:0:0:0:
448,192,80000,1,0,0:0:0:70:tok.wav
320,192,80000,1,0,0:0:0:0:
192,192,80000,1,0,0:0:0:0:
192,192,80171,1,0,0:0:0:70:tok.wav
320,192,80171,1,0,0:0:0:0:
448,192,80171,1,0,0:0:0:0:
192,192,80428,1,0,0:0:0:70:tok.wav
320,192,80428,1,0,0:0:0:0:
448,192,80428,1,0,0:0:0:0:
64,192,80514,1,0,0:0:0:0:
192,192,80600,1,0,0:0:0:0:
64,192,80685,1,0,0:0:0:0:
320,192,80771,1,0,0:0:0:70:kick-a.wav
448,192,80771,1,0,0:0:0:0:
192,192,80857,1,0,0:0:0:70:snareclap.wav
64,192,80857,1,0,0:0:0:0:
448,192,81028,1,0,0:0:0:70:snareclap.wav
192,192,81028,1,0,0:0:0:0:
320,192,81114,1,0,0:0:0:70:kick-a.wav
64,192,81114,1,0,0:0:0:0:
192,192,81285,1,0,0:0:0:70:tok.wav
320,192,81285,1,0,0:0:0:0:
448,192,81285,1,0,0:0:0:0:
320,192,81542,1,0,0:0:0:70:tok.wav
448,192,81542,1,0,0:0:0:0:
192,192,81542,1,0,0:0:0:0:
192,192,81628,1,0,0:0:0:70:tok.wav
448,192,81628,1,0,0:0:0:0:
320,192,81628,1,0,0:0:0:0:
192,192,81800,1,0,0:0:0:70:tok.wav
320,192,81800,1,0,0:0:0:0:
448,192,81800,1,0,0:0:0:0:
448,192,81971,1,0,0:0:0:70:tok.wav
320,192,81971,1,0,0:0:0:0:
192,192,81971,1,0,0:0:0:0:
64,192,82142,128,0,82228:0:0:0:70:snare.wav
192,192,82142,128,0,82228:0:0:0:70:cymbal.wav
320,192,82314,128,0,82400:0:0:0:70:kick.wav
448,192,82314,128,0,82400:0:0:0:0:
320,192,82485,1,0,0:0:0:70:tok.wav
192,192,82485,1,0,0:0:0:0:
64,192,82485,1,0,0:0:0:0:
320,192,82742,1,0,0:0:0:70:tok.wav
192,192,82742,1,0,0:0:0:0:
64,192,82742,1,0,0:0:0:0:
320,192,82914,1,0,0:0:0:70:tok.wav
64,192,82914,1,0,0:0:0:0:
192,192,82914,1,0,0:0:0:0:
64,192,83171,1,0,0:0:0:70:tok.wav
192,192,83171,1,0,0:0:0:0:
320,192,83171,1,0,0:0:0:0:
320,192,83342,128,0,83514:0:0:0:0:
64,192,83514,1,0,0:0:0:50:drum.wav
448,192,83514,1,0,0:0:0:70:tok.wav
192,192,83557,1,0,0:0:0:50:drum.wav
320,192,83600,1,0,0:0:0:50:drum.wav
448,192,83642,1,0,0:0:0:50:drum.wav
192,192,83685,1,0,0:0:0:70:tok.wav
64,192,83685,1,0,0:0:0:0:
448,192,83857,1,0,0:0:0:70:tok.wav
64,192,83857,1,0,0:0:0:50:drum.wav
192,192,83900,1,0,0:0:0:50:drum.wav
320,192,83942,1,0,0:0:0:50:drum.wav
448,192,83985,1,0,0:0:0:50:drum.wav
192,192,84028,1,0,0:0:0:0:
64,192,84114,1,0,0:0:0:70:tok.wav
320,192,84114,1,0,0:0:0:0:
448,192,84114,1,0,0:0:0:0:
320,192,84285,1,0,0:0:0:70:tok.wav
448,192,84285,1,0,0:0:0:0:
64,192,84285,1,0,0:0:0:0:
320,192,84371,1,0,0:0:0:70:tok.wav
64,192,84371,1,0,0:0:0:0:
448,192,84371,1,0,0:0:0:0:
448,192,84542,1,0,0:0:0:70:tok.wav
320,192,84542,1,0,0:0:0:0:
64,192,84542,1,0,0:0:0:0:
192,192,84628,1,0,0:0:0:0:
320,192,84714,1,0,0:0:0:70:tok.wav
64,192,84714,1,0,0:0:0:0:
448,192,84714,1,0,0:0:0:0:
192,192,84800,1,0,0:0:0:70:tok.wav
64,192,84885,1,0,0:0:0:70:cymbal.wav
320,192,84885,1,0,0:0:0:70:boom.wav
448,192,84885,1,0,0:0:0:70:kick.wav
192,192,85228,1,0,0:0:0:70:tok.wav
64,192,85228,1,0,0:0:0:0:
448,192,85228,1,0,0:0:0:0:
64,192,85485,1,0,0:0:0:70:tok.wav
448,192,85485,1,0,0:0:0:0:
192,192,85485,1,0,0:0:0:0:
64,192,85657,1,0,0:0:0:70:tok.wav
192,192,85657,1,0,0:0:0:0:
448,192,85657,1,0,0:0:0:0:
192,192,85914,1,0,0:0:0:70:tok.wav
64,192,85914,1,0,0:0:0:0:
448,192,85914,1,0,0:0:0:0:
320,192,86000,1,0,0:0:0:0:
192,192,86085,1,0,0:0:0:0:
320,192,86171,1,0,0:0:0:0:
192,192,86257,1,0,0:0:0:70:snare.wav
64,192,86257,1,0,0:0:0:0:
320,192,86342,1,0,0:0:0:70:snare.wav
448,192,86342,1,0,0:0:0:0:
64,192,86514,1,0,0:0:0:70:snare.wav
320,192,86514,1,0,0:0:0:0:
320,192,86600,1,0,0:0:0:70:tok.wav
448,192,86600,1,0,0:0:0:0:
64,192,86600,1,0,0:0:0:0:
320,192,86857,1,0,0:0:0:70:tok.wav
448,192,86857,1,0,0:0:0:0:
64,192,86857,1,0,0:0:0:0:
320,192,87028,1,0,0:0:0:70:tok.wav
64,192,87028,1,0,0:0:0:0:
448,192,87028,1,0,0:0:0:0:
320,192,87114,1,0,0:0:0:70:tok.wav
64,192,87114,1,0,0:0:0:0:
448,192,87114,1,0,0:0:0:0:
320,192,87285,1,0,0:0:0:70:tok.wav
448,192,87285,1,0,0:0:0:0:
64,192,87285,1,0,0:0:0:0:
320,192,87457,1,0,0:0:0:50:drum.wav
448,192,87457,1,0,0:0:0:70:tok.wav
64,192,87500,1,0,0:0:0:50:drum.wav
192,192,87542,1,0,0:0:0:50:drum.wav
320,192,87585,1,0,0:0:0:50:drum.wav
192,192,87628,1,0,0:0:0:70:tok.wav
448,192,87628,1,0,0:0:0:0:
64,192,87628,1,0,0:0:0:0:
192,192,87800,1,0,0:0:0:70:tok.wav
64,192,87800,1,0,0:0:0:0:
448,192,87800,1,0,0:0:0:0:
192,192,87971,1,0,0:0:0:70:tok.wav
64,192,87971,1,0,0:0:0:0:
448,192,87971,1,0,0:0:0:0:
192,192,88228,1,0,0:0:0:70:tok.wav
64,192,88228,1,0,0:0:0:0:
448,192,88228,1,0,0:0:0:0:
192,192,88400,1,0,0:0:0:70:tok.wav
64,192,88400,1,0,0:0:0:0:
448,192,88400,1,0,0:0:0:0:
448,192,88485,1,0,0:0:0:70:tok.wav
192,192,88485,1,0,0:0:0:0:
64,192,88485,1,0,0:0:0:0:
448,192,88657,1,0,0:0:0:70:tok.wav
64,192,88657,1,0,0:0:0:50:drum.wav
320,192,88700,1,0,0:0:0:50:drum.wav
192,192,88742,1,0,0:0:0:50:drum.wav
64,192,88785,1,0,0:0:0:50:drum.wav
320,192,88828,1,0,0:0:0:50:drum.wav
448,192,88914,1,0,0:0:0:50:drum.wav
192,192,89000,1,0,0:0:0:70:snareclap.wav
320,192,89171,1,0,0:0:0:70:kick-a.wav
320,192,89257,1,0,0:0:0:70:kick-a.wav
192,192,89342,1,0,0:0:0:70:snareclap.wav
320,192,89514,1,0,0:0:0:70:kick-a.wav
320,192,89685,1,0,0:0:0:70:kick-a.wav
192,192,89857,1,0,0:0:0:70:snareclap.wav
192,192,90028,1,0,0:0:0:70:snareclap.wav
320,192,90200,1,0,0:0:0:70:kick-a.wav
320,192,90285,1,0,0:0:0:70:kick-a.wav
448,192,90371,1,0,0:0:0:70:cymbal.wav
192,192,90371,1,0,0:0:0:70:kick.wav
64,192,90371,1,0,0:0:0:70:boom.wav
192,192,90714,1,0,0:0:0:70:tok.wav
64,192,90714,1,0,0:0:0:0:
448,192,90714,1,0,0:0:0:0:
192,192,90971,1,0,0:0:0:70:tok.wav
64,192,90971,1,0,0:0:0:0:
448,192,90971,1,0,0:0:0:0:
448,192,91142,1,0,0:0:0:70:tok.wav
192,192,91142,1,0,0:0:0:0:
64,192,91142,1,0,0:0:0:0:
64,192,91400,1,0,0:0:0:70:tok.wav
192,192,91400,1,0,0:0:0:0:
448,192,91400,1,0,0:0:0:0:
320,192,91485,1,0,0:0:0:0:
192,192,91571,1,0,0:0:0:0:
320,192,91657,1,0,0:0:0:0:
64,192,91742,1,0,0:0:0:70:kick-a.wav
192,192,91742,1,0,0:0:0:0:
320,192,91828,1,0,0:0:0:70:snareclap.wav
448,192,91828,1,0,0:0:0:0:
64,192,92000,1,0,0:0:0:70:snareclap.wav
320,192,92000,1,0,0:0:0:0:
448,192,92085,1,0,0:0:0:70:kick-a.wav
192,192,92085,1,0,0:0:0:0:
192,192,92257,1,0,0:0:0:70:tok.wav
320,192,92257,1,0,0:0:0:0:
448,192,92257,1,0,0:0:0:0:
320,192,92514,1,0,0:0:0:70:tok.wav
448,192,92514,1,0,0:0:0:0:
192,192,92514,1,0,0:0:0:0:
192,192,92600,1,0,0:0:0:70:tok.wav
320,192,92600,1,0,0:0:0:0:
448,192,92600,1,0,0:0:0:0:
448,192,92771,1,0,0:0:0:70:tok.wav
320,192,92771,1,0,0:0:0:0:
192,192,92771,1,0,0:0:0:0:
192,192,92942,1,0,0:0:0:70:tok.wav
320,192,92942,1,0,0:0:0:0:
448,192,92942,1,0,0:0:0:0:
64,192,93114,128,0,93200:0:0:0:70:snare.wav
192,192,93114,128,0,93200:0:0:0:70:cymbal.wav
320,192,93285,128,0,93371:0:0:0:70:kick.wav
448,192,93285,128,0,93371:0:0:0:0:
320,192,93457,1,0,0:0:0:70:tok.wav
192,192,93457,1,0,0:0:0:0:
64,192,93457,1,0,0:0:0:0:
320,192,93714,1,0,0:0:0:70:tok.wav
192,192,93714,1,0,0:0:0:0:
64,192,93714,1,0,0:0:0:0:
320,192,93885,1,0,0:0:0:70:tok.wav
64,192,93885,1,0,0:0:0:0:
192,192,93885,1,0,0:0:0:0:
64,192,94142,1,0,0:0:0:70:tok.wav
192,192,94142,1,0,0:0:0:0:
320,192,94142,1,0,0:0:0:0:
192,192,94314,128,0,94485:0:0:0:0:
448,192,94485,1,0,0:0:0:50:drum.wav
64,192,94485,1,0,0:0:0:70:tok.wav
320,192,94528,1,0,0:0:0:50:drum.wav
192,192,94571,1,0,0:0:0:50:drum.wav
64,192,94614,1,0,0:0:0:50:drum.wav
320,192,94657,1,0,0:0:0:70:tok.wav
448,192,94657,1,0,0:0:0:0:
448,192,94828,1,0,0:0:0:70:tok.wav
64,192,94828,1,0,0:0:0:50:drum.wav
320,192,94871,1,0,0:0:0:50:drum.wav
192,192,94914,1,0,0:0:0:50:drum.wav
64,192,94957,1,0,0:0:0:50:drum.wav
320,192,95000,1,0,0:0:0:0:
192,192,95085,1,0,0:0:0:70:tok.wav
448,192,95085,1,0,0:0:0:0:
64,192,95085,1,0,0:0:0:0:
192,192,95257,1,0,0:0:0:70:tok.wav
64,192,95257,1,0,0:0:0:0:
448,192,95257,1,0,0:0:0:0:
64,192,95342,1,0,0:0:0:70:tok.wav
448,192,95342,1,0,0:0:0:0:
192,192,95342,1,0,0:0:0:0:
64,192,95514,1,0,0:0:0:70:tok.wav
192,192,95514,1,0,0:0:0:0:
448,192,95514,1,0,0:0:0:0:
320,192,95600,1,0,0:0:0:0:
192,192,95685,1,0,0:0:0:70:tok.wav
448,192,95685,1,0,0:0:0:0:
64,192,95685,1,0,0:0:0:0:
320,192,95771,1,0,0:0:0:70:tok.wav
64,192,95857,1,0,0:0:0:70:cymbal.wav
192,192,95857,1,0,0:0:0:70:kick.wav
448,192,95857,1,0,0:0:0:70:boom.wav
320,192,96200,1,0,0:0:0:70:tok.wav
448,192,96200,1,0,0:0:0:0:
64,192,96200,1,0,0:0:0:0:
192,192,96285,1,0,0:0:0:0:
320,192,96371,1,0,0:0:0:0:
192,192,96457,1,0,0:0:0:70:tok.wav
448,192,96457,1,0,0:0:0:0:
64,192,96457,1,0,0:0:0:0:
64,192,96628,1,0,0:0:0:70:tok.wav
448,192,96628,1,0,0:0:0:0:
192,192,96628,1,0,0:0:0:0:
448,192,96885,1,0,0:0:0:70:tok.wav
64,192,96885,1,0,0:0:0:0:
320,192,96885,1,0,0:0:0:0:
192,192,96971,1,0,0:0:0:0:
320,192,97057,1,0,0:0:0:0:
192,192,97142,1,0,0:0:0:0:
320,192,97228,1,0,0:0:0:70:snare.wav
448,192,97228,1,0,0:0:0:0:
192,192,97314,1,0,0:0:0:70:snare.wav
64,192,97314,1,0,0:0:0:0:
192,192,97485,1,0,0:0:0:70:snare.wav
448,192,97485,1,0,0:0:0:0:
192,192,97571,1,0,0:0:0:70:tok.wav
64,192,97571,1,0,0:0:0:0:
448,192,97571,1,0,0:0:0:0:
320,192,97657,1,0,0:0:0:0:
192,192,97742,1,0,0:0:0:0:
320,192,97828,1,0,0:0:0:70:tok.wav
64,192,97828,1,0,0:0:0:0:
448,192,97828,1,0,0:0:0:0:
64,192,98000,1,0,0:0:0:70:tok.wav
320,192,98000,1,0,0:0:0:0:
448,192,98000,1,0,0:0:0:0:
448,192,98085,1,0,0:0:0:70:tok.wav
64,192,98085,1,0,0:0:0:0:
320,192,98085,1,0,0:0:0:0:
64,192,98257,1,0,0:0:0:70:tok.wav
448,192,98257,1,0,0:0:0:0:
320,192,98342,1,0,0:0:0:0:
192,192,98342,1,0,0:0:0:0:
64,192,98428,1,0,0:0:0:70:tok.wav
448,192,98428,1,0,0:0:0:0:
192,192,98514,1,0,0:0:0:0:
320,192,98514,1,0,0:0:0:0:
448,192,98600,1,0,0:0:0:70:kick.wav
64,192,98600,1,0,0:0:0:50:drum.wav
192,192,98685,1,0,0:0:0:50:drum.wav
320,192,98771,1,0,0:0:0:70:kick.wav
448,192,98771,1,0,0:0:0:50:drum.wav
192,192,98857,1,0,0:0:0:50:drum.wav
64,192,98942,1,0,0:0:0:50:drum.wav
448,192,98942,1,0,0:0:0:70:kick.wav
320,192,99028,1,0,0:0:0:50:drum.wav
448,192,99114,1,0,0:0:0:50:drum.wav
320,192,99200,1,0,0:0:0:70:kick.wav
192,192,99200,1,0,0:0:0:50:drum.wav
64,192,99285,1,0,0:0:0:50:drum.wav
448,192,99371,1,0,0:0:0:70:kick.wav
192,192,99371,1,0,0:0:0:50:drum.wav
320,192,99457,1,0,0:0:0:70:kick.wav
64,192,99457,1,0,0:0:0:50:drum.wav
448,192,99542,1,0,0:0:0:50:drum.wav
64,192,99628,1,0,0:0:0:50:drum.wav
192,192,99628,1,0,0:0:0:0:
448,192,99685,1,0,0:0:0:0:
320,192,99685,1,0,0:0:0:50:drum.wav
64,192,99742,1,0,0:0:0:0:
192,192,99742,1,0,0:0:0:50:drum.wav
448,192,99800,1,0,0:0:0:50:drum.wav
320,192,99800,1,0,0:0:0:0:
64,192,99842,1,0,0:0:0:50:drum.wav
192,192,99885,1,0,0:0:0:50:drum.wav
320,192,99928,1,0,0:0:0:50:drum.wav
192,192,99971,1,0,0:0:0:70:kick.wav
64,192,99971,1,0,0:0:0:70:cymbal.wav
448,192,99971,1,0,0:0:0:0:
192,192,101000,1,0,0:0:0:70:boom.wav
448,192,101000,1,0,0:0:0:0:
320,192,101000,1,0,0:0:0:0:
64,192,101000,1,0,0:0:0:0:
448,192,101342,1,0,0:0:0:70:cymbal.wav
192,192,101342,128,0,101428:0:0:0:70:kick.wav
64,192,101428,128,0,101514:0:0:0:0:
192,192,101514,128,0,101600:0:0:0:50:hihat.wav
320,192,101600,128,0,101685:0:0:0:0:
448,192,101685,128,0,101771:0:0:0:70:kick.wav
64,192,101685,1,0,0:0:0:0:
320,192,101771,128,0,101857:0:0:0:0:
192,192,102028,128,0,102114:0:0:0:70:kick.wav
64,192,102028,1,0,0:0:0:0:
320,192,102114,128,0,102200:0:0:0:0:
448,192,102200,128,0,102285:0:0:0:50:hihat.wav
192,192,102285,128,0,102371:0:0:0:0:
320,192,102371,128,0,102457:0:0:0:70:kick.wav
448,192,102371,1,0,0:0:0:0:
64,192,102457,128,0,102542:0:0:0:0:
192,192,102542,128,0,102628:0:0:0:50:hihat.wav
320,192,102628,128,0,102714:0:0:0:0:
448,192,102714,128,0,102800:0:0:0:70:kick.wav
64,192,102714,1,0,0:0:0:0:
192,192,102800,128,0,102885:0:0:0:0:
320,192,102971,128,0,103057:0:0:0:0:
64,192,103057,128,0,103142:0:0:0:70:kick.wav
448,192,103057,1,0,0:0:0:0:
448,192,103228,128,0,103314:0:0:0:50:hihat.wav
320,192,103314,128,0,103400:0:0:0:0:
64,192,103400,1,0,0:0:0:70:kick.wav
192,192,103400,128,0,103485:0:0:0:0:
448,192,103485,128,0,103571:0:0:0:0:
320,192,103571,128,0,103657:0:0:0:50:hihat.wav
192,192,103657,128,0,103742:0:0:0:0:
64,192,103742,128,0,103828:0:0:0:70:kick.wav
448,192,103742,1,0,0:0:0:0:
320,192,103828,128,0,103914:0:0:0:0:
192,192,103914,128,0,104000:0:0:0:50:hihat.wav
64,192,104000,128,0,104085:0:0:0:0:
320,192,104085,128,0,104171:0:0:0:70:kick.wav
448,192,104085,1,0,0:0:0:0:
192,192,104171,128,0,104257:0:0:0:0:
320,192,104257,128,0,104342:0:0:0:50:hihat.wav
192,192,104342,128,0,104428:0:0:0:0:
448,192,104428,128,0,104514:0:0:0:70:kick.wav
320,192,104428,1,0,0:0:0:0:
64,192,104514,128,0,104600:0:0:0:0:
192,192,104771,128,0,104857:0:0:0:70:kick.wav
64,192,104771,1,0,0:0:0:0:
448,192,104857,128,0,104942:0:0:0:0:
192,192,104942,128,0,105028:0:0:0:50:hihat.wav
448,192,105028,128,0,105114:0:0:0:0:
64,192,105114,128,0,105200:0:0:0:70:kick.wav
320,192,105114,1,0,0:0:0:0:
192,192,105200,128,0,105285:0:0:0:0:
320,192,105285,128,0,105371:0:0:0:50:hihat.wav
192,192,105371,128,0,105457:0:0:0:0:
64,192,105457,128,0,105542:0:0:0:70:kick.wav
448,192,105457,1,0,0:0:0:0:
320,192,105542,128,0,105628:0:0:0:0:
192,192,105714,128,0,105800:0:0:0:0:
448,192,105800,128,0,105885:0:0:0:70:kick.wav
64,192,105800,1,0,0:0:0:0:
192,192,105971,128,0,106057:0:0:0:50:hihat.wav
64,192,106057,128,0,106142:0:0:0:0:
320,192,106142,128,0,106228:0:0:0:70:kick.wav
448,192,106142,1,0,0:0:0:0:
192,192,106228,128,0,106314:0:0:0:0:
448,192,106314,128,0,106400:0:0:0:50:hihat.wav
320,192,106400,128,0,106485:0:0:0:0:
64,192,106485,128,0,106571:0:0:0:70:kick.wav
448,192,106485,1,0,0:0:0:0:
192,192,106571,128,0,106657:0:0:0:0:
320,192,106657,128,0,106742:0:0:0:50:hihat.wav
192,192,106742,128,0,106828:0:0:0:0:
64,192,106828,128,0,106914:0:0:0:70:kick.wav
448,192,106828,1,0,0:0:0:0:
320,192,106914,128,0,107000:0:0:0:0:
192,192,107000,128,0,107085:0:0:0:50:hihat.wav
320,192,107085,128,0,107171:0:0:0:0:
192,192,107171,128,0,107257:0:0:0:70:kick.wav
64,192,107171,1,0,0:0:0:0:
448,192,107257,128,0,107342:0:0:0:0:
192,192,107514,128,0,107600:0:0:0:70:kick.wav
64,192,107514,1,0,0:0:0:0:
320,192,107600,128,0,107685:0:0:0:0:
448,192,107685,128,0,107771:0:0:0:50:hihat.wav
192,192,107771,128,0,107857:0:0:0:0:
64,192,107857,128,0,107942:0:0:0:70:kick.wav
448,192,107857,1,0,0:0:0:0:
320,192,107942,128,0,108028:0:0:0:0:
192,192,108028,128,0,108114:0:0:0:50:hihat.wav
320,192,108114,128,0,108200:0:0:0:0:
448,192,108200,128,0,108285:0:0:0:70:kick.wav
64,192,108200,1,0,0:0:0:0:
192,192,108285,128,0,108371:0:0:0:0:
320,192,108457,128,0,108542:0:0:0:0:
64,192,108542,128,0,108628:0:0:0:70:kick.wav
448,192,108542,1,0,0:0:0:0:
192,192,108714,128,0,108800:0:0:0:50:hihat.wav
320,192,108800,128,0,108885:0:0:0:0:
448,192,108885,128,0,108971:0:0:0:70:kick.wav
64,192,108885,1,0,0:0:0:0:
192,192,108971,128,0,109057:0:0:0:0:
320,192,109057,128,0,109142:0:0:0:50:hihat.wav
448,192,109142,128,0,109228:0:0:0:0:
64,192,109228,128,0,109314:0:0:0:70:kick.wav
320,192,109228,1,0,0:0:0:0:
192,192,109314,128,0,109400:0:0:0:0:
320,192,109400,128,0,109485:0:0:0:50:hihat.wav
64,192,109485,128,0,109571:0:0:0:0:
192,192,109571,128,0,109657:0:0:0:70:kick.wav
448,192,109571,1,0,0:0:0:0:
320,192,109657,128,0,109742:0:0:0:0:
448,192,109742,128,0,109828:0:0:0:50:hihat.wav
320,192,109828,128,0,109914:0:0:0:0:
448,192,109914,1,0,0:0:0:70:kick.wav
192,192,109914,128,0,110000:0:0:0:0:
64,192,110000,128,0,110085:0:0:0:0:
192,192,110257,128,0,110342:0:0:0:70:kick.wav
448,192,110257,1,0,0:0:0:0:
64,192,110342,128,0,110428:0:0:0:0:
320,192,110428,128,0,110514:0:0:0:50:hihat.wav
192,192,110514,128,0,110600:0:0:0:0:
64,192,110600,1,0,0:0:0:70:kick.wav
320,192,110600,128,0,110685:0:0:0:0:
192,192,110685,128,0,110771:0:0:0:0:
448,192,110771,128,0,110857:0:0:0:50:hihat.wav
320,192,110857,128,0,110942:0:0:0:0:
64,192,110942,128,0,111028:0:0:0:70:kick.wav
448,192,110942,1,0,0:0:0:0:
192,192,111028,128,0,111114:0:0:0:0:
320,192,111200,128,0,111285:0:0:0:0:
448,192,111285,128,0,111371:0:0:0:70:kick.wav
64,192,111285,1,0,0:0:0:0:
320,192,111457,128,0,111542:0:0:0:50:hihat.wav
192,192,111542,128,0,111628:0:0:0:0:
64,192,111628,128,0,111714:0:0:0:70:kick.wav
320,192,111628,1,0,0:0:0:0:
448,192,111714,128,0,111800:0:0:0:0:
192,192,111800,128,0,111885:0:0:0:50:hihat.wav
320,192,111885,128,0,111971:0:0:0:0:
448,192,111971,128,0,112057:0:0:0:70:kick.wav
192,192,111971,1,0,0:0:0:0:
64,192,112057,128,0,112142:0:0:0:0:
320,192,112142,128,0,112228:0:0:0:50:hihat.wav
192,192,112228,128,0,112314:0:0:0:0:
448,192,112314,1,0,0:0:0:70:kick.wav
64,192,112314,128,0,112400:0:0:0:70:cymbal.wav
320,192,112400,1,0,0:0:0:0:
448,192,112485,1,0,0:0:0:50:hihat.wav
320,192,112571,1,0,0:0:0:0:
448,192,112657,1,0,0:0:0:70:kick.wav
64,192,112657,1,0,0:0:0:0:
192,192,112742,128,0,112914:0:0:0:0:
192,192,113000,1,0,0:0:0:70:kick.wav
448,192,113000,128,0,113085:0:0:0:0:
64,192,113085,1,0,0:0:0:0:
320,192,113171,1,0,0:0:0:50:hihat.wav
192,192,113257,1,0,0:0:0:0:
64,192,113342,128,0,113428:0:0:0:70:kick.wav
448,192,113342,1,0,0:0:0:0:
320,192,113428,1,0,0:0:0:0:
64,192,113514,128,0,113600:0:0:0:50:hihat.wav
192,192,113514,1,0,0:0:0:0:
320,192,113600,1,0,0:0:0:0:
64,192,113685,1,0,0:0:0:0:
448,192,113685,128,0,113771:0:0:0:70:kick.wav
192,192,113771,128,0,113857:0:0:0:0:
320,192,113942,128,0,114028:0:0:0:0:
448,192,114028,1,0,0:0:0:70:kick.wav
64,192,114028,128,0,114114:0:0:0:0:
448,192,114200,128,0,114285:0:0:0:50:hihat.wav
320,192,114285,128,0,114371:0:0:0:0:
192,192,114371,128,0,114457:0:0:0:70:kick.wav
448,192,114371,1,0,0:0:0:0:
64,192,114457,128,0,114542:0:0:0:0:
320,192,114542,128,0,114628:0:0:0:50:hihat.wav
192,192,114628,128,0,114714:0:0:0:0:
448,192,114714,128,0,114800:0:0:0:70:kick.wav
64,192,114714,1,0,0:0:0:0:
320,192,114800,128,0,114885:0:0:0:0:
192,192,114885,128,0,114971:0:0:0:50:hihat.wav
64,192,114971,128,0,115057:0:0:0:0:
448,192,115057,128,0,115142:0:0:0:70:kick.wav
320,192,115057,1,0,0:0:0:0:
192,192,115142,1,0,0:0:0:0:
320,192,115228,1,0,0:0:0:50:hihat.wav
192,192,115314,1,0,0:0:0:0:
448,192,115400,1,0,0:0:0:70:kick.wav
320,192,115400,1,0,0:0:0:0:
64,192,115485,128,0,115657:0:0:0:0:
192,192,115742,1,0,0:0:0:70:kick.wav
448,192,115742,128,0,115828:0:0:0:0:
64,192,115742,1,0,0:0:0:0:
320,192,115828,1,0,0:0:0:0:
64,192,115914,1,0,0:0:0:50:hihat.wav
192,192,116000,1,0,0:0:0:0:
448,192,116085,1,0,0:0:0:70:kick.wav
320,192,116085,128,0,116171:0:0:0:0:
64,192,116171,1,0,0:0:0:0:
448,192,116257,1,0,0:0:0:50:hihat.wav
192,192,116257,128,0,116342:0:0:0:0:
320,192,116342,1,0,0:0:0:0:
192,192,116428,1,0,0:0:0:0:
64,192,116428,128,0,116514:0:0:0:70:kick.wav
320,192,116514,128,0,116600:0:0:0:0:
192,192,116685,128,0,116771:0:0:0:0:
448,192,116771,128,0,116857:0:0:0:70:kick.wav
64,192,116771,1,0,0:0:0:0:
448,192,116942,128,0,117028:0:0:0:50:hihat.wav
320,192,117028,128,0,117114:0:0:0:0:
192,192,117114,128,0,117200:0:0:0:70:kick.wav
64,192,117114,1,0,0:0:0:0:
320,192,117200,128,0,117285:0:0:0:0:
448,192,117285,128,0,117371:0:0:0:50:hihat.wav
64,192,117371,128,0,117457:0:0:0:0:
192,192,117457,128,0,117542:0:0:0:70:kick.wav
448,192,117457,1,0,0:0:0:0:
320,192,117542,128,0,117628:0:0:0:0:
192,192,117628,128,0,117714:0:0:0:50:hihat.wav
64,192,117714,128,0,117800:0:0:0:0:
320,192,117800,128,0,118485:0:0:0:70:cymbal.wav
192,192,117800,1,0,0:0:0:70:kick.wav
448,192,117800,1,0,0:0:0:0:
64,192,118485,128,0,118571:0:0:0:0:
192,192,118657,128,0,118742:0:0:0:50:hihat.wav
320,192,118828,128,0,118914:0:0:0:0:
448,192,119000,128,0,119600:0:0:0:50:hihat.wav
192,192,119171,1,0,0:0:0:70:kick.wav
64,192,119171,1,0,0:0:0:70:cymbal.wav
448,192,119685,1,0,0:0:0:70:kick.wav
192,192,119685,128,0,119857:0:0:0:70:cymbal.wav
320,192,119685,1,0,0:0:0:0:
64,192,120028,1,0,0:0:0:70:cymbal.wav
320,192,120028,128,0,120542:0:0:0:70:kick.wav
192,192,120028,1,0,0:0:0:0:
448,192,120542,1,0,0:0:0:70:cymbal.wav
64,192,120542,1,0,0:0:0:70:kick.wav
192,192,120542,1,0,0:0:0:0:
320,192,120714,1,0,0:0:0:0:
192,192,120885,1,0,0:0:0:0:
64,192,121057,1,0,0:0:0:0:
192,192,121228,1,0,0:0:0:70:cymbal.wav
64,192,121228,1,0,0:0:0:70:kick.wav
448,192,121228,1,0,0:0:0:0:
320,192,121400,1,0,0:0:0:0:
192,192,121571,1,0,0:0:0:0:
192,192,121742,1,0,0:0:0:70:kick.wav
64,192,121742,1,0,0:0:0:70:cymbal.wav
448,192,121742,1,0,0:0:0:0:
320,192,121742,1,0,0:0:0:0:
64,192,121914,1,0,0:0:0:50:drum.wav
448,192,121914,1,0,0:0:0:0:
320,192,121971,1,0,0:0:0:50:drum.wav
192,192,122028,1,0,0:0:0:50:drum.wav
448,192,122085,1,0,0:0:0:50:drum.wav
64,192,122085,1,0,0:0:0:0:
448,192,122171,1,0,0:0:0:50:drum.wav
64,192,122257,1,0,0:0:0:50:drum.wav
192,192,122314,1,0,0:0:0:50:drum.wav
320,192,122371,1,0,0:0:0:50:drum.wav
448,192,122428,1,0,0:0:0:50:drum.wav
64,192,122428,1,0,0:0:0:0:
64,192,122514,1,0,0:0:0:50:drum.wav
448,192,122600,1,0,0:0:0:50:drum.wav
320,192,122657,1,0,0:0:0:50:drum.wav
192,192,122714,1,0,0:0:0:50:drum.wav
448,192,122771,1,0,0:0:0:50:drum.wav
64,192,122771,1,0,0:0:0:0:
448,192,122857,1,0,0:0:0:50:drum.wav
64,192,122942,1,0,0:0:0:50:drum.wav
192,192,122985,1,0,0:0:0:50:drum.wav
320,192,123028,1,0,0:0:0:50:drum.wav
448,192,123071,1,0,0:0:0:50:drum.wav
64,192,123114,1,0,0:0:0:50:drum.wav
192,192,123157,1,0,0:0:0:50:drum.wav
320,192,123200,1,0,0:0:0:50:drum.wav
448,192,123242,1,0,0:0:0:50:drum.wav
192,192,123285,1,0,0:0:0:70:cymbal.wav
64,192,123285,1,0,0:0:0:70:kick.wav
448,192,123371,1,0,0:0:0:0:
192,192,123457,1,0,0:0:0:50:hihat.wav
448,192,123542,1,0,0:0:0:0:
320,192,123628,1,0,0:0:0:70:kick.wav
64,192,123628,1,0,0:0:0:0:
192,192,123714,1,0,0:0:0:0:
320,192,123800,1,0,0:0:0:50:hihat.wav
192,192,123885,1,0,0:0:0:0:
64,192,123971,1,0,0:0:0:70:kick.wav
448,192,123971,1,0,0:0:0:0:
320,192,124057,1,0,0:0:0:0:
64,192,124142,1,0,0:0:0:50:hihat.wav
320,192,124228,1,0,0:0:0:0:
192,192,124314,1,0,0:0:0:70:kick.wav
448,192,124314,1,0,0:0:0:0:
192,192,124657,1,0,0:0:0:70:kick.wav
64,192,124657,1,0,0:0:0:0:
448,192,124742,1,0,0:0:0:0:
192,192,124828,1,0,0:0:0:50:hihat.wav
448,192,124914,1,0,0:0:0:0:
320,192,125000,1,0,0:0:0:70:kick.wav
64,192,125000,1,0,0:0:0:0:
192,192,125085,1,0,0:0:0:0:
320,192,125171,1,0,0:0:0:50:hihat.wav
192,192,125257,1,0,0:0:0:0:
64,192,125342,1,0,0:0:0:70:kick.wav
448,192,125342,1,0,0:0:0:0:
320,192,125428,1,0,0:0:0:0:
64,192,125514,1,0,0:0:0:50:hihat.wav
320,192,125600,1,0,0:0:0:0:
192,192,125685,1,0,0:0:0:70:kick.wav
448,192,125685,1,0,0:0:0:0:
64,192,126028,1,0,0:0:0:70:kick.wav
192,192,126028,1,0,0:0:0:0:
448,192,126114,1,0,0:0:0:0:
192,192,126200,1,0,0:0:0:50:hihat.wav
448,192,126285,1,0,0:0:0:0:
64,192,126371,1,0,0:0:0:70:kick.wav
320,192,126371,1,0,0:0:0:0:
192,192,126457,1,0,0:0:0:0:
320,192,126542,1,0,0:0:0:50:hihat.wav
192,192,126628,1,0,0:0:0:0:
448,192,126714,1,0,0:0:0:70:kick.wav
64,192,126714,1,0,0:0:0:0:
320,192,126800,1,0,0:0:0:0:
64,192,126885,1,0,0:0:0:50:hihat.wav
320,192,126971,1,0,0:0:0:0:
448,192,127057,1,0,0:0:0:70:kick.wav
192,192,127057,1,0,0:0:0:0:
192,192,127400,1,0,0:0:0:70:kick.wav
64,192,127400,1,0,0:0:0:0:
448,192,127485,1,0,0:0:0:0:
320,192,127571,1,0,0:0:0:50:hihat.wav
192,192,127657,1,0,0:0:0:0:
320,192,127742,1,0,0:0:0:70:kick.wav
64,192,127742,1,0,0:0:0:0:
448,192,127828,1,0,0:0:0:0:
192,192,127914,1,0,0:0:0:50:hihat.wav
320,192,128000,1,0,0:0:0:0:
192,192,128085,1,0,0:0:0:70:kick.wav
64,192,128085,1,0,0:0:0:0:
320,192,128171,1,0,0:0:0:0:
64,192,128257,1,0,0:0:0:50:hihat.wav
192,192,128342,1,0,0:0:0:0:
320,192,128428,1,0,0:0:0:70:kick.wav
64,192,128428,1,0,0:0:0:0:
448,192,128514,1,0,0:0:0:0:
320,192,128600,1,0,0:0:0:0:
192,192,128685,1,0,0:0:0:0:
448,192,128771,1,0,0:0:0:70:snare.wav
64,192,128771,1,0,0:0:0:70:cymbal.wav
320,192,128771,1,0,0:0:0:70:kick.wav
64,192,129114,1,0,0:0:0:70:snare.wav
192,192,129114,1,0,0:0:0:70:kick.wav
192,192,129371,1,0,0:0:0:70:snare.wav
64,192,129371,1,0,0:0:0:0:
320,192,129457,1,0,0:0:0:70:kick.wav
448,192,129457,1,0,0:0:0:0:
320,192,129628,1,0,0:0:0:70:snare.wav
448,192,129628,1,0,0:0:0:0:
320,192,129800,1,0,0:0:0:70:kick.wav
64,192,129800,1,0,0:0:0:0:
192,192,129971,1,0,0:0:0:70:snare.wav
448,192,129971,1,0,0:0:0:0:
192,192,130142,1,0,0:0:0:70:kick.wav
64,192,130142,1,0,0:0:0:70:cymbal.wav
448,192,130142,1,0,0:0:0:0:
192,192,130314,1,0,0:0:0:70:snare.wav
320,192,130314,1,0,0:0:0:0:
448,192,130485,1,0,0:0:0:70:kick.wav
320,192,130485,1,0,0:0:0:0:
64,192,130657,1,0,0:0:0:0:
192,192,130742,1,0,0:0:0:70:snare.wav
448,192,130742,1,0,0:0:0:0:
64,192,130828,1,0,0:0:0:70:kick.wav
192,192,130914,1,0,0:0:0:70:snare.wav
320,192,130914,1,0,0:0:0:0:
64,192,131000,1,0,0:0:0:70:snare.wav
448,192,131000,1,0,0:0:0:0:
320,192,131171,1,0,0:0:0:70:kick.wav
448,192,131171,1,0,0:0:0:0:
64,192,131342,1,0,0:0:0:70:snare.wav
192,192,131400,1,0,0:0:0:70:snare.wav
320,192,131457,1,0,0:0:0:70:snare.wav
64,192,131514,1,0,0:0:0:70:cymbal.wav
448,192,131514,1,0,0:0:0:50:drum.wav
320,192,131600,1,0,0:0:0:50:drum.wav
192,192,131685,1,0,0:0:0:50:drum.wav
64,192,131685,1,0,0:0:0:0:
320,192,131771,1,0,0:0:0:50:drum.wav
448,192,131857,1,0,0:0:0:50:drum.wav
64,192,131857,1,0,0:0:0:70:kick.wav
192,192,131942,1,0,0:0:0:50:drum.wav
320,192,132028,1,0,0:0:0:50:drum.wav
448,192,132028,1,0,0:0:0:0:
192,192,132114,1,0,0:0:0:50:drum.wav
64,192,132200,1,0,0:0:0:70:kick.wav
448,192,132200,1,0,0:0:0:50:drum.wav
64,192,132285,1,0,0:0:0:50:drum.wav
448,192,132371,1,0,0:0:0:50:drum.wav
320,192,132428,1,0,0:0:0:50:drum.wav
192,192,132485,1,0,0:0:0:50:drum.wav
448,192,132542,1,0,0:0:0:70:kick.wav
64,192,132542,1,0,0:0:0:50:drum.wav
448,192,132628,1,0,0:0:0:50:drum.wav
320,192,132714,1,0,0:0:0:50:drum.wav
64,192,132757,1,0,0:0:0:50:drum.wav
192,192,132800,1,0,0:0:0:50:drum.wav
320,192,132842,1,0,0:0:0:50:drum.wav
448,192,132885,1,0,0:0:0:70:cymbal.wav
64,192,132885,1,0,0:0:0:70:kick.wav
320,192,132971,1,0,0:0:0:0:
192,192,133057,1,0,0:0:0:0:
64,192,133142,1,0,0:0:0:0:
448,192,133228,1,0,0:0:0:0:
448,192,133314,1,0,0:0:0:0:
192,192,133400,1,0,0:0:0:0:
64,192,133485,1,0,0:0:0:0:
320,192,133571,1,0,0:0:0:0:
320,192,133657,1,0,0:0:0:0:
192,192,133742,1,0,0:0:0:0:
192,192,133828,1,0,0:0:0:0:
448,192,133914,1,0,0:0:0:0:
320,192,134000,1,0,0:0:0:0:
64,192,134085,1,0,0:0:0:0:
64,192,134171,1,0,0:0:0:0:
320,192,134257,128,0,137000:0:0:0:70:cymbal.wav
448,192,134257,128,0,137000:0:0:0:70:kick.wav
192,192,137000,1,0,0:0:0:0:
64,192,137514,1,0,0:0:0:0:
320,192,138028,1,0,0:0:0:0:
192,192,138542,1,0,0:0:0:0:
448,192,139057,1,0,0:0:0:0:
448,192,139400,1,0,0:0:0:0:
64,192,139742,1,0,0:0:0:0:
