osu file format v14

[General]
AudioFilename: ETIA. - Par Len.mp3
AudioLeadIn: 0
PreviewTime: 24359
Countdown: 0
SampleSet: Soft
StackLeniency: 0.7
Mode: 3
LetterboxInBreaks: 0
SpecialStyle: 0
WidescreenStoryboard: 1

[Editor]
DistanceSpacing: 0.9
BeatDivisor: 4
GridSize: 8
TimelineZoom: 2.5

[Metadata]
Title:Par Len
TitleUnicode:Par Len
Artist:ETIA.
ArtistUnicode:ETIA.
Creator:Lirai
Version:Hyper
Source:
Tags:wadu eon 100sec record collapse/rebirth electronic instrumental speedcore
BeatmapID:0
BeatmapSetID:-1

[Difficulty]
HPDrainRate:7
CircleSize:4
OverallDifficulty:7.5
ApproachRate:5
SliderMultiplier:1.4
SliderTickRate:1

[Events]
//Background and Video events
0,0,"BG.jpg",0,0
//Break Periods
//Storyboard Layer 0 (Background)
//Storyboard Layer 1 (Fail)
//Storyboard Layer 2 (Pass)
//Storyboard Layer 3 (Foreground)
//Storyboard Layer 4 (Overlay)
//Storyboard Sound Samples

[TimingPoints]
1346,273.972602739726,4,2,1,40,1,0
14496,-100,4,1,1,80,0,0
23811,-100,4,2,1,80,0,0
24359,-100,4,2,1,80,0,1
41893,-100,4,1,1,80,0,0
59428,-100,4,2,1,80,0,0
76962,-100,4,2,1,80,0,1
84633,-100,4,1,1,80,0,1
85798,-100,4,2,1,40,0,0
94496,-100,4,1,1,80,0,0
103811,-100,4,2,1,80,0,0
104359,-100,4,2,1,80,0,1
121893,-100,4,2,1,80,0,0
126277,-100,4,2,1,80,0,1
130661,-100,4,2,1,80,0,0

[HitObjects]
64,192,1346,5,0,0:0:0:0:
448,192,1346,128,0,1893:0:0:0:0:
320,192,1893,128,0,2304:0:0:0:0:
192,192,1893,1,0,0:0:0:0:
64,192,2441,1,0,0:0:0:0:
192,192,2715,1,0,0:0:0:0:
320,192,2989,1,0,0:0:0:0:
64,192,2989,128,0,3537:0:0:0:0:
448,192,3537,1,0,0:0:0:0:
192,192,3537,128,0,4085:0:0:0:0:
448,192,4085,128,0,5181:0:0:0:0:
64,192,4085,1,0,0:0:0:0:
320,192,5181,1,0,0:0:0:0:
192,192,5181,128,0,5729:0:0:0:0:
448,192,5729,1,0,0:0:0:0:
64,192,5729,1,0,0:0:0:0:
320,192,6003,1,0,0:0:0:0:
64,192,6277,1,0,0:0:0:0:
448,192,6551,1,0,0:0:0:0:
192,192,6825,1,0,0:0:0:0:
320,192,7099,1,0,0:0:0:0:
320,192,7373,1,0,0:0:0:0:
448,192,7647,1,0,0:0:0:0:
448,192,7921,1,0,0:0:0:0:
64,192,8195,1,0,0:0:0:0:
320,192,8469,1,0,0:0:0:0:
64,192,8743,1,0,0:0:0:0:
192,192,9017,1,0,0:0:0:0:
448,192,9291,1,0,0:0:0:0:
64,192,9565,1,0,0:0:0:0:
448,192,9839,1,0,0:0:0:0:
320,192,9976,1,0,0:0:0:0:
192,192,10113,1,0,0:0:0:0:
320,192,10387,1,0,0:0:0:0:
64,192,10661,1,0,0:0:0:0:
192,192,10935,1,0,0:0:0:0:
320,192,11209,1,0,0:0:0:0:
64,192,11482,1,0,0:0:0:0:
64,192,11756,1,0,0:0:0:0:
320,192,12030,1,0,0:0:0:0:
320,192,12304,1,0,0:0:0:0:
64,192,12578,1,0,0:0:0:0:
448,192,12852,1,0,0:0:0:0:
64,192,13126,1,0,0:0:0:0:
320,192,13400,1,0,0:0:0:0:
448,192,13674,1,0,0:0:0:0:
64,192,13948,1,0,0:0:0:0:
320,192,14222,1,0,0:0:0:0:
192,192,14359,1,0,0:0:0:0:
64,192,14496,5,4,0:0:0:0:
448,192,14496,1,2,0:0:0:0:
320,192,14770,1,2,0:0:0:0:
192,192,15044,1,0,0:0:0:0:
64,192,15044,1,8,0:0:0:0:
448,192,15318,1,2,0:0:0:0:
448,192,15592,1,0,0:0:0:0:
64,192,15592,1,2,0:0:0:0:
192,192,15866,1,0,0:0:0:0:
448,192,16140,1,0,0:0:0:0:
320,192,16140,1,8,0:0:0:0:
64,192,16414,1,2,0:0:0:0:
448,192,16688,1,0,0:0:0:0:
192,192,16688,1,2,0:0:0:0:
320,192,16962,1,2,0:0:0:0:
192,192,17236,1,0,0:0:0:0:
64,192,17236,1,8,0:0:0:0:
448,192,17510,1,2,0:0:0:0:
448,192,17784,1,0,0:0:0:0:
64,192,17784,1,2,0:0:0:0:
192,192,18058,1,2,0:0:0:0:
448,192,18332,1,0,0:0:0:0:
64,192,18332,1,8,0:0:0:0:
448,192,18606,1,0,0:0:0:0:
64,192,18606,1,8,0:0:0:0:
320,192,18880,1,0,0:0:0:0:
192,192,18880,1,2,0:0:0:0:
64,192,19154,1,2,0:0:0:0:
448,192,19428,1,0,0:0:0:0:
320,192,19428,1,8,0:0:0:0:
64,192,19702,1,2,0:0:0:0:
448,192,19976,1,0,0:0:0:0:
64,192,19976,1,2,0:0:0:0:
320,192,20250,1,0,0:0:0:0:
448,192,20524,1,0,0:0:0:0:
192,192,20524,1,8,0:0:0:0:
64,192,20798,1,2,0:0:0:0:
448,192,21072,1,0,0:0:0:0:
320,192,21072,1,2,0:0:0:0:
192,192,21346,1,2,0:0:0:0:
448,192,21619,1,0,0:0:0:0:
64,192,21619,1,8,0:0:0:0:
320,192,21893,1,2,0:0:0:0:
448,192,22167,1,0,0:0:0:0:
64,192,22167,1,2,0:0:0:0:
320,192,22236,1,2,0:0:0:0:
192,192,22304,1,2,0:0:0:0:
64,192,22373,1,2,0:0:0:0:
320,192,22441,1,2,0:0:0:0:
448,192,22510,1,2,0:0:0:0:
64,192,22578,1,2,0:0:0:0:
192,192,22647,1,2,0:0:0:0:
320,192,22715,1,10,0:0:0:0:
192,192,22784,1,2,0:0:0:0:
320,192,22852,1,2,0:0:0:0:
448,192,22921,1,2,0:0:0:0:
64,192,22989,1,2,0:0:0:0:
192,192,23058,1,2,0:0:0:0:
320,192,23126,1,2,0:0:0:0:
448,192,23195,1,2,0:0:0:0:
192,192,23263,1,4,0:0:0:0:
64,192,23263,128,2,23720:0:0:0:0:
320,192,23811,1,4,0:0:0:0:
192,192,23811,1,2,0:0:0:0:
448,192,23948,128,0,24085:0:0:0:0:
64,192,24085,1,2,0:0:0:0:
192,192,24154,1,2,0:0:0:0:
320,192,24222,1,2,0:0:0:0:
448,192,24291,1,2,0:0:0:0:
192,192,24359,1,4,0:0:0:0:
64,192,24359,1,2,0:0:0:0:
320,192,24496,1,2,0:0:0:0:
448,192,24633,1,0,0:0:0:0:
64,192,24633,1,2,0:0:0:0:
192,192,24770,1,2,0:0:0:0:
448,192,24907,1,0,0:0:0:0:
320,192,24907,1,2,0:0:0:0:
192,192,25044,1,2,0:0:0:0:
448,192,25181,1,0,0:0:0:0:
64,192,25181,1,2,0:0:0:0:
320,192,25318,1,2,0:0:0:0:
192,192,25455,1,0,0:0:0:0:
64,192,25455,1,2,0:0:0:0:
320,192,25592,1,2,0:0:0:0:
448,192,25729,1,0,0:0:0:0:
64,192,25729,1,2,0:0:0:0:
192,192,25866,1,2,0:0:0:0:
320,192,26003,1,0,0:0:0:0:
64,192,26003,1,2,0:0:0:0:
448,192,26140,1,2,0:0:0:0:
320,192,26277,1,0,0:0:0:0:
192,192,26277,1,2,0:0:0:0:
64,192,26414,1,2,0:0:0:0:
192,192,26482,1,2,0:0:0:0:
448,192,26551,1,0,0:0:0:0:
320,192,26551,1,2,0:0:0:0:
192,192,26688,1,2,0:0:0:0:
448,192,26825,1,0,0:0:0:0:
64,192,26825,1,2,0:0:0:0:
320,192,26962,1,2,0:0:0:0:
192,192,27099,1,0,0:0:0:0:
64,192,27099,1,2,0:0:0:0:
320,192,27236,1,2,0:0:0:0:
448,192,27373,1,0,0:0:0:0:
192,192,27373,1,2,0:0:0:0:
64,192,27510,1,2,0:0:0:0:
192,192,27578,1,2,0:0:0:0:
320,192,27647,1,2,0:0:0:0:
192,192,27715,1,2,0:0:0:0:
64,192,27784,128,2,27921:0:0:0:0:
448,192,27921,1,2,0:0:0:0:
320,192,27989,1,2,0:0:0:0:
192,192,28058,1,2,0:0:0:0:
320,192,28126,1,2,0:0:0:0:
192,192,28195,1,0,0:0:0:0:
64,192,28195,1,2,0:0:0:0:
320,192,28332,1,2,0:0:0:0:
448,192,28469,1,0,0:0:0:0:
64,192,28469,1,2,0:0:0:0:
192,192,28606,1,2,0:0:0:0:
448,192,28743,1,0,0:0:0:0:
320,192,28743,1,2,0:0:0:0:
192,192,28880,1,2,0:0:0:0:
320,192,29017,1,0,0:0:0:0:
64,192,29017,1,2,0:0:0:0:
448,192,29154,1,2,0:0:0:0:
192,192,29291,1,0,0:0:0:0:
64,192,29291,1,2,0:0:0:0:
320,192,29428,1,2,0:0:0:0:
448,192,29565,1,0,0:0:0:0:
192,192,29565,1,2,0:0:0:0:
64,192,29702,1,2,0:0:0:0:
192,192,29770,1,2,0:0:0:0:
448,192,29839,1,0,0:0:0:0:
320,192,29839,1,2,0:0:0:0:
192,192,29976,1,2,0:0:0:0:
448,192,30113,1,0,0:0:0:0:
64,192,30113,1,2,0:0:0:0:
320,192,30250,1,2,0:0:0:0:
192,192,30318,1,2,0:0:0:0:
64,192,30387,1,2,0:0:0:0:
192,192,30455,1,2,0:0:0:0:
320,192,30524,128,2,30661:0:0:0:0:
64,192,30661,1,2,0:0:0:0:
448,192,30798,1,2,0:0:0:0:
320,192,30866,1,2,0:0:0:0:
192,192,30935,1,0,0:0:0:0:
64,192,30935,1,2,0:0:0:0:
448,192,31072,128,2,31209:0:0:0:0:
64,192,31209,1,2,0:0:0:0:
192,192,31277,1,2,0:0:0:0:
320,192,31346,1,2,0:0:0:0:
448,192,31414,1,2,0:0:0:0:
192,192,31482,128,2,31619:0:0:0:0:
64,192,31619,128,2,31756:0:0:0:0:
448,192,31756,1,2,0:0:0:0:
320,192,31825,1,2,0:0:0:0:
192,192,31893,1,2,0:0:0:0:
320,192,31962,1,2,0:0:0:0:
192,192,32030,1,0,0:0:0:0:
64,192,32030,1,2,0:0:0:0:
320,192,32167,1,2,0:0:0:0:
448,192,32236,1,2,0:0:0:0:
64,192,32304,1,2,0:0:0:0:
192,192,32373,1,2,0:0:0:0:
320,192,32441,1,2,0:0:0:0:
448,192,32510,1,2,0:0:0:0:
192,192,32578,1,0,0:0:0:0:
64,192,32578,1,2,0:0:0:0:
448,192,32784,1,0,0:0:0:0:
320,192,32784,1,2,0:0:0:0:
320,192,32989,1,0,0:0:0:0:
192,192,32989,1,2,0:0:0:0:
448,192,33126,1,4,0:0:0:0:
64,192,33126,1,2,0:0:0:0:
320,192,33263,1,2,0:0:0:0:
192,192,33400,1,0,0:0:0:0:
64,192,33400,1,2,0:0:0:0:
320,192,33537,1,2,0:0:0:0:
448,192,33674,1,0,0:0:0:0:
64,192,33674,1,2,0:0:0:0:
192,192,33811,1,2,0:0:0:0:
320,192,33948,1,0,0:0:0:0:
64,192,33948,1,2,0:0:0:0:
448,192,34085,1,2,0:0:0:0:
320,192,34154,1,2,0:0:0:0:
192,192,34222,1,0,0:0:0:0:
64,192,34222,1,2,0:0:0:0:
320,192,34359,1,2,0:0:0:0:
448,192,34496,1,0,0:0:0:0:
192,192,34496,1,2,0:0:0:0:
64,192,34633,1,2,0:0:0:0:
192,192,34702,1,2,0:0:0:0:
320,192,34770,1,2,0:0:0:0:
448,192,34839,1,2,0:0:0:0:
64,192,34907,128,2,35044:0:0:0:0:
320,192,35044,1,2,0:0:0:0:
448,192,35181,1,2,0:0:0:0:
320,192,35250,1,2,0:0:0:0:
192,192,35318,1,0,0:0:0:0:
64,192,35318,1,2,0:0:0:0:
320,192,35455,1,2,0:0:0:0:
448,192,35592,1,0,0:0:0:0:
192,192,35592,1,2,0:0:0:0:
64,192,35729,1,2,0:0:0:0:
192,192,35798,1,2,0:0:0:0:
448,192,35866,1,0,0:0:0:0:
320,192,35866,1,2,0:0:0:0:
192,192,36003,1,2,0:0:0:0:
64,192,36072,1,2,0:0:0:0:
448,192,36140,1,2,0:0:0:0:
320,192,36209,1,2,0:0:0:0:
192,192,36277,1,2,0:0:0:0:
64,192,36346,1,2,0:0:0:0:
448,192,36414,1,0,0:0:0:0:
320,192,36414,1,2,0:0:0:0:
192,192,36551,128,2,36688:0:0:0:0:
448,192,36688,1,2,0:0:0:0:
320,192,36756,1,2,0:0:0:0:
192,192,36825,1,2,0:0:0:0:
320,192,36893,1,2,0:0:0:0:
448,192,36962,1,4,0:0:0:0:
64,192,36962,1,2,0:0:0:0:
320,192,37167,1,4,0:0:0:0:
192,192,37167,1,2,0:0:0:0:
320,192,37373,1,4,0:0:0:0:
64,192,37373,1,2,0:0:0:0:
448,192,37510,1,4,0:0:0:0:
64,192,37510,1,2,0:0:0:0:
320,192,37647,1,2,0:0:0:0:
448,192,37784,1,0,0:0:0:0:
192,192,37784,1,2,0:0:0:0:
64,192,37921,1,2,0:0:0:0:
320,192,38058,1,0,0:0:0:0:
192,192,38058,1,2,0:0:0:0:
448,192,38195,1,2,0:0:0:0:
320,192,38332,1,0,0:0:0:0:
64,192,38332,1,2,0:0:0:0:
448,192,38469,1,2,0:0:0:0:
320,192,38537,1,2,0:0:0:0:
192,192,38606,1,0,0:0:0:0:
64,192,38606,1,2,0:0:0:0:
320,192,38743,1,2,0:0:0:0:
448,192,38880,1,0,0:0:0:0:
192,192,38880,1,2,0:0:0:0:
64,192,39017,1,2,0:0:0:0:
192,192,39085,1,2,0:0:0:0:
320,192,39154,1,2,0:0:0:0:
448,192,39222,1,2,0:0:0:0:
64,192,39291,128,2,39428:0:0:0:0:
320,192,39428,1,2,0:0:0:0:
192,192,39565,1,2,0:0:0:0:
64,192,39633,1,2,0:0:0:0:
448,192,39702,1,0,0:0:0:0:
320,192,39702,1,2,0:0:0:0:
192,192,39839,128,2,39976:0:0:0:0:
448,192,39976,1,2,0:0:0:0:
320,192,40044,1,2,0:0:0:0:
192,192,40113,1,2,0:0:0:0:
64,192,40181,1,2,0:0:0:0:
320,192,40250,128,2,40387:0:0:0:0:
448,192,40387,128,2,40524:0:0:0:0:
64,192,40524,1,2,0:0:0:0:
192,192,40592,1,2,0:0:0:0:
320,192,40661,1,2,0:0:0:0:
448,192,40729,1,2,0:0:0:0:
192,192,40798,1,0,0:0:0:0:
64,192,40798,1,2,0:0:0:0:
320,192,40935,1,2,0:0:0:0:
448,192,41003,1,2,0:0:0:0:
64,192,41072,1,2,0:0:0:0:
192,192,41140,1,2,0:0:0:0:
320,192,41209,1,2,0:0:0:0:
448,192,41277,1,2,0:0:0:0:
192,192,41346,1,2,0:0:0:0:
64,192,41414,1,2,0:0:0:0:
448,192,41482,128,2,41619:0:0:0:0:
320,192,41619,1,2,0:0:0:0:
192,192,41688,1,2,0:0:0:0:
64,192,41756,128,2,41893:0:0:0:0:
448,192,41893,1,2,0:0:0:0:
320,192,41893,1,4,0:0:0:0:
448,192,42167,1,0,0:0:0:0:
64,192,42167,1,8,0:0:0:0:
192,192,42304,1,2,0:0:0:0:
320,192,42441,1,2,0:0:0:0:
448,192,42578,1,0,0:0:0:0:
64,192,42578,1,8,0:0:0:0:
192,192,42715,1,0,0:0:0:0:
320,192,42784,1,8,0:0:0:0:
448,192,42852,1,0,0:0:0:0:
320,192,42921,1,8,0:0:0:0:
64,192,42989,1,2,0:0:0:0:
448,192,43263,1,0,0:0:0:0:
320,192,43263,1,8,0:0:0:0:
64,192,43400,1,0,0:0:0:0:
192,192,43469,1,8,0:0:0:0:
320,192,43537,1,0,0:0:0:0:
448,192,43606,1,8,0:0:0:0:
64,192,43674,1,2,0:0:0:0:
448,192,43811,1,0,0:0:0:0:
320,192,43811,1,8,0:0:0:0:
192,192,43948,1,0,0:0:0:0:
64,192,43948,1,8,0:0:0:0:
320,192,44085,1,2,0:0:0:0:
448,192,44359,1,0,0:0:0:0:
64,192,44359,1,8,0:0:0:0:
320,192,44496,1,2,0:0:0:0:
192,192,44633,128,2,44907:0:0:0:0:
448,192,44907,1,0,0:0:0:0:
320,192,44907,1,8,0:0:0:0:
64,192,45181,128,8,45318:0:0:0:0:
192,192,45318,128,0,45455:0:0:0:0:
448,192,45455,1,2,0:0:0:0:
320,192,45524,1,2,0:0:0:0:
192,192,45592,1,8,0:0:0:0:
64,192,45729,1,0,0:0:0:0:
192,192,45798,1,8,0:0:0:0:
448,192,45866,1,0,0:0:0:0:
320,192,45935,1,8,0:0:0:0:
64,192,46003,1,8,0:0:0:0:
448,192,46140,1,2,0:0:0:0:
320,192,46209,1,2,0:0:0:0:
192,192,46277,128,2,46414:0:0:0:0:
448,192,46414,1,2,0:0:0:0:
320,192,46551,1,0,0:0:0:0:
64,192,46551,1,8,0:0:0:0:
64,192,46688,1,8,0:0:0:0:
448,192,46825,1,8,0:0:0:0:
320,192,46893,1,0,0:0:0:0:
192,192,46962,1,0,0:0:0:0:
64,192,46962,1,2,0:0:0:0:
320,192,47236,1,2,0:0:0:0:
320,192,47373,1,2,0:0:0:0:
64,192,47510,1,2,0:0:0:0:
448,192,47647,1,0,0:0:0:0:
192,192,47647,1,8,0:0:0:0:
320,192,47784,1,8,0:0:0:0:
192,192,47921,1,8,0:0:0:0:
320,192,47989,1,0,0:0:0:0:
448,192,48058,1,2,0:0:0:0:
64,192,48126,1,0,0:0:0:0:
192,192,48195,1,2,0:0:0:0:
320,192,48332,1,2,0:0:0:0:
448,192,48469,1,8,0:0:0:0:
320,192,48537,1,0,0:0:0:0:
64,192,48537,1,8,0:0:0:0:
448,192,48674,1,0,0:0:0:0:
192,192,48674,1,8,0:0:0:0:
320,192,48743,1,2,0:0:0:0:
192,192,48880,1,2,0:0:0:0:
64,192,49017,1,2,0:0:0:0:
448,192,49154,1,0,0:0:0:0:
320,192,49154,1,8,0:0:0:0:
64,192,49291,1,0,0:0:0:0:
192,192,49359,1,8,0:0:0:0:
320,192,49428,1,0,0:0:0:0:
448,192,49496,1,8,0:0:0:0:
192,192,49565,1,2,0:0:0:0:
448,192,49839,1,0,0:0:0:0:
64,192,49839,1,8,0:0:0:0:
320,192,49976,1,2,0:0:0:0:
448,192,50250,1,0,0:0:0:0:
192,192,50250,1,8,0:0:0:0:
64,192,50387,128,8,50524:0:0:0:0:
448,192,50524,1,0,0:0:0:0:
320,192,50592,1,0,0:0:0:0:
192,192,50661,1,2,0:0:0:0:
64,192,50661,1,4,0:0:0:0:
448,192,50935,1,0,0:0:0:0:
320,192,50935,1,8,0:0:0:0:
64,192,51072,1,2,0:0:0:0:
192,192,51209,1,2,0:0:0:0:
448,192,51346,1,0,0:0:0:0:
320,192,51346,1,8,0:0:0:0:
64,192,51482,1,0,0:0:0:0:
192,192,51551,1,8,0:0:0:0:
448,192,51619,1,0,0:0:0:0:
320,192,51688,1,8,0:0:0:0:
64,192,51756,1,2,0:0:0:0:
192,192,51893,1,2,0:0:0:0:
448,192,52030,128,8,52167:0:0:0:0:
320,192,52167,128,0,52304:0:0:0:0:
64,192,52304,1,0,0:0:0:0:
192,192,52373,1,8,0:0:0:0:
320,192,52441,1,2,0:0:0:0:
448,192,52510,1,0,0:0:0:0:
192,192,52578,1,0,0:0:0:0:
64,192,52578,1,8,0:0:0:0:
448,192,52715,1,0,0:0:0:0:
320,192,52715,1,8,0:0:0:0:
64,192,52852,1,2,0:0:0:0:
448,192,53126,1,0,0:0:0:0:
192,192,53126,1,8,0:0:0:0:
320,192,53263,1,2,0:0:0:0:
448,192,53400,128,2,53537:0:0:0:0:
64,192,53537,1,2,0:0:0:0:
192,192,53606,1,2,0:0:0:0:
448,192,53674,1,0,0:0:0:0:
320,192,53674,1,8,0:0:0:0:
64,192,53811,1,2,0:0:0:0:
192,192,53880,1,0,0:0:0:0:
320,192,53948,128,8,54085:0:0:0:0:
64,192,54085,128,0,54222:0:0:0:0:
448,192,54222,1,2,0:0:0:0:
320,192,54291,1,2,0:0:0:0:
192,192,54359,1,0,0:0:0:0:
64,192,54359,1,8,0:0:0:0:
320,192,54496,1,0,0:0:0:0:
448,192,54565,1,8,0:0:0:0:
64,192,54633,1,0,0:0:0:0:
192,192,54702,1,8,0:0:0:0:
448,192,54770,1,0,0:0:0:0:
320,192,54770,1,8,0:0:0:0:
192,192,54907,1,2,0:0:0:0:
320,192,54976,1,2,0:0:0:0:
448,192,55044,128,2,55181:0:0:0:0:
64,192,55181,1,2,0:0:0:0:
192,192,55250,1,0,0:0:0:0:
320,192,55318,1,0,0:0:0:0:
64,192,55318,1,8,0:0:0:0:
448,192,55455,1,0,0:0:0:0:
192,192,55455,1,8,0:0:0:0:
64,192,55592,1,8,0:0:0:0:
192,192,55661,1,0,0:0:0:0:
320,192,55729,1,2,0:0:0:0:
448,192,55798,1,0,0:0:0:0:
192,192,55866,1,0,0:0:0:0:
64,192,55866,1,0,0:0:0:0:
320,192,56003,1,2,0:0:0:0:
192,192,56140,1,2,0:0:0:0:
64,192,56277,1,2,0:0:0:0:
448,192,56414,1,0,0:0:0:0:
320,192,56414,1,8,0:0:0:0:
192,192,56551,1,0,0:0:0:0:
64,192,56551,1,8,0:0:0:0:
448,192,56688,1,8,0:0:0:0:
320,192,56756,1,0,0:0:0:0:
192,192,56825,1,2,0:0:0:0:
64,192,56893,1,0,0:0:0:0:
448,192,56962,1,2,0:0:0:0:
320,192,57099,1,2,0:0:0:0:
448,192,57236,1,0,0:0:0:0:
64,192,57236,1,8,0:0:0:0:
192,192,57304,1,8,0:0:0:0:
320,192,57441,1,0,0:0:0:0:
64,192,57441,1,8,0:0:0:0:
448,192,57510,1,2,0:0:0:0:
192,192,57647,1,2,0:0:0:0:
448,192,57784,1,2,0:0:0:0:
320,192,57921,1,0,0:0:0:0:
64,192,57921,1,8,0:0:0:0:
448,192,58058,1,0,0:0:0:0:
320,192,58126,1,8,0:0:0:0:
192,192,58195,1,0,0:0:0:0:
64,192,58263,1,8,0:0:0:0:
448,192,58332,1,2,0:0:0:0:
320,192,58469,1,2,0:0:0:0:
192,192,58606,1,0,0:0:0:0:
64,192,58606,1,8,0:0:0:0:
320,192,58743,1,2,0:0:0:0:
192,192,58880,1,0,0:0:0:0:
448,192,59017,1,0,0:0:0:0:
64,192,59017,1,8,0:0:0:0:
320,192,59154,128,8,59291:0:0:0:0:
192,192,59291,128,0,59428:0:0:0:0:
448,192,59428,1,4,0:0:0:0:
64,192,59428,1,2,0:0:0:0:
320,192,59702,1,0,0:0:0:0:
64,192,59702,1,2,0:0:0:0:
448,192,59976,1,0,0:0:0:0:
64,192,59976,1,2,0:0:0:0:
192,192,60250,1,0,0:0:0:0:
64,192,60250,1,2,0:0:0:0:
448,192,60524,1,0,0:0:0:0:
64,192,60524,1,2,0:0:0:0:
320,192,60798,1,0,0:0:0:0:
64,192,60798,1,2,0:0:0:0:
320,192,61072,1,0,0:0:0:0:
64,192,61072,1,2,0:0:0:0:
192,192,61346,1,0,0:0:0:0:
64,192,61346,1,2,0:0:0:0:
192,192,61619,1,0,0:0:0:0:
64,192,61619,1,2,0:0:0:0:
448,192,61893,1,0,0:0:0:0:
320,192,61893,1,2,0:0:0:0:
448,192,62167,1,0,0:0:0:0:
64,192,62167,1,2,0:0:0:0:
448,192,62441,1,0,0:0:0:0:
192,192,62441,1,2,0:0:0:0:
448,192,62715,1,0,0:0:0:0:
192,192,62715,1,2,0:0:0:0:
448,192,62989,1,0,0:0:0:0:
64,192,62989,1,2,0:0:0:0:
448,192,63263,1,0,0:0:0:0:
192,192,63263,1,2,0:0:0:0:
448,192,63537,1,0,0:0:0:0:
320,192,63537,1,2,0:0:0:0:
192,192,63674,1,2,0:0:0:0:
448,192,63811,1,0,0:0:0:0:
320,192,63811,1,2,0:0:0:0:
320,192,64085,1,0,0:0:0:0:
64,192,64085,1,2,0:0:0:0:
448,192,64359,1,0,0:0:0:0:
64,192,64359,1,2,0:0:0:0:
448,192,64633,1,0,0:0:0:0:
192,192,64633,1,2,0:0:0:0:
448,192,64907,1,0,0:0:0:0:
192,192,64907,1,2,0:0:0:0:
448,192,65181,1,0,0:0:0:0:
320,192,65181,1,2,0:0:0:0:
320,192,65455,1,0,0:0:0:0:
192,192,65455,1,2,0:0:0:0:
192,192,65729,1,0,0:0:0:0:
64,192,65729,1,2,0:0:0:0:
320,192,66003,1,0,0:0:0:0:
192,192,66003,1,2,0:0:0:0:
448,192,66277,1,0,0:0:0:0:
192,192,66277,1,2,0:0:0:0:
448,192,66551,1,0,0:0:0:0:
64,192,66551,1,2,0:0:0:0:
320,192,66825,1,0,0:0:0:0:
64,192,66825,1,2,0:0:0:0:
320,192,67099,1,0,0:0:0:0:
64,192,67099,1,2,0:0:0:0:
448,192,67373,1,2,0:0:0:0:
192,192,67647,1,2,0:0:0:0:
320,192,67784,1,2,0:0:0:0:
192,192,67921,1,2,0:0:0:0:
320,192,68058,1,0,0:0:0:0:
64,192,68058,1,2,0:0:0:0:
448,192,68195,1,4,0:0:0:0:
64,192,68195,1,2,0:0:0:0:
320,192,68332,1,0,0:0:0:0:
192,192,68469,1,0,0:0:0:0:
64,192,68469,1,2,0:0:0:0:
320,192,68606,1,0,0:0:0:0:
448,192,68743,1,0,0:0:0:0:
192,192,68743,1,2,0:0:0:0:
64,192,68880,1,0,0:0:0:0:
320,192,69017,1,0,0:0:0:0:
192,192,69017,1,2,0:0:0:0:
448,192,69154,1,0,0:0:0:0:
320,192,69291,1,0,0:0:0:0:
64,192,69291,1,2,0:0:0:0:
192,192,69428,1,0,0:0:0:0:
448,192,69565,1,0,0:0:0:0:
320,192,69565,1,2,0:0:0:0:
64,192,69702,1,0,0:0:0:0:
320,192,69839,1,0,0:0:0:0:
192,192,69839,1,2,0:0:0:0:
448,192,69976,1,0,0:0:0:0:
192,192,70113,1,0,0:0:0:0:
64,192,70113,1,2,0:0:0:0:
320,192,70250,1,0,0:0:0:0:
192,192,70387,1,0,0:0:0:0:
64,192,70387,1,2,0:0:0:0:
448,192,70524,1,0,0:0:0:0:
320,192,70661,1,0,0:0:0:0:
64,192,70661,1,2,0:0:0:0:
192,192,70798,1,0,0:0:0:0:
448,192,70935,1,0,0:0:0:0:
64,192,70935,1,2,0:0:0:0:
320,192,71072,1,0,0:0:0:0:
448,192,71209,1,0,0:0:0:0:
192,192,71209,1,2,0:0:0:0:
64,192,71346,1,0,0:0:0:0:
448,192,71482,1,0,0:0:0:0:
192,192,71482,1,2,0:0:0:0:
320,192,71619,1,0,0:0:0:0:
192,192,71756,1,0,0:0:0:0:
64,192,71756,1,2,0:0:0:0:
448,192,71893,1,0,0:0:0:0:
320,192,72030,1,0,0:0:0:0:
64,192,72030,1,2,0:0:0:0:
192,192,72167,1,0,0:0:0:0:
448,192,72304,1,0,0:0:0:0:
320,192,72304,1,2,0:0:0:0:
192,192,72441,1,0,0:0:0:0:
64,192,72441,1,2,0:0:0:0:
448,192,72578,1,0,0:0:0:0:
64,192,72578,1,2,0:0:0:0:
192,192,72715,1,0,0:0:0:0:
448,192,72852,1,0,0:0:0:0:
320,192,72852,1,2,0:0:0:0:
192,192,72989,1,0,0:0:0:0:
448,192,73126,1,0,0:0:0:0:
64,192,73126,1,2,0:0:0:0:
320,192,73263,1,0,0:0:0:0:
448,192,73400,1,0,0:0:0:0:
192,192,73400,1,2,0:0:0:0:
64,192,73537,1,0,0:0:0:0:
448,192,73674,1,0,0:0:0:0:
192,192,73674,1,2,0:0:0:0:
320,192,73811,1,0,0:0:0:0:
192,192,73948,1,0,0:0:0:0:
64,192,73948,1,2,0:0:0:0:
448,192,74085,1,0,0:0:0:0:
320,192,74222,1,0,0:0:0:0:
192,192,74222,1,2,0:0:0:0:
64,192,74359,1,0,0:0:0:0:
448,192,74496,1,0,0:0:0:0:
320,192,74496,1,2,0:0:0:0:
192,192,74633,1,0,0:0:0:0:
64,192,74633,1,2,0:0:0:0:
448,192,74770,1,0,0:0:0:0:
64,192,74770,1,2,0:0:0:0:
320,192,74907,1,0,0:0:0:0:
192,192,75044,1,0,0:0:0:0:
64,192,75044,1,2,0:0:0:0:
320,192,75181,1,0,0:0:0:0:
448,192,75318,1,0,0:0:0:0:
192,192,75318,1,2,0:0:0:0:
448,192,75455,1,0,0:0:0:0:
64,192,75455,1,2,0:0:0:0:
320,192,75592,1,0,0:0:0:0:
192,192,75592,1,2,0:0:0:0:
64,192,75729,1,2,0:0:0:0:
448,192,75866,1,0,0:0:0:0:
320,192,75866,1,4,0:0:0:0:
192,192,75866,1,2,0:0:0:0:
448,192,76140,1,0,0:0:0:0:
320,192,76140,1,0,0:0:0:0:
192,192,76140,1,2,0:0:0:0:
320,192,76414,1,0,0:0:0:0:
192,192,76414,1,0,0:0:0:0:
64,192,76414,1,2,0:0:0:0:
448,192,76688,1,2,0:0:0:0:
448,192,76962,1,0,0:0:0:0:
192,192,76962,1,4,0:0:0:0:
64,192,76962,1,2,0:0:0:0:
320,192,77099,1,2,0:0:0:0:
192,192,77236,1,0,0:0:0:0:
64,192,77236,1,2,0:0:0:0:
320,192,77373,1,2,0:0:0:0:
192,192,77510,1,0,0:0:0:0:
64,192,77510,1,2,0:0:0:0:
448,192,77647,1,2,0:0:0:0:
320,192,77784,1,0,0:0:0:0:
192,192,77784,1,2,0:0:0:0:
448,192,77921,1,2,0:0:0:0:
320,192,78058,1,0,0:0:0:0:
192,192,78058,1,2,0:0:0:0:
64,192,78195,1,2,0:0:0:0:
448,192,78332,1,0,0:0:0:0:
320,192,78332,1,2,0:0:0:0:
64,192,78469,1,2,0:0:0:0:
448,192,78606,1,0,0:0:0:0:
320,192,78606,1,2,0:0:0:0:
192,192,78743,1,2,0:0:0:0:
320,192,78880,1,0,0:0:0:0:
64,192,78880,1,2,0:0:0:0:
448,192,79017,1,2,0:0:0:0:
320,192,79085,1,2,0:0:0:0:
192,192,79154,1,0,0:0:0:0:
64,192,79154,1,2,0:0:0:0:
448,192,79291,1,2,0:0:0:0:
320,192,79428,1,0,0:0:0:0:
192,192,79428,1,2,0:0:0:0:
448,192,79565,1,2,0:0:0:0:
320,192,79702,1,0,0:0:0:0:
192,192,79702,1,2,0:0:0:0:
64,192,79839,1,2,0:0:0:0:
448,192,79976,1,0,0:0:0:0:
320,192,79976,1,2,0:0:0:0:
64,192,80113,1,2,0:0:0:0:
448,192,80250,1,0,0:0:0:0:
320,192,80250,1,2,0:0:0:0:
192,192,80387,1,2,0:0:0:0:
448,192,80524,1,0,0:0:0:0:
320,192,80524,1,2,0:0:0:0:
64,192,80661,1,2,0:0:0:0:
192,192,80729,1,2,0:0:0:0:
448,192,80798,1,0,0:0:0:0:
320,192,80798,1,2,0:0:0:0:
192,192,80935,1,2,0:0:0:0:
448,192,81072,1,0,0:0:0:0:
320,192,81072,1,2,0:0:0:0:
64,192,81209,128,2,81346:0:0:0:0:
448,192,81346,1,4,0:0:0:0:
320,192,81346,1,2,0:0:0:0:
192,192,81414,1,2,0:0:0:0:
320,192,81482,1,2,0:0:0:0:
448,192,81551,1,2,0:0:0:0:
192,192,81619,1,0,0:0:0:0:
64,192,81619,1,2,0:0:0:0:
320,192,81688,1,2,0:0:0:0:
192,192,81756,1,2,0:0:0:0:
64,192,81825,1,2,0:0:0:0:
448,192,81893,1,0,0:0:0:0:
320,192,81893,1,2,0:0:0:0:
192,192,81962,1,2,0:0:0:0:
320,192,82030,1,2,0:0:0:0:
448,192,82099,1,2,0:0:0:0:
192,192,82167,1,0,0:0:0:0:
64,192,82167,1,2,0:0:0:0:
320,192,82236,1,2,0:0:0:0:
192,192,82304,1,2,0:0:0:0:
64,192,82373,1,2,0:0:0:0:
448,192,82441,128,4,83537:0:0:0:0:
320,192,82441,1,2,0:0:0:0:
192,192,82578,1,2,0:0:0:0:
64,192,82715,1,2,0:0:0:0:
320,192,82852,1,2,0:0:0:0:
192,192,82989,1,2,0:0:0:0:
64,192,83126,1,2,0:0:0:0:
320,192,83263,1,2,0:0:0:0:
192,192,83400,1,2,0:0:0:0:
320,192,83537,128,4,84085:0:0:0:0:
64,192,83537,1,2,0:0:0:0:
192,192,83674,1,2,0:0:0:0:
448,192,83811,1,2,0:0:0:0:
64,192,83948,1,2,0:0:0:0:
448,192,84085,1,4,0:0:0:0:
192,192,84085,128,2,84633:0:0:0:0:
320,192,84222,1,0,0:0:0:0:
64,192,84359,1,0,0:0:0:0:
448,192,84496,1,0,0:0:0:0:
320,192,84633,1,2,0:0:0:0:
64,192,84633,1,4,0:0:0:0:
448,192,84907,1,0,0:0:0:0:
320,192,84907,1,2,0:0:0:0:
448,192,85181,1,0,0:0:0:0:
64,192,85181,1,8,0:0:0:0:
192,192,85455,1,0,0:0:0:0:
64,192,85455,1,2,0:0:0:0:
448,192,85592,1,0,0:0:0:0:
64,192,85592,1,8,0:0:0:0:
448,192,85729,1,0,0:0:0:0:
192,192,85729,1,0,0:0:0:0:
64,192,85729,1,4,0:0:0:0:
320,192,86003,1,0,0:0:0:0:
192,192,86277,1,0,0:0:0:0:
64,192,86551,1,0,0:0:0:0:
448,192,86825,1,0,0:0:0:0:
192,192,86825,1,0,0:0:0:0:
64,192,87099,1,0,0:0:0:0:
192,192,87373,1,0,0:0:0:0:
320,192,87647,1,0,0:0:0:0:
448,192,87921,1,0,0:0:0:0:
320,192,88195,1,0,0:0:0:0:
192,192,88469,1,0,0:0:0:0:
64,192,88743,1,0,0:0:0:0:
448,192,89017,1,0,0:0:0:0:
192,192,89017,1,0,0:0:0:0:
320,192,89291,1,0,0:0:0:0:
192,192,89565,1,0,0:0:0:0:
320,192,89839,1,0,0:0:0:0:
448,192,90113,1,0,0:0:0:0:
192,192,90113,1,0,0:0:0:0:
64,192,90387,1,0,0:0:0:0:
192,192,90661,1,0,0:0:0:0:
320,192,90935,1,0,0:0:0:0:
448,192,91209,1,0,0:0:0:0:
192,192,91209,1,0,0:0:0:0:
64,192,91482,1,0,0:0:0:0:
192,192,91756,1,0,0:0:0:0:
320,192,92030,1,0,0:0:0:0:
448,192,92304,1,0,0:0:0:0:
320,192,92578,1,0,0:0:0:0:
192,192,92852,1,0,0:0:0:0:
64,192,93126,1,0,0:0:0:0:
448,192,93400,1,0,0:0:0:0:
192,192,93400,1,0,0:0:0:0:
320,192,93674,1,0,0:0:0:0:
192,192,93948,1,0,0:0:0:0:
320,192,94222,1,0,0:0:0:0:
192,192,94496,1,4,0:0:0:0:
64,192,94496,1,2,0:0:0:0:
448,192,94770,1,0,0:0:0:0:
320,192,94770,1,2,0:0:0:0:
320,192,95044,1,0,0:0:0:0:
64,192,95044,1,8,0:0:0:0:
192,192,95318,1,0,0:0:0:0:
64,192,95318,1,2,0:0:0:0:
192,192,95592,1,0,0:0:0:0:
64,192,95592,1,2,0:0:0:0:
448,192,95866,1,0,0:0:0:0:
320,192,96140,1,0,0:0:0:0:
192,192,96140,1,8,0:0:0:0:
192,192,96414,1,0,0:0:0:0:
64,192,96414,1,2,0:0:0:0:
448,192,96688,1,0,0:0:0:0:
320,192,96688,1,2,0:0:0:0:
192,192,96962,1,0,0:0:0:0:
64,192,96962,1,2,0:0:0:0:
448,192,97236,1,0,0:0:0:0:
192,192,97236,1,8,0:0:0:0:
192,192,97510,1,0,0:0:0:0:
64,192,97510,1,2,0:0:0:0:
448,192,97784,1,0,0:0:0:0:
320,192,97784,1,2,0:0:0:0:
320,192,98058,1,0,0:0:0:0:
192,192,98058,1,2,0:0:0:0:
320,192,98332,1,0,0:0:0:0:
64,192,98332,1,8,0:0:0:0:
320,192,98606,1,0,0:0:0:0:
64,192,98606,1,8,0:0:0:0:
448,192,98880,1,0,0:0:0:0:
320,192,98880,1,2,0:0:0:0:
192,192,99154,1,0,0:0:0:0:
64,192,99154,1,2,0:0:0:0:
448,192,99428,1,0,0:0:0:0:
192,192,99428,1,8,0:0:0:0:
192,192,99702,1,0,0:0:0:0:
64,192,99702,1,2,0:0:0:0:
448,192,99976,1,0,0:0:0:0:
320,192,99976,1,2,0:0:0:0:
192,192,100250,1,0,0:0:0:0:
320,192,100524,1,0,0:0:0:0:
64,192,100524,1,8,0:0:0:0:
448,192,100798,1,0,0:0:0:0:
320,192,100798,1,2,0:0:0:0:
192,192,101072,1,0,0:0:0:0:
64,192,101072,1,2,0:0:0:0:
320,192,101346,1,0,0:0:0:0:
192,192,101346,1,2,0:0:0:0:
448,192,101619,1,0,0:0:0:0:
64,192,101619,1,8,0:0:0:0:
192,192,101893,1,0,0:0:0:0:
64,192,101893,1,2,0:0:0:0:
448,192,102167,128,0,102715:0:0:0:0:
320,192,102167,128,2,102715:0:0:0:0:
192,192,102715,1,10,0:0:0:0:
64,192,102784,1,2,0:0:0:0:
192,192,102852,1,2,0:0:0:0:
320,192,102921,1,2,0:0:0:0:
448,192,102989,1,2,0:0:0:0:
320,192,103058,1,2,0:0:0:0:
192,192,103126,1,2,0:0:0:0:
64,192,103195,1,2,0:0:0:0:
448,192,103263,1,4,0:0:0:0:
192,192,103263,1,2,0:0:0:0:
448,192,103811,1,4,0:0:0:0:
64,192,103811,1,2,0:0:0:0:
320,192,103948,128,0,104085:0:0:0:0:
192,192,103948,128,0,104085:0:0:0:0:
448,192,104085,1,2,0:0:0:0:
320,192,104154,1,2,0:0:0:0:
192,192,104222,1,2,0:0:0:0:
64,192,104291,1,2,0:0:0:0:
448,192,104359,1,4,0:0:0:0:
320,192,104359,1,2,0:0:0:0:
192,192,104496,1,2,0:0:0:0:
448,192,104633,1,0,0:0:0:0:
64,192,104633,1,2,0:0:0:0:
320,192,104770,1,2,0:0:0:0:
192,192,104907,1,0,0:0:0:0:
64,192,104907,1,2,0:0:0:0:
320,192,105044,1,2,0:0:0:0:
448,192,105181,1,0,0:0:0:0:
64,192,105181,1,2,0:0:0:0:
192,192,105318,1,2,0:0:0:0:
448,192,105455,1,0,0:0:0:0:
320,192,105455,1,2,0:0:0:0:
192,192,105592,1,2,0:0:0:0:
448,192,105729,1,0,0:0:0:0:
64,192,105729,1,2,0:0:0:0:
320,192,105866,1,2,0:0:0:0:
448,192,106003,1,0,0:0:0:0:
192,192,106003,1,2,0:0:0:0:
64,192,106140,1,2,0:0:0:0:
320,192,106277,1,0,0:0:0:0:
192,192,106277,1,2,0:0:0:0:
448,192,106414,1,2,0:0:0:0:
320,192,106482,1,2,0:0:0:0:
192,192,106551,1,0,0:0:0:0:
64,192,106551,1,2,0:0:0:0:
320,192,106688,1,2,0:0:0:0:
448,192,106825,1,0,0:0:0:0:
64,192,106825,1,2,0:0:0:0:
192,192,106962,1,2,0:0:0:0:
448,192,107099,1,0,0:0:0:0:
320,192,107099,1,2,0:0:0:0:
192,192,107236,1,2,0:0:0:0:
320,192,107373,1,0,0:0:0:0:
64,192,107373,1,2,0:0:0:0:
448,192,107510,1,2,0:0:0:0:
320,192,107578,1,2,0:0:0:0:
192,192,107647,1,2,0:0:0:0:
320,192,107715,1,2,0:0:0:0:
448,192,107784,128,2,107921:0:0:0:0:
64,192,107921,1,2,0:0:0:0:
192,192,107989,1,2,0:0:0:0:
320,192,108058,1,2,0:0:0:0:
192,192,108126,1,2,0:0:0:0:
448,192,108195,1,0,0:0:0:0:
320,192,108195,1,2,0:0:0:0:
192,192,108332,1,2,0:0:0:0:
448,192,108469,1,0,0:0:0:0:
64,192,108469,1,2,0:0:0:0:
320,192,108606,1,2,0:0:0:0:
192,192,108743,1,0,0:0:0:0:
64,192,108743,1,2,0:0:0:0:
320,192,108880,1,2,0:0:0:0:
448,192,109017,1,0,0:0:0:0:
192,192,109017,1,2,0:0:0:0:
64,192,109154,1,2,0:0:0:0:
448,192,109291,1,0,0:0:0:0:
320,192,109291,1,2,0:0:0:0:
192,192,109428,1,2,0:0:0:0:
320,192,109565,1,0,0:0:0:0:
64,192,109565,1,2,0:0:0:0:
448,192,109702,1,2,0:0:0:0:
320,192,109770,1,2,0:0:0:0:
192,192,109839,1,0,0:0:0:0:
64,192,109839,1,2,0:0:0:0:
320,192,109976,1,2,0:0:0:0:
448,192,110113,1,0,0:0:0:0:
64,192,110113,1,2,0:0:0:0:
192,192,110250,1,2,0:0:0:0:
320,192,110318,1,2,0:0:0:0:
448,192,110387,1,2,0:0:0:0:
320,192,110455,1,2,0:0:0:0:
192,192,110524,128,2,110661:0:0:0:0:
448,192,110661,1,2,0:0:0:0:
64,192,110798,1,2,0:0:0:0:
192,192,110866,1,2,0:0:0:0:
448,192,110935,1,0,0:0:0:0:
320,192,110935,1,2,0:0:0:0:
64,192,111072,128,2,111209:0:0:0:0:
448,192,111209,1,2,0:0:0:0:
320,192,111277,1,2,0:0:0:0:
192,192,111346,1,2,0:0:0:0:
64,192,111414,1,2,0:0:0:0:
320,192,111482,128,2,111619:0:0:0:0:
448,192,111619,128,2,111756:0:0:0:0:
64,192,111756,1,2,0:0:0:0:
192,192,111825,1,2,0:0:0:0:
320,192,111893,1,2,0:0:0:0:
192,192,111962,1,2,0:0:0:0:
448,192,112030,1,0,0:0:0:0:
320,192,112030,1,2,0:0:0:0:
192,192,112167,1,2,0:0:0:0:
64,192,112236,1,2,0:0:0:0:
448,192,112304,1,2,0:0:0:0:
320,192,112373,1,2,0:0:0:0:
192,192,112441,1,2,0:0:0:0:
64,192,112510,1,2,0:0:0:0:
448,192,112578,1,0,0:0:0:0:
320,192,112578,1,2,0:0:0:0:
192,192,112784,1,0,0:0:0:0:
64,192,112784,1,2,0:0:0:0:
320,192,112989,1,0,0:0:0:0:
192,192,112989,1,2,0:0:0:0:
448,192,113126,1,2,0:0:0:0:
64,192,113126,1,4,0:0:0:0:
192,192,113263,1,2,0:0:0:0:
448,192,113400,1,0,0:0:0:0:
320,192,113400,1,2,0:0:0:0:
192,192,113537,1,2,0:0:0:0:
448,192,113674,1,0,0:0:0:0:
64,192,113674,1,2,0:0:0:0:
320,192,113811,1,2,0:0:0:0:
448,192,113948,1,0,0:0:0:0:
192,192,113948,1,2,0:0:0:0:
64,192,114085,1,2,0:0:0:0:
192,192,114154,1,2,0:0:0:0:
448,192,114222,1,0,0:0:0:0:
320,192,114222,1,2,0:0:0:0:
192,192,114359,1,2,0:0:0:0:
320,192,114496,1,0,0:0:0:0:
64,192,114496,1,2,0:0:0:0:
448,192,114633,1,2,0:0:0:0:
320,192,114702,1,2,0:0:0:0:
192,192,114770,1,2,0:0:0:0:
64,192,114839,1,2,0:0:0:0:
448,192,114907,128,2,115044:0:0:0:0:
192,192,115044,1,2,0:0:0:0:
64,192,115181,1,2,0:0:0:0:
192,192,115250,1,2,0:0:0:0:
448,192,115318,1,0,0:0:0:0:
320,192,115318,1,2,0:0:0:0:
192,192,115455,1,2,0:0:0:0:
320,192,115592,1,0,0:0:0:0:
64,192,115592,1,2,0:0:0:0:
448,192,115729,1,2,0:0:0:0:
320,192,115798,1,2,0:0:0:0:
192,192,115866,1,0,0:0:0:0:
64,192,115866,1,2,0:0:0:0:
320,192,116003,1,2,0:0:0:0:
448,192,116072,1,2,0:0:0:0:
64,192,116140,1,2,0:0:0:0:
192,192,116209,1,2,0:0:0:0:
320,192,116277,1,2,0:0:0:0:
448,192,116346,1,2,0:0:0:0:
192,192,116414,1,0,0:0:0:0:
64,192,116414,1,2,0:0:0:0:
320,192,116551,128,2,116688:0:0:0:0:
64,192,116688,1,2,0:0:0:0:
192,192,116756,1,2,0:0:0:0:
320,192,116825,1,2,0:0:0:0:
192,192,116893,1,2,0:0:0:0:
448,192,116962,1,2,0:0:0:0:
64,192,116962,1,4,0:0:0:0:
320,192,117167,1,2,0:0:0:0:
192,192,117167,1,4,0:0:0:0:
448,192,117373,1,2,0:0:0:0:
192,192,117373,1,4,0:0:0:0:
448,192,117510,1,4,0:0:0:0:
64,192,117510,1,2,0:0:0:0:
192,192,117647,1,2,0:0:0:0:
320,192,117784,1,0,0:0:0:0:
64,192,117784,1,2,0:0:0:0:
448,192,117921,1,2,0:0:0:0:
320,192,118058,1,0,0:0:0:0:
192,192,118058,1,2,0:0:0:0:
64,192,118195,1,2,0:0:0:0:
448,192,118332,1,0,0:0:0:0:
192,192,118332,1,2,0:0:0:0:
64,192,118469,1,2,0:0:0:0:
192,192,118537,1,2,0:0:0:0:
448,192,118606,1,0,0:0:0:0:
320,192,118606,1,2,0:0:0:0:
192,192,118743,1,2,0:0:0:0:
320,192,118880,1,0,0:0:0:0:
64,192,118880,1,2,0:0:0:0:
448,192,119017,1,2,0:0:0:0:
320,192,119085,1,2,0:0:0:0:
192,192,119154,1,2,0:0:0:0:
64,192,119222,1,2,0:0:0:0:
448,192,119291,128,2,119428:0:0:0:0:
192,192,119428,1,2,0:0:0:0:
320,192,119565,1,2,0:0:0:0:
448,192,119633,1,2,0:0:0:0:
192,192,119702,1,0,0:0:0:0:
64,192,119702,1,2,0:0:0:0:
320,192,119839,128,2,119976:0:0:0:0:
64,192,119976,1,2,0:0:0:0:
192,192,120044,1,2,0:0:0:0:
320,192,120113,1,2,0:0:0:0:
448,192,120181,1,2,0:0:0:0:
192,192,120250,128,2,120387:0:0:0:0:
64,192,120387,128,2,120524:0:0:0:0:
448,192,120524,1,2,0:0:0:0:
320,192,120592,1,2,0:0:0:0:
192,192,120661,1,2,0:0:0:0:
64,192,120729,1,2,0:0:0:0:
448,192,120798,1,0,0:0:0:0:
320,192,120798,1,2,0:0:0:0:
192,192,120935,1,2,0:0:0:0:
64,192,121003,1,2,0:0:0:0:
448,192,121072,1,2,0:0:0:0:
320,192,121140,1,2,0:0:0:0:
192,192,121209,1,2,0:0:0:0:
64,192,121277,1,2,0:0:0:0:
320,192,121346,1,2,0:0:0:0:
448,192,121414,1,2,0:0:0:0:
64,192,121482,128,2,121619:0:0:0:0:
192,192,121619,1,2,0:0:0:0:
320,192,121688,1,2,0:0:0:0:
448,192,121756,128,2,121893:0:0:0:0:
192,192,121893,1,0,0:0:0:0:
64,192,121893,1,4,0:0:0:0:
320,192,122304,1,2,0:0:0:0:
192,192,122304,1,4,0:0:0:0:
448,192,122715,1,4,0:0:0:0:
320,192,122715,1,2,0:0:0:0:
320,192,123126,1,2,0:0:0:0:
192,192,123126,1,4,0:0:0:0:
192,192,123537,1,4,0:0:0:0:
64,192,123537,1,2,0:0:0:0:
320,192,123743,1,2,0:0:0:0:
192,192,123743,1,4,0:0:0:0:
448,192,123948,1,4,0:0:0:0:
320,192,123948,1,2,0:0:0:0:
64,192,124085,1,2,0:0:0:0:
320,192,124222,1,4,0:0:0:0:
192,192,124222,1,2,0:0:0:0:
192,192,124428,1,2,0:0:0:0:
64,192,124428,1,4,0:0:0:0:
320,192,124633,1,4,0:0:0:0:
192,192,124633,1,2,0:0:0:0:
448,192,124839,1,2,0:0:0:0:
320,192,124839,1,4,0:0:0:0:
320,192,125044,1,4,0:0:0:0:
192,192,125044,1,2,0:0:0:0:
448,192,125181,1,2,0:0:0:0:
192,192,125318,1,4,0:0:0:0:
64,192,125318,1,2,0:0:0:0:
320,192,125455,1,2,0:0:0:0:
192,192,125592,1,2,0:0:0:0:
448,192,125729,1,2,0:0:0:0:
64,192,125729,1,4,0:0:0:0:
448,192,125935,1,2,0:0:0:0:
192,192,125935,1,4,0:0:0:0:
448,192,126140,1,4,0:0:0:0:
64,192,126140,1,2,0:0:0:0:
448,192,126277,1,0,0:0:0:0:
192,192,126277,1,2,0:0:0:0:
64,192,126277,1,4,0:0:0:0:
320,192,126414,1,2,0:0:0:0:
448,192,126551,1,0,0:0:0:0:
192,192,126551,1,2,0:0:0:0:
64,192,126688,1,2,0:0:0:0:
192,192,126756,1,2,0:0:0:0:
448,192,126825,1,0,0:0:0:0:
320,192,126825,1,2,0:0:0:0:
192,192,126962,1,2,0:0:0:0:
320,192,127099,1,0,0:0:0:0:
64,192,127099,1,2,0:0:0:0:
448,192,127236,1,2,0:0:0:0:
320,192,127304,1,2,0:0:0:0:
192,192,127373,1,0,0:0:0:0:
64,192,127373,1,2,0:0:0:0:
448,192,127510,1,2,0:0:0:0:
64,192,127647,1,2,0:0:0:0:
192,192,127715,1,0,0:0:0:0:
320,192,127784,1,2,0:0:0:0:
192,192,127852,1,2,0:0:0:0:
320,192,127921,1,2,0:0:0:0:
448,192,127989,1,2,0:0:0:0:
64,192,128058,128,2,128195:0:0:0:0:
320,192,128195,1,2,0:0:0:0:
192,192,128263,1,2,0:0:0:0:
320,192,128332,1,2,0:0:0:0:
448,192,128400,1,2,0:0:0:0:
64,192,128469,1,2,0:0:0:0:
192,192,128537,1,2,0:0:0:0:
320,192,128606,1,2,0:0:0:0:
192,192,128674,1,2,0:0:0:0:
64,192,128743,128,2,128880:0:0:0:0:
448,192,128880,1,2,0:0:0:0:
320,192,128948,1,2,0:0:0:0:
192,192,129017,1,2,0:0:0:0:
320,192,129085,1,2,0:0:0:0:
448,192,129154,128,2,129291:0:0:0:0:
64,192,129291,1,2,0:0:0:0:
192,192,129359,1,2,0:0:0:0:
320,192,129428,1,2,0:0:0:0:
448,192,129496,1,2,0:0:0:0:
64,192,129565,128,2,129702:0:0:0:0:
320,192,129702,1,4,0:0:0:0:
192,192,129702,1,2,0:0:0:0:
448,192,129907,1,4,0:0:0:0:
192,192,129907,1,2,0:0:0:0:
448,192,130113,1,4,0:0:0:0:
64,192,130113,1,2,0:0:0:0:
320,192,130318,1,2,0:0:0:0:
64,192,130318,1,4,0:0:0:0:
448,192,130524,128,0,130661:0:0:0:0:
64,192,130524,128,2,130661:0:0:0:0:
320,192,130661,1,4,0:0:0:0:
192,192,130661,128,2,131209:0:0:0:0:
