osu file format v14

[General]
AudioFilename: audio.mp3
AudioLeadIn: 0
PreviewTime: 94686
Countdown: 0
SampleSet: Soft
StackLeniency: 0.5
Mode: 0
LetterboxInBreaks: 0
WidescreenStoryboard: 1

[Editor]
Bookmarks: 27486,49429
DistanceSpacing: 0.8
BeatDivisor: 2
GridSize: 4
TimelineZoom: 3.599998

[Metadata]
Title:Nihon-shiki Koukaku -OukaRanman-
TitleUnicode:日本式硬核-OukaRanman-
Artist:ETIA.
ArtistUnicode:ETIA.
Creator:Luscent
Version:Normal
Source:
Tags:matrix heaven punisher 404 aimnotfound instrumental electronic nihonshiki nihon shiki oukaranman cut version 3t1a ETIA
BeatmapID:2393348
BeatmapSetID:1100842

[Difficulty]
HPDrainRate:3
CircleSize:3
OverallDifficulty:5
ApproachRate:6
SliderMultiplier:1.4
SliderTickRate:1

[Events]
//Background and Video events
0,0,"bg.jpg",0,0
//Break Periods
2,71598,81320
//Storyboard Layer 0 (Background)
//Storyboard Layer 1 (Fail)
//Storyboard Layer 2 (Pass)
//Storyboard Layer 3 (Foreground)
//Storyboard Layer 4 (Overlay)
//Storyboard Sound Samples

[TimingPoints]
1456,342.857142857143,4,2,1,40,1,0
4198,-125,4,2,1,40,0,0
27513,-100,4,2,1,60,0,0
60427,-100,4,2,1,50,0,0
65913,-100,4,2,1,60,0,0
82370,-125,4,2,1,60,0,0
87856,-100,4,2,1,60,0,0
94713,-90.9090909090909,4,2,1,80,0,1
116656,-90.9090909090909,4,2,1,80,0,0

[Colours]
Combo1 : 129,233,134
Combo2 : 185,184,179
Combo3 : 239,164,107
Combo4 : 253,91,68

[HitObjects]
256,192,1456,12,0,3170,0:0:0:0:
390,236,3856,5,4,0:2:0:0:
390,236,4198,2,0,P|307:245|236:249,1,112,0|0,1:2|0:0,0:0:0:0:
217,312,4884,2,0,P|192:225|317:166,1,224,0|0,1:0|1:0,0:0:0:0:
379,151,5913,1,0,0:0:0:0:
468,148,6256,2,0,P|465:71|455:21,1,112,2|2,1:2|0:0,0:0:0:0:
370,23,6941,6,0,P|319:24|252:28,1,112,0|0,1:0|0:0,0:0:0:0:
168,33,7627,2,0,B|142:144|259:123|246:233,1,224,0|0,1:0|1:0,0:0:0:0:
191,300,8656,1,0,0:0:0:0:
110,261,8998,2,0,P|55:268|-17:263,1,112,2|2,1:2|0:0,0:0:0:0:
29,181,9684,6,0,P|19:109|37:54,1,112,0|0,1:0|0:0,0:0:0:0:
111,37,10370,2,0,P|228:41|257:150,1,224,0|0,1:0|1:0,0:0:0:0:
210,201,11398,1,0,0:0:0:0:
268,268,11741,2,0,P|350:259|409:250,1,112,2|2,1:2|0:0,0:0:0:0:
454,303,12427,6,0,P|473:231|424:153,1,112,0|0,1:0|0:0,0:0:0:0:
403,129,13113,2,0,B|331:115|331:115|283:190|160:166,1,224,0|0,1:0|1:0,0:0:0:0:
126,119,14141,1,2,0:0:0:0:
40,147,14484,2,0,P|29:204|76:282,1,112,2|2,0:0|0:0,0:0:0:0:
92,330,15170,6,0,L|217:314,1,112,4|0,1:2|0:0,0:0:0:0:
281,359,15856,1,8,0:0:0:0:
455,321,16541,2,0,P|475:248|449:179,1,112,0|0,1:0|0:0,0:0:0:0:
402,152,17227,1,8,0:0:0:0:
243,234,17913,6,0,B|127:260|135:169|20:191,1,224,2|2,0:0|0:0,0:0:0:0:
91,20,19284,2,0,P|184:106|280:71,1,224,2|0,0:0|0:0,0:0:0:0:
346,39,20313,1,2,0:0:0:0:
435,41,20656,6,0,P|437:105|433:193,1,112,0|0,1:0|0:0,0:0:0:0:
387,228,21341,1,8,0:0:0:0:
246,338,22027,2,0,P|182:350|113:325,1,112,0|0,1:0|1:0,0:0:0:0:
70,278,22713,1,8,0:0:0:0:
232,204,23398,5,2,1:2:0:0:
256,192,23741,12,0,26141,0:0:0:0:
256,192,27170,5,4,0:0:0:0:
256,192,27513,2,0,P|169:217|79:171,1,140,2|2,1:2|1:2,0:0:0:0:
77,172,28027,1,2,0:2:0:0:
21,179,28198,2,0,P|19:213|24:248,1,70,2|2,1:2|0:2,0:0:0:0:
54,296,28541,1,2,1:2:0:0:
146,358,28884,6,0,B|204:371|224:312|283:328,1,140,0|0,1:0|1:0,0:0:0:0:
331,346,29398,1,0,0:0:0:0:
386,336,29570,2,0,P|387:289|383:242,1,70,2|0,1:2|0:0,0:0:0:0:
358,217,29913,2,0,P|405:223|465:220,1,70,10|8,1:2|2:0,0:0:0:0:
482,235,30256,6,0,P|461:118|302:123,1,280,2|0,1:2|1:0,0:0:0:0:
254,196,31284,1,2,1:2:0:0:
159,256,31627,2,0,P|31:217|55:96,1,280,0|0,1:0|1:0,0:0:0:0:
165,102,32656,1,2,1:2:0:0:
263,154,32998,6,0,B|332:171|337:108|423:130,1,140,2|2,1:2|1:2,0:0:0:0:
453,124,33513,1,2,0:2:0:0:
505,142,33684,2,0,P|508:189|498:237,1,70,2|2,1:2|0:2,0:0:0:0:
482,262,34027,1,2,1:2:0:0:
400,337,34370,6,0,P|331:349|253:287,1,140,0|0,1:0|1:0,0:0:0:0:
227,282,34884,1,0,0:0:0:0:
170,284,35056,2,0,P|164:325|167:367,1,70,2|8,1:2|0:2,0:0:0:0:
114,377,35398,2,0,P|72:377|10:362,1,70,10|10,1:2|0:2,0:0:0:0:
18,322,35741,6,0,P|16:234|193:196,1,280,2|0,1:2|1:0,0:0:0:0:
280,219,36770,1,2,1:2:0:0:
391,231,37113,2,0,P|463:123|341:30,1,280,0|2,1:0|1:2,0:0:0:0:
272,77,38141,1,2,1:2:0:0:
164,47,38484,6,0,P|88:53|38:129,1,140,2|2,1:2|1:2,0:0:0:0:
63,150,38998,1,2,0:2:0:0:
37,200,39170,2,0,P|37:244|37:303,1,70,2|2,1:2|0:2,0:0:0:0:
86,295,39513,1,2,1:2:0:0:
193,325,39856,6,0,B|264:351|264:351|368:322,1,140,0|0,1:0|1:0,0:0:0:0:
357,287,40370,1,0,0:0:0:0:
412,296,40541,2,0,L|423:216,1,70,2|8,1:2|0:2,0:0:0:0:
397,176,40884,1,10,1:2:0:0:
486,108,41227,6,0,P|387:42|256:144,1,280,2|0,1:2|1:2,0:0:0:0:
291,227,42256,1,2,1:2:0:0:
230,320,42598,2,0,P|100:369|-4:247,1,280,0|0,1:0|1:0,0:0:0:0:
66,192,43627,1,0,1:0:0:0:
71,93,43970,6,0,B|137:78|142:132|218:116,1,140,2|2,1:2|1:2,0:2:0:0:
257,97,44484,1,2,0:2:0:0:
312,105,44656,2,0,P|317:144|310:192,1,70,0|2,1:2|0:2,0:0:0:0:
282,220,44998,1,2,1:2:0:0:
221,313,45341,6,0,P|306:360|384:320,1,140,0|0,1:0|1:0,0:0:0:0:
396,332,45856,1,0,0:0:0:0:
451,340,46027,2,0,P|460:298|456:247,1,70,10|8,1:2|0:2,0:0:0:0:
423,228,46370,1,10,1:2:0:0:
314,200,46713,5,2,1:2:0:0:
309,144,46884,1,0,1:0:0:0:
350,105,47056,2,0,L|440:112,1,70,0|0,1:0|1:0,0:0:0:0:
475,105,47398,2,0,B|514:73|506:26|506:26|454:-24|360:8,1,210,8|8,1:2|1:2,0:0:0:0:
266,57,48256,5,0,1:0:0:0:
223,93,48427,2,0,L|106:85,1,70,0|0,1:0|1:0,0:0:0:0:
105,58,48770,2,0,L|26:67,1,70,0|0,1:0|1:0,0:0:0:0:
35,122,49113,1,12,3:2:0:0:
0,242,49456,6,0,P|60:302|132:288,1,140,0|0,1:0|1:0,0:0:0:0:
159,272,49970,1,0,0:0:0:0:
214,275,50141,2,0,P|225:227|228:181,1,70,0|0,1:0|0:0,0:0:0:0:
272,173,50484,2,0,P|318:182|366:183,1,70,0|0,1:0|0:0,0:0:0:0:
387,214,50827,6,0,P|476:163|477:91,1,140,0|0,1:0|1:0,0:0:0:0:
457,24,51513,2,0,L|370:27,2,70
290,89,52198,6,0,P|217:105|152:57,1,140,0|0,1:0|1:0,0:0:0:0:
112,50,52713,1,0,0:0:0:0:
56,56,52884,2,0,P|52:108|53:143,1,70,0|0,1:0|0:0,0:0:0:0:
65,180,53227,2,0,P|106:178|159:175,1,70,0|0,1:0|0:0,0:0:0:0:
189,164,53570,6,0,P|187:254|130:286,1,140,0|0,1:0|1:0,0:0:0:0:
43,292,54256,1,0,1:0:0:0:
101,381,54598,1,0,1:0:0:0:
229,357,54941,6,0,P|294:326|383:337,1,140,0|0,1:0|1:0,0:0:0:0:
412,350,55456,1,0,0:0:0:0:
467,342,55627,2,0,P|481:287|470:243,1,70,0|0,1:0|0:0,0:0:0:0:
444,231,55970,2,0,P|406:236|347:229,1,70,0|0,1:0|0:0,0:0:0:0:
320,217,56313,6,0,P|309:122|322:50,1,140,0|0,1:0|1:0,0:0:0:0:
211,36,56998,2,0,P|157:41|113:44,2,70,0|0|0,1:0|0:0|1:0,0:0:0:0:
207,148,57684,6,0,P|161:153|102:135,1,70,0|0,1:0|0:0,0:0:0:0:
82,138,58027,2,0,P|82:186|52:247,1,70,0|0,1:0|0:0,0:0:0:0:
45,254,58370,2,0,P|135:253|210:306,1,140,0|0,1:0|1:0,0:0:0:0:
266,362,59056,5,0,1:0:0:0:
266,362,59227,1,0,1:0:0:0:
266,362,59398,2,0,L|414:348,1,140,0|0,1:0|1:0,2:0:0:0:
459,326,59913,1,0,1:0:0:0:
459,326,60084,1,0,1:0:0:0:
458,185,60427,6,0,B|391:172|385:228|284:209,1,140,0|0,1:0|0:0,0:0:0:0:
275,183,60941,2,0,P|261:100|209:46,1,140,0|0,1:0|1:0,0:0:0:0:
172,73,61456,1,0,0:0:0:0:
67,112,61798,6,0,L|69:251,1,140,0|0,1:0|0:0,0:0:0:0:
37,299,62313,2,0,P|143:305|200:346,1,140,0|0,1:0|1:2,0:0:0:0:
195,370,62827,1,0,0:2:0:0:
306,363,63170,6,0,P|330:272|303:216,1,140,0|0,1:0|0:0,0:0:0:0:
263,209,63684,2,0,P|345:198|393:152,1,140,0|0,1:0|1:0,0:0:0:0:
395,106,64198,1,0,0:0:0:0:
315,26,64541,6,0,B|247:23|247:23|148:73,1,140,0|0,1:0|0:0,0:0:0:0:
145,161,65227,2,0,P|149:195|130:259,1,70,0|0,1:0|0:0,0:0:0:0:
93,256,65570,1,0,1:0:0:0:
208,341,65913,6,0,P|287:335|358:323,1,140,0|0,1:0|1:0,0:0:0:0:
401,339,66427,1,0,0:0:0:0:
456,337,66598,2,0,P|464:289|458:254,1,70,0|0,1:0|0:0,0:0:0:0:
418,232,66941,2,0,P|410:184|416:149,1,70,0|0,1:0|0:0,0:0:0:0:
428,109,67284,6,0,P|345:151|281:118,1,140,0|0,1:0|1:0,0:0:0:0:
198,114,67970,2,0,P|193:153|198:210,2,70,0|0|0,1:0|0:0|1:0,0:0:0:0:
106,49,68656,6,0,P|36:131|65:203,1,140,0|0,1:0|1:0,0:0:0:0:
54,208,69170,1,0,0:0:0:0:
89,250,69341,2,0,L|208:234,1,70,0|0,1:0|0:0,0:0:0:0:
200,277,69684,2,0,L|352:258,1,140,0|0,1:0|0:0,0:0:0:0:
342,263,71056,1,4,0:2:0:0:
342,263,71398,1,0,1:2:0:0:
452,195,82370,6,0,P|408:262|244:228,1,224,0|0,0:2|0:2,0:2:0:0:
196,219,83398,1,0,1:2:0:0:
107,234,83741,2,0,P|32:122|76:44,1,224,0|2,0:2|0:2,0:2:0:0:
155,59,84770,1,2,1:2:0:0:
243,44,85113,6,0,P|249:105|253:181,1,112,2|0,0:2|1:2,0:2:0:0:
337,182,85798,2,0,P|342:91|350:35,1,112,0|2,0:2|1:2,0:0:0:0:
389,69,86313,1,2,0:2:0:0:
471,104,86656,5,0,0:2:0:0:
471,104,86827,2,0,L|467:246,1,112,0|2,1:2|0:2,0:0:0:0:
466,305,87513,1,2,1:2:0:0:
365,354,87856,6,0,B|262:386|250:299|122:337,1,210,8|0,1:0|0:0,0:0:0:0:
109,349,88541,1,0,0:0:0:0:
44,257,88884,1,0,0:0:0:0:
143,204,89227,6,0,B|231:174|243:261|346:229,1,210,8|0,1:0|0:0,0:0:0:0:
386,192,89913,1,0,0:0:0:0:
393,80,90256,1,0,0:0:0:0:
297,22,90598,6,0,P|241:80|112:64,1,210,8|0,1:0|0:0,0:0:0:0:
66,53,91284,2,0,P|42:160|142:231,1,210,8|0,1:0|0:0,0:0:0:0:
160,211,91970,5,8,1:0:0:0:
123,317,92313,1,2,1:2:0:0:
238,357,92656,1,8,1:0:0:0:
238,357,92827,1,8,1:0:0:0:
238,357,92998,2,0,L|315:345,1,70,8|8,1:0|1:0,0:0:0:0:
307,346,94370,1,12,1:1:0:0:
440,358,94713,6,0,P|459:270|427:211,1,154.000004699707,4|0,1:2|1:0,0:0:0:0:
370,225,95227,1,2,0:0:0:0:
370,225,95398,2,0,L|275:235,1,77.0000023498536,0|0,1:0|0:0,0:0:0:0:
231,237,95741,1,2,1:2:0:0:
121,180,96084,6,0,P|102:92|134:33,1,154.000004699707,2|0,1:2|1:0,0:0:0:0:
191,47,96598,1,0,0:0:0:0:
191,47,96769,2,0,L|286:57,1,77.0000023498536,2|0,1:2|0:0,0:0:0:0:
330,59,97112,1,2,1:2:0:0:
450,29,97456,6,0,P|455:105|367:158,1,154.000004699707,2|0,1:2|1:2,0:0:0:0:
340,144,97970,1,2,0:0:0:0:
340,144,98141,2,0,B|305:217|305:217|334:316,1,154.000004699707,0|2,1:2|1:2,0:0:0:0:
375,324,98656,1,0,0:0:0:0:
252,322,98998,6,0,L|134:332,1,77.0000023498536,2|0,0:0|1:2,0:0:0:0:
123,362,99341,1,0,0:0:0:0:
123,362,99513,2,0,P|83:288|122:204,1,154.000004699707,2|2,1:2|1:2,0:0:0:0:
221,195,100198,6,0,P|156:113|68:126,1,154.000004699707,2|0,1:2|1:0,0:0:0:0:
56,133,100713,1,2,0:0:0:0:
56,133,100884,2,0,L|43:19,1,77.0000023498536,0|0,1:0|0:0,0:0:0:0:
93,15,101227,1,2,1:2:0:0:
214,33,101570,6,0,P|315:69|385:34,1,154.000004699707,2|0,1:2|1:0,0:0:0:0:
409,26,102084,1,0,0:0:0:0:
409,26,102256,2,0,L|403:122,1,77.0000023498536,2|0,1:2|0:0,0:0:0:0:
427,159,102598,1,2,1:2:0:0:
500,258,102941,6,0,L|296:246,1,154.000004699707,2|0,1:2|1:2,0:0:0:0:
309,299,103456,1,2,0:0:0:0:
309,299,103627,2,0,L|105:287,1,154.000004699707,0|2,1:2|1:2,0:0:0:0:
110,332,104141,1,0,1:0:0:0:
21,246,104484,6,0,P|8:209|8:171,1,77.0000023498536,2|0,0:0|1:2,0:0:0:0:
57,133,104827,1,0,0:0:0:0:
116,147,104998,2,0,P|203:124|228:43,1,154.000004699707,2|2,1:2|1:2,0:0:0:0:
340,17,105684,6,0,P|428:29|464:111,1,154.000004699707,6|0,1:2|1:0,0:0:0:0:
449,139,106198,1,2,0:0:0:0:
449,139,106370,2,0,L|363:135,1,77.0000023498536,0|0,1:0|0:0,0:0:0:0:
323,173,106713,1,2,1:2:0:0:
385,278,107056,6,0,P|290:316|205:262,1,154.000004699707,2|0,1:2|1:0,0:0:0:0:
188,276,107570,1,0,0:0:0:0:
188,276,107741,2,0,L|170:367,1,77.0000023498536,2|0,1:2|0:0,0:0:0:0:
115,373,108084,1,2,1:2:0:0:
36,278,108427,6,0,P|24:233|41:172,1,77.0000023498536,2|0,1:2|0:0,0:0:0:0:
88,192,108770,2,0,P|100:147|83:86,1,77.0000023498536,0|2,1:2|0:0,0:0:0:0:
54,71,109113,2,0,P|110:77|165:67,1,77.0000023498536,0|0,1:2|0:0,0:0:0:0:
182,39,109456,1,2,1:2:0:0:
182,39,109627,1,0,0:0:0:0:
297,82,109970,6,0,L|390:75,1,77.0000023498536,2|0,0:0|1:2,0:0:0:0:
424,111,110313,1,0,0:0:0:0:
485,107,110484,2,0,P|493:180|432:252,1,154.000004699707,2|2,1:2|1:2,0:0:0:0:
325,233,111170,6,0,B|256:224|257:286|167:272,1,154.000004699707,6|0,1:2|1:0,0:0:0:0:
122,251,111684,1,2,0:0:0:0:
122,251,111856,2,0,P|120:194|123:158,1,77.0000023498536,0|0,1:0|0:0,0:0:0:0:
156,123,112198,1,2,1:2:0:0:
275,152,112541,6,0,P|392:131|415:62,1,154.000004699707,6|0,1:2|1:0,0:0:0:0:
467,120,113056,1,0,0:0:0:0:
467,120,113227,2,0,P|471:176|467:232,1,77.0000023498536,2|0,1:2|0:0,0:0:0:0:
433,246,113570,1,2,1:2:0:0:
347,334,113913,6,0,P|297:350|231:335,1,77.0000023498536,6|0,1:2|0:0,0:0:0:0:
229,305,114256,2,0,P|173:298|127:324,1,77.0000023498536,0|2,1:2|0:0,0:0:0:0:
100,333,114598,2,0,P|80:280|93:237,1,77.0000023498536,4|0,1:2|0:0,0:0:0:0:
115,208,114941,1,2,1:2:0:0:
115,208,115113,1,0,0:0:0:0:
237,225,115456,5,2,0:0:0:0:
298,222,115627,2,0,P|329:145|295:56,1,154.000004699707,0|6,1:2|1:2,0:0:0:0:
251,68,116141,1,0,1:0:0:0:
197,98,116313,2,0,P|159:109|90:98,1,77.0000023498536,6|2,1:2|1:2,0:0:0:0:
71,72,116656,1,4,1:1:0:0:
