osu file format v14

[General]
AudioFilename: Last Battalion.mp3
AudioLeadIn: 0
PreviewTime: 55930
Countdown: 0
SampleSet: Normal
StackLeniency: 0.7
Mode: 3
LetterboxInBreaks: 0
SpecialStyle: 0
WidescreenStoryboard: 0

[Editor]
DistanceSpacing: 0.8
BeatDivisor: 4
GridSize: 32
TimelineZoom: 1.5

[Metadata]
Title:Last Battalion
TitleUnicode:Last Battalion
Artist:ETIA.
ArtistUnicode:ETIA.
Creator:Adot
Version:EXHAUST
Source:SOUND VOLTEX II -infinite infection-
Tags:sdvx bemani Hard & Catchy KAC2013 オリジナル楽曲コンテスト Original Song Contest KAC 2013 -ULTIMATE MEDLEY HISTORIA SOUND VOLTEX- Emperor Side
BeatmapID:994138
BeatmapSetID:464295

[Difficulty]
HPDrainRate:8.5
CircleSize:4
OverallDifficulty:8
ApproachRate:5
SliderMultiplier:1.4
SliderTickRate:1

[Events]
//Background and Video events
0,0,"castledragon.jpg",0,0
//Break Periods
//Storyboard Layer 0 (Background)
//Storyboard Layer 1 (Fail)
//Storyboard Layer 2 (Pass)
//Storyboard Layer 3 (Foreground)
//Storyboard Sound Samples

[TimingPoints]
1525,324.324324324324,4,1,0,10,1,0
1525,-100,4,1,0,10,0,1
1633,-100,4,1,0,10,0,0
56011,-100,4,1,0,10,0,1
56119,-100,4,1,0,10,0,0
79362,-100,4,1,0,10,0,1
89741,-100,4,1,0,10,0,0
99470,-66.6666666666667,4,1,0,10,0,0
99524,-100,4,1,0,10,0,0
99579,-200,4,1,0,10,0,0
99714,-66.6666666666667,4,1,0,10,0,0
99795,-200,4,1,0,10,0,0
99957,-100,4,1,0,10,0,0
100119,-100,4,1,0,10,0,1
104660,-66.6666666666667,4,1,0,10,0,1
104714,-100,4,1,0,10,0,1
104768,-200,4,1,0,10,0,1
104903,-66.6666666666667,4,1,0,10,0,1
104984,-200,4,1,0,10,0,1
105146,-100,4,1,0,10,0,1
109849,-66.6666666666667,4,1,0,10,0,1
110011,-200,4,1,0,10,0,1
110092,-66.6666666666667,4,1,0,10,0,1
110254,-200,4,1,0,10,0,1
110335,-100,4,1,0,10,0,1
110497,-100,4,1,0,10,0,0

[HitObjects]
320,192,1525,5,0,0:0:0:0:
448,192,1525,1,0,0:0:0:0:
64,192,1525,1,0,0:0:0:0:
192,192,1849,128,0,2011:0:0:0:0:
64,192,2011,128,0,2173:0:0:0:0:
448,192,2173,128,0,2497:0:0:0:0:
64,192,2497,128,0,2660:0:0:0:0:
320,192,2660,128,0,2984:0:0:0:0:
192,192,2984,128,0,3146:0:0:0:0:
448,192,3146,128,0,3795:0:0:0:0:
64,192,3795,1,0,0:0:0:0:
192,192,3795,1,0,0:0:0:0:
320,192,3795,1,0,0:0:0:0:
320,192,4119,1,0,0:0:0:0:
448,192,4119,1,0,0:0:0:0:
64,192,4119,128,0,4281:0:0:0:0:
192,192,4281,128,0,4443:0:0:0:0:
320,192,4443,128,0,4606:0:0:0:0:
64,192,4606,1,0,0:0:0:0:
192,192,4606,1,0,0:0:0:0:
448,192,4606,128,0,4768:0:0:0:0:
320,192,4930,128,0,5092:0:0:0:0:
64,192,4930,1,0,0:0:0:0:
448,192,5092,1,0,0:0:0:0:
192,192,5092,128,0,5254:0:0:0:0:
64,192,5254,128,0,6714:0:0:0:0:
320,192,5254,1,0,0:0:0:0:
448,192,5254,1,0,0:0:0:0:
192,192,6714,1,0,0:0:0:0:
320,192,6714,1,0,0:0:0:0:
448,192,6714,1,0,0:0:0:0:
64,192,7038,1,0,0:0:0:0:
192,192,7038,128,0,7362:0:0:0:0:
448,192,7362,1,0,0:0:0:0:
64,192,7362,1,0,0:0:0:0:
320,192,7362,128,0,7687:0:0:0:0:
192,192,7687,128,0,7849:0:0:0:0:
320,192,7849,128,0,8173:0:0:0:0:
448,192,7849,1,0,0:0:0:0:
64,192,8173,128,0,8335:0:0:0:0:
448,192,8173,1,0,0:0:0:0:
192,192,8335,128,0,8984:0:0:0:0:
320,192,8335,1,0,0:0:0:0:
448,192,8660,1,0,0:0:0:0:
320,192,8660,1,0,0:0:0:0:
64,192,8660,1,0,0:0:0:0:
320,192,8984,128,0,9308:0:0:0:0:
448,192,8984,1,0,0:0:0:0:
64,192,9146,1,0,0:0:0:0:
192,192,9146,1,0,0:0:0:0:
192,192,9308,1,0,0:0:0:0:
448,192,9308,1,0,0:0:0:0:
64,192,9308,1,0,0:0:0:0:
320,192,9470,128,0,9633:0:0:0:0:
192,192,9633,128,0,9795:0:0:0:0:
320,192,9795,1,0,0:0:0:0:
448,192,9795,1,0,0:0:0:0:
64,192,9795,128,0,9957:0:0:0:0:
192,192,10119,128,0,10281:0:0:0:0:
320,192,10119,1,0,0:0:0:0:
448,192,10281,128,0,10443:0:0:0:0:
64,192,10281,1,0,0:0:0:0:
320,192,10443,128,0,10768:0:0:0:0:
192,192,10443,1,0,0:0:0:0:
64,192,10443,1,0,0:0:0:0:
64,192,10768,1,0,0:0:0:0:
192,192,10768,128,0,10930:0:0:0:0:
448,192,10930,1,0,0:0:0:0:
320,192,10930,128,0,11092:0:0:0:0:
192,192,11092,1,0,0:0:0:0:
64,192,11092,1,0,0:0:0:0:
448,192,11092,1,0,0:0:0:0:
64,192,11416,1,0,0:0:0:0:
192,192,11416,128,0,11579:0:0:0:0:
448,192,11579,1,0,0:0:0:0:
320,192,11579,128,0,11903:0:0:0:0:
64,192,11741,1,0,0:0:0:0:
192,192,11741,1,0,0:0:0:0:
448,192,11903,1,0,0:0:0:0:
64,192,11903,1,0,0:0:0:0:
192,192,11903,1,0,0:0:0:0:
448,192,12065,128,0,12227:0:0:0:0:
192,192,12227,128,0,12389:0:0:0:0:
448,192,12389,1,0,0:0:0:0:
64,192,12389,1,0,0:0:0:0:
320,192,12389,1,0,0:0:0:0:
448,192,12714,128,0,12876:0:0:0:0:
64,192,12714,1,0,0:0:0:0:
192,192,12876,128,0,13038:0:0:0:0:
320,192,12876,1,0,0:0:0:0:
448,192,13038,1,0,0:0:0:0:
64,192,13038,1,0,0:0:0:0:
320,192,13119,1,0,0:0:0:0:
192,192,13200,1,0,0:0:0:0:
64,192,13281,1,0,0:0:0:0:
448,192,13362,1,0,0:0:0:0:
320,192,13443,1,0,0:0:0:0:
192,192,13524,1,0,0:0:0:0:
64,192,13606,1,0,0:0:0:0:
320,192,13687,1,0,0:0:0:0:
448,192,13687,1,0,0:0:0:0:
64,192,13768,1,0,0:0:0:0:
192,192,13768,1,0,0:0:0:0:
320,192,13849,1,0,0:0:0:0:
448,192,13849,1,0,0:0:0:0:
192,192,13930,1,0,0:0:0:0:
64,192,13930,1,0,0:0:0:0:
320,192,14011,1,0,0:0:0:0:
448,192,14011,1,0,0:0:0:0:
192,192,14092,1,0,0:0:0:0:
64,192,14092,1,0,0:0:0:0:
320,192,14173,1,0,0:0:0:0:
448,192,14173,1,0,0:0:0:0:
192,192,14254,1,0,0:0:0:0:
64,192,14254,1,0,0:0:0:0:
320,192,14335,1,0,0:0:0:0:
448,192,14335,1,0,0:0:0:0:
192,192,14416,1,0,0:0:0:0:
64,192,14416,1,0,0:0:0:0:
320,192,14497,1,0,0:0:0:0:
192,192,14497,1,0,0:0:0:0:
448,192,14497,1,0,0:0:0:0:
192,192,14660,1,0,0:0:0:0:
64,192,14660,1,0,0:0:0:0:
320,192,14741,1,0,0:0:0:0:
64,192,14822,1,0,0:0:0:0:
192,192,14903,1,0,0:0:0:0:
320,192,14984,1,0,0:0:0:0:
448,192,14984,1,0,0:0:0:0:
64,192,15065,1,0,0:0:0:0:
192,192,15146,1,0,0:0:0:0:
64,192,15227,1,0,0:0:0:0:
320,192,15308,1,0,0:0:0:0:
448,192,15308,1,0,0:0:0:0:
192,192,15389,1,0,0:0:0:0:
64,192,15470,1,0,0:0:0:0:
192,192,15552,1,0,0:0:0:0:
320,192,15633,1,0,0:0:0:0:
448,192,15633,1,0,0:0:0:0:
64,192,15795,1,0,0:0:0:0:
320,192,15957,1,0,0:0:0:0:
448,192,15957,1,0,0:0:0:0:
192,192,16119,1,0,0:0:0:0:
448,192,16281,1,0,0:0:0:0:
64,192,16281,1,0,0:0:0:0:
320,192,16443,1,0,0:0:0:0:
64,192,16606,1,0,0:0:0:0:
448,192,16606,1,0,0:0:0:0:
192,192,16768,1,0,0:0:0:0:
448,192,16930,1,0,0:0:0:0:
64,192,16930,1,0,0:0:0:0:
320,192,17092,1,0,0:0:0:0:
192,192,17254,1,0,0:0:0:0:
64,192,17254,1,0,0:0:0:0:
448,192,17416,1,0,0:0:0:0:
192,192,17579,1,0,0:0:0:0:
64,192,17579,1,0,0:0:0:0:
320,192,17741,1,0,0:0:0:0:
192,192,17903,1,0,0:0:0:0:
64,192,17903,1,0,0:0:0:0:
448,192,18065,1,0,0:0:0:0:
192,192,18227,1,0,0:0:0:0:
64,192,18227,1,0,0:0:0:0:
320,192,18389,1,0,0:0:0:0:
64,192,18552,1,0,0:0:0:0:
448,192,18552,1,0,0:0:0:0:
192,192,18714,1,0,0:0:0:0:
64,192,18876,1,0,0:0:0:0:
448,192,18876,1,0,0:0:0:0:
320,192,19038,1,0,0:0:0:0:
64,192,19200,1,0,0:0:0:0:
448,192,19200,1,0,0:0:0:0:
192,192,19362,1,0,0:0:0:0:
320,192,19524,1,0,0:0:0:0:
448,192,19524,1,0,0:0:0:0:
192,192,19687,1,0,0:0:0:0:
64,192,19687,1,0,0:0:0:0:
448,192,19687,1,0,0:0:0:0:
192,192,19849,1,0,0:0:0:0:
320,192,19849,1,0,0:0:0:0:
192,192,20011,1,0,0:0:0:0:
64,192,20011,1,0,0:0:0:0:
448,192,20011,1,0,0:0:0:0:
448,192,20173,1,0,0:0:0:0:
320,192,20173,1,0,0:0:0:0:
64,192,20335,1,0,0:0:0:0:
192,192,20335,1,0,0:0:0:0:
320,192,20335,1,0,0:0:0:0:
320,192,20497,1,0,0:0:0:0:
448,192,20497,1,0,0:0:0:0:
448,192,20660,1,0,0:0:0:0:
64,192,20660,1,0,0:0:0:0:
192,192,20660,1,0,0:0:0:0:
192,192,20822,1,0,0:0:0:0:
320,192,20822,1,0,0:0:0:0:
64,192,20984,1,0,0:0:0:0:
448,192,20984,1,0,0:0:0:0:
320,192,20984,1,0,0:0:0:0:
64,192,21146,1,0,0:0:0:0:
192,192,21146,1,0,0:0:0:0:
192,192,21308,1,0,0:0:0:0:
320,192,21308,1,0,0:0:0:0:
448,192,21308,1,0,0:0:0:0:
192,192,21470,1,0,0:0:0:0:
64,192,21470,1,0,0:0:0:0:
320,192,21633,1,0,0:0:0:0:
448,192,21633,1,0,0:0:0:0:
64,192,21633,1,0,0:0:0:0:
192,192,21795,1,0,0:0:0:0:
320,192,21795,1,0,0:0:0:0:
64,192,21957,1,0,0:0:0:0:
448,192,21957,1,0,0:0:0:0:
192,192,21957,1,0,0:0:0:0:
448,192,22119,1,0,0:0:0:0:
320,192,22119,1,0,0:0:0:0:
64,192,22281,1,0,0:0:0:0:
192,192,22281,1,0,0:0:0:0:
320,192,22281,1,0,0:0:0:0:
320,192,22443,1,0,0:0:0:0:
448,192,22443,1,0,0:0:0:0:
192,192,22606,1,0,0:0:0:0:
448,192,22606,1,0,0:0:0:0:
64,192,22606,1,0,0:0:0:0:
64,192,22768,1,0,0:0:0:0:
320,192,22768,1,0,0:0:0:0:
448,192,22930,1,0,0:0:0:0:
192,192,22930,1,0,0:0:0:0:
320,192,22930,1,0,0:0:0:0:
64,192,23092,1,0,0:0:0:0:
320,192,23092,1,0,0:0:0:0:
64,192,23254,1,0,0:0:0:0:
448,192,23254,1,0,0:0:0:0:
192,192,23254,1,0,0:0:0:0:
192,192,23416,1,0,0:0:0:0:
320,192,23416,1,0,0:0:0:0:
64,192,23579,1,0,0:0:0:0:
192,192,23579,1,0,0:0:0:0:
448,192,23579,1,0,0:0:0:0:
320,192,23579,1,0,0:0:0:0:
448,192,23741,1,0,0:0:0:0:
320,192,23903,128,0,24227:0:0:0:0:
64,192,24065,1,0,0:0:0:0:
192,192,24227,128,0,24552:0:0:0:0:
448,192,24389,1,0,0:0:0:0:
64,192,24552,128,0,24714:0:0:0:0:
448,192,24714,128,0,24876:0:0:0:0:
320,192,24876,1,0,0:0:0:0:
192,192,24876,1,0,0:0:0:0:
64,192,24876,1,0,0:0:0:0:
320,192,25038,1,0,0:0:0:0:
448,192,25038,1,0,0:0:0:0:
64,192,25200,1,0,0:0:0:0:
192,192,25200,1,0,0:0:0:0:
448,192,25200,1,0,0:0:0:0:
64,192,25362,1,0,0:0:0:0:
320,192,25362,1,0,0:0:0:0:
448,192,25524,1,0,0:0:0:0:
192,192,25524,1,0,0:0:0:0:
320,192,25524,1,0,0:0:0:0:
192,192,25687,1,0,0:0:0:0:
64,192,25687,1,0,0:0:0:0:
320,192,25849,1,0,0:0:0:0:
448,192,25849,1,0,0:0:0:0:
64,192,25849,1,0,0:0:0:0:
320,192,26011,1,0,0:0:0:0:
192,192,26011,1,0,0:0:0:0:
192,192,26173,1,0,0:0:0:0:
448,192,26173,1,0,0:0:0:0:
64,192,26173,1,0,0:0:0:0:
64,192,26335,1,0,0:0:0:0:
320,192,26335,1,0,0:0:0:0:
192,192,26497,1,0,0:0:0:0:
320,192,26497,1,0,0:0:0:0:
448,192,26497,1,0,0:0:0:0:
64,192,26660,1,0,0:0:0:0:
448,192,26660,1,0,0:0:0:0:
64,192,26822,1,0,0:0:0:0:
192,192,26822,1,0,0:0:0:0:
320,192,26822,1,0,0:0:0:0:
320,192,26984,1,0,0:0:0:0:
448,192,26984,1,0,0:0:0:0:
192,192,27146,1,0,0:0:0:0:
64,192,27146,1,0,0:0:0:0:
448,192,27146,1,0,0:0:0:0:
320,192,27308,1,0,0:0:0:0:
192,192,27308,1,0,0:0:0:0:
448,192,27470,1,0,0:0:0:0:
64,192,27470,1,0,0:0:0:0:
192,192,27470,1,0,0:0:0:0:
320,192,27633,1,0,0:0:0:0:
448,192,27633,1,0,0:0:0:0:
192,192,27795,1,0,0:0:0:0:
320,192,27795,1,0,0:0:0:0:
64,192,27795,1,0,0:0:0:0:
64,192,27957,1,0,0:0:0:0:
448,192,27957,1,0,0:0:0:0:
448,192,28119,1,0,0:0:0:0:
320,192,28119,1,0,0:0:0:0:
192,192,28119,1,0,0:0:0:0:
192,192,28281,1,0,0:0:0:0:
64,192,28281,1,0,0:0:0:0:
448,192,28443,1,0,0:0:0:0:
320,192,28443,1,0,0:0:0:0:
64,192,28443,1,0,0:0:0:0:
192,192,28606,1,0,0:0:0:0:
320,192,28606,1,0,0:0:0:0:
64,192,28768,1,0,0:0:0:0:
448,192,28768,1,0,0:0:0:0:
192,192,28768,1,0,0:0:0:0:
320,192,28930,1,0,0:0:0:0:
448,192,28930,1,0,0:0:0:0:
64,192,29092,1,0,0:0:0:0:
192,192,29092,1,0,0:0:0:0:
320,192,29092,1,0,0:0:0:0:
64,192,29254,1,0,0:0:0:0:
448,192,29254,1,0,0:0:0:0:
320,192,29416,1,0,0:0:0:0:
64,192,29416,1,0,0:0:0:0:
448,192,29416,1,0,0:0:0:0:
192,192,29579,1,0,0:0:0:0:
448,192,29579,1,0,0:0:0:0:
64,192,29741,1,0,0:0:0:0:
320,192,29741,1,0,0:0:0:0:
192,192,29741,1,0,0:0:0:0:
64,192,29903,1,0,0:0:0:0:
448,192,29903,1,0,0:0:0:0:
448,192,30065,1,0,0:0:0:0:
64,192,30065,1,0,0:0:0:0:
192,192,30065,1,0,0:0:0:0:
320,192,30065,1,0,0:0:0:0:
320,192,30227,1,0,0:0:0:0:
448,192,30227,1,0,0:0:0:0:
320,192,30389,1,0,0:0:0:0:
192,192,30389,1,0,0:0:0:0:
64,192,30389,1,0,0:0:0:0:
192,192,30552,1,0,0:0:0:0:
448,192,30552,1,0,0:0:0:0:
64,192,30714,1,0,0:0:0:0:
448,192,30714,1,0,0:0:0:0:
192,192,30714,1,0,0:0:0:0:
320,192,30876,1,0,0:0:0:0:
192,192,30876,1,0,0:0:0:0:
64,192,31038,1,0,0:0:0:0:
448,192,31038,1,0,0:0:0:0:
320,192,31038,1,0,0:0:0:0:
64,192,31200,1,0,0:0:0:0:
192,192,31200,1,0,0:0:0:0:
192,192,31362,1,0,0:0:0:0:
448,192,31362,1,0,0:0:0:0:
320,192,31362,1,0,0:0:0:0:
64,192,31524,1,0,0:0:0:0:
320,192,31524,1,0,0:0:0:0:
448,192,31687,1,0,0:0:0:0:
64,192,31687,1,0,0:0:0:0:
192,192,31687,1,0,0:0:0:0:
448,192,31849,1,0,0:0:0:0:
320,192,31849,1,0,0:0:0:0:
64,192,32011,1,0,0:0:0:0:
320,192,32011,1,0,0:0:0:0:
192,192,32011,1,0,0:0:0:0:
64,192,32173,1,0,0:0:0:0:
448,192,32173,1,0,0:0:0:0:
64,192,32335,1,0,0:0:0:0:
448,192,32335,1,0,0:0:0:0:
320,192,32335,1,0,0:0:0:0:
320,192,32497,1,0,0:0:0:0:
192,192,32497,1,0,0:0:0:0:
448,192,32660,1,0,0:0:0:0:
64,192,32660,1,0,0:0:0:0:
192,192,32660,1,0,0:0:0:0:
320,192,32822,1,0,0:0:0:0:
448,192,32822,1,0,0:0:0:0:
320,192,32984,1,0,0:0:0:0:
64,192,32984,1,0,0:0:0:0:
192,192,32984,1,0,0:0:0:0:
64,192,33146,1,0,0:0:0:0:
448,192,33146,1,0,0:0:0:0:
448,192,33308,1,0,0:0:0:0:
192,192,33308,1,0,0:0:0:0:
320,192,33308,1,0,0:0:0:0:
64,192,33470,1,0,0:0:0:0:
320,192,33470,1,0,0:0:0:0:
64,192,33633,1,0,0:0:0:0:
448,192,33633,1,0,0:0:0:0:
192,192,33633,1,0,0:0:0:0:
320,192,33795,1,0,0:0:0:0:
192,192,33795,1,0,0:0:0:0:
448,192,33957,1,0,0:0:0:0:
64,192,33957,1,0,0:0:0:0:
192,192,33957,1,0,0:0:0:0:
320,192,33957,1,0,0:0:0:0:
448,192,34119,1,0,0:0:0:0:
64,192,34119,1,0,0:0:0:0:
320,192,34200,1,0,0:0:0:0:
192,192,34200,1,0,0:0:0:0:
448,192,34281,1,0,0:0:0:0:
64,192,34281,1,0,0:0:0:0:
192,192,34362,1,0,0:0:0:0:
320,192,34362,1,0,0:0:0:0:
448,192,34443,1,0,0:0:0:0:
64,192,34443,1,0,0:0:0:0:
320,192,34524,1,0,0:0:0:0:
192,192,34524,1,0,0:0:0:0:
64,192,34606,1,0,0:0:0:0:
448,192,34606,1,0,0:0:0:0:
320,192,34687,1,0,0:0:0:0:
192,192,34687,1,0,0:0:0:0:
448,192,34768,1,0,0:0:0:0:
64,192,34768,1,0,0:0:0:0:
320,192,34849,1,0,0:0:0:0:
192,192,34849,1,0,0:0:0:0:
448,192,34930,1,0,0:0:0:0:
64,192,34930,1,0,0:0:0:0:
320,192,35011,1,0,0:0:0:0:
192,192,35011,1,0,0:0:0:0:
448,192,35092,1,0,0:0:0:0:
64,192,35092,1,0,0:0:0:0:
448,192,35254,1,0,0:0:0:0:
192,192,35254,1,0,0:0:0:0:
64,192,35254,1,0,0:0:0:0:
320,192,35254,1,0,0:0:0:0:
320,192,35416,1,0,0:0:0:0:
448,192,35416,1,0,0:0:0:0:
64,192,35741,1,0,0:0:0:0:
192,192,35741,1,0,0:0:0:0:
192,192,36065,1,0,0:0:0:0:
320,192,36065,1,0,0:0:0:0:
64,192,36389,1,0,0:0:0:0:
448,192,36389,1,0,0:0:0:0:
448,192,36714,1,0,0:0:0:0:
320,192,36714,1,0,0:0:0:0:
64,192,37038,1,0,0:0:0:0:
192,192,37038,1,0,0:0:0:0:
448,192,37200,1,0,0:0:0:0:
320,192,37281,1,0,0:0:0:0:
192,192,37362,1,0,0:0:0:0:
64,192,37362,1,0,0:0:0:0:
448,192,37443,1,0,0:0:0:0:
320,192,37524,1,0,0:0:0:0:
192,192,37606,1,0,0:0:0:0:
64,192,37687,1,0,0:0:0:0:
320,192,37687,1,0,0:0:0:0:
192,192,37768,1,0,0:0:0:0:
64,192,37849,1,0,0:0:0:0:
192,192,37930,1,0,0:0:0:0:
320,192,38011,1,0,0:0:0:0:
448,192,38011,1,0,0:0:0:0:
64,192,38335,1,0,0:0:0:0:
192,192,38335,1,0,0:0:0:0:
448,192,38497,1,0,0:0:0:0:
320,192,38579,1,0,0:0:0:0:
192,192,38660,1,0,0:0:0:0:
64,192,38660,1,0,0:0:0:0:
448,192,38741,1,0,0:0:0:0:
192,192,38822,1,0,0:0:0:0:
64,192,38903,1,0,0:0:0:0:
320,192,38984,1,0,0:0:0:0:
448,192,38984,1,0,0:0:0:0:
64,192,39146,1,0,0:0:0:0:
192,192,39227,1,0,0:0:0:0:
64,192,39308,1,0,0:0:0:0:
448,192,39308,1,0,0:0:0:0:
192,192,39470,1,0,0:0:0:0:
448,192,39552,1,0,0:0:0:0:
64,192,39633,1,0,0:0:0:0:
320,192,39633,1,0,0:0:0:0:
448,192,39714,1,0,0:0:0:0:
192,192,39795,1,0,0:0:0:0:
64,192,39876,1,0,0:0:0:0:
448,192,39957,1,0,0:0:0:0:
320,192,39957,1,0,0:0:0:0:
64,192,40119,1,0,0:0:0:0:
192,192,40200,1,0,0:0:0:0:
320,192,40281,1,0,0:0:0:0:
448,192,40281,1,0,0:0:0:0:
64,192,40443,1,0,0:0:0:0:
192,192,40443,1,0,0:0:0:0:
448,192,40443,1,0,0:0:0:0:
320,192,40606,1,0,0:0:0:0:
448,192,40606,1,0,0:0:0:0:
192,192,40768,1,0,0:0:0:0:
320,192,40768,1,0,0:0:0:0:
64,192,40768,1,0,0:0:0:0:
192,192,40930,1,0,0:0:0:0:
448,192,40930,1,0,0:0:0:0:
448,192,41092,1,0,0:0:0:0:
64,192,41092,1,0,0:0:0:0:
320,192,41092,1,0,0:0:0:0:
192,192,41254,1,0,0:0:0:0:
64,192,41254,1,0,0:0:0:0:
448,192,41416,1,0,0:0:0:0:
320,192,41416,1,0,0:0:0:0:
192,192,41416,1,0,0:0:0:0:
320,192,41579,1,0,0:0:0:0:
64,192,41579,1,0,0:0:0:0:
320,192,41741,1,0,0:0:0:0:
64,192,41741,1,0,0:0:0:0:
448,192,41741,1,0,0:0:0:0:
192,192,41903,1,0,0:0:0:0:
320,192,41903,1,0,0:0:0:0:
320,192,42065,1,0,0:0:0:0:
64,192,42065,1,0,0:0:0:0:
448,192,42065,1,0,0:0:0:0:
192,192,42227,1,0,0:0:0:0:
64,192,42227,1,0,0:0:0:0:
192,192,42389,1,0,0:0:0:0:
448,192,42389,1,0,0:0:0:0:
320,192,42389,1,0,0:0:0:0:
448,192,42552,1,0,0:0:0:0:
320,192,42552,1,0,0:0:0:0:
192,192,42714,1,0,0:0:0:0:
64,192,42714,1,0,0:0:0:0:
320,192,42714,1,0,0:0:0:0:
192,192,42876,1,0,0:0:0:0:
448,192,42876,1,0,0:0:0:0:
448,192,43038,1,0,0:0:0:0:
64,192,43038,1,0,0:0:0:0:
320,192,43038,1,0,0:0:0:0:
64,192,43200,1,0,0:0:0:0:
192,192,43200,1,0,0:0:0:0:
320,192,43362,1,0,0:0:0:0:
448,192,43362,1,0,0:0:0:0:
64,192,43362,1,0,0:0:0:0:
448,192,43524,1,0,0:0:0:0:
192,192,43524,1,0,0:0:0:0:
192,192,43687,1,0,0:0:0:0:
320,192,43687,1,0,0:0:0:0:
64,192,43687,1,0,0:0:0:0:
448,192,43849,1,0,0:0:0:0:
320,192,43849,1,0,0:0:0:0:
192,192,44011,1,0,0:0:0:0:
64,192,44011,1,0,0:0:0:0:
448,192,44011,1,0,0:0:0:0:
320,192,44173,1,0,0:0:0:0:
64,192,44173,1,0,0:0:0:0:
192,192,44335,1,0,0:0:0:0:
448,192,44335,1,0,0:0:0:0:
320,192,44335,1,0,0:0:0:0:
448,192,44497,1,0,0:0:0:0:
64,192,44497,1,0,0:0:0:0:
64,192,44660,1,0,0:0:0:0:
320,192,44660,1,0,0:0:0:0:
192,192,44660,1,0,0:0:0:0:
448,192,44822,1,0,0:0:0:0:
320,192,44822,1,0,0:0:0:0:
192,192,44984,1,0,0:0:0:0:
64,192,44984,1,0,0:0:0:0:
448,192,44984,1,0,0:0:0:0:
320,192,45146,1,0,0:0:0:0:
64,192,45146,1,0,0:0:0:0:
320,192,45308,1,0,0:0:0:0:
192,192,45308,1,0,0:0:0:0:
448,192,45308,1,0,0:0:0:0:
192,192,45470,1,0,0:0:0:0:
64,192,45470,1,0,0:0:0:0:
320,192,45470,1,0,0:0:0:0:
448,192,45633,1,0,0:0:0:0:
64,192,45633,1,0,0:0:0:0:
320,192,45633,1,0,0:0:0:0:
192,192,45633,1,0,0:0:0:0:
448,192,45795,1,0,0:0:0:0:
320,192,45795,1,0,0:0:0:0:
192,192,45957,1,0,0:0:0:0:
320,192,45957,1,0,0:0:0:0:
64,192,45957,1,0,0:0:0:0:
448,192,46119,1,0,0:0:0:0:
320,192,46119,1,0,0:0:0:0:
64,192,46281,1,0,0:0:0:0:
192,192,46281,1,0,0:0:0:0:
448,192,46281,1,0,0:0:0:0:
192,192,46443,1,0,0:0:0:0:
320,192,46443,1,0,0:0:0:0:
320,192,46606,1,0,0:0:0:0:
64,192,46606,1,0,0:0:0:0:
448,192,46606,1,0,0:0:0:0:
192,192,46768,1,0,0:0:0:0:
64,192,46768,1,0,0:0:0:0:
448,192,46930,1,0,0:0:0:0:
320,192,46930,1,0,0:0:0:0:
192,192,46930,1,0,0:0:0:0:
192,192,47092,1,0,0:0:0:0:
64,192,47092,1,0,0:0:0:0:
448,192,47254,1,0,0:0:0:0:
320,192,47254,1,0,0:0:0:0:
64,192,47254,1,0,0:0:0:0:
320,192,47416,1,0,0:0:0:0:
192,192,47416,1,0,0:0:0:0:
448,192,47579,1,0,0:0:0:0:
192,192,47579,1,0,0:0:0:0:
64,192,47579,1,0,0:0:0:0:
320,192,47741,1,0,0:0:0:0:
448,192,47741,1,0,0:0:0:0:
192,192,47903,1,0,0:0:0:0:
64,192,47903,1,0,0:0:0:0:
320,192,47903,1,0,0:0:0:0:
320,192,48065,1,0,0:0:0:0:
448,192,48065,1,0,0:0:0:0:
192,192,48227,1,0,0:0:0:0:
448,192,48227,1,0,0:0:0:0:
64,192,48227,1,0,0:0:0:0:
320,192,48389,1,0,0:0:0:0:
192,192,48389,1,0,0:0:0:0:
448,192,48552,1,0,0:0:0:0:
320,192,48552,1,0,0:0:0:0:
64,192,48552,1,0,0:0:0:0:
64,192,48714,1,0,0:0:0:0:
192,192,48714,1,0,0:0:0:0:
320,192,48876,1,0,0:0:0:0:
448,192,48876,1,0,0:0:0:0:
192,192,48876,1,0,0:0:0:0:
192,192,49038,1,0,0:0:0:0:
64,192,49038,1,0,0:0:0:0:
64,192,49200,1,0,0:0:0:0:
320,192,49200,1,0,0:0:0:0:
448,192,49200,1,0,0:0:0:0:
192,192,49362,1,0,0:0:0:0:
320,192,49362,1,0,0:0:0:0:
64,192,49524,1,0,0:0:0:0:
192,192,49524,1,0,0:0:0:0:
448,192,49524,1,0,0:0:0:0:
448,192,49687,1,0,0:0:0:0:
320,192,49687,1,0,0:0:0:0:
192,192,49849,1,0,0:0:0:0:
64,192,49849,1,0,0:0:0:0:
320,192,49849,1,0,0:0:0:0:
448,192,50011,1,0,0:0:0:0:
192,192,50011,1,0,0:0:0:0:
64,192,50173,1,0,0:0:0:0:
448,192,50173,1,0,0:0:0:0:
320,192,50173,1,0,0:0:0:0:
192,192,50335,1,0,0:0:0:0:
64,192,50335,1,0,0:0:0:0:
192,192,50497,1,0,0:0:0:0:
448,192,50497,1,0,0:0:0:0:
320,192,50497,1,0,0:0:0:0:
64,192,50660,1,0,0:0:0:0:
320,192,50660,1,0,0:0:0:0:
448,192,50822,1,0,0:0:0:0:
64,192,50822,1,0,0:0:0:0:
320,192,50822,1,0,0:0:0:0:
192,192,50822,1,0,0:0:0:0:
448,192,50984,1,0,0:0:0:0:
192,192,50984,1,0,0:0:0:0:
192,192,51146,1,0,0:0:0:0:
320,192,51146,1,0,0:0:0:0:
64,192,51146,1,0,0:0:0:0:
320,192,51308,1,0,0:0:0:0:
448,192,51308,1,0,0:0:0:0:
64,192,51470,1,0,0:0:0:0:
192,192,51470,1,0,0:0:0:0:
448,192,51470,1,0,0:0:0:0:
320,192,51633,1,0,0:0:0:0:
448,192,51633,1,0,0:0:0:0:
64,192,51795,1,0,0:0:0:0:
192,192,51795,1,0,0:0:0:0:
320,192,51795,1,0,0:0:0:0:
448,192,51957,1,0,0:0:0:0:
64,192,51957,1,0,0:0:0:0:
448,192,52119,1,0,0:0:0:0:
192,192,52119,1,0,0:0:0:0:
320,192,52119,1,0,0:0:0:0:
320,192,52281,1,0,0:0:0:0:
64,192,52281,1,0,0:0:0:0:
64,192,52443,1,0,0:0:0:0:
448,192,52443,1,0,0:0:0:0:
192,192,52443,1,0,0:0:0:0:
448,192,52606,1,0,0:0:0:0:
320,192,52606,1,0,0:0:0:0:
192,192,52768,1,0,0:0:0:0:
64,192,52768,1,0,0:0:0:0:
320,192,52768,1,0,0:0:0:0:
192,192,52930,1,0,0:0:0:0:
448,192,52930,1,0,0:0:0:0:
448,192,53092,1,0,0:0:0:0:
64,192,53092,1,0,0:0:0:0:
320,192,53092,1,0,0:0:0:0:
192,192,53254,1,0,0:0:0:0:
64,192,53254,1,0,0:0:0:0:
192,192,53416,1,0,0:0:0:0:
320,192,53416,1,0,0:0:0:0:
448,192,53416,1,0,0:0:0:0:
320,192,53579,1,0,0:0:0:0:
64,192,53579,1,0,0:0:0:0:
192,192,53741,1,0,0:0:0:0:
448,192,53741,1,0,0:0:0:0:
64,192,53741,1,0,0:0:0:0:
448,192,53903,1,0,0:0:0:0:
320,192,53903,1,0,0:0:0:0:
64,192,54065,1,0,0:0:0:0:
320,192,54065,1,0,0:0:0:0:
192,192,54065,1,0,0:0:0:0:
448,192,54227,1,0,0:0:0:0:
192,192,54227,1,0,0:0:0:0:
320,192,54389,1,0,0:0:0:0:
64,192,54389,1,0,0:0:0:0:
448,192,54389,1,0,0:0:0:0:
320,192,54552,1,0,0:0:0:0:
192,192,54552,1,0,0:0:0:0:
192,192,54714,1,0,0:0:0:0:
64,192,54714,1,0,0:0:0:0:
320,192,54795,1,0,0:0:0:0:
448,192,54795,1,0,0:0:0:0:
192,192,54876,1,0,0:0:0:0:
64,192,54876,1,0,0:0:0:0:
320,192,54957,1,0,0:0:0:0:
448,192,54957,1,0,0:0:0:0:
192,192,55038,1,0,0:0:0:0:
64,192,55038,1,0,0:0:0:0:
448,192,55119,1,0,0:0:0:0:
320,192,55119,1,0,0:0:0:0:
192,192,55200,1,0,0:0:0:0:
64,192,55200,1,0,0:0:0:0:
320,192,55281,1,0,0:0:0:0:
448,192,55281,1,0,0:0:0:0:
192,192,55362,1,0,0:0:0:0:
448,192,55443,1,0,0:0:0:0:
64,192,55443,1,0,0:0:0:0:
192,192,55524,1,0,0:0:0:0:
320,192,55524,1,0,0:0:0:0:
64,192,55606,1,0,0:0:0:0:
448,192,55606,1,0,0:0:0:0:
192,192,55687,1,0,0:0:0:0:
320,192,55687,1,0,0:0:0:0:
448,192,55768,1,0,0:0:0:0:
64,192,55768,1,0,0:0:0:0:
192,192,55849,1,0,0:0:0:0:
320,192,55849,1,0,0:0:0:0:
448,192,55930,1,0,0:0:0:0:
192,192,56011,1,0,0:0:0:0:
64,192,56011,1,0,0:0:0:0:
320,192,56011,1,0,0:0:0:0:
320,192,56335,128,0,56660:0:0:0:0:
192,192,56660,128,0,56984:0:0:0:0:
448,192,56984,128,0,57146:0:0:0:0:
320,192,57146,128,0,57470:0:0:0:0:
64,192,57470,128,0,57633:0:0:0:0:
192,192,57633,128,0,58281:0:0:0:0:
320,192,58281,1,0,0:0:0:0:
448,192,58281,1,0,0:0:0:0:
64,192,58281,1,0,0:0:0:0:
320,192,58606,1,0,0:0:0:0:
448,192,58606,1,0,0:0:0:0:
64,192,58606,128,0,58768:0:0:0:0:
192,192,58768,128,0,58930:0:0:0:0:
320,192,58930,128,0,59092:0:0:0:0:
192,192,59092,1,0,0:0:0:0:
64,192,59092,1,0,0:0:0:0:
448,192,59092,128,0,59254:0:0:0:0:
192,192,59416,128,0,59579:0:0:0:0:
64,192,59416,1,0,0:0:0:0:
320,192,59579,128,0,59741:0:0:0:0:
448,192,59579,1,0,0:0:0:0:
192,192,59741,128,0,61200:0:0:0:0:
64,192,59741,1,0,0:0:0:0:
448,192,59741,1,0,0:0:0:0:
320,192,61200,1,0,0:0:0:0:
448,192,61200,1,0,0:0:0:0:
64,192,61200,1,0,0:0:0:0:
192,192,61524,128,0,61849:0:0:0:0:
448,192,61849,1,0,0:0:0:0:
320,192,61849,128,0,62173:0:0:0:0:
64,192,62173,1,0,0:0:0:0:
192,192,62173,128,0,62335:0:0:0:0:
448,192,62335,128,0,62660:0:0:0:0:
320,192,62335,1,0,0:0:0:0:
64,192,62660,1,0,0:0:0:0:
192,192,62660,128,0,62822:0:0:0:0:
320,192,62822,128,0,63470:0:0:0:0:
448,192,62822,1,0,0:0:0:0:
192,192,63146,1,0,0:0:0:0:
64,192,63146,1,0,0:0:0:0:
448,192,63146,1,0,0:0:0:0:
192,192,63470,128,0,63795:0:0:0:0:
448,192,63795,1,0,0:0:0:0:
320,192,63795,1,0,0:0:0:0:
64,192,63795,128,0,63957:0:0:0:0:
192,192,63957,128,0,64119:0:0:0:0:
320,192,64119,128,0,64281:0:0:0:0:
64,192,64281,1,0,0:0:0:0:
192,192,64281,1,0,0:0:0:0:
448,192,64281,128,0,64443:0:0:0:0:
192,192,64606,128,0,64768:0:0:0:0:
320,192,64768,128,0,64930:0:0:0:0:
64,192,64930,1,0,0:0:0:0:
448,192,64930,1,0,0:0:0:0:
192,192,64930,128,0,65254:0:0:0:0:
320,192,65254,1,0,0:0:0:0:
448,192,65254,1,0,0:0:0:0:
64,192,65254,128,0,65416:0:0:0:0:
192,192,65416,128,0,65579:0:0:0:0:
448,192,65579,1,0,0:0:0:0:
64,192,65579,1,0,0:0:0:0:
320,192,65579,128,0,65741:0:0:0:0:
192,192,65903,128,0,66065:0:0:0:0:
320,192,66065,128,0,66227:0:0:0:0:
448,192,66065,1,0,0:0:0:0:
192,192,66227,128,0,66389:0:0:0:0:
64,192,66227,1,0,0:0:0:0:
320,192,66389,1,0,0:0:0:0:
448,192,66389,1,0,0:0:0:0:
64,192,66389,1,0,0:0:0:0:
192,192,66552,128,0,66714:0:0:0:0:
320,192,66714,128,0,66876:0:0:0:0:
192,192,66876,1,0,0:0:0:0:
64,192,66876,1,0,0:0:0:0:
448,192,66876,128,0,67038:0:0:0:0:
320,192,67200,128,0,67362:0:0:0:0:
192,192,67362,128,0,67524:0:0:0:0:
448,192,67524,1,0,0:0:0:0:
64,192,67524,128,0,67849:0:0:0:0:
320,192,67524,1,0,0:0:0:0:
320,192,67849,128,0,68011:0:0:0:0:
448,192,67849,1,0,0:0:0:0:
192,192,68011,128,0,68173:0:0:0:0:
64,192,68011,1,0,0:0:0:0:
320,192,68173,128,0,68497:0:0:0:0:
448,192,68173,1,0,0:0:0:0:
64,192,68173,1,0,0:0:0:0:
64,192,68497,128,0,68660:0:0:0:0:
192,192,68660,128,0,68822:0:0:0:0:
448,192,68822,128,0,68984:0:0:0:0:
320,192,68984,1,0,0:0:0:0:
192,192,68984,1,0,0:0:0:0:
64,192,68984,1,0,0:0:0:0:
64,192,69200,1,0,0:0:0:0:
448,192,69308,1,0,0:0:0:0:
192,192,69524,1,0,0:0:0:0:
320,192,69524,1,0,0:0:0:0:
64,192,69849,1,0,0:0:0:0:
192,192,69849,1,0,0:0:0:0:
192,192,70173,1,0,0:0:0:0:
320,192,70173,1,0,0:0:0:0:
320,192,70497,1,0,0:0:0:0:
448,192,70497,1,0,0:0:0:0:
192,192,70822,1,0,0:0:0:0:
320,192,70822,1,0,0:0:0:0:
64,192,71146,1,0,0:0:0:0:
192,192,71146,1,0,0:0:0:0:
448,192,71362,1,0,0:0:0:0:
192,192,71470,1,0,0:0:0:0:
64,192,71470,1,0,0:0:0:0:
320,192,71579,1,0,0:0:0:0:
448,192,71687,1,0,0:0:0:0:
192,192,71795,1,0,0:0:0:0:
320,192,71795,1,0,0:0:0:0:
64,192,71903,1,0,0:0:0:0:
192,192,72011,1,0,0:0:0:0:
448,192,72119,1,0,0:0:0:0:
320,192,72119,1,0,0:0:0:0:
192,192,72227,1,0,0:0:0:0:
64,192,72335,1,0,0:0:0:0:
192,192,72443,1,0,0:0:0:0:
320,192,72443,1,0,0:0:0:0:
448,192,72552,1,0,0:0:0:0:
320,192,72660,1,0,0:0:0:0:
64,192,72768,1,0,0:0:0:0:
192,192,72768,1,0,0:0:0:0:
320,192,72876,1,0,0:0:0:0:
448,192,72984,1,0,0:0:0:0:
320,192,73092,1,0,0:0:0:0:
192,192,73092,1,0,0:0:0:0:
64,192,73200,1,0,0:0:0:0:
192,192,73308,1,0,0:0:0:0:
320,192,73416,1,0,0:0:0:0:
448,192,73416,1,0,0:0:0:0:
192,192,73524,1,0,0:0:0:0:
64,192,73633,1,0,0:0:0:0:
320,192,73741,1,0,0:0:0:0:
192,192,73741,1,0,0:0:0:0:
448,192,73849,1,0,0:0:0:0:
320,192,73957,1,0,0:0:0:0:
192,192,74065,1,0,0:0:0:0:
64,192,74173,1,0,0:0:0:0:
320,192,74173,1,0,0:0:0:0:
448,192,74173,1,0,0:0:0:0:
192,192,74281,1,0,0:0:0:0:
320,192,74389,1,0,0:0:0:0:
448,192,74497,1,0,0:0:0:0:
64,192,74497,1,0,0:0:0:0:
192,192,74606,1,0,0:0:0:0:
320,192,74714,1,0,0:0:0:0:
448,192,74714,1,0,0:0:0:0:
192,192,74822,1,0,0:0:0:0:
320,192,74930,1,0,0:0:0:0:
64,192,75038,1,0,0:0:0:0:
448,192,75038,1,0,0:0:0:0:
320,192,75146,1,0,0:0:0:0:
192,192,75254,1,0,0:0:0:0:
64,192,75362,1,0,0:0:0:0:
448,192,75470,1,0,0:0:0:0:
320,192,75470,1,0,0:0:0:0:
192,192,75470,1,0,0:0:0:0:
64,192,75579,1,0,0:0:0:0:
320,192,75687,1,0,0:0:0:0:
192,192,75687,1,0,0:0:0:0:
448,192,75795,1,0,0:0:0:0:
320,192,75903,1,0,0:0:0:0:
192,192,76011,1,0,0:0:0:0:
64,192,76119,1,0,0:0:0:0:
448,192,76119,1,0,0:0:0:0:
320,192,76119,1,0,0:0:0:0:
192,192,76227,1,0,0:0:0:0:
448,192,76335,1,0,0:0:0:0:
320,192,76335,1,0,0:0:0:0:
64,192,76443,1,0,0:0:0:0:
192,192,76552,1,0,0:0:0:0:
320,192,76660,1,0,0:0:0:0:
64,192,76768,1,0,0:0:0:0:
448,192,76768,1,0,0:0:0:0:
192,192,76768,1,0,0:0:0:0:
320,192,76876,1,0,0:0:0:0:
192,192,76984,1,0,0:0:0:0:
448,192,77092,1,0,0:0:0:0:
64,192,77092,1,0,0:0:0:0:
320,192,77092,1,0,0:0:0:0:
192,192,77200,1,0,0:0:0:0:
320,192,77308,1,0,0:0:0:0:
64,192,77416,1,0,0:0:0:0:
448,192,77416,1,0,0:0:0:0:
192,192,77416,1,0,0:0:0:0:
320,192,77524,1,0,0:0:0:0:
192,192,77633,1,0,0:0:0:0:
448,192,77741,1,0,0:0:0:0:
64,192,77741,1,0,0:0:0:0:
320,192,77741,1,0,0:0:0:0:
192,192,77849,1,0,0:0:0:0:
320,192,77957,1,0,0:0:0:0:
64,192,78065,1,0,0:0:0:0:
192,192,78065,1,0,0:0:0:0:
448,192,78173,1,0,0:0:0:0:
320,192,78173,1,0,0:0:0:0:
192,192,78281,1,0,0:0:0:0:
64,192,78281,1,0,0:0:0:0:
320,192,78389,1,0,0:0:0:0:
448,192,78389,1,0,0:0:0:0:
192,192,78497,1,0,0:0:0:0:
64,192,78497,1,0,0:0:0:0:
448,192,78606,1,0,0:0:0:0:
320,192,78606,1,0,0:0:0:0:
192,192,78714,1,0,0:0:0:0:
64,192,78714,1,0,0:0:0:0:
448,192,78822,1,0,0:0:0:0:
320,192,78822,1,0,0:0:0:0:
192,192,78930,1,0,0:0:0:0:
64,192,78930,1,0,0:0:0:0:
320,192,79038,1,0,0:0:0:0:
448,192,79038,1,0,0:0:0:0:
192,192,79146,1,0,0:0:0:0:
64,192,79146,1,0,0:0:0:0:
320,192,79254,1,0,0:0:0:0:
448,192,79254,1,0,0:0:0:0:
192,192,79362,1,0,0:0:0:0:
64,192,79362,1,0,0:0:0:0:
448,192,79362,1,0,0:0:0:0:
320,192,79470,1,0,0:0:0:0:
192,192,79579,1,0,0:0:0:0:
448,192,79687,1,0,0:0:0:0:
64,192,79687,1,0,0:0:0:0:
320,192,79795,1,0,0:0:0:0:
192,192,79903,1,0,0:0:0:0:
320,192,80011,1,0,0:0:0:0:
448,192,80011,1,0,0:0:0:0:
64,192,80119,1,0,0:0:0:0:
192,192,80227,1,0,0:0:0:0:
320,192,80335,1,0,0:0:0:0:
448,192,80335,1,0,0:0:0:0:
64,192,80443,1,0,0:0:0:0:
192,192,80552,1,0,0:0:0:0:
320,192,80660,1,0,0:0:0:0:
64,192,80660,1,0,0:0:0:0:
448,192,80768,1,0,0:0:0:0:
320,192,80876,1,0,0:0:0:0:
192,192,80984,1,0,0:0:0:0:
64,192,80984,1,0,0:0:0:0:
320,192,81092,1,0,0:0:0:0:
448,192,81200,1,0,0:0:0:0:
192,192,81308,1,0,0:0:0:0:
320,192,81308,1,0,0:0:0:0:
64,192,81416,1,0,0:0:0:0:
192,192,81524,1,0,0:0:0:0:
320,192,81633,1,0,0:0:0:0:
448,192,81633,1,0,0:0:0:0:
192,192,81741,1,0,0:0:0:0:
64,192,81849,1,0,0:0:0:0:
320,192,81957,1,0,0:0:0:0:
192,192,81957,1,0,0:0:0:0:
448,192,82065,1,0,0:0:0:0:
320,192,82173,1,0,0:0:0:0:
192,192,82281,1,0,0:0:0:0:
64,192,82281,1,0,0:0:0:0:
320,192,82389,1,0,0:0:0:0:
448,192,82497,1,0,0:0:0:0:
320,192,82606,1,0,0:0:0:0:
192,192,82606,1,0,0:0:0:0:
64,192,82714,1,0,0:0:0:0:
192,192,82822,1,0,0:0:0:0:
320,192,82930,1,0,0:0:0:0:
448,192,82930,1,0,0:0:0:0:
192,192,83038,1,0,0:0:0:0:
64,192,83146,1,0,0:0:0:0:
192,192,83254,1,0,0:0:0:0:
320,192,83254,1,0,0:0:0:0:
448,192,83362,1,0,0:0:0:0:
320,192,83470,1,0,0:0:0:0:
192,192,83579,1,0,0:0:0:0:
64,192,83579,1,0,0:0:0:0:
320,192,83687,1,0,0:0:0:0:
448,192,83795,1,0,0:0:0:0:
320,192,83903,1,0,0:0:0:0:
192,192,83903,1,0,0:0:0:0:
64,192,84011,1,0,0:0:0:0:
192,192,84119,1,0,0:0:0:0:
320,192,84227,1,0,0:0:0:0:
448,192,84227,1,0,0:0:0:0:
192,192,84335,1,0,0:0:0:0:
320,192,84443,1,0,0:0:0:0:
448,192,84552,1,0,0:0:0:0:
192,192,84552,1,0,0:0:0:0:
64,192,84552,1,0,0:0:0:0:
320,192,84660,1,0,0:0:0:0:
192,192,84768,1,0,0:0:0:0:
320,192,84876,1,0,0:0:0:0:
448,192,84876,1,0,0:0:0:0:
192,192,84984,1,0,0:0:0:0:
64,192,85092,1,0,0:0:0:0:
192,192,85200,1,0,0:0:0:0:
320,192,85200,1,0,0:0:0:0:
448,192,85308,1,0,0:0:0:0:
320,192,85416,1,0,0:0:0:0:
64,192,85524,1,0,0:0:0:0:
192,192,85524,1,0,0:0:0:0:
320,192,85633,1,0,0:0:0:0:
448,192,85741,1,0,0:0:0:0:
192,192,85849,1,0,0:0:0:0:
320,192,85849,1,0,0:0:0:0:
64,192,85957,1,0,0:0:0:0:
192,192,86065,1,0,0:0:0:0:
320,192,86173,1,0,0:0:0:0:
448,192,86173,1,0,0:0:0:0:
192,192,86281,1,0,0:0:0:0:
64,192,86389,1,0,0:0:0:0:
192,192,86497,1,0,0:0:0:0:
320,192,86497,1,0,0:0:0:0:
448,192,86606,1,0,0:0:0:0:
320,192,86714,1,0,0:0:0:0:
64,192,86822,1,0,0:0:0:0:
192,192,86822,1,0,0:0:0:0:
320,192,86930,1,0,0:0:0:0:
448,192,87038,1,0,0:0:0:0:
192,192,87146,1,0,0:0:0:0:
320,192,87146,1,0,0:0:0:0:
64,192,87254,1,0,0:0:0:0:
192,192,87362,1,0,0:0:0:0:
320,192,87470,1,0,0:0:0:0:
448,192,87470,1,0,0:0:0:0:
192,192,87579,1,0,0:0:0:0:
64,192,87687,1,0,0:0:0:0:
192,192,87795,1,0,0:0:0:0:
320,192,87795,1,0,0:0:0:0:
448,192,87903,1,0,0:0:0:0:
320,192,88011,1,0,0:0:0:0:
192,192,88119,1,0,0:0:0:0:
64,192,88119,1,0,0:0:0:0:
448,192,88227,1,0,0:0:0:0:
320,192,88335,1,0,0:0:0:0:
192,192,88443,1,0,0:0:0:0:
64,192,88443,1,0,0:0:0:0:
448,192,88443,1,0,0:0:0:0:
320,192,88552,1,0,0:0:0:0:
192,192,88660,1,0,0:0:0:0:
448,192,88768,1,0,0:0:0:0:
64,192,88768,1,0,0:0:0:0:
320,192,88849,1,0,0:0:0:0:
192,192,88930,1,0,0:0:0:0:
64,192,89011,1,0,0:0:0:0:
320,192,89092,1,0,0:0:0:0:
192,192,89092,1,0,0:0:0:0:
448,192,89173,1,0,0:0:0:0:
320,192,89254,1,0,0:0:0:0:
192,192,89335,1,0,0:0:0:0:
320,192,89416,1,0,0:0:0:0:
448,192,89416,1,0,0:0:0:0:
192,192,89497,1,0,0:0:0:0:
64,192,89497,1,0,0:0:0:0:
320,192,89579,1,0,0:0:0:0:
448,192,89579,1,0,0:0:0:0:
192,192,89660,1,0,0:0:0:0:
64,192,89660,1,0,0:0:0:0:
320,192,89741,1,0,0:0:0:0:
448,192,89741,1,0,0:0:0:0:
64,192,89741,1,0,0:0:0:0:
192,192,89903,1,0,0:0:0:0:
320,192,89984,1,0,0:0:0:0:
448,192,90065,1,0,0:0:0:0:
64,192,90065,1,0,0:0:0:0:
192,192,90146,1,0,0:0:0:0:
320,192,90227,1,0,0:0:0:0:
64,192,90389,1,0,0:0:0:0:
192,192,90389,1,0,0:0:0:0:
448,192,90470,1,0,0:0:0:0:
320,192,90552,1,0,0:0:0:0:
192,192,90633,1,0,0:0:0:0:
64,192,90714,1,0,0:0:0:0:
448,192,90714,1,0,0:0:0:0:
320,192,90795,1,0,0:0:0:0:
192,192,90876,1,0,0:0:0:0:
64,192,90957,1,0,0:0:0:0:
320,192,91038,1,0,0:0:0:0:
448,192,91038,1,0,0:0:0:0:
64,192,91200,1,0,0:0:0:0:
192,192,91281,1,0,0:0:0:0:
320,192,91362,1,0,0:0:0:0:
448,192,91362,1,0,0:0:0:0:
64,192,91443,1,0,0:0:0:0:
192,192,91524,1,0,0:0:0:0:
320,192,91687,1,0,0:0:0:0:
448,192,91687,1,0,0:0:0:0:
64,192,91768,1,0,0:0:0:0:
192,192,91849,1,0,0:0:0:0:
320,192,91930,1,0,0:0:0:0:
448,192,92011,1,0,0:0:0:0:
64,192,92011,1,0,0:0:0:0:
192,192,92092,1,0,0:0:0:0:
320,192,92173,1,0,0:0:0:0:
448,192,92254,1,0,0:0:0:0:
64,192,92335,1,0,0:0:0:0:
192,192,92335,1,0,0:0:0:0:
320,192,92416,1,0,0:0:0:0:
192,192,92497,1,0,0:0:0:0:
64,192,92579,1,0,0:0:0:0:
320,192,92660,1,0,0:0:0:0:
448,192,92660,1,0,0:0:0:0:
192,192,92741,1,0,0:0:0:0:
64,192,92822,1,0,0:0:0:0:
192,192,92984,1,0,0:0:0:0:
320,192,92984,1,0,0:0:0:0:
448,192,93065,1,0,0:0:0:0:
320,192,93146,1,0,0:0:0:0:
192,192,93227,1,0,0:0:0:0:
64,192,93308,1,0,0:0:0:0:
448,192,93308,1,0,0:0:0:0:
320,192,93389,1,0,0:0:0:0:
192,192,93470,1,0,0:0:0:0:
320,192,93633,1,0,0:0:0:0:
448,192,93633,1,0,0:0:0:0:
192,192,93795,1,0,0:0:0:0:
320,192,93876,1,0,0:0:0:0:
448,192,93957,1,0,0:0:0:0:
64,192,93957,1,0,0:0:0:0:
192,192,94038,1,0,0:0:0:0:
320,192,94119,1,0,0:0:0:0:
448,192,94281,1,0,0:0:0:0:
64,192,94281,1,0,0:0:0:0:
192,192,94443,1,0,0:0:0:0:
320,192,94524,1,0,0:0:0:0:
448,192,94606,1,0,0:0:0:0:
64,192,94606,1,0,0:0:0:0:
192,192,94687,1,0,0:0:0:0:
320,192,94768,1,0,0:0:0:0:
448,192,94849,1,0,0:0:0:0:
64,192,94930,1,0,0:0:0:0:
192,192,94930,1,0,0:0:0:0:
320,192,95092,1,0,0:0:0:0:
448,192,95173,1,0,0:0:0:0:
192,192,95254,1,0,0:0:0:0:
320,192,95254,1,0,0:0:0:0:
64,192,95335,1,0,0:0:0:0:
192,192,95416,1,0,0:0:0:0:
320,192,95579,1,0,0:0:0:0:
448,192,95579,1,0,0:0:0:0:
64,192,95660,1,0,0:0:0:0:
192,192,95741,1,0,0:0:0:0:
320,192,95822,1,0,0:0:0:0:
448,192,95903,1,0,0:0:0:0:
64,192,95903,1,0,0:0:0:0:
192,192,95984,1,0,0:0:0:0:
320,192,96065,1,0,0:0:0:0:
448,192,96146,1,0,0:0:0:0:
64,192,96227,1,0,0:0:0:0:
192,192,96227,1,0,0:0:0:0:
320,192,96389,1,0,0:0:0:0:
448,192,96470,1,0,0:0:0:0:
192,192,96552,1,0,0:0:0:0:
320,192,96552,1,0,0:0:0:0:
64,192,96633,1,0,0:0:0:0:
192,192,96714,1,0,0:0:0:0:
320,192,96876,1,0,0:0:0:0:
448,192,96876,1,0,0:0:0:0:
64,192,96957,1,0,0:0:0:0:
192,192,97038,1,0,0:0:0:0:
320,192,97119,1,0,0:0:0:0:
448,192,97200,1,0,0:0:0:0:
64,192,97200,1,0,0:0:0:0:
192,192,97281,1,0,0:0:0:0:
320,192,97362,1,0,0:0:0:0:
448,192,97443,1,0,0:0:0:0:
64,192,97524,1,0,0:0:0:0:
192,192,97524,1,0,0:0:0:0:
448,192,97606,1,0,0:0:0:0:
320,192,97687,1,0,0:0:0:0:
192,192,97768,1,0,0:0:0:0:
64,192,97849,1,0,0:0:0:0:
448,192,97849,1,0,0:0:0:0:
320,192,97930,1,0,0:0:0:0:
192,192,98011,1,0,0:0:0:0:
320,192,98173,1,0,0:0:0:0:
448,192,98173,1,0,0:0:0:0:
192,192,98254,1,0,0:0:0:0:
64,192,98335,1,0,0:0:0:0:
192,192,98497,1,0,0:0:0:0:
320,192,98497,1,0,0:0:0:0:
448,192,98579,1,0,0:0:0:0:
320,192,98660,1,0,0:0:0:0:
192,192,98822,1,0,0:0:0:0:
64,192,98822,1,0,0:0:0:0:
448,192,98984,1,0,0:0:0:0:
320,192,99065,1,0,0:0:0:0:
64,192,99146,1,0,0:0:0:0:
192,192,99227,1,0,0:0:0:0:
448,192,99308,1,0,0:0:0:0:
320,192,99389,1,0,0:0:0:0:
64,192,99470,1,0,0:0:0:0:
192,192,99470,1,0,0:0:0:0:
448,192,99470,1,0,0:0:0:0:
320,192,99714,1,0,0:0:0:0:
448,192,99714,1,0,0:0:0:0:
64,192,99714,1,0,0:0:0:0:
64,192,99957,1,0,0:0:0:0:
192,192,99957,1,0,0:0:0:0:
448,192,99957,1,0,0:0:0:0:
448,192,100119,1,0,0:0:0:0:
320,192,100119,1,0,0:0:0:0:
64,192,100119,1,0,0:0:0:0:
192,192,100281,1,0,0:0:0:0:
320,192,100362,1,0,0:0:0:0:
448,192,100443,1,0,0:0:0:0:
64,192,100443,1,0,0:0:0:0:
192,192,100524,1,0,0:0:0:0:
320,192,100606,1,0,0:0:0:0:
448,192,100687,1,0,0:0:0:0:
64,192,100768,1,0,0:0:0:0:
192,192,100768,1,0,0:0:0:0:
448,192,100849,1,0,0:0:0:0:
320,192,100930,1,0,0:0:0:0:
192,192,101011,1,0,0:0:0:0:
64,192,101092,1,0,0:0:0:0:
448,192,101092,1,0,0:0:0:0:
320,192,101173,1,0,0:0:0:0:
192,192,101254,1,0,0:0:0:0:
320,192,101416,1,0,0:0:0:0:
448,192,101416,1,0,0:0:0:0:
64,192,101416,1,0,0:0:0:0:
192,192,101579,1,0,0:0:0:0:
320,192,101660,1,0,0:0:0:0:
192,192,101822,1,0,0:0:0:0:
320,192,101903,1,0,0:0:0:0:
448,192,101903,1,0,0:0:0:0:
64,192,101903,1,0,0:0:0:0:
192,192,102065,1,0,0:0:0:0:
320,192,102146,1,0,0:0:0:0:
64,192,102227,1,0,0:0:0:0:
192,192,102308,1,0,0:0:0:0:
320,192,102389,1,0,0:0:0:0:
448,192,102389,1,0,0:0:0:0:
64,192,102389,1,0,0:0:0:0:
192,192,102470,1,0,0:0:0:0:
448,192,102552,1,0,0:0:0:0:
320,192,102633,1,0,0:0:0:0:
192,192,102714,1,0,0:0:0:0:
64,192,102714,1,0,0:0:0:0:
448,192,102714,1,0,0:0:0:0:
320,192,102795,1,0,0:0:0:0:
192,192,102876,1,0,0:0:0:0:
64,192,102957,1,0,0:0:0:0:
320,192,103038,1,0,0:0:0:0:
448,192,103038,1,0,0:0:0:0:
192,192,103119,1,0,0:0:0:0:
320,192,103200,1,0,0:0:0:0:
192,192,103281,1,0,0:0:0:0:
64,192,103362,1,0,0:0:0:0:
448,192,103362,1,0,0:0:0:0:
192,192,103443,1,0,0:0:0:0:
320,192,103524,1,0,0:0:0:0:
448,192,103606,1,0,0:0:0:0:
192,192,103687,1,0,0:0:0:0:
64,192,103687,1,0,0:0:0:0:
320,192,103768,1,0,0:0:0:0:
448,192,103849,1,0,0:0:0:0:
64,192,104011,1,0,0:0:0:0:
448,192,104011,1,0,0:0:0:0:
320,192,104011,1,0,0:0:0:0:
192,192,104173,1,0,0:0:0:0:
320,192,104254,1,0,0:0:0:0:
64,192,104335,1,0,0:0:0:0:
192,192,104416,1,0,0:0:0:0:
448,192,104497,1,0,0:0:0:0:
320,192,104579,1,0,0:0:0:0:
192,192,104660,1,0,0:0:0:0:
448,192,104660,1,0,0:0:0:0:
64,192,104660,1,0,0:0:0:0:
320,192,104903,1,0,0:0:0:0:
448,192,104903,1,0,0:0:0:0:
64,192,104903,1,0,0:0:0:0:
64,192,105146,1,0,0:0:0:0:
192,192,105146,1,0,0:0:0:0:
448,192,105146,1,0,0:0:0:0:
448,192,105308,1,0,0:0:0:0:
320,192,105308,1,0,0:0:0:0:
64,192,105308,1,0,0:0:0:0:
192,192,105470,1,0,0:0:0:0:
320,192,105552,1,0,0:0:0:0:
64,192,105633,1,0,0:0:0:0:
448,192,105633,1,0,0:0:0:0:
192,192,105714,1,0,0:0:0:0:
320,192,105795,1,0,0:0:0:0:
64,192,105957,1,0,0:0:0:0:
192,192,105957,1,0,0:0:0:0:
448,192,106038,1,0,0:0:0:0:
320,192,106119,1,0,0:0:0:0:
192,192,106200,1,0,0:0:0:0:
64,192,106281,1,0,0:0:0:0:
448,192,106281,1,0,0:0:0:0:
192,192,106443,1,0,0:0:0:0:
320,192,106443,1,0,0:0:0:0:
448,192,106606,1,0,0:0:0:0:
320,192,106606,1,0,0:0:0:0:
64,192,106606,1,0,0:0:0:0:
192,192,106768,1,0,0:0:0:0:
320,192,106849,1,0,0:0:0:0:
448,192,106930,1,0,0:0:0:0:
64,192,106930,1,0,0:0:0:0:
192,192,107011,1,0,0:0:0:0:
320,192,107092,1,0,0:0:0:0:
64,192,107254,1,0,0:0:0:0:
192,192,107254,1,0,0:0:0:0:
448,192,107335,1,0,0:0:0:0:
320,192,107416,1,0,0:0:0:0:
192,192,107497,1,0,0:0:0:0:
64,192,107497,1,0,0:0:0:0:
320,192,107579,1,0,0:0:0:0:
448,192,107579,1,0,0:0:0:0:
64,192,107741,1,0,0:0:0:0:
192,192,107741,1,0,0:0:0:0:
320,192,107903,1,0,0:0:0:0:
448,192,107903,1,0,0:0:0:0:
64,192,107903,1,0,0:0:0:0:
192,192,108065,1,0,0:0:0:0:
320,192,108065,1,0,0:0:0:0:
64,192,108227,1,0,0:0:0:0:
448,192,108227,1,0,0:0:0:0:
192,192,108389,1,0,0:0:0:0:
320,192,108389,1,0,0:0:0:0:
320,192,108552,5,0,0:0:0:0:
448,192,108552,1,0,0:0:0:0:
64,192,108633,1,0,0:0:0:0:
192,192,108633,1,0,0:0:0:0:
320,192,108714,1,0,0:0:0:0:
448,192,108714,1,0,0:0:0:0:
192,192,108795,1,0,0:0:0:0:
64,192,108795,1,0,0:0:0:0:
320,192,108876,1,0,0:0:0:0:
448,192,108876,1,0,0:0:0:0:
192,192,108957,1,0,0:0:0:0:
64,192,108957,1,0,0:0:0:0:
448,192,109038,1,0,0:0:0:0:
320,192,109038,1,0,0:0:0:0:
192,192,109119,1,0,0:0:0:0:
64,192,109119,1,0,0:0:0:0:
448,192,109200,1,0,0:0:0:0:
320,192,109200,1,0,0:0:0:0:
64,192,109200,1,0,0:0:0:0:
448,192,109362,1,0,0:0:0:0:
64,192,109443,1,0,0:0:0:0:
320,192,109443,1,0,0:0:0:0:
192,192,109443,1,0,0:0:0:0:
64,192,109606,1,0,0:0:0:0:
192,192,109687,1,0,0:0:0:0:
448,192,109687,1,0,0:0:0:0:
320,192,109687,1,0,0:0:0:0:
448,192,109849,1,0,0:0:0:0:
320,192,109849,1,0,0:0:0:0:
64,192,109849,1,0,0:0:0:0:
192,192,110092,1,0,0:0:0:0:
64,192,110092,1,0,0:0:0:0:
448,192,110092,1,0,0:0:0:0:
448,192,110335,1,0,0:0:0:0:
320,192,110335,1,0,0:0:0:0:
64,192,110335,1,0,0:0:0:0:
192,192,110497,1,0,0:0:0:0:
64,192,110497,1,0,0:0:0:0:
320,192,110497,1,0,0:0:0:0:
448,192,110497,1,0,0:0:0:0:
448,192,110660,128,0,111876:0:0:0:0:
320,192,110984,128,0,112200:0:0:0:0:
192,192,111308,128,0,112524:0:0:0:0:
64,192,111633,128,0,112849:0:0:0:0:
448,192,111957,128,0,113011:0:0:0:0:
320,192,112281,128,0,113011:0:0:0:0:
192,192,112606,128,0,113011:0:0:0:0:
64,192,112930,128,0,113092:0:0:0:0:
320,192,113092,1,0,0:0:0:0:
448,192,113092,1,0,0:0:0:0:
192,192,113092,1,0,0:0:0:0:
