osu file format v14

[General]
AudioFilename: Kissing Lucifer.mp3
AudioLeadIn: 0
PreviewTime: 45194
Countdown: 0
SampleSet: Drum
StackLeniency: 0.2
Mode: 3
LetterboxInBreaks: 0
StoryFireInFront: 0
SpecialStyle: 0
WidescreenStoryboard: 0

[Editor]
Bookmarks: 0
DistanceSpacing: 1
BeatDivisor: 16
GridSize: 4
TimelineZoom: 3

[Metadata]
Title:Kissing Lucifer
TitleUnicode:Kissing Lucifer
Artist:ETIA.
ArtistUnicode:ETIA.
Creator:AelSan
Version:hinako's BEYOND
Source:Arcaea
Tags:video game instrumental electronic future riddim color bass colorbass 維塔 Vita ヴィータ lowiro limited tech technical [Crz]hinako1804 icecake baigu678
BeatmapID:3917505
BeatmapSetID:1900508

[Difficulty]
HPDrainRate:8
CircleSize:4
OverallDifficulty:7.5
ApproachRate:3
SliderMultiplier:1
SliderTickRate:1

[Events]
//Background and Video events
0,0,"36987cadd0be744d.jpg",0,0
//Break Periods
//Storyboard Layer 0 (Background)
//Storyboard Layer 1 (Fail)
//Storyboard Layer 2 (Pass)
//Storyboard Layer 3 (Foreground)
//Storyboard Layer 4 (Overlay)
//Storyboard Sound Samples

[TimingPoints]
1430,352.941176470588,4,3,1,80,1,0
105900,-100,4,3,1,80,0,1
124253,-100,4,3,1,80,0,0
126106,-100,4,3,1,80,0,1
137312,-100,4,3,1,80,0,0

[Colours]
Combo1 : 255,0,0
Combo2 : 0,255,0
Combo3 : 0,0,255
Combo4 : 255,255,0
Combo5 : 0,255,255
Combo6 : 255,0,255

[HitObjects]
192,192,1077,5,0,0:0:0:0:
64,192,1135,1,0,0:0:0:0:
320,192,1194,1,0,0:0:0:0:
192,192,1253,1,0,0:0:0:0:
448,192,1312,1,0,0:0:0:0:
320,192,1371,1,0,0:0:0:0:
192,192,1430,5,0,0:0:0:0:
64,192,1430,1,0,0:0:0:0:
448,192,1606,128,0,1782:0:0:0:0:
192,192,1782,128,0,2135:0:0:0:0:
64,192,2135,1,0,0:0:0:0:
320,192,2312,128,0,2444:0:0:0:0:
64,192,2488,128,0,2753:0:0:0:0:
192,192,2841,1,0,0:0:0:0:
448,192,3018,128,0,3106:0:0:0:0:
192,192,3194,128,0,3371:0:0:0:0:
64,192,3547,1,0,0:0:0:0:
320,192,3724,1,0,0:0:0:0:
64,192,3900,128,0,3988:0:0:0:0:
448,192,4253,1,0,0:0:0:0:
64,192,4253,1,0,0:0:0:0:
192,192,5665,5,0,0:0:0:0:
192,192,5929,1,0,0:0:0:0:
192,192,7077,5,0,0:0:0:0:
192,192,7341,1,0,0:0:0:0:
192,192,8488,1,0,0:0:0:0:
192,192,9900,1,0,0:0:0:0:
192,192,10165,1,0,0:0:0:0:
192,192,11312,1,0,0:0:0:0:
192,192,11577,1,0,0:0:0:0:
64,192,11665,128,0,11753:0:0:0:0:
448,192,11841,128,0,11974:0:0:0:0:
64,192,12018,128,0,12194:0:0:0:0:
448,192,12194,128,0,12415:0:0:0:0:
64,192,12371,128,0,12635:0:0:0:0:
448,192,12547,128,0,12724:0:0:0:0:
64,192,12724,1,0,0:0:0:0:
192,192,12724,1,0,0:0:0:0:
320,192,12724,1,0,0:0:0:0:
192,192,12900,1,0,0:0:0:0:
64,192,12988,1,0,0:0:0:0:
448,192,13077,1,0,0:0:0:0:
192,192,13135,1,0,0:0:0:0:
448,192,13194,1,0,0:0:0:0:
320,192,13253,1,0,0:0:0:0:
192,192,13341,1,0,0:0:0:0:
448,192,13429,1,0,0:0:0:0:
64,192,13429,128,0,13518:0:0:0:0:
320,95,13606,1,0,0:0:0:0:
320,0,13782,1,0,0:0:0:0:
192,96,13959,1,0,0:0:0:0:
64,192,14135,1,0,0:0:0:0:
64,288,14312,1,0,0:0:0:0:
448,384,14488,1,0,0:0:0:0:
192,384,14488,1,0,0:0:0:0:
320,288,14665,1,0,0:0:0:0:
64,192,14841,128,0,14929:0:0:0:0:
448,192,14841,1,0,0:0:0:0:
192,192,15018,1,0,0:0:0:0:
320,192,15106,1,0,0:0:0:0:
64,192,15194,1,0,0:0:0:0:
320,192,15253,1,0,0:0:0:0:
64,192,15312,1,0,0:0:0:0:
192,192,15371,1,0,0:0:0:0:
64,192,15547,1,0,0:0:0:0:
448,192,15547,1,0,0:0:0:0:
320,192,15724,1,0,0:0:0:0:
192,192,15812,1,0,0:0:0:0:
448,192,15900,1,0,0:0:0:0:
192,192,15959,1,0,0:0:0:0:
448,192,16018,1,0,0:0:0:0:
320,192,16077,1,0,0:0:0:0:
64,192,16253,128,0,16341:0:0:0:0:
448,192,16253,1,0,0:0:0:0:
192,192,16429,1,0,0:0:0:0:
320,192,16606,1,0,0:0:0:0:
64,96,16782,1,0,0:0:0:0:
448,96,16782,1,0,0:0:0:0:
192,192,16959,1,0,0:0:0:0:
448,192,17135,1,0,0:0:0:0:
64,192,17135,1,0,0:0:0:0:
192,192,17194,1,0,0:0:0:0:
448,192,17253,1,0,0:0:0:0:
64,384,17312,1,0,0:0:0:0:
320,192,17312,1,0,0:0:0:0:
192,287,17488,1,0,0:0:0:0:
320,192,17577,1,0,0:0:0:0:
448,192,17665,1,0,0:0:0:0:
64,192,17665,128,0,17753:0:0:0:0:
192,95,17841,1,0,0:0:0:0:
320,95,17841,1,0,0:0:0:0:
448,192,18018,1,0,0:0:0:0:
192,192,18106,1,0,0:0:0:0:
448,192,18194,1,0,0:0:0:0:
64,192,18282,1,0,0:0:0:0:
448,192,18371,1,0,0:0:0:0:
192,192,18371,1,0,0:0:0:0:
320,192,18547,1,0,0:0:0:0:
192,192,18724,1,0,0:0:0:0:
64,192,18782,1,0,0:0:0:0:
320,192,18841,1,0,0:0:0:0:
64,192,18900,1,0,0:0:0:0:
320,192,18988,1,0,0:0:0:0:
64,192,19077,128,0,19165:0:0:0:0:
448,192,19077,1,0,0:0:0:0:
320,192,19253,1,0,0:0:0:0:
320,192,19429,1,0,0:0:0:0:
192,192,19606,1,0,0:0:0:0:
64,192,19782,1,0,0:0:0:0:
64,192,19959,1,0,0:0:0:0:
448,384,20135,1,0,0:0:0:0:
192,192,20135,1,0,0:0:0:0:
320,192,20312,1,0,0:0:0:0:
448,192,20488,1,0,0:0:0:0:
64,192,20488,128,0,20577:0:0:0:0:
64,192,20665,1,0,0:0:0:0:
320,192,20665,1,0,0:0:0:0:
192,192,20753,1,0,0:0:0:0:
320,192,20841,1,0,0:0:0:0:
448,192,20900,1,0,0:0:0:0:
192,192,20959,1,0,0:0:0:0:
448,192,21018,1,0,0:0:0:0:
192,192,21194,1,0,0:0:0:0:
320,192,21194,1,0,0:0:0:0:
192,192,21900,1,0,0:0:0:0:
192,192,22165,1,0,0:0:0:0:
320,192,22606,128,0,22782:0:0:0:0:
448,192,22959,128,0,23047:0:0:0:0:
64,192,23135,128,0,23224:0:0:0:0:
448,192,23488,1,0,0:0:0:0:
320,192,23665,1,0,0:0:0:0:
64,192,23731,1,0,0:0:0:0:
192,192,23812,1,0,0:0:0:0:
448,192,23863,1,0,0:0:0:0:
320,192,23917,1,0,0:0:0:0:
192,192,23967,1,0,0:0:0:0:
448,192,24018,128,0,24106:0:0:0:0:
64,192,24018,1,0,0:0:0:0:
192,192,24106,1,0,0:0:0:0:
320,192,24194,1,0,0:0:0:0:
320,192,24371,128,0,24459:0:0:0:0:
64,192,24371,1,0,0:0:0:0:
448,192,24459,128,0,24547:0:0:0:0:
192,192,24459,1,0,0:0:0:0:
320,192,24635,128,0,24724:0:0:0:0:
448,192,24635,128,0,24724:0:0:0:0:
192,192,24635,128,0,24724:0:0:0:0:
64,192,24724,1,0,0:0:0:0:
192,192,24812,1,0,0:0:0:0:
320,192,24900,1,0,0:0:0:0:
320,192,25077,1,0,0:0:0:0:
64,192,25077,128,0,25165:0:0:0:0:
448,192,25165,1,0,0:0:0:0:
192,192,25165,128,0,25253:0:0:0:0:
192,192,25341,128,0,25429:0:0:0:0:
320,192,25341,128,0,25429:0:0:0:0:
64,192,25429,1,0,0:0:0:0:
192,192,25518,1,0,0:0:0:0:
320,192,25606,1,0,0:0:0:0:
320,192,25782,128,0,25871:0:0:0:0:
64,192,25782,1,0,0:0:0:0:
448,192,25871,128,0,25959:0:0:0:0:
192,192,25871,1,0,0:0:0:0:
192,192,26047,128,0,26135:0:0:0:0:
320,192,26047,128,0,26135:0:0:0:0:
448,192,26047,128,0,26135:0:0:0:0:
64,192,26135,1,0,0:0:0:0:
192,192,26224,1,0,0:0:0:0:
320,192,26312,1,0,0:0:0:0:
64,192,26488,128,0,26577:0:0:0:0:
320,192,26488,1,0,0:0:0:0:
192,192,26577,128,0,26665:0:0:0:0:
448,192,26577,1,0,0:0:0:0:
192,192,26753,128,0,26841:0:0:0:0:
320,192,26753,128,0,26841:0:0:0:0:
64,192,26841,1,0,0:0:0:0:
192,192,26929,1,0,0:0:0:0:
320,192,27018,1,0,0:0:0:0:
320,192,27194,128,0,27282:0:0:0:0:
64,192,27194,1,0,0:0:0:0:
448,192,27282,128,0,27371:0:0:0:0:
192,192,27282,1,0,0:0:0:0:
320,192,27459,128,0,27547:0:0:0:0:
448,192,27459,128,0,27547:0:0:0:0:
192,192,27459,128,0,27547:0:0:0:0:
64,192,27547,1,0,0:0:0:0:
192,192,27635,1,0,0:0:0:0:
320,192,27724,1,0,0:0:0:0:
64,192,27900,128,0,27988:0:0:0:0:
320,192,27900,1,0,0:0:0:0:
192,192,27988,128,0,28077:0:0:0:0:
448,192,27988,1,0,0:0:0:0:
192,192,28165,128,0,28253:0:0:0:0:
320,192,28165,128,0,28253:0:0:0:0:
64,192,28253,1,0,0:0:0:0:
192,192,28341,1,0,0:0:0:0:
320,192,28429,1,0,0:0:0:0:
320,192,28606,128,0,28694:0:0:0:0:
64,192,28606,1,0,0:0:0:0:
448,192,28694,128,0,28782:0:0:0:0:
192,192,28694,1,0,0:0:0:0:
192,192,28871,128,0,28959:0:0:0:0:
320,192,28871,128,0,28959:0:0:0:0:
448,192,28871,128,0,28959:0:0:0:0:
64,192,28959,128,0,29047:0:0:0:0:
320,192,29047,128,0,29135:0:0:0:0:
192,192,29135,128,0,29224:0:0:0:0:
320,192,29224,128,0,29312:0:0:0:0:
448,192,29312,128,0,29488:0:0:0:0:
320,192,29400,128,0,29577:0:0:0:0:
192,192,29488,128,0,29665:0:0:0:0:
64,192,29577,128,0,29665:0:0:0:0:
320,192,29665,1,0,0:0:0:0:
448,192,29665,1,0,0:0:0:0:
192,192,29753,1,0,0:0:0:0:
192,192,29841,1,0,0:0:0:0:
320,192,30018,128,0,30106:0:0:0:0:
64,192,30018,128,0,30106:0:0:0:0:
448,192,30106,128,0,30194:0:0:0:0:
192,192,30106,128,0,30194:0:0:0:0:
320,192,30282,128,0,30371:0:0:0:0:
448,192,30282,128,0,30371:0:0:0:0:
192,192,30282,128,0,30371:0:0:0:0:
64,192,30371,1,0,0:0:0:0:
320,192,30459,1,0,0:0:0:0:
320,192,30547,1,0,0:0:0:0:
64,192,30724,128,0,30812:0:0:0:0:
320,192,30724,128,0,30812:0:0:0:0:
192,192,30812,128,0,30900:0:0:0:0:
448,192,30812,128,0,30900:0:0:0:0:
192,192,30988,128,0,31077:0:0:0:0:
64,192,30988,128,0,31077:0:0:0:0:
448,192,31077,1,0,0:0:0:0:
320,192,31077,1,0,0:0:0:0:
192,192,31165,1,0,0:0:0:0:
192,192,31253,1,0,0:0:0:0:
320,192,31429,128,0,31518:0:0:0:0:
64,192,31429,128,0,31518:0:0:0:0:
448,192,31518,128,0,31606:0:0:0:0:
192,192,31518,128,0,31606:0:0:0:0:
192,192,31694,128,0,31782:0:0:0:0:
320,192,31694,128,0,31782:0:0:0:0:
448,192,31694,128,0,31782:0:0:0:0:
64,192,31782,1,0,0:0:0:0:
320,192,31871,1,0,0:0:0:0:
320,192,31959,1,0,0:0:0:0:
64,192,32135,128,0,32224:0:0:0:0:
320,192,32135,128,0,32224:0:0:0:0:
192,192,32224,128,0,32312:0:0:0:0:
448,192,32224,128,0,32312:0:0:0:0:
192,192,32400,128,0,32488:0:0:0:0:
64,192,32400,128,0,32488:0:0:0:0:
448,192,32488,1,0,0:0:0:0:
320,192,32488,1,0,0:0:0:0:
64,192,32577,1,0,0:0:0:0:
64,192,32665,1,0,0:0:0:0:
320,192,32841,128,0,32929:0:0:0:0:
64,192,32841,128,0,32929:0:0:0:0:
448,192,32929,128,0,33018:0:0:0:0:
192,192,32929,128,0,33018:0:0:0:0:
320,192,33106,128,0,33194:0:0:0:0:
448,192,33106,128,0,33194:0:0:0:0:
192,192,33106,128,0,33194:0:0:0:0:
64,192,33194,1,0,0:0:0:0:
448,192,33282,1,0,0:0:0:0:
448,192,33371,1,0,0:0:0:0:
64,192,33547,128,0,33635:0:0:0:0:
320,192,33547,128,0,33635:0:0:0:0:
192,192,33635,128,0,33724:0:0:0:0:
448,192,33635,128,0,33724:0:0:0:0:
64,192,33812,128,0,33900:0:0:0:0:
192,192,33812,128,0,33900:0:0:0:0:
448,192,33900,1,0,0:0:0:0:
320,192,33900,1,0,0:0:0:0:
64,192,33988,1,0,0:0:0:0:
64,192,34077,1,0,0:0:0:0:
320,192,34253,128,0,34341:0:0:0:0:
64,192,34253,128,0,34341:0:0:0:0:
448,192,34341,128,0,34429:0:0:0:0:
192,192,34341,128,0,34429:0:0:0:0:
448,192,34518,128,0,34606:0:0:0:0:
64,192,34518,128,0,34606:0:0:0:0:
192,192,34606,128,0,34782:0:0:0:0:
320,192,34628,128,0,34716:0:0:0:0:
320,192,34782,1,0,0:0:0:0:
448,192,34841,1,0,0:0:0:0:
320,192,34900,1,0,0:0:0:0:
448,192,34959,1,0,0:0:0:0:
64,192,34959,1,0,0:0:0:0:
192,192,35018,128,0,35135:0:0:0:0:
192,192,35224,1,0,0:0:0:0:
64,192,35312,1,0,0:0:0:0:
320,192,35312,1,0,0:0:0:0:
448,192,35312,1,0,0:0:0:0:
192,192,35488,128,0,35577:0:0:0:0:
448,192,35665,1,0,0:0:0:0:
64,192,35665,128,0,35753:0:0:0:0:
320,192,35753,128,0,35841:0:0:0:0:
448,192,35929,128,0,36018:0:0:0:0:
64,192,36018,1,0,0:0:0:0:
192,192,36018,1,0,0:0:0:0:
320,192,36194,128,0,36282:0:0:0:0:
448,192,36371,1,0,0:0:0:0:
192,192,36371,128,0,36459:0:0:0:0:
320,192,36459,128,0,36547:0:0:0:0:
64,192,36635,128,0,36724:0:0:0:0:
448,192,36724,1,0,0:0:0:0:
320,192,36724,1,0,0:0:0:0:
192,192,36900,128,0,36988:0:0:0:0:
64,192,37077,128,0,37165:0:0:0:0:
448,192,37077,1,0,0:0:0:0:
320,192,37165,128,0,37253:0:0:0:0:
448,192,37341,128,0,37429:0:0:0:0:
64,192,37429,1,0,0:0:0:0:
192,192,37429,1,0,0:0:0:0:
320,192,37606,128,0,37694:0:0:0:0:
192,192,37782,128,0,37871:0:0:0:0:
448,192,37782,1,0,0:0:0:0:
320,192,37871,128,0,37959:0:0:0:0:
64,192,38047,128,0,38135:0:0:0:0:
448,192,38135,1,0,0:0:0:0:
320,192,38135,128,0,38224:0:0:0:0:
192,192,38224,128,0,38312:0:0:0:0:
320,192,38312,128,0,38400:0:0:0:0:
64,192,38488,128,0,38577:0:0:0:0:
192,192,38488,1,0,0:0:0:0:
320,192,38577,128,0,38665:0:0:0:0:
448,192,38753,128,0,38841:0:0:0:0:
64,192,38841,1,0,0:0:0:0:
192,192,38841,128,0,38929:0:0:0:0:
320,192,38929,128,0,39018:0:0:0:0:
192,192,39018,128,0,39106:0:0:0:0:
320,192,39194,128,0,39282:0:0:0:0:
64,192,39194,1,0,0:0:0:0:
448,192,39282,128,0,39371:0:0:0:0:
64,192,39459,128,0,39547:0:0:0:0:
448,192,39547,1,0,0:0:0:0:
320,192,39547,128,0,39635:0:0:0:0:
192,192,39635,128,0,39724:0:0:0:0:
320,192,39724,128,0,39812:0:0:0:0:
64,192,39900,128,0,39988:0:0:0:0:
192,192,39900,1,0,0:0:0:0:
320,192,39988,128,0,40077:0:0:0:0:
448,192,40165,128,0,40253:0:0:0:0:
192,192,40253,128,0,40341:0:0:0:0:
64,192,40253,128,0,40429:0:0:0:0:
320,192,40354,1,0,0:0:0:0:
192,192,40455,1,0,0:0:0:0:
448,192,40606,1,0,0:0:0:0:
64,192,40606,1,0,0:0:0:0:
192,192,40694,1,0,0:0:0:0:
320,192,40694,1,0,0:0:0:0:
64,192,40782,1,0,0:0:0:0:
448,192,40782,1,0,0:0:0:0:
320,192,40959,1,0,0:0:0:0:
192,192,40959,128,0,41312:0:0:0:0:
448,192,40959,1,0,0:0:0:0:
448,192,41047,128,0,41135:0:0:0:0:
320,192,41135,1,0,0:0:0:0:
448,192,41312,1,0,0:0:0:0:
320,192,41312,1,0,0:0:0:0:
64,192,41400,1,0,0:0:0:0:
192,192,41488,1,0,0:0:0:0:
448,192,41577,1,0,0:0:0:0:
192,192,41665,1,0,0:0:0:0:
64,192,41665,1,0,0:0:0:0:
320,192,41665,1,0,0:0:0:0:
320,192,41753,128,0,41841:0:0:0:0:
64,192,41841,128,0,42018:0:0:0:0:
192,192,41841,1,0,0:0:0:0:
192,192,42018,1,0,0:0:0:0:
320,192,42018,1,0,0:0:0:0:
448,192,42106,1,0,0:0:0:0:
320,192,42194,1,0,0:0:0:0:
192,192,42282,1,0,0:0:0:0:
64,192,42371,1,0,0:0:0:0:
448,192,42371,128,0,42724:0:0:0:0:
64,192,42459,1,0,0:0:0:0:
192,192,42547,128,0,42724:0:0:0:0:
320,192,42547,1,0,0:0:0:0:
64,192,42724,1,0,0:0:0:0:
192,192,42812,1,0,0:0:0:0:
320,192,42900,1,0,0:0:0:0:
448,192,42988,1,0,0:0:0:0:
192,192,43077,1,0,0:0:0:0:
64,192,43077,1,0,0:0:0:0:
320,192,43077,1,0,0:0:0:0:
320,192,43165,128,0,43429:0:0:0:0:
192,192,43253,1,0,0:0:0:0:
192,192,43429,1,0,0:0:0:0:
64,192,43429,1,0,0:0:0:0:
448,192,43518,1,0,0:0:0:0:
64,192,43606,1,0,0:0:0:0:
320,192,43694,1,0,0:0:0:0:
448,192,43782,1,0,0:0:0:0:
192,192,43782,1,0,0:0:0:0:
448,192,43871,1,0,0:0:0:0:
64,192,43959,1,0,0:0:0:0:
320,192,43959,1,0,0:0:0:0:
64,192,44047,1,0,0:0:0:0:
192,192,44135,1,0,0:0:0:0:
448,192,44135,1,0,0:0:0:0:
448,192,44224,1,0,0:0:0:0:
64,192,44312,1,0,0:0:0:0:
320,192,44312,1,0,0:0:0:0:
64,192,44400,1,0,0:0:0:0:
192,192,44488,1,0,0:0:0:0:
448,192,44488,1,0,0:0:0:0:
448,192,44577,1,0,0:0:0:0:
64,192,44665,1,0,0:0:0:0:
64,192,44753,1,0,0:0:0:0:
320,192,44841,1,0,0:0:0:0:
192,192,44900,1,0,0:0:0:0:
320,192,44959,1,0,0:0:0:0:
64,192,45018,1,0,0:0:0:0:
192,192,45062,1,0,0:0:0:0:
320,192,45106,1,0,0:0:0:0:
448,192,45150,1,0,0:0:0:0:
64,192,45900,1,0,0:0:0:0:
448,192,45900,1,0,0:0:0:0:
192,192,45988,1,0,0:0:0:0:
448,192,45988,1,0,0:0:0:0:
320,192,46165,1,0,0:0:0:0:
448,192,46165,1,0,0:0:0:0:
64,192,46253,1,0,0:0:0:0:
192,192,46341,1,0,0:0:0:0:
448,192,46341,1,0,0:0:0:0:
320,192,46429,1,0,0:0:0:0:
64,192,46518,1,0,0:0:0:0:
192,192,46606,128,0,46694:0:0:0:0:
320,192,46606,128,0,46753:0:0:0:0:
448,192,46606,128,0,46812:0:0:0:0:
64,192,46724,1,0,0:0:0:0:
192,192,46782,1,0,0:0:0:0:
320,192,46841,1,0,0:0:0:0:
448,192,46900,1,0,0:0:0:0:
64,192,46959,128,0,47135:0:0:0:0:
192,192,47003,128,0,47069:0:0:0:0:
320,192,47135,128,0,47312:0:0:0:0:
192,192,47179,128,0,47268:0:0:0:0:
64,192,47224,1,0,0:0:0:0:
448,192,47312,1,0,0:0:0:0:
320,192,47400,1,0,0:0:0:0:
64,192,47400,1,0,0:0:0:0:
448,192,47488,1,0,0:0:0:0:
64,192,47665,128,0,47753:0:0:0:0:
192,192,47709,128,0,47841:0:0:0:0:
320,192,47753,128,0,47929:0:0:0:0:
448,192,47797,128,0,48150:0:0:0:0:
64,192,47974,1,0,0:0:0:0:
320,192,48018,128,0,48194:0:0:0:0:
192,192,48106,128,0,48238:0:0:0:0:
64,192,48194,128,0,48282:0:0:0:0:
448,192,48253,1,0,0:0:0:0:
320,192,48312,1,0,0:0:0:0:
192,192,48371,1,0,0:0:0:0:
64,192,48371,1,0,0:0:0:0:
320,192,48429,1,0,0:0:0:0:
448,192,48488,1,0,0:0:0:0:
320,192,48547,1,0,0:0:0:0:
192,192,48606,1,0,0:0:0:0:
64,192,48635,1,0,0:0:0:0:
448,192,48635,1,0,0:0:0:0:
320,192,48900,1,0,0:0:0:0:
192,192,48900,1,0,0:0:0:0:
64,192,49077,1,0,0:0:0:0:
448,192,49106,128,0,49165:0:0:0:0:
192,192,49165,1,0,0:0:0:0:
64,192,49253,1,0,0:0:0:0:
448,192,49282,128,0,49341:0:0:0:0:
192,192,49341,1,0,0:0:0:0:
64,192,49429,128,0,49753:0:0:0:0:
448,192,49429,128,0,49694:0:0:0:0:
320,192,49429,128,0,49547:0:0:0:0:
192,192,49665,128,0,49782:0:0:0:0:
320,192,49724,128,0,49812:0:0:0:0:
192,192,49871,128,0,49959:0:0:0:0:
320,192,49900,128,0,50018:0:0:0:0:
448,192,49929,128,0,50077:0:0:0:0:
64,192,50135,1,0,0:0:0:0:
320,192,50135,128,0,50356:0:0:0:0:
192,192,50179,1,0,0:0:0:0:
448,192,50179,128,0,50488:0:0:0:0:
192,192,50312,128,0,50422:0:0:0:0:
64,192,50356,128,0,50488:0:0:0:0:
64,192,50577,128,0,50635:0:0:0:0:
192,192,50606,128,0,50694:0:0:0:0:
320,192,50635,128,0,50753:0:0:0:0:
64,192,50841,128,0,51165:0:0:0:0:
448,192,50841,128,0,51106:0:0:0:0:
320,192,50841,128,0,50959:0:0:0:0:
192,192,51077,128,0,51194:0:0:0:0:
320,192,51135,128,0,51224:0:0:0:0:
192,192,51282,128,0,51371:0:0:0:0:
320,192,51312,128,0,51429:0:0:0:0:
448,192,51341,128,0,51488:0:0:0:0:
64,192,51547,1,0,0:0:0:0:
320,192,51547,128,0,51635:0:0:0:0:
192,192,51591,1,0,0:0:0:0:
448,192,51591,128,0,51724:0:0:0:0:
192,192,51724,1,0,0:0:0:0:
320,192,51724,1,0,0:0:0:0:
320,192,51812,128,0,51988:0:0:0:0:
192,192,51988,1,0,0:0:0:0:
448,192,51988,1,0,0:0:0:0:
192,192,52077,128,0,52253:0:0:0:0:
64,192,52253,1,0,0:0:0:0:
320,192,52253,128,0,52518:0:0:0:0:
64,192,52341,1,0,0:0:0:0:
192,192,52429,128,0,52606:0:0:0:0:
64,192,52518,128,0,52606:0:0:0:0:
448,192,52606,1,0,0:0:0:0:
320,192,52606,1,0,0:0:0:0:
192,192,52694,1,0,0:0:0:0:
448,192,52694,1,0,0:0:0:0:
64,192,52782,1,0,0:0:0:0:
320,192,52782,128,0,52959:0:0:0:0:
448,192,52871,128,0,52959:0:0:0:0:
192,192,52959,1,0,0:0:0:0:
64,192,52959,1,0,0:0:0:0:
64,192,53312,128,0,53400:0:0:0:0:
192,192,53356,128,0,53488:0:0:0:0:
320,192,53400,128,0,53577:0:0:0:0:
448,192,53444,128,0,53797:0:0:0:0:
64,192,53621,1,0,0:0:0:0:
320,192,53665,128,0,53841:0:0:0:0:
192,192,53753,128,0,53885:0:0:0:0:
64,192,53841,128,0,53929:0:0:0:0:
448,192,53900,1,0,0:0:0:0:
320,192,53959,1,0,0:0:0:0:
192,192,54018,1,0,0:0:0:0:
64,192,54018,1,0,0:0:0:0:
320,192,54077,1,0,0:0:0:0:
448,192,54135,1,0,0:0:0:0:
192,192,54194,1,0,0:0:0:0:
320,192,54253,1,0,0:0:0:0:
64,192,54282,128,0,54459:0:0:0:0:
448,192,54312,128,0,54429:0:0:0:0:
448,192,54547,1,0,0:0:0:0:
192,192,54547,1,0,0:0:0:0:
320,192,54591,1,0,0:0:0:0:
64,192,54591,1,0,0:0:0:0:
64,192,54724,1,0,0:0:0:0:
64,192,54812,1,0,0:0:0:0:
320,192,54900,1,0,0:0:0:0:
320,192,54988,1,0,0:0:0:0:
448,192,55077,128,0,55400:0:0:0:0:
64,192,55077,128,0,55341:0:0:0:0:
192,192,55077,128,0,55194:0:0:0:0:
320,192,55312,128,0,55429:0:0:0:0:
192,192,55371,128,0,55459:0:0:0:0:
320,192,55518,128,0,55606:0:0:0:0:
192,192,55547,128,0,55665:0:0:0:0:
64,192,55577,128,0,55724:0:0:0:0:
448,192,55782,1,0,0:0:0:0:
192,192,55782,128,0,56003:0:0:0:0:
320,192,55827,1,0,0:0:0:0:
64,192,55827,128,0,56135:0:0:0:0:
320,192,55959,128,0,56069:0:0:0:0:
448,192,56003,128,0,56135:0:0:0:0:
448,192,56224,128,0,56282:0:0:0:0:
320,192,56253,128,0,56341:0:0:0:0:
192,192,56282,128,0,56400:0:0:0:0:
448,192,56488,128,0,56841:0:0:0:0:
64,192,56488,128,0,56753:0:0:0:0:
192,192,56665,1,0,0:0:0:0:
64,192,56841,128,0,56929:0:0:0:0:
192,192,56929,128,0,57018:0:0:0:0:
448,192,57106,128,0,57194:0:0:0:0:
64,192,57282,128,0,57415:0:0:0:0:
320,192,57371,128,0,57503:0:0:0:0:
192,192,57459,128,0,57591:0:0:0:0:
448,192,57547,128,0,57768:0:0:0:0:
320,192,57635,128,0,57812:0:0:0:0:
192,192,57724,128,0,57856:0:0:0:0:
64,192,57812,128,0,57900:0:0:0:0:
320,192,57900,1,0,0:0:0:0:
448,192,57900,1,0,0:0:0:0:
192,192,57988,1,0,0:0:0:0:
64,192,58032,1,0,0:0:0:0:
448,192,58077,1,0,0:0:0:0:
320,192,58135,1,0,0:0:0:0:
192,192,58194,1,0,0:0:0:0:
64,192,58253,1,0,0:0:0:0:
448,192,58312,1,0,0:0:0:0:
320,192,58371,1,0,0:0:0:0:
192,192,58429,1,0,0:0:0:0:
448,192,58505,1,0,0:0:0:0:
320,192,58584,1,0,0:0:0:0:
64,192,58672,1,0,0:0:0:0:
448,192,58760,1,0,0:0:0:0:
192,192,58849,1,0,0:0:0:0:
64,192,58937,1,0,0:0:0:0:
320,192,59077,1,0,0:0:0:0:
192,192,59224,1,0,0:0:0:0:
64,192,59400,1,0,0:0:0:0:
192,192,59466,1,0,0:0:0:0:
64,192,59547,1,0,0:0:0:0:
320,192,59621,1,0,0:0:0:0:
192,192,59709,1,0,0:0:0:0:
448,192,59797,1,0,0:0:0:0:
64,192,59841,128,0,59952:0:0:0:0:
192,192,59885,128,0,59974:0:0:0:0:
320,192,59929,128,0,59996:0:0:0:0:
448,192,59974,128,0,60018:0:0:0:0:
448,192,60194,1,0,0:0:0:0:
320,192,60371,1,0,0:0:0:0:
64,192,60371,1,0,0:0:0:0:
320,192,60459,1,0,0:0:0:0:
192,192,60547,1,0,0:0:0:0:
192,192,60635,1,0,0:0:0:0:
64,192,60724,1,0,0:0:0:0:
448,192,60724,1,0,0:0:0:0:
320,192,60724,1,0,0:0:0:0:
320,192,60812,128,0,61032:0:0:0:0:
192,192,60841,1,0,0:0:0:0:
448,192,60856,128,0,60988:0:0:0:0:
64,192,60959,1,0,0:0:0:0:
192,192,61077,1,0,0:0:0:0:
448,192,61077,128,0,61253:0:0:0:0:
320,192,61121,128,0,61209:0:0:0:0:
192,192,61194,1,0,0:0:0:0:
320,192,61297,1,0,0:0:0:0:
64,192,61312,1,0,0:0:0:0:
448,192,61341,1,0,0:0:0:0:
320,192,61429,1,0,0:0:0:0:
64,192,61429,1,0,0:0:0:0:
192,192,61429,1,0,0:0:0:0:
192,192,61518,128,0,61738:0:0:0:0:
448,192,61547,1,0,0:0:0:0:
64,192,61562,128,0,61694:0:0:0:0:
320,192,61665,1,0,0:0:0:0:
448,192,61782,1,0,0:0:0:0:
64,192,61782,128,0,61959:0:0:0:0:
192,192,61827,128,0,61915:0:0:0:0:
448,192,61900,1,0,0:0:0:0:
192,192,62003,1,0,0:0:0:0:
320,192,62018,1,0,0:0:0:0:
64,192,62047,1,0,0:0:0:0:
192,192,62135,1,0,0:0:0:0:
320,192,62135,1,0,0:0:0:0:
448,192,62224,128,0,62444:0:0:0:0:
64,192,62253,1,0,0:0:0:0:
320,192,62268,128,0,62400:0:0:0:0:
192,192,62371,1,0,0:0:0:0:
64,192,62488,1,0,0:0:0:0:
320,192,62488,128,0,62665:0:0:0:0:
448,192,62532,128,0,62621:0:0:0:0:
64,192,62606,1,0,0:0:0:0:
448,192,62709,1,0,0:0:0:0:
192,192,62724,1,0,0:0:0:0:
320,192,62753,1,0,0:0:0:0:
192,192,62841,1,0,0:0:0:0:
64,192,62841,1,0,0:0:0:0:
448,192,62841,1,0,0:0:0:0:
64,192,63077,1,0,0:0:0:0:
320,192,63077,1,0,0:0:0:0:
192,192,63135,1,0,0:0:0:0:
64,192,63194,1,0,0:0:0:0:
320,192,63194,1,0,0:0:0:0:
192,192,63312,1,0,0:0:0:0:
192,192,63429,1,0,0:0:0:0:
448,192,63547,128,0,63665:0:0:0:0:
64,192,63547,128,0,63665:0:0:0:0:
320,192,63782,1,0,0:0:0:0:
192,192,63841,1,0,0:0:0:0:
320,192,63900,128,0,64018:0:0:0:0:
448,192,63959,128,0,64135:0:0:0:0:
64,192,64077,128,0,64253:0:0:0:0:
192,192,64253,1,0,0:0:0:0:
320,192,64253,1,0,0:0:0:0:
448,192,64253,1,0,0:0:0:0:
320,192,64341,1,0,0:0:0:0:
192,192,64341,1,0,0:0:0:0:
64,192,64429,1,0,0:0:0:0:
448,192,64429,1,0,0:0:0:0:
64,192,64606,128,0,64694:0:0:0:0:
192,192,64650,128,0,64782:0:0:0:0:
320,192,64694,128,0,64871:0:0:0:0:
448,192,64738,128,0,65091:0:0:0:0:
64,192,64849,1,0,0:0:0:0:
192,192,64915,1,0,0:0:0:0:
320,192,64959,128,0,65135:0:0:0:0:
64,192,65003,1,0,0:0:0:0:
192,192,65047,128,0,65179:0:0:0:0:
64,192,65135,128,0,65224:0:0:0:0:
448,192,65194,1,0,0:0:0:0:
320,192,65253,1,0,0:0:0:0:
64,192,65312,1,0,0:0:0:0:
192,192,65312,1,0,0:0:0:0:
320,192,65371,1,0,0:0:0:0:
448,192,65429,1,0,0:0:0:0:
320,192,65488,1,0,0:0:0:0:
192,192,65547,1,0,0:0:0:0:
448,192,65577,128,0,65753:0:0:0:0:
64,192,65606,128,0,65724:0:0:0:0:
64,192,65841,1,0,0:0:0:0:
320,192,65841,128,0,65996:0:0:0:0:
192,192,65929,128,0,66040:0:0:0:0:
448,192,66018,1,0,0:0:0:0:
64,192,66018,128,0,66084:0:0:0:0:
320,192,66062,1,0,0:0:0:0:
192,192,66106,1,0,0:0:0:0:
448,192,66135,1,0,0:0:0:0:
64,192,66150,1,0,0:0:0:0:
320,192,66194,1,0,0:0:0:0:
448,192,66371,1,0,0:0:0:0:
64,192,66371,1,0,0:0:0:0:
192,192,66371,1,0,0:0:0:0:
192,192,66459,128,0,66679:0:0:0:0:
320,192,66488,1,0,0:0:0:0:
64,192,66503,128,0,66635:0:0:0:0:
448,192,66606,1,0,0:0:0:0:
320,192,66724,1,0,0:0:0:0:
64,192,66724,128,0,66900:0:0:0:0:
192,192,66768,128,0,66856:0:0:0:0:
320,192,66841,1,0,0:0:0:0:
192,192,66944,1,0,0:0:0:0:
448,192,66959,1,0,0:0:0:0:
64,192,66988,1,0,0:0:0:0:
192,192,67077,1,0,0:0:0:0:
448,192,67077,1,0,0:0:0:0:
320,192,67077,1,0,0:0:0:0:
320,192,67165,128,0,67385:0:0:0:0:
64,192,67194,1,0,0:0:0:0:
448,192,67209,128,0,67341:0:0:0:0:
192,192,67312,1,0,0:0:0:0:
64,192,67429,1,0,0:0:0:0:
448,192,67429,128,0,67606:0:0:0:0:
320,192,67474,128,0,67562:0:0:0:0:
64,192,67547,1,0,0:0:0:0:
320,192,67650,1,0,0:0:0:0:
192,192,67665,1,0,0:0:0:0:
448,192,67694,1,0,0:0:0:0:
320,192,67782,1,0,0:0:0:0:
192,192,67782,1,0,0:0:0:0:
64,192,67900,1,0,0:0:0:0:
448,192,67900,1,0,0:0:0:0:
192,192,67959,1,0,0:0:0:0:
320,192,67959,1,0,0:0:0:0:
448,192,68018,1,0,0:0:0:0:
64,192,68018,128,0,68488:0:0:0:0:
192,192,68135,128,0,68488:0:0:0:0:
320,192,68253,128,0,68488:0:0:0:0:
448,192,68371,1,0,0:0:0:0:
448,192,68488,1,0,0:0:0:0:
64,192,68753,1,0,0:0:0:0:
448,192,68753,1,0,0:0:0:0:
448,192,68841,1,0,0:0:0:0:
64,192,68841,1,0,0:0:0:0:
320,192,68841,1,0,0:0:0:0:
192,192,69018,1,0,0:0:0:0:
320,192,69018,1,0,0:0:0:0:
64,192,69194,1,0,0:0:0:0:
192,192,69194,1,0,0:0:0:0:
448,192,69194,1,0,0:0:0:0:
64,192,69371,128,0,69724:0:0:0:0:
320,192,69547,128,0,69900:0:0:0:0:
448,192,69724,128,0,70165:0:0:0:0:
320,192,70077,128,0,70165:0:0:0:0:
320,192,70253,128,0,70400:0:0:0:0:
448,192,70253,128,0,70341:0:0:0:0:
64,192,70253,1,0,0:0:0:0:
192,192,70341,128,0,70459:0:0:0:0:
64,192,70371,128,0,70518:0:0:0:0:
448,192,70429,1,0,0:0:0:0:
448,192,70518,1,0,0:0:0:0:
192,192,70606,128,0,70753:0:0:0:0:
64,192,70635,128,0,70694:0:0:0:0:
320,192,70694,128,0,70812:0:0:0:0:
448,192,70724,128,0,70871:0:0:0:0:
64,192,70782,1,0,0:0:0:0:
64,192,70871,1,0,0:0:0:0:
320,192,70959,128,0,71106:0:0:0:0:
448,192,70959,128,0,71047:0:0:0:0:
192,192,71047,128,0,71165:0:0:0:0:
64,192,71077,128,0,71224:0:0:0:0:
448,192,71135,1,0,0:0:0:0:
448,192,71224,1,0,0:0:0:0:
64,192,71312,1,0,0:0:0:0:
320,192,71312,1,0,0:0:0:0:
192,192,71341,1,0,0:0:0:0:
192,192,71488,1,0,0:0:0:0:
320,192,71488,128,0,71577:0:0:0:0:
320,192,71665,1,0,0:0:0:0:
64,192,71665,128,0,71753:0:0:0:0:
320,192,71753,1,0,0:0:0:0:
448,192,71841,1,0,0:0:0:0:
192,192,71841,128,0,71929:0:0:0:0:
64,192,72018,1,0,0:0:0:0:
320,192,72018,128,0,72459:0:0:0:0:
448,192,72106,128,0,72547:0:0:0:0:
64,192,72194,1,0,0:0:0:0:
64,192,72282,1,0,0:0:0:0:
192,192,72371,1,0,0:0:0:0:
192,192,72459,1,0,0:0:0:0:
320,192,72547,1,0,0:0:0:0:
320,192,72635,1,0,0:0:0:0:
448,192,72724,1,0,0:0:0:0:
64,192,72724,1,0,0:0:0:0:
192,192,72753,1,0,0:0:0:0:
64,192,73077,1,0,0:0:0:0:
192,192,73077,128,0,73253:0:0:0:0:
320,192,73121,128,0,73429:0:0:0:0:
448,192,73165,128,0,73606:0:0:0:0:
64,192,73253,1,0,0:0:0:0:
64,192,73341,1,0,0:0:0:0:
192,192,73429,1,0,0:0:0:0:
192,192,73518,1,0,0:0:0:0:
320,192,73606,1,0,0:0:0:0:
320,192,73694,1,0,0:0:0:0:
448,192,73782,1,0,0:0:0:0:
64,192,73782,128,0,74047:0:0:0:0:
192,192,73871,128,0,73959:0:0:0:0:
448,192,73959,1,0,0:0:0:0:
320,192,74018,1,0,0:0:0:0:
192,192,74077,1,0,0:0:0:0:
448,192,74135,1,0,0:0:0:0:
64,192,74135,1,0,0:0:0:0:
320,192,74165,1,0,0:0:0:0:
320,192,74312,1,0,0:0:0:0:
192,192,74312,128,0,74400:0:0:0:0:
448,192,74488,128,0,74577:0:0:0:0:
192,192,74488,1,0,0:0:0:0:
320,192,74665,128,0,74753:0:0:0:0:
64,192,74665,1,0,0:0:0:0:
192,192,74841,128,0,75282:0:0:0:0:
448,192,74841,1,0,0:0:0:0:
64,192,74929,128,0,75371:0:0:0:0:
448,192,75018,1,0,0:0:0:0:
448,192,75106,1,0,0:0:0:0:
320,192,75194,1,0,0:0:0:0:
320,192,75282,1,0,0:0:0:0:
192,192,75371,1,0,0:0:0:0:
192,192,75459,1,0,0:0:0:0:
64,192,75547,1,0,0:0:0:0:
448,192,75547,1,0,0:0:0:0:
320,192,75577,1,0,0:0:0:0:
320,192,75900,128,0,76077:0:0:0:0:
448,192,75900,1,0,0:0:0:0:
192,192,75944,128,0,76253:0:0:0:0:
64,192,75988,128,0,76429:0:0:0:0:
448,192,76253,1,0,0:0:0:0:
448,192,76341,1,0,0:0:0:0:
320,192,76429,1,0,0:0:0:0:
320,192,76518,1,0,0:0:0:0:
64,192,76606,1,0,0:0:0:0:
448,192,76606,1,0,0:0:0:0:
192,192,76694,1,0,0:0:0:0:
192,192,76782,1,0,0:0:0:0:
64,192,76871,1,0,0:0:0:0:
64,192,76959,1,0,0:0:0:0:
448,192,76959,1,0,0:0:0:0:
320,192,76988,1,0,0:0:0:0:
192,192,77135,1,0,0:0:0:0:
320,192,77135,128,0,77224:0:0:0:0:
64,192,77312,128,0,77400:0:0:0:0:
320,192,77312,1,0,0:0:0:0:
192,192,77488,128,0,77577:0:0:0:0:
448,192,77488,1,0,0:0:0:0:
320,192,77841,1,0,0:0:0:0:
64,192,78018,128,0,78068:0:0:0:0:
192,192,78018,128,0,78119:0:0:0:0:
320,192,78018,128,0,78169:0:0:0:0:
448,192,78068,128,0,78219:0:0:0:0:
64,192,78119,128,0,78219:0:0:0:0:
192,192,78169,128,0,78270:0:0:0:0:
320,192,78229,128,0,78300:0:0:0:0:
448,192,78300,1,0,0:0:0:0:
320,192,78371,1,0,0:0:0:0:
64,192,78371,1,0,0:0:0:0:
192,192,78371,1,0,0:0:0:0:
192,192,78547,128,0,78597:0:0:0:0:
320,192,78547,128,0,78647:0:0:0:0:
448,192,78547,128,0,78698:0:0:0:0:
64,192,78597,128,0,78748:0:0:0:0:
192,192,78647,128,0,78849:0:0:0:0:
320,192,78698,128,0,78900:0:0:0:0:
448,192,78758,128,0,78970:0:0:0:0:
64,192,78834,1,0,0:0:0:0:
192,192,78922,1,0,0:0:0:0:
320,192,79010,1,0,0:0:0:0:
64,192,79077,1,0,0:0:0:0:
192,192,79077,1,0,0:0:0:0:
448,192,79099,128,0,79187:0:0:0:0:
320,192,79143,128,0,79231:0:0:0:0:
192,192,79187,128,0,79297:0:0:0:0:
64,192,79231,128,0,79341:0:0:0:0:
448,192,79253,128,0,79371:0:0:0:0:
320,192,79312,128,0,79429:0:0:0:0:
192,192,79379,128,0,79530:0:0:0:0:
64,192,79474,128,0,79584:0:0:0:0:
320,192,79606,1,0,0:0:0:0:
448,192,79606,1,0,0:0:0:0:
64,192,79635,1,0,0:0:0:0:
192,192,79682,1,0,0:0:0:0:
448,192,79732,1,0,0:0:0:0:
192,192,79782,1,0,0:0:0:0:
64,192,79782,1,0,0:0:0:0:
64,192,79959,128,0,80047:0:0:0:0:
320,192,79959,1,0,0:0:0:0:
192,192,80135,1,0,0:0:0:0:
448,192,80135,128,0,80224:0:0:0:0:
192,192,80224,1,0,0:0:0:0:
64,192,80312,1,0,0:0:0:0:
320,192,80312,128,0,80400:0:0:0:0:
64,192,80488,1,0,0:0:0:0:
448,192,80488,1,0,0:0:0:0:
320,192,80510,1,0,0:0:0:0:
192,192,80532,1,0,0:0:0:0:
448,192,80665,1,0,0:0:0:0:
320,192,80687,1,0,0:0:0:0:
448,192,80841,1,0,0:0:0:0:
448,192,81018,1,0,0:0:0:0:
320,192,81040,1,0,0:0:0:0:
448,192,81194,1,0,0:0:0:0:
64,192,81900,1,0,0:0:0:0:
192,192,81922,1,0,0:0:0:0:
320,192,81944,1,0,0:0:0:0:
64,192,82077,1,0,0:0:0:0:
192,192,82099,1,0,0:0:0:0:
64,192,82253,1,0,0:0:0:0:
64,192,82429,1,0,0:0:0:0:
192,192,82452,1,0,0:0:0:0:
64,192,82606,1,0,0:0:0:0:
448,192,83312,1,0,0:0:0:0:
320,192,83334,1,0,0:0:0:0:
192,192,83356,1,0,0:0:0:0:
448,192,83488,1,0,0:0:0:0:
320,192,83510,1,0,0:0:0:0:
448,192,83665,1,0,0:0:0:0:
448,192,83841,1,0,0:0:0:0:
320,192,83863,1,0,0:0:0:0:
448,192,84018,1,0,0:0:0:0:
64,192,84724,1,0,0:0:0:0:
192,192,84746,1,0,0:0:0:0:
320,192,84768,1,0,0:0:0:0:
64,192,84900,1,0,0:0:0:0:
192,192,84922,1,0,0:0:0:0:
64,192,85077,1,0,0:0:0:0:
64,192,85253,1,0,0:0:0:0:
192,192,85275,1,0,0:0:0:0:
64,192,85429,1,0,0:0:0:0:
64,192,86135,1,0,0:0:0:0:
192,192,86157,1,0,0:0:0:0:
192,192,86312,1,0,0:0:0:0:
320,192,86334,1,0,0:0:0:0:
320,192,86488,1,0,0:0:0:0:
192,192,86510,1,0,0:0:0:0:
192,192,86665,1,0,0:0:0:0:
64,192,86687,1,0,0:0:0:0:
64,192,86841,1,0,0:0:0:0:
64,192,87194,1,0,0:0:0:0:
448,192,87547,1,0,0:0:0:0:
320,192,87569,1,0,0:0:0:0:
320,192,87724,1,0,0:0:0:0:
192,192,87746,1,0,0:0:0:0:
192,192,87900,1,0,0:0:0:0:
320,192,87922,1,0,0:0:0:0:
320,192,88077,1,0,0:0:0:0:
448,192,88099,1,0,0:0:0:0:
448,192,88253,1,0,0:0:0:0:
448,192,88606,1,0,0:0:0:0:
64,192,88959,1,0,0:0:0:0:
192,192,88981,1,0,0:0:0:0:
192,192,89135,1,0,0:0:0:0:
320,192,89157,1,0,0:0:0:0:
320,192,89312,1,0,0:0:0:0:
192,192,89334,1,0,0:0:0:0:
192,192,89488,1,0,0:0:0:0:
64,192,89510,1,0,0:0:0:0:
64,192,89665,1,0,0:0:0:0:
64,192,90018,1,0,0:0:0:0:
448,192,90371,5,0,0:0:0:0:
320,192,90393,1,0,0:0:0:0:
320,192,90547,1,0,0:0:0:0:
192,192,90569,1,0,0:0:0:0:
192,192,90724,1,0,0:0:0:0:
320,192,90746,1,0,0:0:0:0:
320,192,90900,1,0,0:0:0:0:
448,192,90922,1,0,0:0:0:0:
448,192,91253,128,0,91429:0:0:0:0:
320,192,91429,128,0,91606:0:0:0:0:
64,192,91606,128,0,91782:0:0:0:0:
320,192,91782,1,0,0:0:0:0:
448,192,91782,1,0,0:0:0:0:
192,192,91782,1,0,0:0:0:0:
192,192,91959,1,0,0:0:0:0:
320,192,92135,1,0,0:0:0:0:
448,192,92135,1,0,0:0:0:0:
448,192,92312,1,0,0:0:0:0:
192,192,92488,1,0,0:0:0:0:
64,192,92488,1,0,0:0:0:0:
320,192,92665,1,0,0:0:0:0:
320,192,92841,1,0,0:0:0:0:
64,192,92841,1,0,0:0:0:0:
320,192,93018,1,0,0:0:0:0:
64,192,93194,1,0,0:0:0:0:
448,192,93194,1,0,0:0:0:0:
64,192,93371,1,0,0:0:0:0:
192,192,93547,1,0,0:0:0:0:
448,192,93547,1,0,0:0:0:0:
192,192,93724,1,0,0:0:0:0:
320,192,93900,1,0,0:0:0:0:
448,192,93900,1,0,0:0:0:0:
192,192,94077,1,0,0:0:0:0:
192,192,94253,1,0,0:0:0:0:
448,192,94253,1,0,0:0:0:0:
448,192,94429,1,0,0:0:0:0:
64,192,94606,1,0,0:0:0:0:
192,192,94606,1,0,0:0:0:0:
192,192,94782,1,0,0:0:0:0:
448,192,94959,1,0,0:0:0:0:
320,192,94959,1,0,0:0:0:0:
448,192,95135,1,0,0:0:0:0:
192,192,95312,1,0,0:0:0:0:
64,192,95312,1,0,0:0:0:0:
320,192,95488,1,0,0:0:0:0:
320,192,95665,1,0,0:0:0:0:
64,192,95665,1,0,0:0:0:0:
320,192,95841,1,0,0:0:0:0:
192,192,96018,1,0,0:0:0:0:
64,192,96018,1,0,0:0:0:0:
64,192,96194,1,0,0:0:0:0:
192,192,96371,1,0,0:0:0:0:
448,192,96371,1,0,0:0:0:0:
192,192,96547,1,0,0:0:0:0:
320,192,96724,1,0,0:0:0:0:
448,192,96724,1,0,0:0:0:0:
64,192,96900,1,0,0:0:0:0:
448,192,97077,1,0,0:0:0:0:
192,192,97429,1,0,0:0:0:0:
64,192,97429,1,0,0:0:0:0:
320,192,97429,1,0,0:0:0:0:
64,192,97606,1,0,0:0:0:0:
320,192,97606,1,0,0:0:0:0:
192,192,97694,1,0,0:0:0:0:
64,192,97782,1,0,0:0:0:0:
320,192,97782,1,0,0:0:0:0:
448,192,97782,1,0,0:0:0:0:
64,192,97871,1,0,0:0:0:0:
192,192,97959,1,0,0:0:0:0:
320,192,97959,1,0,0:0:0:0:
192,192,98135,1,0,0:0:0:0:
320,192,98135,1,0,0:0:0:0:
64,192,98135,1,0,0:0:0:0:
192,192,98312,1,0,0:0:0:0:
320,192,98312,1,0,0:0:0:0:
64,192,98400,1,0,0:0:0:0:
192,192,98488,1,0,0:0:0:0:
320,192,98488,1,0,0:0:0:0:
448,192,98488,1,0,0:0:0:0:
192,192,98577,1,0,0:0:0:0:
64,192,98665,1,0,0:0:0:0:
320,192,98665,1,0,0:0:0:0:
192,192,98841,1,0,0:0:0:0:
320,192,98841,1,0,0:0:0:0:
192,192,99018,1,0,0:0:0:0:
320,192,99018,1,0,0:0:0:0:
448,192,99106,1,0,0:0:0:0:
320,192,99194,1,0,0:0:0:0:
64,192,99194,1,0,0:0:0:0:
320,192,99282,1,0,0:0:0:0:
192,192,99371,1,0,0:0:0:0:
448,192,99371,1,0,0:0:0:0:
320,192,99547,1,0,0:0:0:0:
448,192,99547,1,0,0:0:0:0:
192,192,99724,1,0,0:0:0:0:
448,192,99724,1,0,0:0:0:0:
320,192,99812,1,0,0:0:0:0:
448,192,99900,1,0,0:0:0:0:
192,192,99900,1,0,0:0:0:0:
448,192,99988,1,0,0:0:0:0:
320,192,100077,1,0,0:0:0:0:
192,192,100077,1,0,0:0:0:0:
192,192,100253,1,0,0:0:0:0:
192,192,100341,1,0,0:0:0:0:
320,192,100429,1,0,0:0:0:0:
320,192,100518,1,0,0:0:0:0:
64,192,100606,1,0,0:0:0:0:
64,192,100694,1,0,0:0:0:0:
192,192,100782,1,0,0:0:0:0:
192,192,100871,1,0,0:0:0:0:
320,192,100959,1,0,0:0:0:0:
320,192,101047,1,0,0:0:0:0:
448,192,101135,1,0,0:0:0:0:
448,192,101224,1,0,0:0:0:0:
192,192,101312,1,0,0:0:0:0:
320,192,101371,1,0,0:0:0:0:
192,192,101429,1,0,0:0:0:0:
448,192,101488,1,0,0:0:0:0:
320,192,101532,1,0,0:0:0:0:
192,192,101577,1,0,0:0:0:0:
64,192,101621,1,0,0:0:0:0:
448,192,101665,128,0,102018:0:0:0:0:
320,192,102018,128,0,102194:0:0:0:0:
192,192,102194,128,0,102282:0:0:0:0:
64,192,102371,1,0,0:0:0:0:
448,192,102371,1,0,0:0:0:0:
64,144,102459,1,0,0:0:0:0:
320,192,102459,1,0,0:0:0:0:
192,95,102547,1,0,0:0:0:0:
64,47,102635,1,0,0:0:0:0:
448,192,102635,1,0,0:0:0:0:
320,192,102724,1,0,0:0:0:0:
448,192,102812,1,0,0:0:0:0:
192,192,102812,1,0,0:0:0:0:
448,96,102900,1,0,0:0:0:0:
64,192,102900,1,0,0:0:0:0:
320,192,102988,1,0,0:0:0:0:
192,192,103077,128,0,103209:0:0:0:0:
64,192,103077,128,0,103165:0:0:0:0:
448,192,103077,128,0,103297:0:0:0:0:
64,192,103253,1,0,0:0:0:0:
192,192,103297,1,0,0:0:0:0:
320,192,103341,1,0,0:0:0:0:
448,192,103385,1,0,0:0:0:0:
64,192,103606,1,0,0:0:0:0:
192,192,103650,1,0,0:0:0:0:
448,192,103782,128,0,103871:0:0:0:0:
320,192,103827,128,0,103915:0:0:0:0:
448,192,103959,1,0,0:0:0:0:
448,192,104135,128,0,104224:0:0:0:0:
320,192,104179,128,0,104312:0:0:0:0:
448,192,104312,1,0,0:0:0:0:
448,192,104488,128,0,104577:0:0:0:0:
320,192,104532,128,0,104709:0:0:0:0:
448,192,104665,1,0,0:0:0:0:
64,192,104841,128,0,104885:0:0:0:0:
192,192,104885,128,0,104929:0:0:0:0:
192,192,105018,128,0,105077:0:0:0:0:
320,192,105047,128,0,105106:0:0:0:0:
448,192,105077,128,0,105135:0:0:0:0:
64,192,105194,128,0,105282:0:0:0:0:
192,192,105238,128,0,105282:0:0:0:0:
192,192,105371,128,0,105429:0:0:0:0:
64,192,105371,1,0,0:0:0:0:
320,192,105400,128,0,105459:0:0:0:0:
448,192,105429,128,0,105488:0:0:0:0:
448,192,105547,1,0,0:0:0:0:
192,192,105547,1,0,0:0:0:0:
448,47,105635,1,0,0:0:0:0:
64,192,105635,1,0,0:0:0:0:
320,192,105724,1,0,0:0:0:0:
64,192,105812,1,0,0:0:0:0:
320,192,105900,128,0,105979:0:0:0:0:
448,192,105900,128,0,106018:0:0:0:0:
192,192,105900,128,0,105939:0:0:0:0:
64,192,105979,1,0,0:0:0:0:
192,192,106018,1,0,0:0:0:0:
320,192,106057,1,0,0:0:0:0:
448,192,106096,128,0,106253:0:0:0:0:
320,192,106152,128,0,106253:0:0:0:0:
192,192,106203,128,0,106253:0:0:0:0:
64,192,106253,1,0,0:0:0:0:
320,192,106429,1,0,0:0:0:0:
192,192,106474,1,0,0:0:0:0:
448,192,106488,1,0,0:0:0:0:
320,192,106606,128,0,106672:0:0:0:0:
448,192,106606,128,0,106716:0:0:0:0:
64,192,106656,1,0,0:0:0:0:
192,192,106707,1,0,0:0:0:0:
320,192,106763,128,0,106920:0:0:0:0:
192,192,106804,128,0,106871:0:0:0:0:
448,192,106804,128,0,106959:0:0:0:0:
64,192,106841,1,0,0:0:0:0:
192,192,106959,1,0,0:0:0:0:
64,192,106959,1,0,0:0:0:0:
192,192,107135,1,0,0:0:0:0:
320,192,107179,1,0,0:0:0:0:
64,192,107194,1,0,0:0:0:0:
448,192,107312,128,0,107429:0:0:0:0:
320,192,107312,128,0,107390:0:0:0:0:
192,192,107312,128,0,107351:0:0:0:0:
64,192,107390,1,0,0:0:0:0:
192,192,107429,1,0,0:0:0:0:
320,192,107469,1,0,0:0:0:0:
448,192,107508,128,0,107665:0:0:0:0:
320,192,107564,128,0,107665:0:0:0:0:
192,192,107614,128,0,107665:0:0:0:0:
64,192,107665,1,0,0:0:0:0:
320,192,107841,1,0,0:0:0:0:
192,192,107885,1,0,0:0:0:0:
448,192,107900,1,0,0:0:0:0:
320,192,108018,1,0,0:0:0:0:
448,192,108018,1,0,0:0:0:0:
64,192,108018,128,0,108270:0:0:0:0:
320,192,108119,128,0,108270:0:0:0:0:
448,192,108119,128,0,108270:0:0:0:0:
192,192,108371,1,0,0:0:0:0:
64,192,108371,1,0,0:0:0:0:
448,192,108371,128,0,108623:0:0:0:0:
192,192,108472,128,0,108623:0:0:0:0:
64,192,108472,128,0,108623:0:0:0:0:
64,192,108724,128,0,108925:0:0:0:0:
192,192,108724,128,0,108875:0:0:0:0:
320,192,108724,128,0,108824:0:0:0:0:
320,192,108925,1,0,0:0:0:0:
192,192,108976,1,0,0:0:0:0:
64,192,109026,1,0,0:0:0:0:
448,192,109077,1,0,0:0:0:0:
320,192,109121,1,0,0:0:0:0:
192,192,109165,1,0,0:0:0:0:
192,192,109253,1,0,0:0:0:0:
320,192,109293,1,0,0:0:0:0:
448,192,109332,1,0,0:0:0:0:
448,192,109429,1,0,0:0:0:0:
64,192,109452,128,0,109584:0:0:0:0:
192,192,109496,128,0,109606:0:0:0:0:
320,192,109540,128,0,109628:0:0:0:0:
448,192,109584,128,0,109650:0:0:0:0:
320,192,109782,1,0,0:0:0:0:
64,192,109804,128,0,109937:0:0:0:0:
448,192,109827,1,0,0:0:0:0:
192,192,109849,128,0,109959:0:0:0:0:
320,192,109893,128,0,109981:0:0:0:0:
448,192,109937,128,0,110003:0:0:0:0:
448,192,110135,128,0,110194:0:0:0:0:
64,192,110135,128,0,110224:0:0:0:0:
192,192,110253,128,0,110341:0:0:0:0:
448,192,110268,128,0,110312:0:0:0:0:
320,192,110312,128,0,110400:0:0:0:0:
64,192,110312,128,0,110429:0:0:0:0:
64,384,110488,1,0,0:0:0:0:
320,192,110488,1,0,0:0:0:0:
192,192,110532,1,0,0:0:0:0:
448,336,110577,1,0,0:0:0:0:
192,192,110665,1,0,0:0:0:0:
448,192,110690,1,0,0:0:0:0:
64,192,110709,1,0,0:0:0:0:
320,192,110740,1,0,0:0:0:0:
192,192,110841,1,0,0:0:0:0:
64,167,110885,1,0,0:0:0:0:
192,144,110929,1,0,0:0:0:0:
320,120,110974,1,0,0:0:0:0:
448,95,111018,1,0,0:0:0:0:
320,192,111062,128,0,111194:0:0:0:0:
192,0,111194,1,0,0:0:0:0:
64,0,111194,1,0,0:0:0:0:
64,47,111282,1,0,0:0:0:0:
192,192,111282,1,0,0:0:0:0:
448,192,111371,1,0,0:0:0:0:
448,192,111488,1,0,0:0:0:0:
64,192,111547,128,0,111665:0:0:0:0:
192,192,111547,128,0,111626:0:0:0:0:
320,192,111547,128,0,111586:0:0:0:0:
448,192,111626,1,0,0:0:0:0:
320,192,111665,1,0,0:0:0:0:
192,192,111704,1,0,0:0:0:0:
64,192,111743,128,0,111900:0:0:0:0:
192,192,111799,128,0,111900:0:0:0:0:
320,192,111850,128,0,111900:0:0:0:0:
448,192,111900,1,0,0:0:0:0:
192,192,112077,1,0,0:0:0:0:
320,192,112121,1,0,0:0:0:0:
64,192,112135,1,0,0:0:0:0:
192,192,112253,128,0,112319:0:0:0:0:
64,192,112253,128,0,112363:0:0:0:0:
448,192,112303,1,0,0:0:0:0:
320,192,112341,1,0,0:0:0:0:
192,192,112407,128,0,112540:0:0:0:0:
320,192,112429,128,0,112496:0:0:0:0:
64,192,112474,128,0,112606:0:0:0:0:
448,192,112518,1,0,0:0:0:0:
320,192,112562,1,0,0:0:0:0:
192,192,112606,1,0,0:0:0:0:
320,192,112782,1,0,0:0:0:0:
192,192,112827,1,0,0:0:0:0:
448,192,112841,1,0,0:0:0:0:
64,192,112959,128,0,113116:0:0:0:0:
192,192,112959,128,0,113077:0:0:0:0:
448,192,113003,1,0,0:0:0:0:
320,192,113047,1,0,0:0:0:0:
448,192,113116,128,0,113194:0:0:0:0:
320,192,113155,128,0,113233:0:0:0:0:
192,192,113194,128,0,113273:0:0:0:0:
64,192,113233,128,0,113312:0:0:0:0:
320,192,113312,1,0,0:0:0:0:
448,192,113400,1,0,0:0:0:0:
192,192,113488,1,0,0:0:0:0:
448,192,113577,1,0,0:0:0:0:
64,192,113665,1,0,0:0:0:0:
64,192,113753,128,0,113841:0:0:0:0:
192,192,113841,128,0,113929:0:0:0:0:
320,192,113929,128,0,114018:0:0:0:0:
448,192,114018,128,0,114194:0:0:0:0:
320,192,114106,128,0,114282:0:0:0:0:
192,192,114194,128,0,114371:0:0:0:0:
64,192,114282,128,0,114371:0:0:0:0:
448,192,114371,1,0,0:0:0:0:
320,192,114371,1,0,0:0:0:0:
448,192,114547,1,0,0:0:0:0:
320,192,114635,1,0,0:0:0:0:
448,192,114900,1,0,0:0:0:0:
320,192,114988,1,0,0:0:0:0:
320,192,115253,1,0,0:0:0:0:
192,192,115341,1,0,0:0:0:0:
192,192,115606,1,0,0:0:0:0:
192,192,115694,1,0,0:0:0:0:
64,192,115959,1,0,0:0:0:0:
64,192,116047,1,0,0:0:0:0:
448,192,116135,128,0,116488:0:0:0:0:
64,192,116312,1,0,0:0:0:0:
320,192,116312,128,0,116488:0:0:0:0:
64,192,116400,128,0,116488:0:0:0:0:
192,192,116665,1,0,0:0:0:0:
320,192,116753,1,0,0:0:0:0:
192,192,116782,1,0,0:0:0:0:
448,0,116841,1,0,0:0:0:0:
320,192,116841,1,0,0:0:0:0:
64,192,116841,1,0,0:0:0:0:
64,192,116929,1,0,0:0:0:0:
192,192,117018,1,0,0:0:0:0:
320,192,117106,1,0,0:0:0:0:
448,192,117194,1,0,0:0:0:0:
64,192,117194,1,0,0:0:0:0:
192,192,117194,1,0,0:0:0:0:
320,192,117282,1,0,0:0:0:0:
448,192,117295,1,0,0:0:0:0:
192,288,117371,1,0,0:0:0:0:
448,239,117459,1,0,0:0:0:0:
320,192,117472,1,0,0:0:0:0:
448,384,117547,1,0,0:0:0:0:
64,192,117547,1,0,0:0:0:0:
192,192,117724,128,0,117841:0:0:0:0:
320,192,117753,128,0,117871:0:0:0:0:
64,192,117768,128,0,117812:0:0:0:0:
448,192,117782,128,0,117841:0:0:0:0:
448,192,117900,1,0,0:0:0:0:
64,192,117900,1,0,0:0:0:0:
192,192,117988,1,0,0:0:0:0:
64,192,118001,1,0,0:0:0:0:
320,288,118077,1,0,0:0:0:0:
64,239,118165,1,0,0:0:0:0:
192,192,118178,1,0,0:0:0:0:
448,192,118253,1,0,0:0:0:0:
64,384,118253,1,0,0:0:0:0:
320,192,118429,128,0,118547:0:0:0:0:
192,192,118459,128,0,118577:0:0:0:0:
448,192,118474,128,0,118518:0:0:0:0:
64,192,118488,128,0,118547:0:0:0:0:
448,192,118606,1,0,0:0:0:0:
64,192,118606,1,0,0:0:0:0:
320,192,118694,1,0,0:0:0:0:
448,192,118707,1,0,0:0:0:0:
192,288,118782,1,0,0:0:0:0:
448,239,118871,1,0,0:0:0:0:
320,192,118884,1,0,0:0:0:0:
448,384,118959,1,0,0:0:0:0:
64,192,118959,1,0,0:0:0:0:
192,192,119135,128,0,119224:0:0:0:0:
320,192,119165,128,0,119253:0:0:0:0:
64,192,119179,1,0,0:0:0:0:
448,192,119194,1,0,0:0:0:0:
192,192,119312,128,0,119564:0:0:0:0:
448,192,119312,1,0,0:0:0:0:
320,192,119312,1,0,0:0:0:0:
320,192,119413,128,0,119564:0:0:0:0:
448,192,119413,128,0,119564:0:0:0:0:
64,192,119665,1,0,0:0:0:0:
192,192,119665,1,0,0:0:0:0:
320,192,119665,128,0,119917:0:0:0:0:
64,192,119766,128,0,119917:0:0:0:0:
192,192,119766,128,0,119917:0:0:0:0:
448,192,120018,128,0,120219:0:0:0:0:
192,192,120018,128,0,120119:0:0:0:0:
320,192,120018,128,0,120169:0:0:0:0:
192,192,120219,1,0,0:0:0:0:
320,192,120270,1,0,0:0:0:0:
448,192,120320,1,0,0:0:0:0:
64,192,120371,1,0,0:0:0:0:
192,192,120371,1,0,0:0:0:0:
320,192,120459,1,0,0:0:0:0:
320,192,120547,1,0,0:0:0:0:
64,192,120547,1,0,0:0:0:0:
64,192,120635,1,0,0:0:0:0:
320,192,120724,1,0,0:0:0:0:
448,192,120724,1,0,0:0:0:0:
192,192,120812,1,0,0:0:0:0:
192,192,120900,1,0,0:0:0:0:
448,192,120900,1,0,0:0:0:0:
448,192,120988,1,0,0:0:0:0:
192,192,121077,1,0,0:0:0:0:
64,192,121077,1,0,0:0:0:0:
320,192,121165,1,0,0:0:0:0:
320,192,121253,1,0,0:0:0:0:
64,192,121253,1,0,0:0:0:0:
64,192,121341,1,0,0:0:0:0:
320,192,121429,1,0,0:0:0:0:
448,192,121429,1,0,0:0:0:0:
320,192,121530,1,0,0:0:0:0:
448,192,121581,1,0,0:0:0:0:
320,192,121631,1,0,0:0:0:0:
192,192,121682,1,0,0:0:0:0:
64,192,121732,1,0,0:0:0:0:
320,384,121782,1,0,0:0:0:0:
448,384,121782,1,0,0:0:0:0:
192,192,121871,1,0,0:0:0:0:
192,287,121959,1,0,0:0:0:0:
320,287,121959,1,0,0:0:0:0:
320,239,122047,1,0,0:0:0:0:
64,192,122135,1,0,0:0:0:0:
192,192,122135,1,0,0:0:0:0:
448,192,122224,1,0,0:0:0:0:
320,192,122224,1,0,0:0:0:0:
64,192,122312,1,0,0:0:0:0:
448,192,122312,1,0,0:0:0:0:
64,47,122400,1,0,0:0:0:0:
192,192,122400,1,0,0:0:0:0:
320,0,122488,1,0,0:0:0:0:
448,0,122488,1,0,0:0:0:0:
64,192,122532,1,0,0:0:0:0:
192,192,122589,1,0,0:0:0:0:
320,192,122643,1,0,0:0:0:0:
448,192,122694,1,0,0:0:0:0:
192,192,122740,1,0,0:0:0:0:
320,192,122780,1,0,0:0:0:0:
448,192,122819,1,0,0:0:0:0:
64,192,122841,1,0,0:0:0:0:
192,192,122841,1,0,0:0:0:0:
64,192,122929,128,0,123106:0:0:0:0:
448,192,122929,128,0,123018:0:0:0:0:
192,192,123018,128,0,123341:0:0:0:0:
448,192,123106,1,0,0:0:0:0:
64,192,123194,128,0,123371:0:0:0:0:
448,192,123194,128,0,123282:0:0:0:0:
320,192,123282,1,0,0:0:0:0:
448,192,123371,128,0,123429:0:0:0:0:
320,192,123400,128,0,123459:0:0:0:0:
192,192,123429,128,0,123488:0:0:0:0:
64,192,123459,128,0,123518:0:0:0:0:
448,192,123547,1,0,0:0:0:0:
320,192,123547,1,0,0:0:0:0:
448,192,123635,128,0,123812:0:0:0:0:
64,192,123635,128,0,123724:0:0:0:0:
320,192,123724,128,0,124047:0:0:0:0:
64,192,123812,1,0,0:0:0:0:
64,192,123900,128,0,123988:0:0:0:0:
448,192,123900,128,0,124077:0:0:0:0:
192,192,123988,1,0,0:0:0:0:
64,192,124077,128,0,124135:0:0:0:0:
192,192,124106,128,0,124165:0:0:0:0:
320,192,124135,128,0,124194:0:0:0:0:
448,192,124165,128,0,124224:0:0:0:0:
192,192,124253,1,0,0:0:0:0:
64,192,124253,1,0,0:0:0:0:
64,192,124341,1,0,0:0:0:0:
192,192,124429,1,0,0:0:0:0:
192,192,124518,1,0,0:0:0:0:
64,192,124562,1,0,0:0:0:0:
320,192,124606,1,0,0:0:0:0:
320,192,124694,1,0,0:0:0:0:
448,192,124782,1,0,0:0:0:0:
192,192,124827,1,0,0:0:0:0:
448,192,124871,1,0,0:0:0:0:
64,192,124959,1,0,0:0:0:0:
64,192,125047,1,0,0:0:0:0:
192,192,125135,1,0,0:0:0:0:
192,192,125224,1,0,0:0:0:0:
64,192,125268,1,0,0:0:0:0:
320,192,125312,1,0,0:0:0:0:
320,192,125400,1,0,0:0:0:0:
448,192,125488,1,0,0:0:0:0:
192,192,125532,1,0,0:0:0:0:
448,192,125577,1,0,0:0:0:0:
192,239,125665,128,0,125885:0:0:0:0:
320,192,125709,128,0,125929:0:0:0:0:
64,192,125753,128,0,125841:0:0:0:0:
448,192,125797,128,0,125974:0:0:0:0:
64,192,126018,1,0,0:0:0:0:
64,192,126106,128,0,126282:0:0:0:0:
192,192,126106,128,0,126172:0:0:0:0:
320,192,126150,128,0,126216:0:0:0:0:
448,192,126194,128,0,126260:0:0:0:0:
192,192,126224,128,0,126312:0:0:0:0:
320,192,126282,128,0,126341:0:0:0:0:
64,192,126371,128,0,126488:0:0:0:0:
448,192,126371,1,0,0:0:0:0:
192,192,126400,128,0,126459:0:0:0:0:
448,192,126449,1,0,0:0:0:0:
320,192,126488,1,0,0:0:0:0:
192,120,126528,1,0,0:0:0:0:
64,95,126567,1,0,0:0:0:0:
448,192,126724,1,0,0:0:0:0:
320,192,126812,128,0,126878:0:0:0:0:
448,192,126812,128,0,126988:0:0:0:0:
192,192,126856,128,0,126922:0:0:0:0:
64,192,126900,128,0,126966:0:0:0:0:
320,192,126929,128,0,127018:0:0:0:0:
192,192,126988,128,0,127047:0:0:0:0:
448,192,127077,128,0,127194:0:0:0:0:
64,192,127077,1,0,0:0:0:0:
320,192,127106,128,0,127165:0:0:0:0:
64,192,127155,1,0,0:0:0:0:
192,192,127194,1,0,0:0:0:0:
320,120,127233,1,0,0:0:0:0:
448,95,127273,1,0,0:0:0:0:
64,192,127429,1,0,0:0:0:0:
64,192,127518,128,0,127694:0:0:0:0:
192,192,127518,128,0,127584:0:0:0:0:
320,192,127562,128,0,127628:0:0:0:0:
448,192,127606,128,0,127672:0:0:0:0:
192,192,127635,128,0,127724:0:0:0:0:
320,192,127694,128,0,127753:0:0:0:0:
64,192,127782,128,0,127900:0:0:0:0:
448,192,127782,1,0,0:0:0:0:
192,192,127812,128,0,127871:0:0:0:0:
448,192,127861,1,0,0:0:0:0:
320,192,127900,1,0,0:0:0:0:
192,120,127939,1,0,0:0:0:0:
64,95,127979,1,0,0:0:0:0:
192,0,128135,1,0,0:0:0:0:
64,192,128135,1,0,0:0:0:0:
320,192,128135,1,0,0:0:0:0:
448,192,128135,1,0,0:0:0:0:
64,192,128224,1,0,0:0:0:0:
448,192,128224,1,0,0:0:0:0:
64,192,128488,128,0,128606:0:0:0:0:
448,192,128488,1,0,0:0:0:0:
192,192,128518,128,0,128577:0:0:0:0:
448,192,128567,1,0,0:0:0:0:
320,192,128606,1,0,0:0:0:0:
192,192,128645,1,0,0:0:0:0:
64,192,128684,1,0,0:0:0:0:
64,192,128841,1,0,0:0:0:0:
64,192,128929,128,0,129106:0:0:0:0:
192,192,128929,128,0,128996:0:0:0:0:
320,192,128974,128,0,129040:0:0:0:0:
448,192,129018,128,0,129084:0:0:0:0:
192,192,129047,128,0,129135:0:0:0:0:
320,192,129106,128,0,129165:0:0:0:0:
448,192,129194,1,0,0:0:0:0:
64,192,129194,128,0,129312:0:0:0:0:
192,192,129224,128,0,129282:0:0:0:0:
448,192,129273,1,0,0:0:0:0:
320,192,129312,1,0,0:0:0:0:
192,120,129351,1,0,0:0:0:0:
64,95,129390,1,0,0:0:0:0:
448,192,129547,1,0,0:0:0:0:
448,192,129635,128,0,129812:0:0:0:0:
320,192,129635,128,0,129702:0:0:0:0:
192,192,129679,128,0,129746:0:0:0:0:
64,192,129724,128,0,129790:0:0:0:0:
320,192,129753,128,0,129841:0:0:0:0:
192,192,129812,128,0,129871:0:0:0:0:
64,192,129900,1,0,0:0:0:0:
448,192,129900,1,0,0:0:0:0:
448,192,130077,128,0,130194:0:0:0:0:
64,192,130077,1,0,0:0:0:0:
320,192,130106,128,0,130165:0:0:0:0:
64,192,130156,1,0,0:0:0:0:
192,192,130194,1,0,0:0:0:0:
320,120,130234,1,0,0:0:0:0:
448,95,130273,1,0,0:0:0:0:
64,192,130341,128,0,130518:0:0:0:0:
192,192,130341,128,0,130407:0:0:0:0:
320,192,130385,128,0,130452:0:0:0:0:
448,192,130429,128,0,130496:0:0:0:0:
192,192,130459,128,0,130547:0:0:0:0:
320,192,130518,128,0,130577:0:0:0:0:
64,192,130606,1,0,0:0:0:0:
448,192,130606,1,0,0:0:0:0:
64,192,130694,128,0,130782:0:0:0:0:
448,192,130724,128,0,130782:0:0:0:0:
320,192,130782,1,0,0:0:0:0:
192,64,130841,1,0,0:0:0:0:
320,192,130900,1,0,0:0:0:0:
64,0,130959,1,0,0:0:0:0:
448,192,130959,1,0,0:0:0:0:
192,192,131047,1,0,0:0:0:0:
192,192,131135,1,0,0:0:0:0:
192,192,131224,1,0,0:0:0:0:
64,192,131312,1,0,0:0:0:0:
320,192,131312,1,0,0:0:0:0:
448,192,131312,1,0,0:0:0:0:
192,192,131488,1,0,0:0:0:0:
448,192,131514,1,0,0:0:0:0:
64,192,131547,1,0,0:0:0:0:
320,192,131564,1,0,0:0:0:0:
192,192,131614,1,0,0:0:0:0:
64,192,131665,1,0,0:0:0:0:
320,192,131753,1,0,0:0:0:0:
64,192,131775,1,0,0:0:0:0:
448,192,131812,1,0,0:0:0:0:
192,192,131819,1,0,0:0:0:0:
320,192,131863,1,0,0:0:0:0:
448,192,131907,1,0,0:0:0:0:
320,192,132018,1,0,0:0:0:0:
192,192,132018,1,0,0:0:0:0:
192,192,132194,1,0,0:0:0:0:
448,192,132219,1,0,0:0:0:0:
64,192,132253,1,0,0:0:0:0:
320,192,132270,1,0,0:0:0:0:
192,192,132320,1,0,0:0:0:0:
64,192,132371,1,0,0:0:0:0:
320,192,132459,1,0,0:0:0:0:
64,192,132481,1,0,0:0:0:0:
448,192,132518,1,0,0:0:0:0:
192,192,132525,1,0,0:0:0:0:
320,192,132569,1,0,0:0:0:0:
448,192,132613,1,0,0:0:0:0:
64,192,132724,1,0,0:0:0:0:
192,192,132724,1,0,0:0:0:0:
448,192,132724,1,0,0:0:0:0:
64,192,132900,1,0,0:0:0:0:
320,192,132900,1,0,0:0:0:0:
192,192,132950,1,0,0:0:0:0:
64,192,133000,1,0,0:0:0:0:
448,192,133032,1,0,0:0:0:0:
192,192,133077,1,0,0:0:0:0:
448,192,133165,1,0,0:0:0:0:
192,192,133165,1,0,0:0:0:0:
320,192,133215,1,0,0:0:0:0:
448,192,133265,1,0,0:0:0:0:
64,192,133278,1,0,0:0:0:0:
320,192,133329,5,0,0:0:0:0:
192,192,133429,1,0,0:0:0:0:
64,192,133429,1,0,0:0:0:0:
448,192,133429,1,0,0:0:0:0:
320,192,133606,1,0,0:0:0:0:
64,192,133606,1,0,0:0:0:0:
192,192,133656,1,0,0:0:0:0:
64,192,133706,1,0,0:0:0:0:
448,192,133738,1,0,0:0:0:0:
192,192,133782,1,0,0:0:0:0:
192,192,133871,1,0,0:0:0:0:
448,192,133871,1,0,0:0:0:0:
320,192,133921,1,0,0:0:0:0:
448,192,133971,1,0,0:0:0:0:
64,192,133984,1,0,0:0:0:0:
192,192,134047,1,0,0:0:0:0:
320,192,134047,1,0,0:0:0:0:
192,192,134135,1,0,0:0:0:0:
64,192,134135,1,0,0:0:0:0:
448,192,134135,1,0,0:0:0:0:
320,192,134312,1,0,0:0:0:0:
192,192,134312,1,0,0:0:0:0:
320,192,134488,1,0,0:0:0:0:
64,192,134488,1,0,0:0:0:0:
448,192,134488,1,0,0:0:0:0:
192,192,134577,1,0,0:0:0:0:
320,192,134577,1,0,0:0:0:0:
192,192,134753,1,0,0:0:0:0:
320,192,134753,1,0,0:0:0:0:
192,192,134841,1,0,0:0:0:0:
320,192,134841,1,0,0:0:0:0:
64,192,134929,1,0,0:0:0:0:
448,192,134929,1,0,0:0:0:0:
192,192,134974,1,0,0:0:0:0:
320,192,134974,1,0,0:0:0:0:
64,192,135018,1,0,0:0:0:0:
448,192,135018,1,0,0:0:0:0:
320,192,135106,1,0,0:0:0:0:
192,192,135106,1,0,0:0:0:0:
448,192,135194,1,0,0:0:0:0:
64,192,135194,1,0,0:0:0:0:
192,192,135253,1,0,0:0:0:0:
320,192,135253,1,0,0:0:0:0:
64,192,135312,1,0,0:0:0:0:
448,192,135312,1,0,0:0:0:0:
192,192,135371,1,0,0:0:0:0:
320,192,135371,1,0,0:0:0:0:
64,192,135459,1,0,0:0:0:0:
448,192,135459,1,0,0:0:0:0:
192,192,135547,1,0,0:0:0:0:
448,192,135547,1,0,0:0:0:0:
64,192,135547,1,0,0:0:0:0:
192,192,135724,1,0,0:0:0:0:
64,192,135900,1,0,0:0:0:0:
320,192,135988,1,0,0:0:0:0:
448,192,136165,1,0,0:0:0:0:
64,192,136341,128,0,136429:0:0:0:0:
192,192,136429,128,0,136518:0:0:0:0:
320,192,136518,128,0,136606:0:0:0:0:
448,192,136606,128,0,136782:0:0:0:0:
320,192,136694,128,0,136871:0:0:0:0:
192,192,136782,128,0,136959:0:0:0:0:
64,192,136871,128,0,137047:0:0:0:0:
448,192,136959,1,0,0:0:0:0:
320,192,137018,1,0,0:0:0:0:
448,192,137077,1,0,0:0:0:0:
192,288,137135,1,0,0:0:0:0:
320,192,137194,1,0,0:0:0:0:
192,192,137253,1,0,0:0:0:0:
320,192,137312,1,0,0:0:0:0:
64,192,137312,1,0,0:0:0:0:
448,192,137312,1,0,0:0:0:0:
