osu file format v14

[General]
AudioFilename: Kissing Lucifer.mp3
AudioLeadIn: 0
PreviewTime: 45194
Countdown: 0
SampleSet: Drum
StackLeniency: 0.2
Mode: 3
LetterboxInBreaks: 0
StoryFireInFront: 0
SpecialStyle: 0
WidescreenStoryboard: 1

[Editor]
Bookmarks: 0,12761,24055,35349,57937,60761,69231,80525,91819,97466,103114,105937,108761,114408,117231,120055,125702,127819,128525,135584
DistanceSpacing: 1
BeatDivisor: 4
GridSize: 4
TimelineZoom: 2.3

[Metadata]
Title:Kissing Lucifer
TitleUnicode:Kissing Lucifer
Artist:ETIA.
ArtistUnicode:ETIA.
Creator:AelSan
Version:baigu's PRESENT
Source:Arcaea
Tags:video game instrumental electronic future riddim color bass colorbass 維塔 Vita ヴィータ lowiro limited tech technical [Crz]hinako1804 icecake baigu678
BeatmapID:3945908
BeatmapSetID:1900508

[Difficulty]
HPDrainRate:7.1
CircleSize:4
OverallDifficulty:7.1
ApproachRate:3
SliderMultiplier:1
SliderTickRate:1

[Events]
//Background and Video events
0,0,"36987cadd0be744d.jpg",0,0
//Break Periods
//Storyboard Layer 0 (Background)
//Storyboard Layer 1 (Fail)
//Storyboard Layer 2 (Pass)
//Storyboard Layer 3 (Foreground)
//Storyboard Layer 4 (Overlay)
//Storyboard Sound Samples

[TimingPoints]
1430,352.941176470588,4,3,1,80,1,0
105900,-100,4,3,1,80,0,1
124253,-100,4,3,1,80,0,0
126106,-100,4,3,1,80,0,1
137312,-100,4,3,1,80,0,0

[Colours]
Combo1 : 255,0,0
Combo2 : 0,255,0
Combo3 : 0,0,255
Combo4 : 255,255,0
Combo5 : 0,255,255
Combo6 : 255,0,255

[HitObjects]
320,192,1077,128,0,1430:0:0:0:0:
448,192,1430,1,0,0:0:0:0:
64,192,1430,128,0,7077:0:0:0:0:
448,192,7077,1,0,0:0:0:0:
192,192,7429,1,0,0:0:0:0:
320,192,7606,1,0,0:0:0:0:
64,192,7959,1,0,0:0:0:0:
192,192,8135,1,0,0:0:0:0:
320,192,8488,1,0,0:0:0:0:
448,192,8841,1,0,0:0:0:0:
192,192,9018,1,0,0:0:0:0:
64,192,9371,1,0,0:0:0:0:
320,192,9547,1,0,0:0:0:0:
448,192,9724,1,0,0:0:0:0:
64,192,11312,1,0,0:0:0:0:
192,192,11488,1,0,0:0:0:0:
320,192,11665,1,0,0:0:0:0:
448,192,11841,1,0,0:0:0:0:
64,192,12018,128,0,12194:0:0:0:0:
192,192,12194,128,0,12371:0:0:0:0:
320,192,12371,128,0,12547:0:0:0:0:
448,192,12547,128,0,12724:0:0:0:0:
64,192,12724,1,0,0:0:0:0:
192,192,12724,1,0,0:0:0:0:
320,192,12900,1,0,0:0:0:0:
64,192,13077,128,0,13253:0:0:0:0:
192,192,13253,1,0,0:0:0:0:
320,192,13341,1,0,0:0:0:0:
448,192,13429,1,0,0:0:0:0:
64,192,13429,1,0,0:0:0:0:
320,192,13606,1,0,0:0:0:0:
192,192,13782,1,0,0:0:0:0:
448,192,13959,1,0,0:0:0:0:
64,192,14135,1,0,0:0:0:0:
192,192,14312,1,0,0:0:0:0:
320,192,14488,1,0,0:0:0:0:
448,192,14488,1,0,0:0:0:0:
64,192,14665,1,0,0:0:0:0:
192,192,14841,1,0,0:0:0:0:
448,192,14841,1,0,0:0:0:0:
320,192,15018,1,0,0:0:0:0:
64,192,15018,1,0,0:0:0:0:
192,192,15106,1,0,0:0:0:0:
448,192,15194,128,0,15371:0:0:0:0:
320,192,15371,1,0,0:0:0:0:
64,192,15547,1,0,0:0:0:0:
192,192,15547,1,0,0:0:0:0:
448,192,15724,1,0,0:0:0:0:
320,192,15812,1,0,0:0:0:0:
192,192,15900,128,0,16077:0:0:0:0:
320,192,16077,1,0,0:0:0:0:
448,192,16253,1,0,0:0:0:0:
64,192,16253,1,0,0:0:0:0:
192,192,16429,1,0,0:0:0:0:
320,192,16606,1,0,0:0:0:0:
64,192,16782,1,0,0:0:0:0:
192,192,16782,1,0,0:0:0:0:
448,192,16959,1,0,0:0:0:0:
64,192,17135,1,0,0:0:0:0:
320,192,17135,128,0,17312:0:0:0:0:
192,192,17312,1,0,0:0:0:0:
448,192,17312,1,0,0:0:0:0:
320,192,17488,1,0,0:0:0:0:
192,192,17577,1,0,0:0:0:0:
64,192,17665,1,0,0:0:0:0:
448,192,17665,1,0,0:0:0:0:
320,192,17841,1,0,0:0:0:0:
192,192,17841,1,0,0:0:0:0:
64,192,18018,1,0,0:0:0:0:
448,192,18106,1,0,0:0:0:0:
192,192,18194,1,0,0:0:0:0:
320,192,18282,1,0,0:0:0:0:
64,192,18371,1,0,0:0:0:0:
448,192,18371,1,0,0:0:0:0:
192,192,18547,1,0,0:0:0:0:
448,192,18724,128,0,18900:0:0:0:0:
320,192,18900,1,0,0:0:0:0:
192,192,18988,1,0,0:0:0:0:
64,192,19077,1,0,0:0:0:0:
448,192,19077,1,0,0:0:0:0:
192,192,19253,1,0,0:0:0:0:
320,192,19429,1,0,0:0:0:0:
64,192,19606,1,0,0:0:0:0:
448,192,19782,1,0,0:0:0:0:
320,192,19959,1,0,0:0:0:0:
64,192,20135,1,0,0:0:0:0:
192,192,20135,1,0,0:0:0:0:
448,192,20312,1,0,0:0:0:0:
320,192,20488,1,0,0:0:0:0:
64,192,20488,1,0,0:0:0:0:
192,192,20665,1,0,0:0:0:0:
448,192,20665,1,0,0:0:0:0:
320,192,20753,1,0,0:0:0:0:
64,192,20841,128,0,21018:0:0:0:0:
192,192,21018,1,0,0:0:0:0:
320,192,21194,1,0,0:0:0:0:
448,192,21194,1,0,0:0:0:0:
192,192,22606,128,0,22959:0:0:0:0:
448,192,22959,128,0,23135:0:0:0:0:
64,192,23135,128,0,23312:0:0:0:0:
448,192,23488,128,0,23665:0:0:0:0:
320,192,23665,128,0,23841:0:0:0:0:
192,192,23841,128,0,24018:0:0:0:0:
64,192,24018,1,0,0:0:0:0:
448,192,24018,1,0,0:0:0:0:
192,192,24106,1,0,0:0:0:0:
320,192,24194,1,0,0:0:0:0:
64,192,24371,1,0,0:0:0:0:
320,192,24459,1,0,0:0:0:0:
448,192,24635,128,0,24724:0:0:0:0:
64,192,24724,1,0,0:0:0:0:
192,192,24812,1,0,0:0:0:0:
320,192,24900,1,0,0:0:0:0:
192,192,25077,1,0,0:0:0:0:
448,192,25165,1,0,0:0:0:0:
64,192,25341,128,0,25429:0:0:0:0:
448,192,25429,1,0,0:0:0:0:
192,192,25518,1,0,0:0:0:0:
320,192,25606,1,0,0:0:0:0:
64,192,25782,1,0,0:0:0:0:
320,192,25871,1,0,0:0:0:0:
448,192,26047,128,0,26135:0:0:0:0:
64,192,26135,1,0,0:0:0:0:
192,192,26224,1,0,0:0:0:0:
320,192,26312,1,0,0:0:0:0:
192,192,26488,1,0,0:0:0:0:
448,192,26577,1,0,0:0:0:0:
64,192,26753,128,0,26841:0:0:0:0:
448,192,26841,1,0,0:0:0:0:
320,192,26929,1,0,0:0:0:0:
192,192,27018,1,0,0:0:0:0:
448,192,27194,1,0,0:0:0:0:
192,192,27282,1,0,0:0:0:0:
64,192,27459,128,0,27547:0:0:0:0:
448,192,27547,1,0,0:0:0:0:
320,192,27635,1,0,0:0:0:0:
192,192,27724,1,0,0:0:0:0:
320,192,27900,1,0,0:0:0:0:
64,192,27988,1,0,0:0:0:0:
448,192,28165,128,0,28253:0:0:0:0:
64,192,28253,1,0,0:0:0:0:
320,192,28341,1,0,0:0:0:0:
192,192,28429,1,0,0:0:0:0:
448,192,28606,1,0,0:0:0:0:
192,192,28694,1,0,0:0:0:0:
64,192,28871,128,0,28959:0:0:0:0:
448,192,28959,1,0,0:0:0:0:
320,192,29047,1,0,0:0:0:0:
64,192,29135,1,0,0:0:0:0:
192,192,29224,1,0,0:0:0:0:
448,192,29312,1,0,0:0:0:0:
320,192,29400,1,0,0:0:0:0:
192,192,29488,1,0,0:0:0:0:
320,192,29577,1,0,0:0:0:0:
448,192,29665,1,0,0:0:0:0:
64,192,29665,1,0,0:0:0:0:
192,192,29753,1,0,0:0:0:0:
320,192,29841,1,0,0:0:0:0:
448,192,30018,1,0,0:0:0:0:
64,192,30018,1,0,0:0:0:0:
192,192,30106,1,0,0:0:0:0:
320,192,30282,128,0,30371:0:0:0:0:
448,192,30371,1,0,0:0:0:0:
64,192,30371,1,0,0:0:0:0:
192,192,30459,1,0,0:0:0:0:
320,192,30547,1,0,0:0:0:0:
448,192,30724,1,0,0:0:0:0:
64,192,30724,1,0,0:0:0:0:
192,192,30812,1,0,0:0:0:0:
320,192,30988,128,0,31077:0:0:0:0:
192,192,31077,1,0,0:0:0:0:
64,192,31077,1,0,0:0:0:0:
320,192,31165,1,0,0:0:0:0:
448,192,31253,1,0,0:0:0:0:
64,192,31429,1,0,0:0:0:0:
192,192,31429,1,0,0:0:0:0:
320,192,31518,1,0,0:0:0:0:
448,192,31694,128,0,31782:0:0:0:0:
64,192,31782,1,0,0:0:0:0:
192,192,31782,1,0,0:0:0:0:
320,192,31871,1,0,0:0:0:0:
448,192,31959,1,0,0:0:0:0:
64,192,32135,1,0,0:0:0:0:
192,192,32135,1,0,0:0:0:0:
320,192,32224,1,0,0:0:0:0:
64,192,32400,128,0,32488:0:0:0:0:
320,192,32488,1,0,0:0:0:0:
448,192,32488,1,0,0:0:0:0:
192,192,32577,1,0,0:0:0:0:
64,192,32665,1,0,0:0:0:0:
320,192,32841,1,0,0:0:0:0:
448,192,32841,1,0,0:0:0:0:
192,192,32929,1,0,0:0:0:0:
64,192,33106,128,0,33194:0:0:0:0:
320,192,33194,1,0,0:0:0:0:
448,192,33194,1,0,0:0:0:0:
192,192,33282,1,0,0:0:0:0:
64,192,33371,1,0,0:0:0:0:
320,192,33547,1,0,0:0:0:0:
448,192,33547,1,0,0:0:0:0:
192,192,33635,1,0,0:0:0:0:
320,192,33812,128,0,33900:0:0:0:0:
448,192,33900,1,0,0:0:0:0:
64,192,33900,1,0,0:0:0:0:
192,192,33988,1,0,0:0:0:0:
320,192,34077,1,0,0:0:0:0:
64,192,34253,1,0,0:0:0:0:
448,192,34253,1,0,0:0:0:0:
192,192,34341,1,0,0:0:0:0:
320,192,34518,128,0,34606:0:0:0:0:
192,192,34606,128,0,34782:0:0:0:0:
448,192,34782,1,0,0:0:0:0:
320,192,34841,1,0,0:0:0:0:
192,192,34900,1,0,0:0:0:0:
64,192,34959,1,0,0:0:0:0:
320,192,35047,1,0,0:0:0:0:
192,192,35224,1,0,0:0:0:0:
64,192,35312,1,0,0:0:0:0:
448,192,35312,1,0,0:0:0:0:
192,192,35400,1,0,0:0:0:0:
320,192,35488,1,0,0:0:0:0:
64,192,35665,1,0,0:0:0:0:
448,192,35665,1,0,0:0:0:0:
192,192,35753,1,0,0:0:0:0:
320,192,35929,1,0,0:0:0:0:
64,192,36018,1,0,0:0:0:0:
192,192,36018,1,0,0:0:0:0:
320,192,36106,1,0,0:0:0:0:
448,192,36194,1,0,0:0:0:0:
64,192,36371,1,0,0:0:0:0:
320,192,36371,1,0,0:0:0:0:
192,192,36459,1,0,0:0:0:0:
320,192,36635,1,0,0:0:0:0:
448,192,36724,1,0,0:0:0:0:
64,192,36724,1,0,0:0:0:0:
320,192,36812,1,0,0:0:0:0:
192,192,36900,1,0,0:0:0:0:
448,192,37077,1,0,0:0:0:0:
320,192,37077,1,0,0:0:0:0:
64,192,37165,1,0,0:0:0:0:
192,192,37341,1,0,0:0:0:0:
448,192,37429,1,0,0:0:0:0:
320,192,37429,1,0,0:0:0:0:
192,192,37518,1,0,0:0:0:0:
64,192,37606,1,0,0:0:0:0:
448,192,37782,1,0,0:0:0:0:
320,192,37782,1,0,0:0:0:0:
192,192,37871,1,0,0:0:0:0:
448,192,38047,1,0,0:0:0:0:
64,192,38135,1,0,0:0:0:0:
320,192,38135,1,0,0:0:0:0:
192,192,38224,1,0,0:0:0:0:
448,192,38312,1,0,0:0:0:0:
192,192,38488,1,0,0:0:0:0:
64,192,38488,1,0,0:0:0:0:
320,192,38577,1,0,0:0:0:0:
448,192,38753,1,0,0:0:0:0:
64,192,38841,1,0,0:0:0:0:
320,192,38841,1,0,0:0:0:0:
192,192,38929,1,0,0:0:0:0:
448,192,39018,1,0,0:0:0:0:
64,192,39194,1,0,0:0:0:0:
320,192,39194,1,0,0:0:0:0:
192,192,39282,1,0,0:0:0:0:
320,192,39459,1,0,0:0:0:0:
448,192,39547,1,0,0:0:0:0:
64,192,39547,1,0,0:0:0:0:
192,192,39635,1,0,0:0:0:0:
320,192,39724,1,0,0:0:0:0:
448,192,39900,1,0,0:0:0:0:
64,192,39900,1,0,0:0:0:0:
192,192,39988,1,0,0:0:0:0:
320,192,40165,1,0,0:0:0:0:
64,192,40253,128,0,40429:0:0:0:0:
192,192,40253,128,0,40341:0:0:0:0:
320,192,40606,1,0,0:0:0:0:
448,192,40606,1,0,0:0:0:0:
64,192,40694,1,0,0:0:0:0:
192,192,40694,1,0,0:0:0:0:
320,192,40782,1,0,0:0:0:0:
64,192,40959,1,0,0:0:0:0:
448,192,40959,1,0,0:0:0:0:
320,192,41135,1,0,0:0:0:0:
64,192,41312,1,0,0:0:0:0:
448,192,41312,1,0,0:0:0:0:
192,192,41400,1,0,0:0:0:0:
320,192,41488,1,0,0:0:0:0:
192,192,41577,1,0,0:0:0:0:
64,192,41665,1,0,0:0:0:0:
448,192,41665,1,0,0:0:0:0:
192,192,41841,1,0,0:0:0:0:
64,192,42018,1,0,0:0:0:0:
448,192,42018,1,0,0:0:0:0:
320,192,42106,1,0,0:0:0:0:
192,192,42194,1,0,0:0:0:0:
320,192,42282,1,0,0:0:0:0:
448,192,42371,1,0,0:0:0:0:
64,192,42371,1,0,0:0:0:0:
192,192,42547,1,0,0:0:0:0:
64,192,42724,1,0,0:0:0:0:
448,192,42724,1,0,0:0:0:0:
320,192,42812,1,0,0:0:0:0:
192,192,42900,1,0,0:0:0:0:
448,192,42988,1,0,0:0:0:0:
320,192,43077,1,0,0:0:0:0:
64,192,43077,1,0,0:0:0:0:
192,192,43253,1,0,0:0:0:0:
64,192,43429,1,0,0:0:0:0:
448,192,43429,1,0,0:0:0:0:
192,192,43518,1,0,0:0:0:0:
320,192,43606,1,0,0:0:0:0:
64,192,43694,1,0,0:0:0:0:
448,192,43782,1,0,0:0:0:0:
320,192,43782,1,0,0:0:0:0:
192,192,43871,1,0,0:0:0:0:
448,192,43959,1,0,0:0:0:0:
320,192,44047,1,0,0:0:0:0:
64,192,44135,1,0,0:0:0:0:
192,192,44135,1,0,0:0:0:0:
448,192,44224,1,0,0:0:0:0:
320,192,44312,1,0,0:0:0:0:
192,192,44400,1,0,0:0:0:0:
64,192,44488,1,0,0:0:0:0:
448,192,44488,1,0,0:0:0:0:
320,192,44577,1,0,0:0:0:0:
192,192,44665,1,0,0:0:0:0:
320,192,44753,1,0,0:0:0:0:
448,192,44841,1,0,0:0:0:0:
64,192,44841,1,0,0:0:0:0:
192,192,44900,1,0,0:0:0:0:
320,192,44959,1,0,0:0:0:0:
448,192,45018,1,0,0:0:0:0:
192,192,45077,1,0,0:0:0:0:
64,192,45135,1,0,0:0:0:0:
192,192,45900,1,0,0:0:0:0:
64,192,45900,1,0,0:0:0:0:
448,192,45988,1,0,0:0:0:0:
320,192,46077,1,0,0:0:0:0:
64,192,46165,1,0,0:0:0:0:
192,192,46165,1,0,0:0:0:0:
320,192,46341,1,0,0:0:0:0:
192,192,46429,1,0,0:0:0:0:
448,192,46606,128,0,46959:0:0:0:0:
320,192,46606,128,0,46959:0:0:0:0:
64,192,46606,1,0,0:0:0:0:
192,192,46959,1,0,0:0:0:0:
320,192,47135,128,0,47488:0:0:0:0:
192,192,47312,128,0,47488:0:0:0:0:
64,192,47312,1,0,0:0:0:0:
448,192,47488,1,0,0:0:0:0:
64,192,47665,128,0,48371:0:0:0:0:
192,192,47665,128,0,48194:0:0:0:0:
320,192,47665,128,0,48018:0:0:0:0:
448,192,48371,1,0,0:0:0:0:
320,192,48371,1,0,0:0:0:0:
192,192,48459,1,0,0:0:0:0:
320,192,48547,1,0,0:0:0:0:
64,192,48635,128,0,48900:0:0:0:0:
448,192,48635,1,0,0:0:0:0:
448,192,48900,1,0,0:0:0:0:
320,192,48900,1,0,0:0:0:0:
192,192,49077,1,0,0:0:0:0:
64,192,49077,1,0,0:0:0:0:
320,192,49165,1,0,0:0:0:0:
192,192,49253,1,0,0:0:0:0:
320,192,49341,1,0,0:0:0:0:
64,192,49429,1,0,0:0:0:0:
448,192,49429,1,0,0:0:0:0:
320,192,49606,128,0,49871:0:0:0:0:
448,192,49694,128,0,49871:0:0:0:0:
192,192,49871,128,0,50047:0:0:0:0:
64,192,49959,128,0,50047:0:0:0:0:
320,192,50135,1,0,0:0:0:0:
448,192,50135,1,0,0:0:0:0:
64,192,50135,1,0,0:0:0:0:
192,192,50312,128,0,50577:0:0:0:0:
64,192,50400,128,0,50577:0:0:0:0:
320,192,50577,128,0,50841:0:0:0:0:
448,192,50665,128,0,50841:0:0:0:0:
64,192,50841,1,0,0:0:0:0:
192,192,50841,1,0,0:0:0:0:
320,192,51018,128,0,51282:0:0:0:0:
448,192,51106,128,0,51282:0:0:0:0:
192,192,51282,128,0,51459:0:0:0:0:
64,192,51371,128,0,51459:0:0:0:0:
320,192,51547,1,0,0:0:0:0:
448,192,51547,1,0,0:0:0:0:
64,192,51547,1,0,0:0:0:0:
192,192,51724,128,0,51900:0:0:0:0:
64,192,51724,128,0,51900:0:0:0:0:
448,192,51724,128,0,51900:0:0:0:0:
320,192,51988,128,0,52165:0:0:0:0:
192,192,51988,128,0,52165:0:0:0:0:
64,192,51988,128,0,52165:0:0:0:0:
448,192,52253,128,0,52606:0:0:0:0:
320,192,52253,1,0,0:0:0:0:
64,192,52253,128,0,52429:0:0:0:0:
192,192,52606,1,0,0:0:0:0:
64,192,52606,1,0,0:0:0:0:
320,192,52694,1,0,0:0:0:0:
448,192,52694,1,0,0:0:0:0:
192,192,52782,1,0,0:0:0:0:
64,192,52959,1,0,0:0:0:0:
448,192,52959,1,0,0:0:0:0:
320,192,52959,1,0,0:0:0:0:
448,192,53312,128,0,54018:0:0:0:0:
320,192,53312,128,0,53841:0:0:0:0:
192,192,53312,128,0,53665:0:0:0:0:
64,192,54018,1,0,0:0:0:0:
192,192,54018,1,0,0:0:0:0:
320,192,54106,1,0,0:0:0:0:
192,192,54194,1,0,0:0:0:0:
448,192,54282,128,0,54547:0:0:0:0:
64,192,54282,1,0,0:0:0:0:
64,192,54547,1,0,0:0:0:0:
192,192,54547,1,0,0:0:0:0:
448,192,54724,1,0,0:0:0:0:
64,192,54812,1,0,0:0:0:0:
448,192,54900,1,0,0:0:0:0:
64,192,54988,1,0,0:0:0:0:
192,192,55077,1,0,0:0:0:0:
320,192,55077,1,0,0:0:0:0:
448,192,55253,128,0,55518:0:0:0:0:
320,192,55341,128,0,55518:0:0:0:0:
64,192,55518,128,0,55694:0:0:0:0:
192,192,55606,128,0,55694:0:0:0:0:
320,192,55782,1,0,0:0:0:0:
448,192,55782,1,0,0:0:0:0:
64,192,55782,1,0,0:0:0:0:
64,192,55959,128,0,56224:0:0:0:0:
192,192,56047,128,0,56224:0:0:0:0:
448,192,56224,128,0,56488:0:0:0:0:
320,192,56312,128,0,56488:0:0:0:0:
64,192,56488,1,0,0:0:0:0:
192,192,56488,1,0,0:0:0:0:
320,192,56665,1,0,0:0:0:0:
64,192,56841,1,0,0:0:0:0:
192,192,56929,1,0,0:0:0:0:
448,192,57106,1,0,0:0:0:0:
64,192,57282,1,0,0:0:0:0:
192,192,57371,1,0,0:0:0:0:
320,192,57459,1,0,0:0:0:0:
448,192,57547,1,0,0:0:0:0:
320,192,57635,1,0,0:0:0:0:
192,192,57724,1,0,0:0:0:0:
64,192,57812,1,0,0:0:0:0:
448,192,57900,1,0,0:0:0:0:
320,192,57900,128,0,59312:0:0:0:0:
192,192,58077,128,0,59665:0:0:0:0:
64,192,58253,128,0,60018:0:0:0:0:
448,192,59312,128,0,60018:0:0:0:0:
320,192,59665,128,0,60018:0:0:0:0:
192,192,60018,1,0,0:0:0:0:
64,192,60194,128,0,60371:0:0:0:0:
448,192,60371,1,0,0:0:0:0:
320,192,60371,1,0,0:0:0:0:
192,192,60459,1,0,0:0:0:0:
320,192,60547,1,0,0:0:0:0:
192,192,60635,1,0,0:0:0:0:
64,192,60724,1,0,0:0:0:0:
448,192,60724,1,0,0:0:0:0:
320,192,60841,1,0,0:0:0:0:
448,192,60841,1,0,0:0:0:0:
320,192,61077,1,0,0:0:0:0:
192,192,61077,1,0,0:0:0:0:
192,192,61312,1,0,0:0:0:0:
64,192,61312,1,0,0:0:0:0:
64,192,61429,1,0,0:0:0:0:
448,192,61429,1,0,0:0:0:0:
320,192,61429,1,0,0:0:0:0:
320,192,61547,1,0,0:0:0:0:
448,192,61547,1,0,0:0:0:0:
320,192,61782,1,0,0:0:0:0:
192,192,61782,1,0,0:0:0:0:
64,192,62018,1,0,0:0:0:0:
192,192,62018,1,0,0:0:0:0:
64,192,62135,1,0,0:0:0:0:
448,192,62135,1,0,0:0:0:0:
320,192,62253,1,0,0:0:0:0:
448,192,62253,1,0,0:0:0:0:
320,192,62488,1,0,0:0:0:0:
192,192,62488,1,0,0:0:0:0:
192,192,62724,1,0,0:0:0:0:
64,192,62724,1,0,0:0:0:0:
64,192,62841,1,0,0:0:0:0:
448,192,62841,1,0,0:0:0:0:
192,192,62841,1,0,0:0:0:0:
320,192,62959,1,0,0:0:0:0:
320,192,63077,1,0,0:0:0:0:
192,192,63194,1,0,0:0:0:0:
192,192,63312,1,0,0:0:0:0:
64,192,63429,1,0,0:0:0:0:
320,192,63547,1,0,0:0:0:0:
448,192,63547,1,0,0:0:0:0:
64,192,63900,128,0,64253:0:0:0:0:
192,192,64077,128,0,64253:0:0:0:0:
320,192,64253,1,0,0:0:0:0:
448,192,64253,1,0,0:0:0:0:
192,192,64429,1,0,0:0:0:0:
320,192,64429,1,0,0:0:0:0:
64,192,64606,128,0,65312:0:0:0:0:
192,192,64606,128,0,65135:0:0:0:0:
448,192,64606,128,0,64959:0:0:0:0:
448,192,65312,1,0,0:0:0:0:
320,192,65312,1,0,0:0:0:0:
192,192,65400,1,0,0:0:0:0:
320,192,65488,1,0,0:0:0:0:
448,192,65577,1,0,0:0:0:0:
64,192,65577,128,0,65841:0:0:0:0:
320,192,65841,128,0,66018:0:0:0:0:
448,192,65841,128,0,66018:0:0:0:0:
192,192,65841,1,0,0:0:0:0:
320,192,66106,1,0,0:0:0:0:
448,192,66106,1,0,0:0:0:0:
64,192,66194,1,0,0:0:0:0:
192,192,66194,1,0,0:0:0:0:
64,192,66371,1,0,0:0:0:0:
448,192,66371,1,0,0:0:0:0:
192,192,66488,1,0,0:0:0:0:
64,192,66488,1,0,0:0:0:0:
192,192,66724,1,0,0:0:0:0:
320,192,66724,1,0,0:0:0:0:
320,192,66959,1,0,0:0:0:0:
448,192,66959,1,0,0:0:0:0:
64,192,67077,1,0,0:0:0:0:
448,192,67077,1,0,0:0:0:0:
192,192,67077,1,0,0:0:0:0:
192,192,67194,1,0,0:0:0:0:
64,192,67194,1,0,0:0:0:0:
192,192,67429,1,0,0:0:0:0:
320,192,67429,1,0,0:0:0:0:
448,192,67665,1,0,0:0:0:0:
320,192,67665,1,0,0:0:0:0:
448,192,67782,1,0,0:0:0:0:
64,192,67782,1,0,0:0:0:0:
192,192,67900,1,0,0:0:0:0:
192,192,68018,1,0,0:0:0:0:
320,192,68135,1,0,0:0:0:0:
320,192,68253,1,0,0:0:0:0:
448,192,68371,1,0,0:0:0:0:
64,192,68488,1,0,0:0:0:0:
192,192,68753,1,0,0:0:0:0:
320,192,68753,1,0,0:0:0:0:
64,192,68841,1,0,0:0:0:0:
448,192,68841,1,0,0:0:0:0:
192,192,69018,1,0,0:0:0:0:
320,192,69018,1,0,0:0:0:0:
448,192,69194,1,0,0:0:0:0:
64,192,69194,1,0,0:0:0:0:
448,192,69371,128,0,69724:0:0:0:0:
320,192,69547,128,0,69900:0:0:0:0:
192,192,69724,128,0,70077:0:0:0:0:
64,192,69900,128,0,70077:0:0:0:0:
448,192,70077,128,0,70253:0:0:0:0:
64,192,70253,128,0,70871:0:0:0:0:
320,192,70253,128,0,70429:0:0:0:0:
192,192,70253,128,0,70429:0:0:0:0:
448,192,70606,1,0,0:0:0:0:
320,192,70694,1,0,0:0:0:0:
192,192,70782,1,0,0:0:0:0:
448,192,70871,1,0,0:0:0:0:
320,192,70959,1,0,0:0:0:0:
64,192,70959,1,0,0:0:0:0:
192,192,71047,1,0,0:0:0:0:
448,192,71135,1,0,0:0:0:0:
320,192,71224,1,0,0:0:0:0:
64,192,71312,1,0,0:0:0:0:
192,192,71312,1,0,0:0:0:0:
448,192,71312,1,0,0:0:0:0:
64,192,71488,128,0,71841:0:0:0:0:
320,192,71488,1,0,0:0:0:0:
192,192,71665,128,0,72018:0:0:0:0:
320,192,71841,128,0,72018:0:0:0:0:
64,192,72018,1,0,0:0:0:0:
448,192,72018,128,0,72635:0:0:0:0:
64,192,72194,1,0,0:0:0:0:
192,192,72282,1,0,0:0:0:0:
320,192,72371,1,0,0:0:0:0:
64,192,72459,1,0,0:0:0:0:
192,192,72547,1,0,0:0:0:0:
320,192,72635,1,0,0:0:0:0:
64,192,72724,1,0,0:0:0:0:
192,192,72724,1,0,0:0:0:0:
448,192,72724,1,0,0:0:0:0:
64,192,73077,128,0,73694:0:0:0:0:
320,192,73077,1,0,0:0:0:0:
448,192,73253,1,0,0:0:0:0:
320,192,73341,1,0,0:0:0:0:
192,192,73429,1,0,0:0:0:0:
448,192,73518,1,0,0:0:0:0:
320,192,73606,1,0,0:0:0:0:
192,192,73694,1,0,0:0:0:0:
448,192,73782,128,0,74047:0:0:0:0:
64,192,73782,1,0,0:0:0:0:
320,192,73959,128,0,74047:0:0:0:0:
64,192,74135,1,0,0:0:0:0:
192,192,74135,1,0,0:0:0:0:
448,192,74135,1,0,0:0:0:0:
320,192,74312,128,0,74665:0:0:0:0:
448,192,74312,128,0,74488:0:0:0:0:
192,192,74488,128,0,74841:0:0:0:0:
64,192,74665,128,0,74841:0:0:0:0:
448,192,74841,128,0,75459:0:0:0:0:
320,192,74841,1,0,0:0:0:0:
64,192,75018,1,0,0:0:0:0:
192,192,75106,1,0,0:0:0:0:
320,192,75194,1,0,0:0:0:0:
64,192,75282,1,0,0:0:0:0:
192,192,75371,1,0,0:0:0:0:
320,192,75459,1,0,0:0:0:0:
64,192,75547,1,0,0:0:0:0:
192,192,75547,1,0,0:0:0:0:
448,192,75547,1,0,0:0:0:0:
320,192,75900,1,0,0:0:0:0:
64,192,75900,128,0,76518:0:0:0:0:
448,192,76077,1,0,0:0:0:0:
320,192,76165,1,0,0:0:0:0:
192,192,76253,1,0,0:0:0:0:
448,192,76341,1,0,0:0:0:0:
320,192,76429,1,0,0:0:0:0:
192,192,76518,1,0,0:0:0:0:
64,192,76606,1,0,0:0:0:0:
448,192,76606,128,0,76871:0:0:0:0:
320,192,76782,128,0,76871:0:0:0:0:
64,192,76959,1,0,0:0:0:0:
192,192,76959,1,0,0:0:0:0:
448,192,76959,1,0,0:0:0:0:
320,192,77135,128,0,77488:0:0:0:0:
448,192,77135,128,0,77312:0:0:0:0:
64,192,77312,128,0,77665:0:0:0:0:
192,192,77488,128,0,77665:0:0:0:0:
448,192,77841,1,0,0:0:0:0:
64,192,78018,128,0,78194:0:0:0:0:
192,192,78018,128,0,78194:0:0:0:0:
320,192,78018,128,0,78371:0:0:0:0:
64,192,78371,1,0,0:0:0:0:
192,192,78371,1,0,0:0:0:0:
448,192,78371,1,0,0:0:0:0:
64,192,78547,128,0,79077:0:0:0:0:
320,192,78547,1,0,0:0:0:0:
448,192,78547,1,0,0:0:0:0:
192,192,78724,1,0,0:0:0:0:
320,192,78812,1,0,0:0:0:0:
448,192,78900,1,0,0:0:0:0:
192,192,78988,1,0,0:0:0:0:
448,192,79077,128,0,79606:0:0:0:0:
320,192,79077,1,0,0:0:0:0:
64,192,79253,1,0,0:0:0:0:
192,192,79341,1,0,0:0:0:0:
320,192,79429,1,0,0:0:0:0:
64,192,79518,1,0,0:0:0:0:
192,192,79606,1,0,0:0:0:0:
320,192,79606,1,0,0:0:0:0:
64,192,79782,1,0,0:0:0:0:
192,192,79782,1,0,0:0:0:0:
448,192,79782,1,0,0:0:0:0:
320,192,79959,1,0,0:0:0:0:
448,192,79959,1,0,0:0:0:0:
192,192,80135,1,0,0:0:0:0:
64,192,80135,1,0,0:0:0:0:
320,192,80224,1,0,0:0:0:0:
192,192,80312,1,0,0:0:0:0:
448,192,80488,1,0,0:0:0:0:
64,192,80488,1,0,0:0:0:0:
320,192,80488,1,0,0:0:0:0:
192,192,80665,128,0,80841:0:0:0:0:
64,192,80841,128,0,81018:0:0:0:0:
448,192,81018,128,0,81371:0:0:0:0:
320,192,81371,128,0,81547:0:0:0:0:
192,192,81547,128,0,81900:0:0:0:0:
448,192,81900,128,0,82253:0:0:0:0:
320,192,82077,128,0,82253:0:0:0:0:
64,192,82253,128,0,82429:0:0:0:0:
192,192,82429,128,0,82606:0:0:0:0:
448,192,82782,128,0,82959:0:0:0:0:
320,192,82959,128,0,83135:0:0:0:0:
64,192,83135,128,0,83312:0:0:0:0:
320,192,83488,128,0,83665:0:0:0:0:
192,192,83665,128,0,83841:0:0:0:0:
448,192,83841,128,0,84194:0:0:0:0:
64,192,84194,128,0,84371:0:0:0:0:
320,192,84371,128,0,84724:0:0:0:0:
192,192,84724,128,0,85077:0:0:0:0:
448,192,85077,128,0,85253:0:0:0:0:
64,192,85253,128,0,85429:0:0:0:0:
320,192,85606,128,0,85782:0:0:0:0:
192,192,85782,128,0,85959:0:0:0:0:
64,192,85959,128,0,86135:0:0:0:0:
320,192,86135,1,0,0:0:0:0:
448,192,86135,1,0,0:0:0:0:
64,192,86312,1,0,0:0:0:0:
192,192,86488,1,0,0:0:0:0:
320,192,86488,1,0,0:0:0:0:
448,192,86665,1,0,0:0:0:0:
64,192,86841,1,0,0:0:0:0:
192,192,86841,1,0,0:0:0:0:
448,192,87018,1,0,0:0:0:0:
320,192,87194,1,0,0:0:0:0:
64,192,87194,1,0,0:0:0:0:
192,192,87547,1,0,0:0:0:0:
448,192,87547,1,0,0:0:0:0:
64,192,87724,1,0,0:0:0:0:
448,192,87900,1,0,0:0:0:0:
320,192,87900,1,0,0:0:0:0:
64,192,88077,1,0,0:0:0:0:
192,192,88253,1,0,0:0:0:0:
320,192,88253,1,0,0:0:0:0:
64,192,88429,1,0,0:0:0:0:
448,192,88606,1,0,0:0:0:0:
192,192,88606,1,0,0:0:0:0:
320,192,88782,1,0,0:0:0:0:
64,192,88959,1,0,0:0:0:0:
448,192,88959,1,0,0:0:0:0:
192,192,89135,1,0,0:0:0:0:
320,192,89312,1,0,0:0:0:0:
448,192,89312,1,0,0:0:0:0:
64,192,89488,1,0,0:0:0:0:
192,192,89665,1,0,0:0:0:0:
320,192,89665,1,0,0:0:0:0:
448,192,89841,1,0,0:0:0:0:
192,192,90018,1,0,0:0:0:0:
64,192,90018,1,0,0:0:0:0:
448,192,90371,1,0,0:0:0:0:
64,192,90371,1,0,0:0:0:0:
320,192,90724,1,0,0:0:0:0:
448,192,90724,1,0,0:0:0:0:
192,192,90900,1,0,0:0:0:0:
448,192,91253,128,0,91429:0:0:0:0:
320,192,91429,128,0,91606:0:0:0:0:
192,192,91606,128,0,91782:0:0:0:0:
64,192,91782,1,0,0:0:0:0:
448,192,91782,1,0,0:0:0:0:
320,192,91959,1,0,0:0:0:0:
320,192,92135,1,0,0:0:0:0:
64,192,92135,1,0,0:0:0:0:
192,192,92312,1,0,0:0:0:0:
192,192,92488,1,0,0:0:0:0:
448,192,92488,1,0,0:0:0:0:
320,192,92841,1,0,0:0:0:0:
448,192,92841,1,0,0:0:0:0:
448,192,93018,1,0,0:0:0:0:
192,192,93194,1,0,0:0:0:0:
64,192,93194,1,0,0:0:0:0:
64,192,93547,1,0,0:0:0:0:
320,192,93547,1,0,0:0:0:0:
64,192,93724,1,0,0:0:0:0:
320,192,93900,1,0,0:0:0:0:
448,192,93900,1,0,0:0:0:0:
64,192,94077,1,0,0:0:0:0:
192,192,94253,1,0,0:0:0:0:
448,192,94253,1,0,0:0:0:0:
320,192,94429,1,0,0:0:0:0:
448,192,94606,1,0,0:0:0:0:
64,192,94606,1,0,0:0:0:0:
192,192,94782,1,0,0:0:0:0:
192,192,94959,1,0,0:0:0:0:
448,192,94959,1,0,0:0:0:0:
320,192,95135,1,0,0:0:0:0:
320,192,95312,1,0,0:0:0:0:
64,192,95312,1,0,0:0:0:0:
192,192,95488,1,0,0:0:0:0:
448,192,95665,1,0,0:0:0:0:
320,192,95665,1,0,0:0:0:0:
448,192,95841,1,0,0:0:0:0:
64,192,96018,1,0,0:0:0:0:
192,192,96018,1,0,0:0:0:0:
64,192,96371,1,0,0:0:0:0:
448,192,96371,1,0,0:0:0:0:
192,192,96547,1,0,0:0:0:0:
320,192,96724,1,0,0:0:0:0:
448,192,96724,1,0,0:0:0:0:
192,192,96900,1,0,0:0:0:0:
192,192,97077,128,0,97429:0:0:0:0:
64,192,97429,1,0,0:0:0:0:
448,192,97429,1,0,0:0:0:0:
64,192,97606,1,0,0:0:0:0:
192,192,97782,1,0,0:0:0:0:
320,192,97782,1,0,0:0:0:0:
192,192,97959,1,0,0:0:0:0:
448,192,98135,1,0,0:0:0:0:
64,192,98135,1,0,0:0:0:0:
448,192,98312,1,0,0:0:0:0:
192,192,98488,1,0,0:0:0:0:
320,192,98488,1,0,0:0:0:0:
320,192,98665,1,0,0:0:0:0:
64,192,98841,1,0,0:0:0:0:
448,192,98841,1,0,0:0:0:0:
64,192,99018,1,0,0:0:0:0:
192,192,99194,1,0,0:0:0:0:
320,192,99194,1,0,0:0:0:0:
192,192,99371,1,0,0:0:0:0:
64,192,99547,1,0,0:0:0:0:
448,192,99547,1,0,0:0:0:0:
448,192,99724,1,0,0:0:0:0:
320,192,99900,1,0,0:0:0:0:
192,192,99900,1,0,0:0:0:0:
320,192,100077,1,0,0:0:0:0:
64,192,100253,1,0,0:0:0:0:
448,192,100253,1,0,0:0:0:0:
192,192,100341,1,0,0:0:0:0:
320,192,100429,1,0,0:0:0:0:
448,192,100518,1,0,0:0:0:0:
192,192,100606,1,0,0:0:0:0:
320,192,100694,1,0,0:0:0:0:
64,192,100782,1,0,0:0:0:0:
192,192,100871,1,0,0:0:0:0:
448,192,100959,1,0,0:0:0:0:
320,192,101047,1,0,0:0:0:0:
192,192,101135,1,0,0:0:0:0:
448,192,101224,1,0,0:0:0:0:
64,192,101312,1,0,0:0:0:0:
192,192,101371,1,0,0:0:0:0:
320,192,101429,1,0,0:0:0:0:
448,192,101488,1,0,0:0:0:0:
192,192,101547,1,0,0:0:0:0:
64,192,101606,1,0,0:0:0:0:
448,192,102371,1,0,0:0:0:0:
320,192,102371,1,0,0:0:0:0:
64,192,102459,1,0,0:0:0:0:
192,192,102547,1,0,0:0:0:0:
448,192,102635,1,0,0:0:0:0:
320,192,102635,1,0,0:0:0:0:
192,192,102812,1,0,0:0:0:0:
320,192,102900,1,0,0:0:0:0:
448,192,103077,128,0,103429:0:0:0:0:
64,192,103077,128,0,103429:0:0:0:0:
192,192,103077,1,0,0:0:0:0:
448,192,103606,128,0,103782:0:0:0:0:
64,192,103782,128,0,103959:0:0:0:0:
64,192,104135,128,0,104312:0:0:0:0:
64,192,104488,128,0,104665:0:0:0:0:
64,192,104841,128,0,104929:0:0:0:0:
64,192,105018,128,0,105106:0:0:0:0:
192,192,105194,128,0,105282:0:0:0:0:
192,192,105371,128,0,105459:0:0:0:0:
320,192,105371,1,0,0:0:0:0:
64,192,105547,1,0,0:0:0:0:
448,192,105547,1,0,0:0:0:0:
192,192,105635,1,0,0:0:0:0:
448,192,105724,1,0,0:0:0:0:
320,192,105812,1,0,0:0:0:0:
192,192,105900,1,0,0:0:0:0:
448,192,105900,1,0,0:0:0:0:
64,192,105900,128,0,106077:0:0:0:0:
320,192,106077,128,0,106253:0:0:0:0:
192,192,106165,128,0,106253:0:0:0:0:
64,192,106253,1,0,0:0:0:0:
448,192,106253,1,0,0:0:0:0:
64,192,106429,128,0,106606:0:0:0:0:
320,192,106606,1,0,0:0:0:0:
448,192,106606,128,0,106782:0:0:0:0:
192,192,106782,128,0,106959:0:0:0:0:
320,192,106871,128,0,106959:0:0:0:0:
64,192,106959,1,0,0:0:0:0:
448,192,106959,1,0,0:0:0:0:
448,192,107135,128,0,107312:0:0:0:0:
64,192,107312,128,0,107488:0:0:0:0:
192,192,107312,1,0,0:0:0:0:
320,192,107488,128,0,107665:0:0:0:0:
192,192,107577,128,0,107665:0:0:0:0:
64,192,107665,1,0,0:0:0:0:
448,192,107665,1,0,0:0:0:0:
448,192,107841,128,0,108018:0:0:0:0:
320,192,108018,128,0,108282:0:0:0:0:
192,192,108018,128,0,108282:0:0:0:0:
64,192,108018,128,0,108282:0:0:0:0:
192,192,108371,128,0,108635:0:0:0:0:
320,192,108371,128,0,108635:0:0:0:0:
448,192,108371,128,0,108635:0:0:0:0:
64,192,108724,128,0,109077:0:0:0:0:
320,192,108724,128,0,108900:0:0:0:0:
448,192,108724,128,0,108900:0:0:0:0:
448,192,109077,128,0,109165:0:0:0:0:
192,192,109077,1,0,0:0:0:0:
448,192,109253,128,0,109341:0:0:0:0:
64,192,109429,128,0,109606:0:0:0:0:
192,192,109429,128,0,109606:0:0:0:0:
448,192,109606,1,0,0:0:0:0:
64,192,109782,128,0,109959:0:0:0:0:
192,192,109782,128,0,109959:0:0:0:0:
448,192,109959,1,0,0:0:0:0:
64,192,110135,1,0,0:0:0:0:
448,192,110135,1,0,0:0:0:0:
320,192,110253,1,0,0:0:0:0:
192,192,110312,1,0,0:0:0:0:
64,192,110488,128,0,110577:0:0:0:0:
448,192,110488,1,0,0:0:0:0:
64,192,110665,128,0,110753:0:0:0:0:
448,192,110841,1,0,0:0:0:0:
320,192,110841,128,0,110929:0:0:0:0:
320,192,111018,128,0,111106:0:0:0:0:
64,192,111194,1,0,0:0:0:0:
448,192,111194,1,0,0:0:0:0:
320,192,111282,1,0,0:0:0:0:
64,192,111371,1,0,0:0:0:0:
192,192,111459,1,0,0:0:0:0:
448,192,111547,128,0,111724:0:0:0:0:
64,192,111547,1,0,0:0:0:0:
320,192,111547,1,0,0:0:0:0:
192,192,111724,128,0,111900:0:0:0:0:
320,192,111812,128,0,111900:0:0:0:0:
64,192,111900,1,0,0:0:0:0:
448,192,111900,1,0,0:0:0:0:
448,192,112077,128,0,112253:0:0:0:0:
192,192,112253,1,0,0:0:0:0:
64,192,112253,128,0,112429:0:0:0:0:
320,192,112429,128,0,112606:0:0:0:0:
192,192,112518,128,0,112606:0:0:0:0:
64,192,112606,1,0,0:0:0:0:
448,192,112606,1,0,0:0:0:0:
64,192,112782,128,0,112959:0:0:0:0:
448,192,112959,128,0,113135:0:0:0:0:
320,192,112959,1,0,0:0:0:0:
64,192,113135,128,0,113312:0:0:0:0:
192,192,113224,128,0,113312:0:0:0:0:
448,192,113312,1,0,0:0:0:0:
320,192,113400,1,0,0:0:0:0:
64,192,113488,128,0,113665:0:0:0:0:
448,192,113577,1,0,0:0:0:0:
320,192,113753,1,0,0:0:0:0:
64,192,113841,1,0,0:0:0:0:
192,192,113929,1,0,0:0:0:0:
448,192,114018,1,0,0:0:0:0:
320,192,114106,1,0,0:0:0:0:
192,192,114194,1,0,0:0:0:0:
64,192,114282,1,0,0:0:0:0:
320,192,114371,1,0,0:0:0:0:
448,192,114371,1,0,0:0:0:0:
448,192,114547,1,0,0:0:0:0:
64,192,114635,1,0,0:0:0:0:
448,192,114900,1,0,0:0:0:0:
192,192,114988,1,0,0:0:0:0:
448,192,115253,1,0,0:0:0:0:
320,192,115341,1,0,0:0:0:0:
448,192,115606,1,0,0:0:0:0:
448,192,115694,1,0,0:0:0:0:
320,192,115959,1,0,0:0:0:0:
320,192,116047,1,0,0:0:0:0:
192,192,116312,1,0,0:0:0:0:
192,192,116400,1,0,0:0:0:0:
64,192,116488,1,0,0:0:0:0:
448,192,116488,1,0,0:0:0:0:
320,192,116665,1,0,0:0:0:0:
448,192,116753,1,0,0:0:0:0:
64,192,116841,1,0,0:0:0:0:
192,192,116841,1,0,0:0:0:0:
448,192,116929,1,0,0:0:0:0:
320,192,117018,1,0,0:0:0:0:
192,192,117106,1,0,0:0:0:0:
448,192,117194,128,0,117371:0:0:0:0:
64,192,117194,1,0,0:0:0:0:
320,192,117282,128,0,117371:0:0:0:0:
320,192,117459,1,0,0:0:0:0:
448,192,117459,1,0,0:0:0:0:
192,192,117547,1,0,0:0:0:0:
64,192,117547,1,0,0:0:0:0:
192,192,117724,128,0,117900:0:0:0:0:
320,192,117724,128,0,117900:0:0:0:0:
64,192,117900,128,0,118077:0:0:0:0:
448,192,117900,1,0,0:0:0:0:
192,192,117988,128,0,118077:0:0:0:0:
64,192,118165,1,0,0:0:0:0:
192,192,118165,1,0,0:0:0:0:
320,192,118253,1,0,0:0:0:0:
448,192,118253,1,0,0:0:0:0:
192,192,118429,128,0,118606:0:0:0:0:
320,192,118429,128,0,118606:0:0:0:0:
448,192,118606,128,0,118782:0:0:0:0:
64,192,118606,1,0,0:0:0:0:
320,192,118694,128,0,118782:0:0:0:0:
320,192,118871,1,0,0:0:0:0:
448,192,118871,1,0,0:0:0:0:
192,192,118959,1,0,0:0:0:0:
64,192,118959,1,0,0:0:0:0:
192,192,119135,128,0,119312:0:0:0:0:
64,192,119312,128,0,119577:0:0:0:0:
448,192,119312,128,0,119577:0:0:0:0:
320,192,119312,128,0,119577:0:0:0:0:
448,192,119665,128,0,119929:0:0:0:0:
320,192,119665,128,0,119929:0:0:0:0:
192,192,119665,128,0,119929:0:0:0:0:
64,192,120018,128,0,120371:0:0:0:0:
320,192,120018,128,0,120194:0:0:0:0:
192,192,120018,128,0,120194:0:0:0:0:
448,192,120371,1,0,0:0:0:0:
320,192,120371,1,0,0:0:0:0:
192,192,120459,1,0,0:0:0:0:
448,192,120547,1,0,0:0:0:0:
320,192,120635,1,0,0:0:0:0:
192,192,120724,1,0,0:0:0:0:
64,192,120724,1,0,0:0:0:0:
320,192,120812,1,0,0:0:0:0:
64,192,120900,1,0,0:0:0:0:
192,192,120988,1,0,0:0:0:0:
448,192,121077,1,0,0:0:0:0:
320,192,121077,1,0,0:0:0:0:
192,192,121165,1,0,0:0:0:0:
448,192,121253,1,0,0:0:0:0:
320,192,121341,1,0,0:0:0:0:
192,192,121429,128,0,121782:0:0:0:0:
64,192,121429,1,0,0:0:0:0:
320,192,121518,128,0,121782:0:0:0:0:
64,192,121782,1,0,0:0:0:0:
448,192,121782,1,0,0:0:0:0:
320,192,121871,1,0,0:0:0:0:
192,192,121959,1,0,0:0:0:0:
320,192,122047,1,0,0:0:0:0:
64,192,122135,1,0,0:0:0:0:
448,192,122135,1,0,0:0:0:0:
192,192,122224,1,0,0:0:0:0:
320,192,122312,1,0,0:0:0:0:
448,192,122400,1,0,0:0:0:0:
192,192,122488,1,0,0:0:0:0:
64,192,122488,1,0,0:0:0:0:
320,192,122577,1,0,0:0:0:0:
448,192,122665,1,0,0:0:0:0:
64,192,122753,1,0,0:0:0:0:
192,192,122841,1,0,0:0:0:0:
448,192,122841,128,0,123018:0:0:0:0:
320,192,122929,128,0,123018:0:0:0:0:
448,192,123106,1,0,0:0:0:0:
320,192,123106,1,0,0:0:0:0:
64,192,123194,1,0,0:0:0:0:
192,192,123194,1,0,0:0:0:0:
192,192,123371,128,0,123547:0:0:0:0:
320,192,123371,128,0,123547:0:0:0:0:
64,192,123547,128,0,123724:0:0:0:0:
448,192,123547,1,0,0:0:0:0:
192,192,123635,128,0,123724:0:0:0:0:
64,192,123812,1,0,0:0:0:0:
192,192,123812,1,0,0:0:0:0:
320,192,123900,1,0,0:0:0:0:
448,192,123900,1,0,0:0:0:0:
192,192,124077,128,0,124253:0:0:0:0:
320,192,124077,128,0,124253:0:0:0:0:
64,192,124253,1,0,0:0:0:0:
448,192,124253,1,0,0:0:0:0:
192,192,124341,1,0,0:0:0:0:
320,192,124429,1,0,0:0:0:0:
448,192,124518,1,0,0:0:0:0:
64,192,124606,1,0,0:0:0:0:
192,192,124694,1,0,0:0:0:0:
320,192,124782,1,0,0:0:0:0:
448,192,124871,1,0,0:0:0:0:
64,192,124959,1,0,0:0:0:0:
192,192,125047,1,0,0:0:0:0:
64,192,125135,1,0,0:0:0:0:
320,192,125224,1,0,0:0:0:0:
192,192,125312,1,0,0:0:0:0:
448,192,125400,1,0,0:0:0:0:
320,192,125488,1,0,0:0:0:0:
448,192,125577,1,0,0:0:0:0:
64,192,125665,128,0,126018:0:0:0:0:
448,192,125841,1,0,0:0:0:0:
320,192,125929,1,0,0:0:0:0:
192,192,126018,1,0,0:0:0:0:
448,192,126106,1,0,0:0:0:0:
320,192,126106,1,0,0:0:0:0:
64,192,126194,1,0,0:0:0:0:
320,192,126371,128,0,126547:0:0:0:0:
448,192,126371,128,0,126547:0:0:0:0:
64,192,126547,1,0,0:0:0:0:
192,192,126635,1,0,0:0:0:0:
320,192,126724,1,0,0:0:0:0:
64,192,126812,1,0,0:0:0:0:
192,192,126812,1,0,0:0:0:0:
448,192,126900,1,0,0:0:0:0:
192,192,127077,128,0,127253:0:0:0:0:
64,192,127077,128,0,127253:0:0:0:0:
448,192,127253,1,0,0:0:0:0:
320,192,127341,1,0,0:0:0:0:
192,192,127429,1,0,0:0:0:0:
320,192,127518,1,0,0:0:0:0:
448,192,127518,1,0,0:0:0:0:
64,192,127606,1,0,0:0:0:0:
320,192,127782,128,0,127959:0:0:0:0:
448,192,127782,128,0,127959:0:0:0:0:
64,192,127959,1,0,0:0:0:0:
192,192,128047,1,0,0:0:0:0:
64,192,128135,1,0,0:0:0:0:
448,192,128135,1,0,0:0:0:0:
320,192,128135,1,0,0:0:0:0:
448,192,128400,1,0,0:0:0:0:
64,192,128488,128,0,128665:0:0:0:0:
192,192,128488,128,0,128665:0:0:0:0:
448,192,128665,1,0,0:0:0:0:
320,192,128753,1,0,0:0:0:0:
64,192,128841,1,0,0:0:0:0:
448,192,128929,1,0,0:0:0:0:
320,192,128929,1,0,0:0:0:0:
192,192,129018,1,0,0:0:0:0:
320,192,129194,128,0,129371:0:0:0:0:
448,192,129194,128,0,129371:0:0:0:0:
64,192,129371,1,0,0:0:0:0:
192,192,129459,1,0,0:0:0:0:
448,192,129547,1,0,0:0:0:0:
64,192,129635,1,0,0:0:0:0:
192,192,129635,1,0,0:0:0:0:
320,192,129724,1,0,0:0:0:0:
64,192,129900,1,0,0:0:0:0:
192,192,129900,1,0,0:0:0:0:
320,192,130077,1,0,0:0:0:0:
448,192,130077,1,0,0:0:0:0:
64,192,130165,1,0,0:0:0:0:
320,192,130253,1,0,0:0:0:0:
192,192,130341,1,0,0:0:0:0:
64,192,130341,1,0,0:0:0:0:
448,192,130429,1,0,0:0:0:0:
192,192,130518,1,0,0:0:0:0:
320,192,130606,1,0,0:0:0:0:
448,192,130606,1,0,0:0:0:0:
192,192,130782,1,0,0:0:0:0:
320,192,130871,1,0,0:0:0:0:
64,192,130959,1,0,0:0:0:0:
448,192,131047,1,0,0:0:0:0:
320,192,131135,1,0,0:0:0:0:
192,192,131224,1,0,0:0:0:0:
64,192,131312,1,0,0:0:0:0:
448,192,131312,1,0,0:0:0:0:
64,192,131488,1,0,0:0:0:0:
448,192,131488,1,0,0:0:0:0:
192,192,131577,1,0,0:0:0:0:
320,192,131665,1,0,0:0:0:0:
64,192,131753,1,0,0:0:0:0:
448,192,131753,1,0,0:0:0:0:
192,192,131841,1,0,0:0:0:0:
320,192,132018,1,0,0:0:0:0:
448,192,132018,1,0,0:0:0:0:
64,192,132194,1,0,0:0:0:0:
448,192,132194,1,0,0:0:0:0:
320,192,132282,1,0,0:0:0:0:
192,192,132371,1,0,0:0:0:0:
64,192,132459,1,0,0:0:0:0:
448,192,132459,1,0,0:0:0:0:
320,192,132547,1,0,0:0:0:0:
192,192,132724,5,0,0:0:0:0:
64,192,132724,1,0,0:0:0:0:
64,192,132900,1,0,0:0:0:0:
448,192,132900,1,0,0:0:0:0:
192,192,132988,1,0,0:0:0:0:
320,192,133077,1,0,0:0:0:0:
64,192,133165,1,0,0:0:0:0:
448,192,133165,1,0,0:0:0:0:
192,192,133253,1,0,0:0:0:0:
320,192,133429,1,0,0:0:0:0:
448,192,133429,1,0,0:0:0:0:
64,192,133606,1,0,0:0:0:0:
448,192,133606,1,0,0:0:0:0:
320,192,133694,1,0,0:0:0:0:
192,192,133782,1,0,0:0:0:0:
448,192,133871,1,0,0:0:0:0:
64,192,133871,1,0,0:0:0:0:
320,192,133959,1,0,0:0:0:0:
192,192,134047,1,0,0:0:0:0:
64,192,134047,1,0,0:0:0:0:
320,192,134135,1,0,0:0:0:0:
448,192,134135,1,0,0:0:0:0:
64,192,134312,1,0,0:0:0:0:
192,192,134312,1,0,0:0:0:0:
448,192,134488,1,0,0:0:0:0:
320,192,134488,1,0,0:0:0:0:
192,192,134577,1,0,0:0:0:0:
64,192,134577,1,0,0:0:0:0:
64,192,134753,1,0,0:0:0:0:
192,192,134753,1,0,0:0:0:0:
448,192,134841,1,0,0:0:0:0:
320,192,134929,1,0,0:0:0:0:
64,192,135018,1,0,0:0:0:0:
192,192,135018,1,0,0:0:0:0:
448,192,135194,1,0,0:0:0:0:
64,192,135194,1,0,0:0:0:0:
192,192,135253,1,0,0:0:0:0:
320,192,135312,1,0,0:0:0:0:
448,192,135371,1,0,0:0:0:0:
64,192,135459,1,0,0:0:0:0:
320,192,135547,1,0,0:0:0:0:
192,192,135547,1,0,0:0:0:0:
64,192,135724,1,0,0:0:0:0:
192,192,135900,1,0,0:0:0:0:
320,192,135988,1,0,0:0:0:0:
448,192,136165,1,0,0:0:0:0:
64,192,136341,1,0,0:0:0:0:
192,192,136429,1,0,0:0:0:0:
320,192,136518,1,0,0:0:0:0:
448,192,136606,128,0,136871:0:0:0:0:
320,192,136694,128,0,136871:0:0:0:0:
192,192,136782,128,0,136871:0:0:0:0:
64,192,136871,1,0,0:0:0:0:
192,192,137312,1,0,0:0:0:0:
320,192,137312,1,0,0:0:0:0:
448,192,137312,1,0,0:0:0:0:
