osu file format v14

[General]
AudioFilename: Kissing Lucifer.mp3
AudioLeadIn: 0
PreviewTime: 45194
Countdown: 0
SampleSet: Drum
StackLeniency: 0.2
Mode: 3
LetterboxInBreaks: 0
StoryFireInFront: 0
SpecialStyle: 0
WidescreenStoryboard: 1

[Editor]
Bookmarks: 0,12761,24055,35349,57937,60761,69231,80525,91819,97466,103114,105937,108761,114408,117231,120055,125702,127819,128525,135584
DistanceSpacing: 1
BeatDivisor: 4
GridSize: 4
TimelineZoom: 5.199997

[Metadata]
Title:Kissing Lucifer
TitleUnicode:Kissing Lucifer
Artist:ETIA.
ArtistUnicode:ETIA.
Creator:AelSan
Version:ICECAKE's PAST
Source:Arcaea
Tags:video game instrumental electronic future riddim color bass colorbass 維塔 Vita ヴィータ lowiro limited tech technical [Crz]hinako1804 icecake baigu678
BeatmapID:3925975
BeatmapSetID:1900508

[Difficulty]
HPDrainRate:6.8
CircleSize:4
OverallDifficulty:6.8
ApproachRate:3
SliderMultiplier:1
SliderTickRate:1

[Events]
//Background and Video events
0,0,"36987cadd0be744d.jpg",0,0
//Break Periods
//Storyboard Layer 0 (Background)
//Storyboard Layer 1 (Fail)
//Storyboard Layer 2 (Pass)
//Storyboard Layer 3 (Foreground)
//Storyboard Layer 4 (Overlay)
//Storyboard Sound Samples

[TimingPoints]
1430,352.941176470588,4,3,1,80,1,0
105900,-100,4,3,1,80,0,1
124253,-100,4,3,1,80,0,0
126106,-100,4,3,1,80,0,1
137312,-100,4,3,1,80,0,0

[Colours]
Combo1 : 255,0,0
Combo2 : 0,255,0
Combo3 : 0,0,255
Combo4 : 255,255,0
Combo5 : 0,255,255
Combo6 : 255,0,255

[HitObjects]
192,192,1430,128,0,4253:0:0:0:0:
448,192,1430,1,0,0:0:0:0:
448,192,7429,1,0,0:0:0:0:
320,192,7606,1,0,0:0:0:0:
192,192,7959,1,0,0:0:0:0:
320,192,8135,1,0,0:0:0:0:
192,192,8488,1,0,0:0:0:0:
448,192,8841,1,0,0:0:0:0:
64,192,9018,1,0,0:0:0:0:
192,192,9371,1,0,0:0:0:0:
320,192,9547,1,0,0:0:0:0:
448,192,9724,1,0,0:0:0:0:
64,192,11312,128,0,11665:0:0:0:0:
320,192,11665,128,0,12018:0:0:0:0:
192,192,12018,128,0,12371:0:0:0:0:
448,192,12371,128,0,12724:0:0:0:0:
192,192,12724,1,0,0:0:0:0:
64,192,12724,1,0,0:0:0:0:
192,192,13077,128,0,13253:0:0:0:0:
320,192,13253,1,0,0:0:0:0:
448,192,13429,1,0,0:0:0:0:
64,192,13429,1,0,0:0:0:0:
320,192,13606,1,0,0:0:0:0:
64,192,13782,1,0,0:0:0:0:
192,192,14135,1,0,0:0:0:0:
320,192,14488,1,0,0:0:0:0:
448,192,14488,1,0,0:0:0:0:
64,192,14665,1,0,0:0:0:0:
448,192,14841,1,0,0:0:0:0:
192,192,14841,1,0,0:0:0:0:
320,192,15018,1,0,0:0:0:0:
448,192,15194,128,0,15371:0:0:0:0:
64,192,15547,1,0,0:0:0:0:
192,192,15547,1,0,0:0:0:0:
320,192,15724,1,0,0:0:0:0:
64,192,15900,128,0,16077:0:0:0:0:
192,192,16253,1,0,0:0:0:0:
448,192,16253,1,0,0:0:0:0:
320,192,16606,1,0,0:0:0:0:
448,192,16782,1,0,0:0:0:0:
64,192,16782,1,0,0:0:0:0:
192,192,16959,1,0,0:0:0:0:
320,192,17135,128,0,17312:0:0:0:0:
64,192,17312,1,0,0:0:0:0:
192,192,17312,1,0,0:0:0:0:
320,192,17665,1,0,0:0:0:0:
64,192,17665,1,0,0:0:0:0:
192,192,17841,1,0,0:0:0:0:
448,192,17841,1,0,0:0:0:0:
64,192,18018,1,0,0:0:0:0:
448,192,18194,1,0,0:0:0:0:
320,192,18282,1,0,0:0:0:0:
192,192,18371,1,0,0:0:0:0:
64,192,18371,1,0,0:0:0:0:
192,192,18724,128,0,18900:0:0:0:0:
320,192,18900,1,0,0:0:0:0:
448,192,19077,1,0,0:0:0:0:
64,192,19077,1,0,0:0:0:0:
320,192,19253,1,0,0:0:0:0:
64,192,19429,1,0,0:0:0:0:
192,192,19782,1,0,0:0:0:0:
320,192,20135,1,0,0:0:0:0:
448,192,20135,1,0,0:0:0:0:
64,192,20312,1,0,0:0:0:0:
448,192,20488,1,0,0:0:0:0:
192,192,20488,1,0,0:0:0:0:
320,192,20665,1,0,0:0:0:0:
448,192,20841,128,0,21018:0:0:0:0:
64,192,21194,1,0,0:0:0:0:
192,192,21194,128,0,21547:0:0:0:0:
448,192,21547,128,0,21900:0:0:0:0:
192,192,21900,128,0,22077:0:0:0:0:
448,192,22253,128,0,22429:0:0:0:0:
320,192,22606,128,0,22959:0:0:0:0:
448,192,22959,128,0,23135:0:0:0:0:
192,192,23135,1,0,0:0:0:0:
448,192,23488,128,0,23665:0:0:0:0:
320,192,23665,128,0,23841:0:0:0:0:
64,192,23841,128,0,24018:0:0:0:0:
192,192,24018,1,0,0:0:0:0:
448,192,24018,1,0,0:0:0:0:
320,192,24194,1,0,0:0:0:0:
64,192,24371,128,0,24635:0:0:0:0:
192,192,24635,1,0,0:0:0:0:
64,192,24900,1,0,0:0:0:0:
448,192,25077,128,0,25341:0:0:0:0:
320,192,25341,1,0,0:0:0:0:
192,192,25606,1,0,0:0:0:0:
320,192,25782,128,0,26047:0:0:0:0:
448,192,26047,1,0,0:0:0:0:
320,192,26312,1,0,0:0:0:0:
192,192,26488,128,0,26753:0:0:0:0:
64,192,26753,1,0,0:0:0:0:
448,192,27018,1,0,0:0:0:0:
64,192,27194,128,0,27459:0:0:0:0:
192,192,27459,1,0,0:0:0:0:
64,192,27724,1,0,0:0:0:0:
448,192,27900,128,0,28165:0:0:0:0:
320,192,28165,1,0,0:0:0:0:
192,192,28429,1,0,0:0:0:0:
320,192,28606,128,0,28871:0:0:0:0:
448,192,28871,1,0,0:0:0:0:
64,192,29135,1,0,0:0:0:0:
448,192,29312,1,0,0:0:0:0:
320,192,29488,1,0,0:0:0:0:
192,192,29665,1,0,0:0:0:0:
64,192,29665,1,0,0:0:0:0:
320,192,29841,1,0,0:0:0:0:
64,192,30018,128,0,30371:0:0:0:0:
192,192,30371,1,0,0:0:0:0:
448,192,30371,1,0,0:0:0:0:
64,192,30547,1,0,0:0:0:0:
448,192,30724,128,0,31077:0:0:0:0:
320,192,31077,1,0,0:0:0:0:
64,192,31077,1,0,0:0:0:0:
192,192,31253,1,0,0:0:0:0:
320,192,31429,128,0,31782:0:0:0:0:
448,192,31782,1,0,0:0:0:0:
192,192,31782,1,0,0:0:0:0:
320,192,31959,1,0,0:0:0:0:
192,192,32135,128,0,32488:0:0:0:0:
320,192,32488,1,0,0:0:0:0:
64,192,32488,1,0,0:0:0:0:
448,192,32665,1,0,0:0:0:0:
64,192,32841,128,0,33194:0:0:0:0:
192,192,33194,1,0,0:0:0:0:
448,192,33194,1,0,0:0:0:0:
64,192,33371,1,0,0:0:0:0:
448,192,33547,128,0,33900:0:0:0:0:
320,192,33900,1,0,0:0:0:0:
64,192,33900,1,0,0:0:0:0:
192,192,34077,1,0,0:0:0:0:
320,192,34253,128,0,34606:0:0:0:0:
192,192,34606,128,0,34782:0:0:0:0:
64,192,34782,1,0,0:0:0:0:
320,192,34959,1,0,0:0:0:0:
192,192,35047,1,0,0:0:0:0:
448,192,35224,1,0,0:0:0:0:
64,192,35312,1,0,0:0:0:0:
192,192,35312,128,0,35665:0:0:0:0:
448,192,35665,1,0,0:0:0:0:
320,192,35665,1,0,0:0:0:0:
192,192,36018,1,0,0:0:0:0:
320,192,36018,1,0,0:0:0:0:
448,192,36371,1,0,0:0:0:0:
64,192,36371,1,0,0:0:0:0:
320,192,36724,128,0,37077:0:0:0:0:
448,192,36724,1,0,0:0:0:0:
64,192,37077,1,0,0:0:0:0:
192,192,37077,1,0,0:0:0:0:
64,192,37429,1,0,0:0:0:0:
320,192,37429,1,0,0:0:0:0:
192,192,37782,1,0,0:0:0:0:
448,192,37782,1,0,0:0:0:0:
192,192,38135,128,0,38488:0:0:0:0:
320,192,38135,1,0,0:0:0:0:
64,192,38488,1,0,0:0:0:0:
448,192,38488,1,0,0:0:0:0:
192,192,38841,1,0,0:0:0:0:
64,192,38841,1,0,0:0:0:0:
320,192,39194,1,0,0:0:0:0:
448,192,39194,1,0,0:0:0:0:
448,192,39547,128,0,39900:0:0:0:0:
64,192,39547,1,0,0:0:0:0:
320,192,39900,1,0,0:0:0:0:
192,192,39900,1,0,0:0:0:0:
320,192,40253,128,0,40429:0:0:0:0:
64,192,40253,1,0,0:0:0:0:
192,192,40429,128,0,40606:0:0:0:0:
448,192,40606,1,0,0:0:0:0:
320,192,40694,1,0,0:0:0:0:
192,192,40782,1,0,0:0:0:0:
64,192,40959,1,0,0:0:0:0:
448,192,40959,1,0,0:0:0:0:
320,192,41135,1,0,0:0:0:0:
192,192,41312,1,0,0:0:0:0:
64,192,41312,1,0,0:0:0:0:
320,192,41488,1,0,0:0:0:0:
448,192,41665,1,0,0:0:0:0:
192,192,41665,1,0,0:0:0:0:
64,192,41841,1,0,0:0:0:0:
320,192,42018,1,0,0:0:0:0:
448,192,42018,1,0,0:0:0:0:
192,192,42194,1,0,0:0:0:0:
64,192,42371,1,0,0:0:0:0:
320,192,42371,1,0,0:0:0:0:
448,192,42547,1,0,0:0:0:0:
192,192,42724,1,0,0:0:0:0:
64,192,42724,1,0,0:0:0:0:
320,192,42900,1,0,0:0:0:0:
448,192,43077,1,0,0:0:0:0:
64,192,43077,1,0,0:0:0:0:
192,192,43253,1,0,0:0:0:0:
320,192,43429,1,0,0:0:0:0:
448,192,43429,1,0,0:0:0:0:
192,192,43606,1,0,0:0:0:0:
448,192,43782,1,0,0:0:0:0:
320,192,43782,1,0,0:0:0:0:
192,192,43959,1,0,0:0:0:0:
64,192,43959,1,0,0:0:0:0:
320,192,44135,1,0,0:0:0:0:
448,192,44135,1,0,0:0:0:0:
192,192,44312,1,0,0:0:0:0:
64,192,44312,1,0,0:0:0:0:
448,192,44488,1,0,0:0:0:0:
320,192,44577,1,0,0:0:0:0:
192,192,44665,1,0,0:0:0:0:
64,192,44841,1,0,0:0:0:0:
192,192,44929,1,0,0:0:0:0:
320,192,45018,1,0,0:0:0:0:
64,192,45547,1,0,0:0:0:0:
192,192,45547,1,0,0:0:0:0:
448,192,45724,1,0,0:0:0:0:
320,192,45900,128,0,46077:0:0:0:0:
64,192,46077,128,0,46253:0:0:0:0:
192,192,46253,128,0,46606:0:0:0:0:
64,192,46606,5,0,0:0:0:0:
448,192,46606,128,0,46959:0:0:0:0:
192,192,46959,1,0,0:0:0:0:
192,192,47135,1,0,0:0:0:0:
448,192,47312,1,0,0:0:0:0:
64,192,47400,1,0,0:0:0:0:
192,192,47488,1,0,0:0:0:0:
448,192,47665,128,0,48018:0:0:0:0:
320,192,47665,1,0,0:0:0:0:
64,192,47841,1,0,0:0:0:0:
192,192,48018,1,0,0:0:0:0:
320,192,48194,1,0,0:0:0:0:
64,192,48371,128,0,48635:0:0:0:0:
448,192,48371,1,0,0:0:0:0:
192,192,48635,128,0,48900:0:0:0:0:
320,192,48635,1,0,0:0:0:0:
448,192,48900,1,0,0:0:0:0:
64,192,49077,1,0,0:0:0:0:
320,192,49077,1,0,0:0:0:0:
448,192,49253,1,0,0:0:0:0:
64,192,49429,1,0,0:0:0:0:
192,192,49429,128,0,49694:0:0:0:0:
448,192,49694,1,0,0:0:0:0:
192,192,49871,1,0,0:0:0:0:
320,192,50135,128,0,50400:0:0:0:0:
448,192,50135,1,0,0:0:0:0:
64,192,50400,1,0,0:0:0:0:
320,192,50577,1,0,0:0:0:0:
192,192,50841,1,0,0:0:0:0:
64,192,50841,128,0,51106:0:0:0:0:
448,192,51106,1,0,0:0:0:0:
64,192,51282,1,0,0:0:0:0:
320,192,51547,1,0,0:0:0:0:
448,192,51547,1,0,0:0:0:0:
64,192,51724,1,0,0:0:0:0:
192,192,51724,1,0,0:0:0:0:
448,192,51988,1,0,0:0:0:0:
320,192,51988,1,0,0:0:0:0:
448,192,52253,128,0,52606:0:0:0:0:
64,192,52253,1,0,0:0:0:0:
320,192,52606,1,0,0:0:0:0:
192,192,52694,1,0,0:0:0:0:
64,192,52782,1,0,0:0:0:0:
320,192,52959,1,0,0:0:0:0:
448,192,52959,1,0,0:0:0:0:
448,192,53312,128,0,53665:0:0:0:0:
64,192,53312,1,0,0:0:0:0:
192,192,53488,1,0,0:0:0:0:
320,192,53665,1,0,0:0:0:0:
192,192,53841,1,0,0:0:0:0:
448,192,54018,1,0,0:0:0:0:
64,192,54018,128,0,54282:0:0:0:0:
192,192,54282,1,0,0:0:0:0:
320,192,54282,1,0,0:0:0:0:
448,192,54547,1,0,0:0:0:0:
64,192,54547,1,0,0:0:0:0:
192,192,54724,1,0,0:0:0:0:
320,192,54812,1,0,0:0:0:0:
448,192,54900,1,0,0:0:0:0:
64,192,55077,1,0,0:0:0:0:
192,192,55077,128,0,55341:0:0:0:0:
320,192,55341,1,0,0:0:0:0:
192,192,55518,1,0,0:0:0:0:
320,192,55782,1,0,0:0:0:0:
448,192,55782,128,0,56047:0:0:0:0:
64,192,56047,1,0,0:0:0:0:
448,192,56224,1,0,0:0:0:0:
192,192,56488,1,0,0:0:0:0:
64,192,56488,1,0,0:0:0:0:
192,192,56665,1,0,0:0:0:0:
320,192,56841,1,0,0:0:0:0:
448,192,56841,1,0,0:0:0:0:
64,192,57018,1,0,0:0:0:0:
192,192,57194,1,0,0:0:0:0:
448,192,57194,1,0,0:0:0:0:
320,192,57371,1,0,0:0:0:0:
192,192,57547,128,0,57724:0:0:0:0:
320,192,57724,128,0,57900:0:0:0:0:
64,192,57900,128,0,58606:0:0:0:0:
448,192,57900,128,0,59312:0:0:0:0:
320,192,59312,128,0,59665:0:0:0:0:
192,192,59665,128,0,60018:0:0:0:0:
448,192,60194,1,0,0:0:0:0:
320,192,60371,1,0,0:0:0:0:
64,192,60547,1,0,0:0:0:0:
320,192,60724,1,0,0:0:0:0:
448,192,60724,1,0,0:0:0:0:
192,192,60841,1,0,0:0:0:0:
448,192,61077,1,0,0:0:0:0:
320,192,61312,1,0,0:0:0:0:
192,192,61429,1,0,0:0:0:0:
64,192,61429,1,0,0:0:0:0:
448,192,61547,1,0,0:0:0:0:
192,192,61782,1,0,0:0:0:0:
64,192,62018,1,0,0:0:0:0:
320,192,62135,1,0,0:0:0:0:
448,192,62135,1,0,0:0:0:0:
192,192,62253,1,0,0:0:0:0:
320,192,62488,1,0,0:0:0:0:
192,192,62724,1,0,0:0:0:0:
448,192,62841,128,0,63077:0:0:0:0:
320,192,62841,1,0,0:0:0:0:
64,192,63077,128,0,63312:0:0:0:0:
320,192,63312,128,0,63547:0:0:0:0:
192,192,63547,128,0,63900:0:0:0:0:
64,192,63900,1,0,0:0:0:0:
448,192,64077,1,0,0:0:0:0:
192,192,64253,1,0,0:0:0:0:
448,192,64253,128,0,64429:0:0:0:0:
320,192,64606,128,0,64959:0:0:0:0:
64,192,64606,1,0,0:0:0:0:
192,192,64782,1,0,0:0:0:0:
448,192,64959,1,0,0:0:0:0:
192,192,65135,1,0,0:0:0:0:
448,192,65312,128,0,65577:0:0:0:0:
64,192,65312,1,0,0:0:0:0:
192,192,65577,1,0,0:0:0:0:
320,192,65577,1,0,0:0:0:0:
64,192,65841,128,0,66106:0:0:0:0:
448,192,65841,1,0,0:0:0:0:
320,192,66106,128,0,66371:0:0:0:0:
192,192,66371,1,0,0:0:0:0:
64,192,66371,1,0,0:0:0:0:
448,192,66488,1,0,0:0:0:0:
320,192,66724,1,0,0:0:0:0:
64,192,66959,1,0,0:0:0:0:
320,192,67077,1,0,0:0:0:0:
448,192,67077,1,0,0:0:0:0:
192,192,67194,1,0,0:0:0:0:
448,192,67429,1,0,0:0:0:0:
192,192,67665,1,0,0:0:0:0:
64,192,67782,1,0,0:0:0:0:
320,192,67782,1,0,0:0:0:0:
448,192,67900,1,0,0:0:0:0:
192,192,68018,1,0,0:0:0:0:
64,192,68135,128,0,68488:0:0:0:0:
320,192,68488,128,0,68841:0:0:0:0:
192,192,68841,1,0,0:0:0:0:
448,192,69194,128,0,69547:0:0:0:0:
64,192,69194,1,0,0:0:0:0:
320,192,69547,1,0,0:0:0:0:
192,192,69724,1,0,0:0:0:0:
448,192,69900,1,0,0:0:0:0:
192,192,70077,1,0,0:0:0:0:
448,192,70253,128,0,70606:0:0:0:0:
64,192,70253,1,0,0:0:0:0:
64,192,70606,1,0,0:0:0:0:
320,192,70782,1,0,0:0:0:0:
448,192,70959,1,0,0:0:0:0:
192,192,70959,128,0,71312:0:0:0:0:
320,192,71312,1,0,0:0:0:0:
448,192,71312,1,0,0:0:0:0:
192,192,71488,1,0,0:0:0:0:
64,192,71488,1,0,0:0:0:0:
320,192,71665,128,0,72018:0:0:0:0:
448,192,72018,1,0,0:0:0:0:
64,192,72018,128,0,72371:0:0:0:0:
320,192,72371,1,0,0:0:0:0:
192,192,72547,1,0,0:0:0:0:
448,192,72724,1,0,0:0:0:0:
320,192,72724,1,0,0:0:0:0:
64,192,73077,1,0,0:0:0:0:
192,192,73077,128,0,73429:0:0:0:0:
320,192,73429,1,0,0:0:0:0:
448,192,73606,1,0,0:0:0:0:
192,192,73782,1,0,0:0:0:0:
64,192,73782,128,0,74135:0:0:0:0:
320,192,74135,1,0,0:0:0:0:
448,192,74135,1,0,0:0:0:0:
192,192,74312,1,0,0:0:0:0:
64,192,74312,1,0,0:0:0:0:
448,192,74488,1,0,0:0:0:0:
192,192,74665,1,0,0:0:0:0:
64,192,74841,1,0,0:0:0:0:
320,192,74841,128,0,75194:0:0:0:0:
448,192,75194,1,0,0:0:0:0:
320,192,75371,1,0,0:0:0:0:
192,192,75547,1,0,0:0:0:0:
64,192,75547,1,0,0:0:0:0:
64,192,75900,1,0,0:0:0:0:
448,192,75900,128,0,76253:0:0:0:0:
320,192,76253,1,0,0:0:0:0:
192,192,76429,1,0,0:0:0:0:
64,192,76606,1,0,0:0:0:0:
320,192,76606,128,0,76959:0:0:0:0:
64,192,76959,1,0,0:0:0:0:
192,192,76959,1,0,0:0:0:0:
320,192,77135,1,0,0:0:0:0:
448,192,77135,1,0,0:0:0:0:
64,192,77312,1,0,0:0:0:0:
448,192,77488,1,0,0:0:0:0:
448,192,77841,1,0,0:0:0:0:
320,192,78018,1,0,0:0:0:0:
64,192,78018,128,0,78371:0:0:0:0:
448,192,78371,1,0,0:0:0:0:
320,192,78371,1,0,0:0:0:0:
64,192,78547,1,0,0:0:0:0:
192,192,78547,128,0,78900:0:0:0:0:
320,192,78900,1,0,0:0:0:0:
64,192,79077,1,0,0:0:0:0:
448,192,79077,128,0,79429:0:0:0:0:
320,192,79429,1,0,0:0:0:0:
64,192,79606,1,0,0:0:0:0:
192,192,79606,1,0,0:0:0:0:
320,192,79782,1,0,0:0:0:0:
448,192,79782,1,0,0:0:0:0:
64,192,79959,1,0,0:0:0:0:
448,192,80135,1,0,0:0:0:0:
192,192,80224,1,0,0:0:0:0:
64,192,80312,1,0,0:0:0:0:
448,192,80488,128,0,80841:0:0:0:0:
320,192,80488,1,0,0:0:0:0:
64,192,80841,1,0,0:0:0:0:
320,192,81018,1,0,0:0:0:0:
192,192,81194,1,0,0:0:0:0:
448,192,81371,1,0,0:0:0:0:
192,192,81547,1,0,0:0:0:0:
320,192,81900,128,0,82253:0:0:0:0:
64,192,82253,1,0,0:0:0:0:
448,192,82429,1,0,0:0:0:0:
64,192,82606,1,0,0:0:0:0:
192,192,82782,1,0,0:0:0:0:
448,192,82959,1,0,0:0:0:0:
192,192,83312,128,0,83665:0:0:0:0:
448,192,83665,1,0,0:0:0:0:
64,192,83841,1,0,0:0:0:0:
320,192,84018,1,0,0:0:0:0:
192,192,84194,1,0,0:0:0:0:
448,192,84371,1,0,0:0:0:0:
64,192,84724,128,0,85077:0:0:0:0:
448,192,85077,1,0,0:0:0:0:
192,192,85253,1,0,0:0:0:0:
320,192,85429,1,0,0:0:0:0:
448,192,85606,1,0,0:0:0:0:
64,192,85782,1,0,0:0:0:0:
448,192,85959,1,0,0:0:0:0:
192,192,86135,1,0,0:0:0:0:
64,192,86135,1,0,0:0:0:0:
64,192,86488,1,0,0:0:0:0:
448,192,86488,1,0,0:0:0:0:
192,192,86665,1,0,0:0:0:0:
320,192,86841,1,0,0:0:0:0:
448,192,86841,1,0,0:0:0:0:
192,192,87018,1,0,0:0:0:0:
320,192,87194,1,0,0:0:0:0:
448,192,87194,1,0,0:0:0:0:
64,192,87547,1,0,0:0:0:0:
448,192,87547,1,0,0:0:0:0:
192,192,87900,1,0,0:0:0:0:
64,192,87900,1,0,0:0:0:0:
320,192,88077,1,0,0:0:0:0:
448,192,88253,1,0,0:0:0:0:
64,192,88253,1,0,0:0:0:0:
320,192,88429,1,0,0:0:0:0:
192,192,88606,1,0,0:0:0:0:
64,192,88606,1,0,0:0:0:0:
320,192,88782,1,0,0:0:0:0:
448,192,88959,1,0,0:0:0:0:
64,192,88959,1,0,0:0:0:0:
320,192,89312,1,0,0:0:0:0:
448,192,89312,1,0,0:0:0:0:
192,192,89488,1,0,0:0:0:0:
64,192,89665,1,0,0:0:0:0:
320,192,89665,1,0,0:0:0:0:
192,192,89841,1,0,0:0:0:0:
64,192,90018,1,0,0:0:0:0:
448,192,90018,1,0,0:0:0:0:
320,192,90371,1,0,0:0:0:0:
448,192,90371,1,0,0:0:0:0:
448,192,90724,1,0,0:0:0:0:
192,192,90724,1,0,0:0:0:0:
64,192,90900,1,0,0:0:0:0:
320,192,91077,1,0,0:0:0:0:
448,192,91253,128,0,91429:0:0:0:0:
320,192,91429,128,0,91606:0:0:0:0:
192,192,91606,128,0,91782:0:0:0:0:
64,192,91782,1,0,0:0:0:0:
448,192,91782,1,0,0:0:0:0:
192,192,92135,1,0,0:0:0:0:
64,192,92135,1,0,0:0:0:0:
320,192,92312,1,0,0:0:0:0:
64,192,92488,1,0,0:0:0:0:
448,192,92488,1,0,0:0:0:0:
192,192,92665,1,0,0:0:0:0:
320,192,92841,1,0,0:0:0:0:
448,192,92841,1,0,0:0:0:0:
64,192,93194,1,0,0:0:0:0:
320,192,93194,1,0,0:0:0:0:
448,192,93547,1,0,0:0:0:0:
192,192,93547,1,0,0:0:0:0:
320,192,93900,1,0,0:0:0:0:
448,192,93900,1,0,0:0:0:0:
192,192,94077,1,0,0:0:0:0:
320,192,94253,1,0,0:0:0:0:
448,192,94253,1,0,0:0:0:0:
192,192,94429,1,0,0:0:0:0:
64,192,94606,1,0,0:0:0:0:
320,192,94606,1,0,0:0:0:0:
192,192,94959,1,0,0:0:0:0:
448,192,94959,1,0,0:0:0:0:
320,192,95135,1,0,0:0:0:0:
192,192,95312,1,0,0:0:0:0:
64,192,95312,1,0,0:0:0:0:
448,192,95488,1,0,0:0:0:0:
192,192,95665,1,0,0:0:0:0:
64,192,95665,1,0,0:0:0:0:
320,192,96018,1,0,0:0:0:0:
64,192,96018,1,0,0:0:0:0:
192,192,96371,1,0,0:0:0:0:
448,192,96371,1,0,0:0:0:0:
64,192,96547,1,0,0:0:0:0:
320,192,96724,1,0,0:0:0:0:
448,192,96724,1,0,0:0:0:0:
320,192,96900,1,0,0:0:0:0:
192,192,97077,1,0,0:0:0:0:
64,192,97429,1,0,0:0:0:0:
448,192,97429,1,0,0:0:0:0:
320,192,97606,1,0,0:0:0:0:
192,192,97782,1,0,0:0:0:0:
64,192,97782,1,0,0:0:0:0:
320,192,97959,1,0,0:0:0:0:
448,192,98135,1,0,0:0:0:0:
192,192,98135,1,0,0:0:0:0:
64,192,98312,1,0,0:0:0:0:
320,192,98488,1,0,0:0:0:0:
448,192,98488,1,0,0:0:0:0:
192,192,98665,1,0,0:0:0:0:
64,192,98841,1,0,0:0:0:0:
320,192,98841,1,0,0:0:0:0:
448,192,99018,1,0,0:0:0:0:
192,192,99194,1,0,0:0:0:0:
64,192,99194,1,0,0:0:0:0:
320,192,99371,1,0,0:0:0:0:
448,192,99547,1,0,0:0:0:0:
64,192,99547,1,0,0:0:0:0:
192,192,99724,1,0,0:0:0:0:
320,192,99900,1,0,0:0:0:0:
448,192,99900,1,0,0:0:0:0:
192,192,100077,1,0,0:0:0:0:
448,192,100253,1,0,0:0:0:0:
320,192,100253,1,0,0:0:0:0:
192,192,100429,1,0,0:0:0:0:
64,192,100429,1,0,0:0:0:0:
320,192,100606,1,0,0:0:0:0:
448,192,100606,1,0,0:0:0:0:
192,192,100782,1,0,0:0:0:0:
64,192,100782,1,0,0:0:0:0:
448,192,100959,1,0,0:0:0:0:
320,192,101047,1,0,0:0:0:0:
192,192,101135,1,0,0:0:0:0:
64,192,101312,1,0,0:0:0:0:
192,192,101400,1,0,0:0:0:0:
320,192,101488,1,0,0:0:0:0:
64,192,101665,128,0,102018:0:0:0:0:
448,192,102018,128,0,102194:0:0:0:0:
192,192,102194,1,0,0:0:0:0:
64,192,102371,1,0,0:0:0:0:
320,192,102459,1,0,0:0:0:0:
192,192,102547,1,0,0:0:0:0:
448,192,102724,1,0,0:0:0:0:
320,192,102812,1,0,0:0:0:0:
192,192,102900,1,0,0:0:0:0:
320,192,103077,1,0,0:0:0:0:
448,192,103077,1,0,0:0:0:0:
448,192,103606,1,0,0:0:0:0:
320,192,103782,1,0,0:0:0:0:
320,192,104135,1,0,0:0:0:0:
320,192,104488,1,0,0:0:0:0:
320,192,104841,1,0,0:0:0:0:
448,192,105018,1,0,0:0:0:0:
64,192,105194,1,0,0:0:0:0:
320,192,105371,1,0,0:0:0:0:
64,192,105547,1,0,0:0:0:0:
192,192,105635,1,0,0:0:0:0:
448,192,105724,1,0,0:0:0:0:
320,192,105812,1,0,0:0:0:0:
192,192,105900,128,0,106253:0:0:0:0:
64,192,105900,1,0,0:0:0:0:
320,192,106253,1,0,0:0:0:0:
320,192,106429,1,0,0:0:0:0:
448,192,106606,128,0,106959:0:0:0:0:
64,192,106606,1,0,0:0:0:0:
192,192,106959,1,0,0:0:0:0:
192,192,107135,1,0,0:0:0:0:
64,192,107312,128,0,107665:0:0:0:0:
320,192,107312,1,0,0:0:0:0:
448,192,107665,1,0,0:0:0:0:
448,192,107841,1,0,0:0:0:0:
192,192,108018,128,0,108371:0:0:0:0:
320,192,108018,1,0,0:0:0:0:
64,192,108371,1,0,0:0:0:0:
448,192,108371,128,0,108724:0:0:0:0:
192,192,108724,1,0,0:0:0:0:
64,192,108724,128,0,109077:0:0:0:0:
448,192,109077,1,0,0:0:0:0:
320,192,109077,1,0,0:0:0:0:
320,192,109253,128,0,109429:0:0:0:0:
64,192,109429,128,0,109606:0:0:0:0:
192,192,109429,1,0,0:0:0:0:
448,192,109782,128,0,109959:0:0:0:0:
320,192,109782,1,0,0:0:0:0:
64,192,110135,1,0,0:0:0:0:
192,192,110135,1,0,0:0:0:0:
320,192,110312,1,0,0:0:0:0:
192,192,110488,1,0,0:0:0:0:
448,192,110488,1,0,0:0:0:0:
64,192,110665,128,0,110841:0:0:0:0:
320,192,110841,1,0,0:0:0:0:
192,192,111018,128,0,111194:0:0:0:0:
64,192,111194,1,0,0:0:0:0:
320,192,111282,1,0,0:0:0:0:
448,192,111371,1,0,0:0:0:0:
192,192,111547,128,0,111900:0:0:0:0:
64,192,111547,1,0,0:0:0:0:
320,192,111900,1,0,0:0:0:0:
320,192,112077,1,0,0:0:0:0:
448,192,112253,128,0,112606:0:0:0:0:
64,192,112253,1,0,0:0:0:0:
192,192,112606,1,0,0:0:0:0:
192,192,112782,1,0,0:0:0:0:
320,192,112959,1,0,0:0:0:0:
448,192,112959,1,0,0:0:0:0:
64,192,113135,1,0,0:0:0:0:
448,192,113312,1,0,0:0:0:0:
192,192,113312,1,0,0:0:0:0:
320,192,113488,1,0,0:0:0:0:
448,192,113665,1,0,0:0:0:0:
64,192,113665,1,0,0:0:0:0:
192,192,113841,1,0,0:0:0:0:
320,192,114018,128,0,114194:0:0:0:0:
192,192,114194,128,0,114371:0:0:0:0:
448,192,114371,128,0,115782:0:0:0:0:
64,192,114371,128,0,115077:0:0:0:0:
64,192,115782,128,0,116488:0:0:0:0:
320,192,116665,1,0,0:0:0:0:
448,192,116841,1,0,0:0:0:0:
192,192,116841,128,0,117194:0:0:0:0:
320,192,117194,1,0,0:0:0:0:
64,192,117194,1,0,0:0:0:0:
320,192,117371,1,0,0:0:0:0:
448,192,117547,1,0,0:0:0:0:
64,192,117724,128,0,117900:0:0:0:0:
320,192,117900,1,0,0:0:0:0:
448,192,117900,1,0,0:0:0:0:
448,192,118077,1,0,0:0:0:0:
192,192,118253,1,0,0:0:0:0:
320,192,118429,128,0,118606:0:0:0:0:
192,192,118606,1,0,0:0:0:0:
64,192,118606,1,0,0:0:0:0:
64,192,118782,1,0,0:0:0:0:
448,192,118959,1,0,0:0:0:0:
192,192,119135,128,0,119312:0:0:0:0:
448,192,119312,1,0,0:0:0:0:
320,192,119312,128,0,119665:0:0:0:0:
448,192,119665,128,0,120018:0:0:0:0:
192,192,119665,1,0,0:0:0:0:
64,192,120018,1,0,0:0:0:0:
192,192,120018,128,0,120371:0:0:0:0:
64,192,120371,1,0,0:0:0:0:
448,192,120371,1,0,0:0:0:0:
320,192,120547,1,0,0:0:0:0:
448,192,120724,1,0,0:0:0:0:
192,192,120724,1,0,0:0:0:0:
64,192,120900,1,0,0:0:0:0:
448,192,121077,1,0,0:0:0:0:
320,192,121077,1,0,0:0:0:0:
192,192,121253,1,0,0:0:0:0:
448,192,121429,128,0,121782:0:0:0:0:
320,192,121429,1,0,0:0:0:0:
64,192,121782,1,0,0:0:0:0:
192,192,121782,1,0,0:0:0:0:
320,192,121959,1,0,0:0:0:0:
64,192,122135,1,0,0:0:0:0:
448,192,122135,1,0,0:0:0:0:
192,192,122312,1,0,0:0:0:0:
64,192,122488,128,0,122841:0:0:0:0:
320,192,122488,1,0,0:0:0:0:
192,192,122841,1,0,0:0:0:0:
448,192,122841,1,0,0:0:0:0:
448,192,123018,1,0,0:0:0:0:
64,192,123194,1,0,0:0:0:0:
320,192,123371,128,0,123547:0:0:0:0:
192,192,123547,1,0,0:0:0:0:
64,192,123547,1,0,0:0:0:0:
192,192,123724,1,0,0:0:0:0:
448,192,123900,1,0,0:0:0:0:
64,192,124077,128,0,124253:0:0:0:0:
448,192,124253,1,0,0:0:0:0:
320,192,124253,1,0,0:0:0:0:
192,192,124429,1,0,0:0:0:0:
448,192,124606,1,0,0:0:0:0:
64,192,124606,1,0,0:0:0:0:
192,192,124782,1,0,0:0:0:0:
320,192,124959,1,0,0:0:0:0:
448,192,124959,1,0,0:0:0:0:
192,192,125135,1,0,0:0:0:0:
64,192,125135,1,0,0:0:0:0:
320,192,125312,128,0,125665:0:0:0:0:
448,192,125312,128,0,125665:0:0:0:0:
64,192,126106,1,0,0:0:0:0:
192,192,126106,1,0,0:0:0:0:
448,192,126371,1,0,0:0:0:0:
64,192,126371,128,0,126812:0:0:0:0:
192,192,126812,1,0,0:0:0:0:
320,192,126812,1,0,0:0:0:0:
320,192,127077,1,0,0:0:0:0:
448,192,127077,128,0,127518:0:0:0:0:
64,192,127518,1,0,0:0:0:0:
192,192,127518,1,0,0:0:0:0:
448,192,127782,1,0,0:0:0:0:
320,192,127782,128,0,128135:0:0:0:0:
192,192,128135,128,0,128488:0:0:0:0:
64,192,128135,1,0,0:0:0:0:
320,192,128488,1,0,0:0:0:0:
448,192,128488,1,0,0:0:0:0:
192,192,128929,1,0,0:0:0:0:
448,192,128929,1,0,0:0:0:0:
64,192,129194,1,0,0:0:0:0:
192,192,129194,128,0,129635:0:0:0:0:
448,192,129635,1,0,0:0:0:0:
320,192,129635,1,0,0:0:0:0:
64,192,129900,1,0,0:0:0:0:
448,192,129900,1,0,0:0:0:0:
192,192,130077,1,0,0:0:0:0:
64,192,130077,1,0,0:0:0:0:
448,192,130341,1,0,0:0:0:0:
320,192,130341,1,0,0:0:0:0:
64,192,130606,1,0,0:0:0:0:
192,192,130606,1,0,0:0:0:0:
448,192,130782,1,0,0:0:0:0:
64,192,130959,1,0,0:0:0:0:
192,192,131047,1,0,0:0:0:0:
320,192,131135,1,0,0:0:0:0:
448,192,131224,1,0,0:0:0:0:
64,192,131312,1,0,0:0:0:0:
192,192,131312,1,0,0:0:0:0:
320,192,131488,1,0,0:0:0:0:
448,192,131488,1,0,0:0:0:0:
320,192,131753,1,0,0:0:0:0:
192,192,131753,1,0,0:0:0:0:
64,192,132018,1,0,0:0:0:0:
192,192,132018,1,0,0:0:0:0:
320,192,132194,1,0,0:0:0:0:
448,192,132194,1,0,0:0:0:0:
448,192,132459,1,0,0:0:0:0:
64,192,132459,1,0,0:0:0:0:
192,192,132724,1,0,0:0:0:0:
64,192,132724,1,0,0:0:0:0:
448,192,132900,1,0,0:0:0:0:
320,192,132900,1,0,0:0:0:0:
448,192,133165,1,0,0:0:0:0:
192,192,133165,1,0,0:0:0:0:
192,192,133429,1,0,0:0:0:0:
64,192,133429,1,0,0:0:0:0:
320,192,133606,1,0,0:0:0:0:
448,192,133606,1,0,0:0:0:0:
320,192,133871,1,0,0:0:0:0:
64,192,133871,1,0,0:0:0:0:
192,192,134047,1,0,0:0:0:0:
320,192,134135,1,0,0:0:0:0:
448,192,134135,1,0,0:0:0:0:
64,192,134312,1,0,0:0:0:0:
448,192,134488,1,0,0:0:0:0:
320,192,134488,1,0,0:0:0:0:
192,192,134577,1,0,0:0:0:0:
64,192,134753,1,0,0:0:0:0:
192,192,134841,1,0,0:0:0:0:
448,192,134841,128,0,135194:0:0:0:0:
320,192,135194,128,0,135547:0:0:0:0:
64,192,135194,1,0,0:0:0:0:
192,192,135547,1,0,0:0:0:0:
64,192,135547,1,0,0:0:0:0:
64,192,135900,128,0,136253:0:0:0:0:
192,192,136253,128,0,136606:0:0:0:0:
448,192,136606,128,0,136959:0:0:0:0:
64,192,137312,1,0,0:0:0:0:
448,192,137312,1,0,0:0:0:0:
