osu file format v14

[General]
AudioFilename: output.mp3
AudioLeadIn: 600
PreviewTime: 65916
Countdown: 0
SampleSet: Normal
StackLeniency: 0.3
Mode: 0
LetterboxInBreaks: 0
WidescreenStoryboard: 0

[Editor]
Bookmarks: 23333,55333,60666,108666,130000,151333,167333,172666,183333,218000,239334,247000,271334,282000,303167
DistanceSpacing: 1.4
BeatDivisor: 4
GridSize: 4
TimelineZoom: 1.500001

[Metadata]
Title:Kagami no Mary Sue
TitleUnicode:鏡のメアリー・スー
Artist:ETIA.
ArtistUnicode:ETIA.
Creator:wa_
Version:Eternal
Source:
Tags:AD:Nearly 180 Diverse System
BeatmapID:1065689
BeatmapSetID:500743

[Difficulty]
HPDrainRate:6
CircleSize:5.2
OverallDifficulty:9
ApproachRate:9
SliderMultiplier:1.76
SliderTickRate:1

[Events]
//Background and Video events
0,0,"bg.jpg",0,0
//Break Periods
//Storyboard Layer 0 (Background)
//Storyboard Layer 1 (Fail)
//Storyboard Layer 2 (Pass)
//Storyboard Layer 3 (Foreground)
//Storyboard Sound Samples

[TimingPoints]
677,333.333333333333,4,2,0,50,1,0
677,-333.333333333333,4,2,0,50,0,0
4343,-333.333333333333,4,2,0,30,0,0
4676,-333.333333333333,4,2,0,50,0,0
9676,-333.333333333333,4,2,0,30,0,0
10010,-333.333333333333,4,2,0,50,0,0
12676,-250,4,2,0,50,0,0
35010,-222.222222222222,4,2,0,60,0,0
36676,-200,4,2,0,60,0,0
39343,-166.666666666667,4,2,0,60,0,0
42676,-142.857142857143,4,2,0,60,0,0
44510,-125,4,1,1,70,0,0
62010,-111.111111111111,4,1,1,70,0,0
63343,-99.9999999999999,4,1,1,70,0,0
65343,-83.3333333333333,4,1,1,70,0,0
65593,-71.4285714285714,4,1,1,70,0,0
66010,-90.9090909090909,4,1,1,75,0,1
86010,-90.9090909090909,4,1,1,70,0,0
86676,-76.9230769230769,4,1,1,70,0,0
87343,-90.9090909090909,4,1,1,70,0,0
102343,-125,4,3,0,60,0,0
102676,-166.666666666667,4,3,0,60,0,0
103010,-100,4,3,0,70,0,0
103343,-90.9090909090909,4,1,1,70,0,0
107510,-90.9090909090909,4,1,1,70,0,0
108676,-100,4,1,1,70,0,0
124010,-76.9230769230769,4,1,1,70,0,0
124676,-100,4,1,1,70,0,0
130010,-333.333333333333,4,2,0,40,0,0
138176,-166.666666666667,4,2,0,40,0,0
140676,-333.333333333333,4,2,0,40,0,0
143676,-166.666666666667,4,2,0,40,0,0
151343,-250,4,2,0,50,0,0
154010,-200,4,2,0,50,0,0
162010,-166.666666666667,4,2,0,50,0,0
167343,-142.857142857143,4,2,0,60,0,0
172510,-142.857142857143,4,2,1,70,0,0
172676,-125,4,1,1,70,0,0
184676,-111.111111111111,4,1,1,70,0,0
187843,-99.9999999999999,4,1,1,70,0,0
192843,-83.3333333333333,4,1,1,70,0,0
193343,-76.9230769230769,4,1,1,70,0,0
196676,-90.9090909090909,4,1,1,80,0,1
217676,-76.9230769230769,4,1,1,80,0,0
218010,-83.3333333333333,4,1,1,80,0,1
239176,-83.3333333333333,4,1,1,80,0,0
239676,-83.3333333333333,4,1,1,80,0,1
240010,-100,4,1,1,80,0,0
260677,-100,4,1,1,70,0,0
271343,-100,4,1,2,70,0,0
282344,-125,4,1,2,70,0,0

[Colours]
Combo1 : 63,167,243
Combo2 : 184,109,224
Combo3 : 131,115,223
Combo4 : 234,163,252
Combo5 : 252,239,88

[HitObjects]
264,272,2010,6,0,B|301:256|335:272|335:272|384:293|428:276|444:223|422:183|382:176|382:176|402:130|402:130|379:80,1,369.599988720703,2|2,0:0|0:0,0:0:0:0:
308,24,4676,2,0,B|280:68|280:68|304:116|304:116|267:105|233:123|216:160|216:160|198:190|165:206|125:193,1,316.799990332032,2|2,0:0|0:0,0:0:0:0:
72,136,6926,1,2,0:0:0:0:
152,124,7176,5,0,0:0:0:0:
152,124,7260,1,0,0:0:0:0:
152,124,7343,2,0,B|194:146|209:178|206:213|190:238|171:253|171:253|224:261|224:261|195:305|195:305|305:315,1,369.599988720703,2|2,0:0|0:0,0:0:0:0:
366,350,10010,5,2,0:0:0:0:
430,314,10343,2,0,L|443:259,1,52.7999983886719,2|0,0:0|0:0,0:0:0:0:
401,201,11010,2,0,P|395:170|415:137,1,70.3999978515626,2|2,0:0|0:0,0:0:0:0:
429,25,12010,2,0,L|468:26,2,35.1999989257813,0|2|0,0:0|0:0|0:0,0:0:0:0:
359,54,12676,6,0,L|284:52,1,70.4,2|0,0:0|0:0,0:0:0:0:
212,94,13343,2,0,L|142:93,1,70.4
53,91,14010,1,0,0:0:0:0:
22,173,14343,1,0,0:0:0:0:
92,227,14676,1,0,0:0:0:0:
165,178,15010,1,0,0:0:0:0:
141,93,15343,6,0,P|147:53|175:24,1,70.4,2|0,0:0|0:0,0:0:0:0:
223,91,16010,1,0,0:0:0:0:
271,30,16343,1,0,0:0:0:0:
324,84,16676,1,0,0:0:0:0:
372,23,17009,1,0,0:0:0:0:
428,76,17343,2,0,P|448:87|483:89,1,46.9333333333333,2|2,0:0|0:0,0:0:0:0:
392,164,17788,1,0,0:0:0:0:
392,164,17899,1,0,0:0:0:0:
392,164,18010,6,0,L|468:168,1,70.4,2|0,0:0|0:0,0:0:0:0:
348,228,18676,2,0,L|398:284,1,70.4
268,244,19343,2,0,L|264:320,1,70.4
151,246,20009,2,0,L|204:200,1,70.4,2|0,0:0|0:0,0:0:0:0:
193,117,20676,1,2,0:0:0:0:
256,192,20760,12,4,23343,1:0:0:0:
112,100,24010,5,10,0:0:0:0:
112,100,24343,2,0,P|128:140|64:212,1,140.8,0|0,1:0|1:0,0:0:0:0:
144,268,25343,2,0,B|136:303|136:303|148:335,1,70.4,8|2,1:2|0:0,0:0:0:0:
220,364,25843,1,2,0:0:0:0:
288,325,26010,6,0,P|332:309|408:357,1,140.8,0|8,1:0|0:0,0:0:0:0:
448,284,27010,2,0,P|444:232|460:208,1,70.4,0|0,1:0|0:0,0:0:0:0:
504,160,27510,1,2,0:0:0:0:
436,120,27676,1,0,1:0:0:0:
246,236,28010,2,0,L|184:240,2,52.8,10|2|0,0:0|0:0|1:0,0:0:0:0:
269,236,28593,1,0,0:0:0:0:
292,234,28676,6,0,B|313:165|313:165|281:97,1,140.8,0|8,1:0|0:0,0:0:0:0:
208,148,29676,2,0,P|156:164|112:88,1,140.8,0|0,1:0|1:0,0:0:0:0:
104,272,30676,1,8,0:0:0:0:
176,248,31010,1,2,1:2:0:0:
208,320,31343,5,0,1:0:0:0:
208,320,31510,1,2,0:2:0:0:
208,320,31676,2,0,P|249:307|277:313,1,70.4,2|8,0:0|0:0,0:0:0:0:
328,368,32343,1,0,1:0:0:0:
412,368,32676,2,0,L|454:233,1,140.8,2|8,0:0|0:0,0:0:0:0:
373,181,33565,2,0,L|379:233,1,46.9333333333333,2|8,0:0|0:0,0:0:0:0:
340,300,34010,6,0,B|268:308|268:308|243:278|256:236,1,140.8,0|8,1:0|0:0,0:0:0:0:
208,168,35010,2,0,P|139:212|170:265,1,158.399995166016,0|2,1:0|1:2,0:0:0:0:
254,244,36010,1,8,0:0:0:0:
307,313,36343,1,2,0:0:0:0:
364,248,36676,6,0,B|419:180|419:180|415:135|415:135|381:107,1,176,0|8,1:0|0:0,0:0:0:0:
428,304,37676,1,0,1:0:0:0:
504,324,37843,1,8,0:0:0:0:
488,248,38010,1,0,1:0:0:0:
428,304,38176,6,0,P|384:316|348:304,1,73.3333333333333,2|0,1:2|0:0,0:0:0:0:
276,356,38676,2,0,P|232:344|204:352,2,58.6666666666667,8|2|8,0:0|0:0|1:2,0:0:0:0:
272,268,39343,5,0,1:0:0:0:
272,268,39426,1,0,0:0:0:0:
272,268,39510,2,0,L|264:184,1,79.1999975830079,2|0,0:0|0:0,0:0:0:0:
180,124,40010,2,0,B|128:108|128:108|104:116,1,79.1999975830079,8|2,1:2|0:0,0:0:0:0:
84,136,40343,2,0,L|80:172,2,26.399999194336,0|0|2,1:0|0:0|0:0,0:0:0:0:
80,248,40676,5,0,1:0:0:0:
80,248,40760,1,0,0:0:0:0:
80,248,40843,1,2,0:0:0:0:
144,224,41010,1,0,1:0:0:0:
160,292,41176,1,2,0:0:0:0:
224,272,41343,2,0,P|260:268|304:292,1,79.1999975830079,8|2,1:2|0:0,0:0:0:0:
312,304,41676,2,0,L|314:340,2,26.399999194336,0|0|2,1:0|0:0|0:0,0:0:0:0:
368,256,42010,6,0,L|440:252,1,52.7999983886719,0|2,1:0|0:0,0:0:0:0:
440,156,42343,2,0,L|387:158,1,52.7999983886719,0|2,1:0|0:0,0:0:0:0:
272,212,42676,6,0,L|198:207,1,61.5999981201172,8|2,1:2|0:0,0:0:0:0:
200,112,43009,2,0,L|261:115,1,61.5999981201172,0|2,1:0|0:0,0:0:0:0:
137,326,43343,5,0,1:0:0:0:
137,326,43426,1,0,0:0:0:0:
137,326,43510,1,2,0:0:0:0:
81,259,43676,1,0,1:0:0:0:
81,259,43760,1,0,0:0:0:0:
81,259,43843,1,2,0:0:0:0:
127,186,44010,1,0,1:0:0:0:
210,207,44176,1,2,1:2:0:0:
216,293,44343,1,4,1:3:0:0:
44,184,44510,5,2,0:0:0:0:
44,184,44593,1,0,0:0:0:0:
44,184,44676,1,4,0:0:0:0:
88,104,44843,1,2,0:0:0:0:
127,186,45010,1,0,0:0:0:0:
171,106,45177,1,2,0:0:0:0:
212,188,45343,2,0,P|244:208|312:192,1,105.6,0|2,0:0|0:0,0:0:0:0:
328,184,45676,2,0,L|332:264,1,70.4,0|2,0:0|0:0,0:0:0:0:
336,348,46010,5,0,0:0:0:0:
336,348,46093,1,0,0:0:0:0:
336,348,46176,1,2,0:0:0:0:
264,304,46343,1,0,0:0:0:0:
200,356,46510,1,2,0:0:0:0:
127,307,46676,2,0,P|83:299|31:339,1,105.6,0|2,0:0|0:0,0:0:0:0:
35,332,47010,1,0,0:0:0:0:
16,176,47176,5,10,0:0:0:0:
91,214,47343,5,4,0:0:0:0:
91,214,47426,1,0,0:0:0:0:
91,214,47510,1,2,0:0:0:0:
88,128,47676,1,0,0:0:0:0:
163,166,47843,1,2,0:0:0:0:
160,80,48010,1,0,0:0:0:0:
235,118,48177,1,2,0:0:0:0:
244,200,48343,1,0,0:0:0:0:
172,244,48510,1,2,0:0:0:0:
91,214,48676,5,0,0:0:0:0:
91,214,48759,1,0,0:0:0:0:
91,214,48843,1,2,0:0:0:0:
52,288,49010,1,0,0:0:0:0:
52,288,49093,1,0,0:0:0:0:
52,288,49177,1,2,0:0:0:0:
120,336,49343,2,0,L|232:332,1,105.6,0|2,0:0|0:0,0:0:0:0:
225,332,49676,1,0,0:0:0:0:
188,180,49843,5,10,0:0:0:0:
256,232,50010,5,4,0:0:0:0:
256,232,50093,1,0,0:0:0:0:
256,232,50176,1,2,0:0:0:0:
320,176,50343,1,0,0:0:0:0:
320,176,50426,1,0,0:0:0:0:
320,176,50509,1,2,0:0:0:0:
380,236,50676,1,0,0:0:0:0:
444,184,50843,1,2,0:0:0:0:
388,120,51010,1,0,0:0:0:0:
504,248,51177,5,10,0:0:0:0:
436,300,51343,5,4,0:0:0:0:
436,300,51426,1,0,0:0:0:0:
436,300,51510,1,2,0:0:0:0:
380,236,51676,1,0,0:0:0:0:
380,236,51760,1,0,0:0:0:0:
380,236,51843,1,2,0:0:0:0:
308,260,52010,2,0,L|229:290,1,70.4,0|2,0:0|0:0,0:0:0:0:
160,324,52343,1,0,0:0:0:0:
96,144,52510,5,8,0:0:0:0:
180,144,52676,2,0,P|216:128|224:28,1,140.8,4|0,0:0|0:0,0:0:0:0:
296,196,53176,5,8,0:0:0:0:
364,148,53343,2,0,B|420:104|420:104|444:176,1,140.8,4|0,0:0|0:0,0:0:0:0:
468,252,53843,5,10,0:0:0:0:
468,252,54176,2,0,L|384:248,1,70.4,8|0,0:0|0:0,0:0:0:0:
348,288,54426,2,0,L|264:284,1,70.4,8|0,0:0|0:0,0:0:0:0:
228,324,54676,2,0,L|144:320,1,70.4,8|0,0:0|0:0,0:0:0:0:
108,360,54926,2,0,L|24:356,1,70.4,8|0,0:0|0:0,0:0:0:0:
32,336,55176,5,0,0:0:0:0:
28,316,55260,1,0,0:0:0:0:
24,296,55343,1,4,0:0:0:0:
92,244,55510,1,2,0:0:0:0:
40,180,55676,1,0,0:0:0:0:
40,180,55760,1,0,0:0:0:0:
40,180,55843,1,2,0:0:0:0:
64,100,56010,1,0,0:0:0:0:
64,100,56176,1,2,0:0:0:0:
120,164,56343,1,0,0:0:0:0:
120,164,56509,1,2,0:0:0:0:
148,84,56676,5,0,0:0:0:0:
148,84,56760,1,0,0:0:0:0:
148,84,56842,1,2,0:0:0:0:
236,132,57010,1,0,0:0:0:0:
236,132,57093,1,0,0:0:0:0:
236,132,57176,1,2,0:0:0:0:
288,48,57343,1,0,0:0:0:0:
288,48,57510,1,2,0:0:0:0:
380,84,57676,1,0,0:0:0:0:
452,16,57843,5,2,0:0:0:0:
452,16,57926,1,0,0:0:0:0:
452,16,58010,1,4,0:0:0:0:
475,125,58176,1,2,0:0:0:0:
380,84,58343,1,0,0:0:0:0:
380,84,58426,1,0,0:0:0:0:
380,84,58510,1,2,0:0:0:0:
396,196,58676,1,0,0:0:0:0:
396,196,58843,1,2,0:0:0:0:
296,156,59010,1,0,0:0:0:0:
296,156,59177,1,2,0:0:0:0:
312,280,59343,5,4,0:0:0:0:
312,280,59426,1,0,0:0:0:0:
312,280,59510,1,2,0:0:0:0:
196,328,59676,1,0,0:0:0:0:
196,328,59760,1,0,0:0:0:0:
196,328,59843,1,2,0:0:0:0:
220,204,60010,1,0,0:0:0:0:
220,204,60177,1,2,0:0:0:0:
84,179,60343,1,0,0:0:0:0:
84,179,60510,1,2,0:0:0:0:
135,53,60676,5,4,0:0:0:0:
135,53,60760,1,0,0:0:0:0:
135,53,60844,1,2,0:0:0:0:
149,50,60926,1,0,0:0:0:0:
167,49,61009,1,0,0:0:0:0:
184,49,61093,1,0,0:0:0:0:
202,48,61176,1,2,0:0:0:0:
219,47,61259,1,0,0:0:0:0:
243,32,61343,5,4,0:0:0:0:
260,31,61426,1,0,0:0:0:0:
278,30,61509,1,2,0:0:0:0:
295,29,61593,1,0,0:0:0:0:
313,29,61676,1,0,0:0:0:0:
330,28,61759,1,0,0:0:0:0:
348,27,61843,2,0,L|373:25,2,17.6,2|0|0,0:0|0:0|0:0,0:0:0:0:
345,90,62010,5,4,0:0:0:0:
331,103,62093,1,0,0:0:0:0:
320,120,62176,1,2,0:0:0:0:
315,139,62260,1,0,0:0:0:0:
315,158,62343,1,0,0:0:0:0:
320,178,62426,1,0,0:0:0:0:
329,195,62510,1,2,0:0:0:0:
342,210,62593,1,0,0:0:0:0:
369,221,62676,5,4,0:0:0:0:
363,239,62759,1,0,0:0:0:0:
357,258,62842,1,2,0:0:0:0:
364,277,62926,1,0,0:0:0:0:
372,295,63009,1,0,0:0:0:0:
368,314,63092,1,0,0:0:0:0:
363,333,63176,2,0,L|356:370,2,19.799999395752,2|0|0,0:0|0:0|0:0,0:0:0:0:
300,303,63343,5,4,0:0:0:0:
278,300,63426,1,0,0:0:0:0:
256,298,63510,2,0,L|222:296,2,22,2|0|0,0:0|0:0|0:0,0:0:0:0:
172,320,63676,5,4,0:0:0:0:
150,317,63759,1,0,0:0:0:0:
128,315,63843,2,0,L|94:313,2,22,2|0|0,0:0|0:0|0:0,0:0:0:0:
44,352,64010,5,4,0:0:0:0:
39,321,64093,1,0,0:0:0:0:
35,291,64176,1,2,0:0:0:0:
30,260,64260,1,0,0:0:0:0:
26,230,64343,2,0,L|21:193,2,22,4|0|0,0:0|0:0|0:0,0:0:0:0:
56,144,64510,2,0,L|50:106,2,22,2|0|0,0:0|0:0|0:0,0:0:0:0:
0,76,64676,5,0,0:0:0:0:
132,164,64843,1,0,0:0:0:0:
157,169,64926,1,0,0:0:0:0:
183,164,65009,1,0,0:0:0:0:
205,149,65093,1,0,0:0:0:0:
219,127,65176,1,0,0:0:0:0:
223,101,65259,1,0,0:0:0:0:
218,76,65343,6,0,P|248:24|292:48,1,105.599996777344,4|0,0:2|0:0,0:0:0:0:
336,100,65593,2,0,B|364:128|364:128|456:120,1,123.199996240234,4|0,0:2|0:0,0:0:0:0:
448,121,65843,1,4,0:2:0:0:
344,260,66010,5,4,0:0:0:0:
319,262,66093,1,0,0:0:0:0:
295,264,66176,1,2,0:0:0:0:
277,279,66259,1,0,0:0:0:0:
258,295,66343,1,8,0:0:0:0:
234,296,66426,1,0,0:0:0:0:
210,298,66509,1,2,0:0:0:0:
186,300,66593,1,0,0:0:0:0:
162,301,66676,1,0,0:0:0:0:
112,220,66843,1,2,0:0:0:0:
112,220,66926,1,0,0:0:0:0:
112,220,67010,2,0,L|210:214,1,96.8000029541017,8|2,0:0|0:0,0:0:0:0:
329,130,67343,5,0,0:0:0:0:
308,142,67426,1,0,0:0:0:0:
288,155,67509,1,2,0:0:0:0:
278,133,67592,1,0,0:0:0:0:
268,112,67676,1,8,0:0:0:0:
248,125,67759,1,0,0:0:0:0:
228,139,67842,1,2,0:0:0:0:
218,117,67926,1,0,0:0:0:0:
208,95,68009,1,0,0:0:0:0:
176,16,68176,1,2,0:0:0:0:
176,16,68260,1,0,0:0:0:0:
176,16,68343,2,0,P|116:8|88:32,1,96.8000029541017,8|2,0:0|0:0,0:0:0:0:
85,52,68593,5,0,0:0:0:0:
92,74,68676,1,0,0:0:0:0:
110,90,68759,1,0,0:0:0:0:
133,93,68842,1,2,0:0:0:0:
155,84,68926,1,0,0:0:0:0:
178,77,69009,1,8,0:0:0:0:
200,87,69092,1,0,0:0:0:0:
211,108,69175,1,2,0:0:0:0:
207,131,69259,1,0,0:0:0:0:
189,147,69343,2,0,P|176:196|212:232,1,96.8000029541017,0|2,0:0|0:0,0:0:0:0:
220,300,69593,1,0,0:0:0:0:
220,300,69676,2,0,L|316:296,1,96.8000029541017,8|2,0:0|0:0,0:0:0:0:
416,335,70010,5,0,0:0:0:0:
436,322,70093,1,0,0:0:0:0:
456,309,70176,1,2,0:0:0:0:
476,296,70259,1,0,0:0:0:0:
497,284,70343,1,8,0:0:0:0:
432,224,70509,1,2,0:0:0:0:
488,152,70676,1,0,0:0:0:0:
488,152,70760,1,0,0:0:0:0:
488,152,70843,1,2,0:0:0:0:
488,152,70926,1,2,0:0:0:0:
488,152,71010,2,0,L|500:56,1,96.8000029541017,8|2,0:0|0:0,0:0:0:0:
372,96,71343,5,0,0:0:0:0:
351,108,71426,1,0,0:0:0:0:
331,122,71509,1,2,0:0:0:0:
309,116,71592,1,0,0:0:0:0:
286,109,71676,1,8,0:0:0:0:
262,101,71759,1,0,0:0:0:0:
240,94,71842,1,2,0:0:0:0:
260,81,71926,1,0,0:0:0:0:
279,67,72009,1,0,0:0:0:0:
160,164,72176,1,2,0:0:0:0:
160,164,72260,1,0,0:0:0:0:
160,164,72343,1,8,0:0:0:0:
228,220,72510,1,2,0:0:0:0:
146,248,72676,5,0,0:0:0:0:
128,263,72759,1,0,0:0:0:0:
120,286,72842,1,2,0:0:0:0:
124,310,72925,1,0,0:0:0:0:
139,328,73010,1,8,0:0:0:0:
161,338,73092,1,0,0:0:0:0:
184,335,73175,1,2,0:0:0:0:
204,321,73259,1,0,0:0:0:0:
215,300,73343,2,0,B|256:328|256:328|304:316|304:316|348:352,1,145.200004431152,0|2,0:0|0:0,0:0:0:0:
404,312,73676,2,0,L|318:244,1,96.8000029541017,8|2,0:0|0:0,0:0:0:0:
308,237,73926,5,0,0:0:0:0:
289,221,74009,1,0,0:0:0:0:
308,211,74093,1,0,0:0:0:0:
330,202,74175,1,2,0:0:0:0:
353,193,74259,1,0,0:0:0:0:
375,184,74342,1,8,0:0:0:0:
357,168,74425,1,0,0:0:0:0:
339,152,74509,1,2,0:0:0:0:
321,136,74592,1,0,0:0:0:0:
303,120,74675,1,0,0:0:0:0:
415,104,74843,1,2,0:0:0:0:
433,120,74926,1,0,0:0:0:0:
452,136,75009,1,8,0:0:0:0:
452,245,75176,5,2,0:0:0:0:
430,254,75260,1,0,0:0:0:0:
408,264,75343,2,0,L|404:324,2,48.4000014770508,0|0|10,0:0|0:0|0:0,0:0:0:0:
330,202,75676,1,8,0:0:0:0:
248,256,75843,1,2,0:0:0:0:
184,180,76010,1,2,0:0:0:0:
168,161,76093,1,0,0:0:0:0:
152,143,76176,1,0,0:0:0:0:
136,124,76259,1,2,0:0:0:0:
121,106,76343,1,8,0:0:0:0:
110,127,76426,1,0,0:0:0:0:
97,147,76510,1,2,0:0:0:0:
82,127,76593,1,0,0:0:0:0:
68,109,76676,5,4,0:0:0:0:
57,128,76759,1,0,0:0:0:0:
45,149,76842,1,2,0:0:0:0:
34,171,76925,1,0,0:0:0:0:
23,193,77009,1,8,0:0:0:0:
38,215,77092,1,0,0:0:0:0:
52,234,77175,1,2,0:0:0:0:
44,256,77259,1,0,0:0:0:0:
36,278,77342,1,0,0:0:0:0:
84,356,77510,1,2,0:0:0:0:
84,356,77593,1,0,0:0:0:0:
84,356,77676,2,0,P|132:332|180:344,1,96.8000029541017,8|2,0:0|0:0,0:0:0:0:
276,372,78010,5,0,0:0:0:0:
273,347,78093,1,0,0:0:0:0:
271,323,78176,1,2,0:0:0:0:
269,299,78259,1,0,0:0:0:0:
268,275,78343,1,8,0:0:0:0:
284,257,78426,1,0,0:0:0:0:
299,239,78509,1,2,0:0:0:0:
298,215,78593,1,0,0:0:0:0:
296,191,78676,2,0,B|292:132|292:132|316:100,1,96.8000029541017,0|2,0:0|0:0,0:0:0:0:
364,40,78926,1,0,0:0:0:0:
364,40,79010,2,0,B|332:24|332:24|260:44,1,96.8000029541017,8|2,0:0|0:0,0:0:0:0:
250,48,79260,5,0,0:0:0:0:
227,56,79343,1,0,0:0:0:0:
204,64,79426,1,0,0:0:0:0:
181,72,79509,1,2,0:0:0:0:
158,80,79593,1,0,0:0:0:0:
135,88,79676,1,8,0:0:0:0:
128,111,79759,1,0,0:0:0:0:
120,134,79843,1,2,0:0:0:0:
141,129,79926,1,0,0:0:0:0:
164,121,80010,2,0,B|176:152|176:152|140:236,1,96.8000029541017,0|2,0:0|0:0,0:0:0:0:
130,276,80260,2,0,B|166:304|166:304|222:280,1,96.8000029541017,2|0,0:0|0:0,0:0:0:0:
213,283,80510,1,2,0:0:0:0:
272,188,80676,5,0,0:0:0:0:
281,210,80760,1,0,0:0:0:0:
290,232,80842,1,2,0:0:0:0:
300,254,80925,1,0,0:0:0:0:
309,277,81009,1,8,0:0:0:0:
352,364,81176,1,2,0:0:0:0:
405,283,81343,1,0,0:0:0:0:
421,265,81426,1,0,0:0:0:0:
444,257,81509,1,2,0:0:0:0:
468,256,81592,1,0,0:0:0:0:
490,265,81676,1,8,0:0:0:0:
440,120,81843,1,8,0:0:0:0:
324,176,82010,5,4,0:0:0:0:
302,186,82093,1,0,0:0:0:0:
280,197,82176,1,2,0:0:0:0:
259,208,82259,1,0,0:0:0:0:
237,219,82343,1,8,0:0:0:0:
214,214,82426,1,0,0:0:0:0:
190,208,82509,1,2,0:0:0:0:
181,228,82593,1,0,0:0:0:0:
173,251,82676,2,0,L|80:296,1,96.8000029541017,0|2,0:0|0:0,0:0:0:0:
39,114,83010,5,8,0:0:0:0:
31,193,83176,1,10,0:0:0:0:
104,160,83343,5,4,0:0:0:0:
125,149,83426,1,0,0:0:0:0:
146,139,83509,1,2,0:0:0:0:
168,128,83592,1,0,0:0:0:0:
190,117,83676,1,8,0:0:0:0:
210,128,83759,1,0,0:0:0:0:
230,140,83842,1,2,0:0:0:0:
252,129,83926,1,0,0:0:0:0:
274,118,84010,2,0,L|366:69,1,96.8000029541017,0|2,0:0|0:0,0:0:0:0:
313,256,84343,5,8,0:0:0:0:
387,214,84510,1,10,0:0:0:0:
388,299,84676,5,4,0:0:0:0:
388,299,84843,1,2,0:0:0:0:
244,320,85010,1,8,0:0:0:0:
244,320,85176,1,2,0:0:0:0:
208,216,85343,1,4,0:0:0:0:
200,192,85426,1,0,0:0:0:0:
193,169,85509,1,2,0:0:0:0:
186,146,85592,1,0,0:0:0:0:
178,123,85676,1,8,0:0:0:0:
171,100,85759,1,0,0:0:0:0:
164,77,85843,1,2,0:0:0:0:
157,54,85926,1,0,0:0:0:0:
149,31,86010,6,0,P|96:12|100:84,1,145.200004431152,8|0,0:3|0:0,0:0:0:0:
92,152,86343,2,0,L|72:204,2,48.4000014770508,2|0|2,0:0|0:0|0:0,0:0:0:0:
204,103,86676,6,0,B|240:86|240:86|271:166,1,114.399994763184,2|0,0:0|0:0,0:0:0:0:
263,230,86926,2,0,B|212:254|212:254|192:200,1,114.399994763184,2|0,0:0|0:0,0:0:0:0:
328,196,87176,2,0,L|350:259,1,57.1999973815919,2|0,0:0|0:0,0:0:0:0:
374,321,87343,5,4,0:0:0:0:
440,252,87510,1,2,0:0:0:0:
472,344,87676,1,8,0:0:0:0:
472,344,87760,1,0,0:0:0:0:
472,344,87843,1,2,0:0:0:0:
284,300,88010,2,0,B|216:288|216:288|184:300,1,96.8000029541017,0|2,0:0|0:0,0:0:0:0:
168,306,88260,1,0,0:0:0:0:
145,313,88343,1,8,0:0:0:0:
72,252,88510,1,2,0:0:0:0:
144,184,88676,5,0,0:0:0:0:
144,184,88760,1,0,0:0:0:0:
144,184,88843,1,2,0:0:0:0:
88,104,89010,1,8,0:0:0:0:
88,104,89093,1,0,0:0:0:0:
88,104,89176,1,2,0:0:0:0:
164,44,89343,1,0,0:0:0:0:
220,124,89510,1,2,0:0:0:0:
220,124,89593,1,0,0:0:0:0:
220,124,89676,1,8,0:0:0:0:
164,44,89843,1,2,0:0:0:0:
144,184,90010,6,0,L|138:240,2,48.4000014770508,0|0|2,0:0|0:0|0:0,0:0:0:0:
224,240,90343,1,8,0:0:0:0:
168,320,90510,1,2,0:0:0:0:
264,324,90676,2,0,P|316:348|336:380,1,96.8000029541017,0|2,0:0|0:0,0:0:0:0:
396,344,90926,1,0,0:0:0:0:
396,344,91010,2,0,B|388:280|388:280|404:248,1,96.8000029541017,8|2,0:0|0:0,0:0:0:0:
472,148,91343,5,0,0:0:0:0:
472,148,91426,1,0,0:0:0:0:
472,148,91510,1,2,0:0:0:0:
316,160,91676,2,0,B|324:224|324:224|308:256,1,96.8000029541017,8|2,0:0|0:0,0:0:0:0:
132,248,92010,1,0,0:0:0:0:
205,186,92176,1,10,0:0:0:0:
87,127,92343,5,8,0:0:0:0:
87,127,92426,1,0,0:0:0:0:
87,127,92510,1,2,0:0:0:0:
164,332,92676,5,4,0:0:0:0:
240,272,92843,1,2,0:0:0:0:
320,328,93010,1,8,0:0:0:0:
320,328,93093,1,0,0:0:0:0:
320,328,93176,1,2,0:0:0:0:
378,250,93343,2,0,L|478:242,1,96.8000029541017,0|2,0:0|0:0,0:0:0:0:
474,242,93593,1,0,0:0:0:0:
474,242,93676,1,8,0:0:0:0:
424,160,93843,1,2,0:0:0:0:
468,72,94010,5,0,0:0:0:0:
468,72,94093,1,0,0:0:0:0:
468,72,94176,1,2,0:0:0:0:
372,80,94343,1,8,0:0:0:0:
372,80,94426,1,0,0:0:0:0:
372,80,94509,1,2,0:0:0:0:
276,84,94676,2,0,B|260:144|260:144|280:184,1,96.8000029541017,0|2,0:0|0:0,0:0:0:0:
335,229,94926,1,0,0:0:0:0:
335,229,95010,2,0,B|351:169|351:169|331:129,1,96.8000029541017,8|2,0:0|0:0,0:0:0:0:
256,276,95343,6,0,L|148:280,1,96.8000029541017,0|2,0:0|0:0,0:0:0:0:
328,332,95676,1,8,0:0:0:0:
328,332,95760,1,0,0:0:0:0:
328,332,95843,1,2,0:0:0:0:
368,248,96010,1,0,0:0:0:0:
420,324,96176,1,2,0:0:0:0:
435,342,96259,1,0,0:0:0:0:
450,361,96342,1,8,0:0:0:0:
492,272,96510,1,2,0:0:0:0:
444,188,96676,5,0,0:0:0:0:
444,188,96760,1,0,0:0:0:0:
444,188,96843,1,2,0:0:0:0:
368,248,97010,1,8,0:0:0:0:
328,164,97176,1,2,0:0:0:0:
260,236,97343,2,0,P|208:244|168:212,1,96.8000029541017
136,132,97676,5,4,0:3:0:0:
136,132,97843,1,4,0:3:0:0:
136,132,98010,5,4,0:0:0:0:
188,52,98176,1,2,0:0:0:0:
236,136,98343,1,8,0:0:0:0:
236,136,98426,1,0,0:0:0:0:
236,136,98510,1,2,0:0:0:0:
288,56,98676,2,0,P|336:48|380:80,1,96.8000029541017,0|2,0:0|0:0,0:0:0:0:
391,102,98926,1,0,0:0:0:0:
411,130,99010,2,0,P|451:154|498:146,1,96.8000029541017,8|2,0:0|0:0,0:0:0:0:
344,188,99343,5,0,0:0:0:0:
344,188,99426,1,0,0:0:0:0:
344,188,99510,1,2,0:0:0:0:
380,276,99676,1,8,0:0:0:0:
380,276,99759,1,0,0:0:0:0:
380,276,99843,1,2,0:0:0:0:
304,336,100010,1,0,0:0:0:0:
228,280,100176,1,2,0:0:0:0:
228,280,100260,1,0,0:0:0:0:
228,280,100343,1,8,0:0:0:0:
136,312,100510,1,2,0:0:0:0:
44,340,100676,5,4,0:0:0:0:
56,244,100843,1,2,0:0:0:0:
68,148,101010,1,8,0:0:0:0:
68,148,101093,1,0,0:0:0:0:
68,148,101176,1,2,0:0:0:0:
148,204,101343,1,0,0:0:0:0:
160,108,101510,1,2,0:0:0:0:
160,108,101593,1,0,0:0:0:0:
160,108,101676,1,8,0:0:0:0:
240,164,101843,1,2,0:0:0:0:
260,68,102010,5,0,0:0:0:0:
260,68,102093,1,0,0:0:0:0:
260,68,102176,1,2,0:0:0:0:
357,87,102343,2,0,L|399:94,2,35.2,6|0|8,0:0|0:0|0:0,0:0:0:0:
320,160,102676,6,0,B|316:188|316:188|336:224,1,52.7999983886719
432,244,103010,6,0,B|436:216|436:216|416:180,2,44
416,340,103343,5,4,0:0:0:0:
416,340,103426,1,0,0:0:0:0:
416,340,103510,1,2,0:0:0:0:
324,316,103676,1,8,0:0:0:0:
324,316,103759,1,0,0:0:0:0:
324,316,103843,1,2,0:0:0:0:
236,356,104010,2,0,P|184:364|144:340,1,96.8000029541017,0|2,0:0|0:0,0:0:0:0:
147,343,104260,1,0,0:0:0:0:
147,343,104343,1,8,0:0:0:0:
132,248,104510,1,10,0:0:0:0:
36,268,104676,5,4,0:0:0:0:
12,172,104843,1,2,0:0:0:0:
108,152,105010,1,8,0:0:0:0:
108,152,105093,1,0,0:0:0:0:
108,152,105176,1,2,0:0:0:0:
84,60,105343,5,8,0:0:0:0:
216,120,105510,1,8,0:0:0:0:
238,129,105593,1,8,0:0:0:0:
260,138,105676,1,8,0:0:0:0:
84,60,105843,1,8,0:0:0:0:
56,152,106010,6,0,L|37:209,1,48.4000014770508
16,264,106176,1,0,0:0:0:0:
128,224,106343,2,0,L|109:281,1,48.4000014770508,8|0,0:0|0:0,0:0:0:0:
88,336,106509,1,0,0:0:0:0:
184,312,106676,5,0,0:0:0:0:
207,307,106759,1,0,0:0:0:0:
232,302,106842,1,2,0:0:0:0:
255,297,106925,1,0,0:0:0:0:
278,292,107009,1,8,0:0:0:0:
295,276,107092,1,0,0:0:0:0:
313,261,107175,1,2,0:0:0:0:
301,241,107259,1,0,0:0:0:0:
287,222,107343,2,0,L|254:229,2,24.2000007385254
288,360,107510,6,0,L|388:340,1,96.8000029541017,12|0,0:0|0:0,0:0:0:0:
473,279,107760,2,0,B|461:347|461:347|481:375,1,96.8000029541017,8|0,0:0|0:0,0:0:0:0:
400,260,108010,2,0,B|412:192|412:192|392:164,1,96.8000029541017,8|0,0:0|0:0,0:0:0:0:
498,122,108260,2,0,B|486:190|486:190|506:218,1,96.8000029541017,8|0,0:0|0:0,0:0:0:0:
430,99,108510,2,0,L|440:44,1,48.4000014770508
368,24,108676,5,4,0:0:0:0:
300,80,108843,1,2,0:0:0:0:
228,28,109010,2,0,P|184:24|140:56,1,88,8|2,0:0|0:0,0:0:0:0:
108,124,109343,1,0,0:0:0:0:
108,124,109426,1,0,0:0:0:0:
108,124,109510,1,2,0:0:0:0:
144,204,109676,1,8,0:0:0:0:
96,276,109843,5,2,0:0:0:0:
96,276,109926,1,0,0:0:0:0:
96,276,110010,1,0,0:0:0:0:
180,296,110176,1,2,0:0:0:0:
120,360,110343,2,0,L|32:348,1,88,8|2,0:0|0:0,0:0:0:0:
180,296,110676,1,0,0:0:0:0:
212,380,110843,1,2,0:0:0:0:
272,312,111010,2,0,L|360:324,1,88,8|2,0:0|0:0,0:0:0:0:
419,174,111343,5,0,0:0:0:0:
431,262,111510,1,2,0:0:0:0:
347,230,111676,1,8,0:0:0:0:
335,142,111843,1,2,0:0:0:0:
216,72,112010,1,0,0:0:0:0:
216,72,112093,1,0,0:0:0:0:
216,72,112176,1,2,0:0:0:0:
144,124,112343,1,8,0:0:0:0:
176,208,112510,1,2,0:0:0:0:
108,264,112676,5,0,0:0:0:0:
140,348,112843,1,2,0:0:0:0:
228,340,113010,2,0,L|320:332,1,88,8|2,0:0|0:0,0:0:0:0:
476,220,113343,2,0,B|432:224|432:224|389:192,1,88,0|2,0:0|0:0,0:0:0:0:
287,238,113676,2,0,B|252:212|252:212|208:216,1,88,8|2,0:0|0:0,0:0:0:0:
96,296,114010,5,0,0:0:0:0:
96,296,114093,1,0,0:0:0:0:
96,296,114176,1,2,0:0:0:0:
76,208,114343,1,8,0:0:0:0:
8,264,114510,1,2,0:0:0:0:
80,120,114676,1,0,0:0:0:0:
12,176,114843,1,2,0:0:0:0:
84,32,115010,1,8,0:0:0:0:
16,88,115177,5,2,0:0:0:0:
16,88,115260,1,0,0:0:0:0:
16,88,115343,2,0,L|67:177,1,88,0|2,0:0|0:0,0:0:0:0:
108,248,115676,2,0,L|152:171,1,88,8|2,0:0|0:0,0:0:0:0:
195,94,116010,1,0,0:0:0:0:
272,136,116177,1,2,0:0:0:0:
316,60,116343,1,8,0:0:0:0:
396,100,116511,1,2,0:0:0:0:
356,180,116676,5,0,0:0:0:0:
356,180,116760,1,0,0:0:0:0:
356,180,116844,1,2,0:0:0:0:
316,60,117010,1,8,0:0:0:0:
272,136,117177,1,2,0:0:0:0:
396,100,117343,1,0,0:0:0:0:
416,93,117426,1,0,0:0:0:0:
437,86,117510,1,2,0:0:0:0:
484,164,117676,1,8,0:0:0:0:
440,240,117843,5,2,0:0:0:0:
446,259,117926,1,0,0:0:0:0:
453,280,118009,1,0,0:0:0:0:
480,364,118176,1,2,0:0:0:0:
392,348,118343,2,0,P|340:344|308:364,1,88,8|2,0:0|0:0,0:0:0:0:
164,304,118676,2,0,P|216:308|248:288,1,88,0|2,0:0|0:0,0:0:0:0:
256,272,118926,1,0,0:0:0:0:
261,250,119010,1,8,0:0:0:0:
228,168,119176,1,2,0:0:0:0:
192,88,119343,6,0,B|181:51|181:51|200:0,1,88,0|2,0:0|0:0,0:0:0:0:
296,136,119676,2,0,B|307:173|307:173|288:224,1,88,8|2,0:0|0:0,0:0:0:0:
264,304,120010,1,0,0:0:0:0:
264,304,120093,1,0,0:0:0:0:
264,304,120176,1,2,0:0:0:0:
344,344,120343,1,8,0:0:0:0:
400,276,120510,1,2,0:0:0:0:
352,204,120676,5,0,0:0:0:0:
352,204,120759,1,0,0:0:0:0:
352,204,120842,1,2,0:0:0:0:
296,136,121010,1,8,0:0:0:0:
320,52,121176,1,2,0:0:0:0:
204,152,121343,5,0,0:0:0:0:
204,152,121426,1,0,0:0:0:0:
204,152,121509,1,2,0:0:0:0:
260,220,121677,1,8,0:0:0:0:
236,304,121843,1,10,0:0:0:0:
152,336,122010,6,0,B|116:344|116:344|60:328,1,88,0|2,0:0|0:0,0:0:0:0:
60,244,122343,1,8,0:0:0:0:
64,224,122426,1,0,0:0:0:0:
68,204,122510,1,2,0:0:0:0:
152,148,122676,1,0,0:0:0:0:
156,168,122760,1,0,0:0:0:0:
160,188,122843,1,2,0:0:0:0:
248,132,123010,1,8,0:0:0:0:
252,112,123093,1,0,0:0:0:0:
256,92,123177,1,2,0:0:0:0:
357,125,123343,6,0,L|402:141,2,44,0|0|2,0:0|0:0|0:0,0:0:0:0:
316,204,123676,1,8,0:0:0:0:
372,272,123843,1,2,0:0:0:0:
296,328,124010,6,0,P|236:340|196:296,1,114.399994763184,4|0,0:0|0:0,0:0:0:0:
112,267,124260,2,0,P|117:323|80:364,1,114.399994763184,4|0,0:0|0:0,0:0:0:0:
189,229,124510,2,0,L|185:172,1,57.1999973815919
296,328,124676,5,2,0:0:0:0:
296,328,124843,1,2,0:0:0:0:
328,244,125010,1,2,0:0:0:0:
328,244,125176,1,2,0:0:0:0:
266,184,125343,1,2,0:0:0:0:
305,103,125510,1,2,0:0:0:0:
392,118,125676,1,2,0:0:0:0:
406,205,125843,5,2,0:0:0:0:
406,205,125926,1,0,0:0:0:0:
406,205,126010,1,4,0:0:0:0:
328,244,126176,1,2,0:0:0:0:
364,324,126343,1,2,0:0:0:0:
442,285,126509,1,2,0:0:0:0:
248,304,126676,5,2,0:0:0:0:
248,304,126843,1,2,0:0:0:0:
196,196,127010,1,2,0:0:0:0:
124,296,127176,5,2,0:0:0:0:
124,296,127260,1,0,0:0:0:0:
124,296,127343,1,2,0:0:0:0:
102,294,127426,1,0,0:0:0:0:
80,292,127509,1,2,0:0:0:0:
58,290,127592,1,0,0:0:0:0:
37,288,127676,1,2,0:0:0:0:
49,270,127759,1,0,0:0:0:0:
62,252,127843,2,0,L|76:220,2,22
144,212,128010,6,0,B|168:158|168:158|152:116,1,88,4|0,0:0|0:0,0:0:0:0:
66,70,128260,2,0,B|57:96|57:96|80:152,1,88,4|0,0:0|0:0,0:0:0:0:
20,228,128510,2,0,L|64:234,1,44,2|0,0:0|0:0,0:0:0:0:
212,248,128676,5,2,0:0:0:0:
136,296,128843,1,2,0:0:0:0:
212,336,129010,2,0,L|264:332,1,44,2|0,0:0|0:0,0:0:0:0:
308,296,129176,2,0,L|360:292,1,44,2|0,0:0|0:0,0:0:0:0:
404,256,129343,2,0,L|440:253,6,22
329,198,129676,1,2,0:0:0:0:
329,198,129760,1,0,0:0:0:0:
329,198,129843,2,0,L|290:201,2,22
361,136,130010,6,0,B|365:106|349:87|315:77|289:96|289:96|280:44|280:44|237:77|237:77|240:37|205:14|154:13|125:55|129:95|159:122|185:126,1,422.399987109375
179,124,134676,1,2,0:0:0:0:
179,124,135343,6,0,B|128:108|128:108|140:160|140:160|103:153|74:181|64:212|75:242|97:267|126:273|158:264|172:250|172:250|188:266|183:296|183:296|179:322|199:348,1,422.399987109375,2|0,0:0|0:0,0:0:0:0:
276,356,138176,5,0,0:0:0:0:
276,356,138343,2,0,L|279:298,1,52.7999983886719,2|0,0:0|0:0,0:0:0:0:
376,336,138676,1,0,0:0:0:0:
376,336,138843,2,0,L|349:284,2,52.7999983886719,0|2|0,0:0|0:0|0:0,0:0:0:0:
453,268,139343,5,2,0:0:0:0:
453,268,139510,2,0,L|404:236,2,52.7999983886719
485,171,140010,2,0,L|427:168,1,52.7999983886719,2|0,0:0|0:0,0:0:0:0:
468,72,140343,2,0,L|416:98,1,52.7999983886719,2|0,0:0|0:0,0:0:0:0:
348,128,140676,6,0,B|320:133|294:117|285:81|300:55|300:55|244:78|199:48,2,211.199993554688,4|2|0,0:0|0:0|0:0,0:0:0:0:
436,148,143510,5,0,0:0:0:0:
436,148,143676,2,0,P|442:173|434:211,1,52.7999983886719,2|0,0:0|0:0,0:0:0:0:
436,272,144010,2,0,P|456:288|482:294,3,52.7999983886719,0|0|2|0,0:0|0:0|0:0|0:0,0:0:0:0:
360,228,144676,6,0,P|335:237|317:256,3,52.7999983886719,0|0|2|0,0:0|0:0|0:0|0:0,0:0:0:0:
248,296,145343,2,0,P|222:289|201:273,3,52.7999983886719,0|0|2|0,0:0|0:0|0:0|0:0,0:0:0:0:
123,300,146010,6,0,L|120:248,3,52.7999983886719,0|0|2|0,0:0|0:0|0:0|0:0,0:0:0:0:
80,188,146676,2,0,L|76:135,3,52.7999983886719,0|0|2|0,0:0|0:0|0:0|0:0,0:0:0:0:
100,64,147343,5,0,0:0:0:0:
100,64,147510,1,0,0:0:0:0:
100,64,147676,2,0,L|152:96,1,52.7999983886719,2|0,0:0|0:0,0:0:0:0:
184,212,148010,1,0,0:0:0:0:
184,212,148177,1,0,0:0:0:0:
184,212,148343,2,0,L|185:150,1,52.7999983886719,2|0,0:0|0:0,0:0:0:0:
224,96,148676,5,0,0:0:0:0:
256,192,148760,12,0,151010,0:0:0:0:
460,100,151343,6,0,P|384:116|340:68,1,140.8,4|8,0:1|0:0,0:0:0:0:
328,4,152343,1,0,1:0:0:0:
212,128,153010,1,0,1:0:0:0:
196,52,153343,1,8,0:0:0:0:
144,112,153676,5,2,0:0:0:0:
144,112,153843,1,2,0:0:0:0:
144,112,154010,2,0,L|92:116,1,44,0|0,1:0|0:0,0:0:0:0:
48,172,154343,2,0,L|-4:176,1,44,2|0,0:0|0:0,0:0:0:0:
184,184,154676,2,0,L|132:188,1,44,8|0,0:0|0:0,0:0:0:0:
88,244,155009,2,0,L|36:248,1,44,2|0,1:2|0:0,0:0:0:0:
224,260,155343,2,0,L|172:264,1,44,0|2,0:0|0:0,0:0:0:0:
128,320,155676,2,0,L|76:324,1,44,2|0,1:2|0:0,0:0:0:0:
196,356,156010,5,8,0:0:0:0:
240,336,156176,1,0,0:0:0:0:
288,348,156343,1,2,1:2:0:0:
332,328,156509,1,0,0:0:0:0:
376,344,156676,6,0,L|428:348,1,44,0|0,1:0|0:0,0:0:0:0:
440,272,157010,2,0,L|396:268,1,44,2|0,0:0|0:0,0:0:0:0:
275,261,157343,2,0,L|327:265,1,44,8|0,0:0|0:0,0:0:0:0:
339,189,157677,2,0,L|295:185,1,44,2|0,1:2|0:0,0:0:0:0:
170,176,158010,5,0,0:0:0:0:
170,176,158176,1,0,0:0:0:0:
170,176,158343,2,0,L|222:180,1,44,2|0,1:2|0:0,0:0:0:0:
234,104,158676,1,8,0:0:0:0:
234,104,158843,1,0,0:0:0:0:
234,104,159010,2,0,L|190:100,1,44,2|0,1:2|0:0,0:0:0:0:
60,106,159343,5,0,1:0:0:0:
32,140,159509,1,0,0:0:0:0:
55,177,159675,1,2,0:0:0:0:
98,166,159842,1,0,0:0:0:0:
101,122,160010,1,8,0:0:0:0:
147,107,160176,1,0,0:0:0:0:
177,146,160343,1,2,1:2:0:0:
148,184,160510,1,0,0:0:0:0:
101,170,160676,5,2,0:0:0:0:
67,210,160842,1,2,0:0:0:0:
95,255,161010,1,2,1:2:0:0:
146,242,161176,1,0,0:0:0:0:
150,189,161343,5,8,0:0:0:0:
206,174,161510,1,2,0:0:0:0:
236,222,161676,1,2,0:0:0:0:
199,265,161844,1,8,0:0:0:0:
146,244,162010,6,0,P|116:236|85:244,1,52.7999983886719,0|0,1:0|0:0,0:0:0:0:
36,278,162343,2,0,P|16:295|6:319,1,52.7999983886719,2|0,0:0|0:0,0:0:0:0:
96,368,162676,2,0,L|164:364,1,52.7999983886719,8|0,0:0|0:0,0:0:0:0:
224,340,163010,2,0,L|292:336,1,52.7999983886719,2|0,1:2|0:0,0:0:0:0:
401,258,163343,6,0,B|409:274|409:274|405:322,1,52.7999983886719,0|2,0:0|0:0,0:0:0:0:
321,262,163676,2,0,B|313:246|313:246|317:198,1,52.7999983886719,2|2,1:2|0:0,0:0:0:0:
393,182,164010,2,0,L|451:184,1,52.7999983886719,8|0,0:0|0:0,0:0:0:0:
329,338,164343,2,0,L|276:336,1,52.7999983886719,2|2,0:0|0:0,0:0:0:0:
128,340,164676,5,0,1:0:0:0:
128,340,164843,1,2,0:0:0:0:
128,340,165010,2,0,P|116:300|120:284,1,52.7999983886719,2|0,0:0|0:0,0:0:0:0:
148,228,165343,2,0,B|164:196|164:196|148:120,1,105.599996777344,8|2,0:0|1:2,0:0:0:0:
136,60,165843,1,8,0:0:0:0:
204,72,166010,6,0,L|284:84,1,52.7999983886719,2|2,0:0|0:0,0:0:0:0:
328,96,166343,1,2,1:2:0:0:
328,96,166510,1,2,0:0:0:0:
289,160,166676,1,8,0:0:0:0:
256,79,166843,1,2,0:0:0:0:
321,23,167010,1,2,1:2:0:0:
395,67,167176,1,2,0:0:0:0:
375,151,167343,6,0,B|368:176|368:176|380:232,1,61.5999981201172,2|0,1:2|0:0,0:0:0:0:
392,288,167676,1,2,1:2:0:0:
316,264,167843,1,0,0:0:0:0:
296,340,168010,1,8,0:0:0:0:
220,320,168176,1,2,0:0:0:0:
240,244,168343,1,0,1:0:0:0:
316,264,168509,5,2,0:0:0:0:
316,264,168593,1,2,0:0:0:0:
316,264,168676,1,0,1:0:0:0:
296,184,168843,1,2,3:2:0:0:
316,264,169010,1,0,1:0:0:0:
296,184,169177,1,2,3:2:0:0:
240,244,169343,2,0,B|221:249|221:249|168:244,1,61.5999981201172,8|2,1:2|0:0,0:0:0:0:
161,243,169593,1,2,0:0:0:0:
142,241,169676,1,2,1:2:0:0:
72,320,169843,5,2,0:0:0:0:
90,316,169926,1,0,0:0:0:0:
108,313,170009,1,0,1:0:0:0:
68,244,170176,1,2,3:2:0:0:
116,180,170343,1,0,1:0:0:0:
96,104,170510,1,2,3:2:0:0:
176,108,170676,1,0,1:0:0:0:
212,36,170843,1,2,3:2:0:0:
280,80,171010,1,0,1:0:0:0:
348,40,171176,1,2,3:2:0:0:
364,120,171343,5,2,1:2:0:0:
428,68,171510,1,2,1:2:0:0:
364,120,171677,1,0,1:0:0:0:
348,40,171843,1,2,3:2:0:0:
288,92,172010,5,2,1:2:0:0:
288,92,172176,1,2,1:2:0:0:
288,92,172343,1,2,1:2:0:0:
428,68,172510,5,0,0:0:0:0:
428,68,172593,1,0,0:0:0:0:
428,68,172676,1,4,0:0:0:0:
442,146,172843,1,0,0:0:0:0:
464,228,173010,1,2,0:0:0:0:
464,228,173093,1,0,0:0:0:0:
464,228,173176,1,0,0:0:0:0:
372,216,173343,1,0,0:0:0:0:
372,216,173426,1,0,0:0:0:0:
372,216,173509,1,0,0:0:0:0:
280,204,173676,1,2,0:0:0:0:
280,204,173759,1,0,0:0:0:0:
280,204,173842,1,0,0:0:0:0:
290,296,174010,5,0,0:0:0:0:
290,296,174093,1,0,0:0:0:0:
290,296,174176,1,0,0:0:0:0:
380,286,174343,1,2,0:0:0:0:
380,286,174426,1,0,0:0:0:0:
380,286,174509,1,0,0:0:0:0:
370,194,174677,1,0,0:0:0:0:
370,194,174760,1,0,0:0:0:0:
370,194,174843,1,0,0:0:0:0:
280,204,175010,1,2,0:0:0:0:
280,204,175093,1,0,0:0:0:0:
280,204,175176,1,0,0:0:0:0:
144,284,175343,6,0,L|96:280,2,35.2
132,200,175676,2,0,L|167:197,2,35.2,2|0|0,0:0|0:0|0:0,0:0:0:0:
144,116,176010,2,0,L|96:112,2,35.2
132,32,176343,2,0,L|167:29,2,35.2,2|0|0,0:0|0:0|0:0,0:0:0:0:
224,96,176676,5,0,0:0:0:0:
230,112,176759,1,0,0:0:0:0:
236,128,176842,1,0,0:0:0:0:
320,112,177010,1,2,0:0:0:0:
326,128,177093,1,0,0:0:0:0:
332,144,177176,1,0,0:0:0:0:
416,128,177343,1,0,0:0:0:0:
422,144,177426,1,0,0:0:0:0:
428,160,177510,2,0,L|424:216,2,35.2,0|2|0,0:0|0:0|0:0,0:0:0:0:
468,256,177843,1,2,0:0:0:0:
400,316,178010,5,0,0:0:0:0:
386,326,178093,1,0,0:0:0:0:
372,337,178176,1,0,0:0:0:0:
358,348,178260,1,0,0:0:0:0:
344,359,178343,1,2,0:0:0:0:
264,336,178510,1,0,0:0:0:0:
264,336,178593,1,0,0:0:0:0:
264,336,178677,1,0,0:0:0:0:
324,276,178843,1,0,0:0:0:0:
324,276,178926,1,0,0:0:0:0:
324,276,179010,1,2,0:0:0:0:
244,256,179176,1,0,0:0:0:0:
224,172,179343,5,0,0:0:0:0:
219,154,179426,1,0,0:0:0:0:
215,137,179509,1,0,0:0:0:0:
210,120,179593,1,0,0:0:0:0:
206,103,179676,1,2,0:0:0:0:
302,111,179843,1,0,0:0:0:0:
302,111,179926,1,0,0:0:0:0:
302,111,180010,2,0,B|365:115|365:115|403:92,1,105.6
420,126,180343,2,0,L|418:172,1,35.2,2|0,0:0|0:0,0:0:0:0:
388,224,180510,2,0,L|386:270,1,35.2
404,322,180676,5,0,0:0:0:0:
387,329,180759,1,0,0:0:0:0:
371,335,180842,1,0,0:0:0:0:
354,333,180926,1,0,0:0:0:0:
336,332,181009,1,2,0:0:0:0:
258,300,181176,1,0,0:0:0:0:
238,298,181259,1,0,0:0:0:0:
220,297,181342,1,0,0:0:0:0:
143,333,181510,1,0,0:0:0:0:
123,331,181593,1,0,0:0:0:0:
105,330,181676,1,2,0:0:0:0:
27,321,181843,1,0,0:0:0:0:
59,242,182010,5,0,0:0:0:0:
63,224,182093,1,0,0:0:0:0:
67,207,182176,1,2,0:0:0:0:
72,190,182260,1,0,0:0:0:0:
76,173,182343,2,0,L|71:130,1,35.2,2|0,0:0|0:0,0:0:0:0:
94,70,182510,2,0,L|88:26,1,35.2
156,12,182676,1,2,0:0:0:0:
173,13,182759,1,0,0:0:0:0:
190,15,182842,1,0,0:0:0:0:
208,17,182926,1,2,0:0:0:0:
225,19,183009,1,0,0:0:0:0:
243,21,183092,1,0,0:0:0:0:
260,23,183176,1,2,0:0:0:0:
278,25,183259,1,0,0:0:0:0:
295,27,183343,6,0,L|300:76,3,35.2,4|0|2|0,0:0|0:0|0:0|0:0,0:0:0:0:
276,124,183676,2,0,L|281:173,3,35.2,0|0|2|0,0:0|0:0|0:0|0:0,0:0:0:0:
260,224,184010,2,0,L|269:312,1,70.4,0|2,0:0|0:0,0:0:0:0:
267,294,184260,1,0,0:0:0:0:
267,294,184343,1,0,0:0:0:0:
192,280,184510,1,2,0:0:0:0:
116,264,184676,5,4,0:0:0:0:
97,258,184759,1,0,0:0:0:0:
78,252,184842,1,2,0:0:0:0:
73,234,184926,1,0,0:0:0:0:
70,214,185009,1,0,0:0:0:0:
68,195,185092,1,0,0:0:0:0:
65,175,185176,1,2,0:0:0:0:
62,156,185259,1,0,0:0:0:0:
60,136,185342,1,0,0:0:0:0:
132,88,185510,5,2,0:0:0:0:
151,94,185593,1,0,0:0:0:0:
170,100,185676,1,0,0:0:0:0:
256,124,185843,1,2,0:0:0:0:
196,188,186010,5,4,0:0:0:0:
186,205,186093,1,0,0:0:0:0:
183,224,186176,1,2,0:0:0:0:
187,243,186260,1,0,0:0:0:0:
198,260,186343,1,0,0:0:0:0:
214,271,186426,1,0,0:0:0:0:
233,276,186510,1,2,0:0:0:0:
253,274,186593,1,0,0:0:0:0:
270,264,186676,5,4,0:0:0:0:
352,236,186843,1,2,0:0:0:0:
352,236,186926,1,0,0:0:0:0:
352,236,187010,1,0,0:0:0:0:
428,276,187176,1,2,0:0:0:0:
428,276,187260,1,0,0:0:0:0:
428,276,187343,5,4,0:0:0:0:
442,261,187426,1,0,0:0:0:0:
455,247,187509,1,2,0:0:0:0:
454,228,187593,1,0,0:0:0:0:
453,208,187676,1,0,0:0:0:0:
452,188,187759,1,0,0:0:0:0:
450,168,187843,6,0,B|447:109|447:109|468:76,1,88,4|0,0:0|0:0,0:0:0:0:
388,0,188176,2,0,P|386:55|344:76,1,88,4|0,0:0|0:0,0:0:0:0:
344,188,188510,2,0,L|301:185,1,44
228,176,188676,5,4,0:0:0:0:
221,185,188759,1,0,0:0:0:0:
215,194,188842,1,2,0:0:0:0:
209,203,188926,1,0,0:0:0:0:
204,212,189009,1,0,0:0:0:0:
209,222,189092,1,0,0:0:0:0:
214,232,189176,1,2,0:0:0:0:
219,242,189259,1,0,0:0:0:0:
223,252,189342,1,0,0:0:0:0:
217,260,189426,1,0,0:0:0:0:
210,269,189509,1,2,0:0:0:0:
203,278,189592,1,0,0:0:0:0:
196,286,189676,2,0,L|172:240,3,44,0|0|2|0,0:0|0:0|0:0|0:0,0:0:0:0:
120,204,190010,5,4,0:0:0:0:
128,197,190093,1,0,0:0:0:0:
135,188,190176,1,2,0:0:0:0:
141,179,190260,1,0,0:0:0:0:
146,169,190343,1,0,0:0:0:0:
148,159,190426,1,0,0:0:0:0:
149,148,190510,1,2,0:0:0:0:
148,137,190593,1,0,0:0:0:0:
146,126,190676,1,0,0:0:0:0:
142,116,190760,1,0,0:0:0:0:
136,107,190843,1,2,0:0:0:0:
128,99,190926,1,0,0:0:0:0:
120,92,191010,2,0,L|63:91,3,44,0|0|2|0,0:0|0:0|0:0|0:0,0:0:0:0:
192,64,191343,5,4,0:0:0:0:
202,64,191426,1,0,0:0:0:0:
213,64,191509,1,2,0:0:0:0:
224,65,191593,1,0,0:0:0:0:
235,65,191676,2,0,L|292:68,3,44,0|0|2|0,0:0|0:0|0:0|0:0,0:0:0:0:
348,36,192010,1,4,0:0:0:0:
359,36,192093,1,0,0:0:0:0:
370,37,192176,1,2,0:0:0:0:
381,37,192260,1,0,0:0:0:0:
392,38,192343,2,0,L|436:40,3,44,0|0|2|0,0:0|0:0|0:0|0:0,0:0:0:0:
484,104,192676,5,4,0:0:0:0:
484,104,192760,1,0,0:0:0:0:
484,104,192843,2,0,P|475:130|485:168,1,52.7999983886719,2|0,0:0|0:0,0:0:0:0:
392,216,193010,1,4,0:0:0:0:
392,216,193094,1,0,0:0:0:0:
392,216,193177,2,0,P|401:190|391:152,1,52.7999983886719,2|0,0:0|0:0,0:0:0:0:
340,120,193343,6,0,B|260:112|260:112|220:132,1,114.399994763184,4|2,0:0|0:0,0:0:0:0:
65,146,193593,2,0,P|119:139|135:87,1,114.399994763184,0|2,0:0|0:0,0:0:0:0:
200,0,193843,2,0,L|204:68,1,57.1999973815919
180,192,194010,5,4,0:0:0:0:
215,111,196677,5,4,0:0:0:0:
215,111,196760,1,0,0:0:0:0:
215,111,196844,1,2,0:0:0:0:
127,75,197010,1,8,0:0:0:0:
139,171,197177,1,2,0:0:0:0:
139,171,197260,1,0,0:0:0:0:
139,171,197344,2,0,B|147:219|147:219|127:263,1,96.8000029541017,0|2,0:0|0:0,0:0:0:0:
144,332,197594,1,0,0:0:0:0:
176,326,197677,2,0,B|224:318|224:318|268:338,1,96.8000029541017,8|2,0:0|0:0,0:0:0:0:
348,280,198010,5,0,0:0:0:0:
371,275,198093,1,0,0:0:0:0:
395,271,198176,1,2,0:0:0:0:
419,267,198260,1,0,0:0:0:0:
443,263,198344,2,0,L|448:212,1,48.4000014770508,8|0,0:0|0:0,0:0:0:0:
420,152,198510,1,2,0:0:0:0:
422,127,198593,1,0,0:0:0:0:
424,103,198677,2,0,P|384:80|336:84,1,96.8000029541017,0|2,0:0|0:0,0:0:0:0:
261,110,198927,1,0,0:0:0:0:
261,110,199010,2,0,P|213:114|172:90,1,96.8000029541017,8|2,0:0|0:0,0:0:0:0:
100,55,199260,5,0,0:0:0:0:
82,72,199344,1,0,0:0:0:0:
80,96,199427,1,0,0:0:0:0:
78,120,199510,1,2,0:0:0:0:
76,144,199594,1,0,0:0:0:0:
74,168,199677,2,0,L|69:227,1,48.4000014770508,8|0,0:0|0:0,0:0:0:0:
128,314,199844,2,0,L|131:265,1,48.4000014770508,2|0,0:0|0:0,0:0:0:0:
204,240,200010,2,0,B|252:224|252:224|292:248,1,96.8000029541017,0|2,0:0|0:0,0:0:0:0:
344,360,200260,1,0,0:0:0:0:
344,360,200344,2,0,B|296:376|296:376|256:352,1,96.8000029541017,8|2,0:0|0:0,0:0:0:0:
48,252,200677,5,0,0:0:0:0:
50,276,200760,1,0,0:0:0:0:
52,300,200843,1,2,0:0:0:0:
54,324,200927,1,0,0:0:0:0:
56,348,201010,1,8,0:0:0:0:
152,272,201177,1,2,0:0:0:0:
252,348,201344,1,0,0:0:0:0:
276,346,201427,1,0,0:0:0:0:
300,344,201510,1,2,0:0:0:0:
324,342,201593,1,2,0:0:0:0:
408,292,201760,1,0,0:0:0:0:
432,290,201843,1,2,0:0:0:0:
401,198,202010,5,0,0:0:0:0:
394,174,202093,1,0,0:0:0:0:
387,151,202176,1,2,0:0:0:0:
380,128,202260,1,0,0:0:0:0:
391,107,202344,1,8,0:0:0:0:
403,86,202426,1,0,0:0:0:0:
415,65,202510,1,2,0:0:0:0:
410,41,202594,1,0,0:0:0:0:
403,18,202677,1,0,0:0:0:0:
316,56,202844,1,2,0:0:0:0:
316,56,202927,1,0,0:0:0:0:
316,56,203010,2,0,P|264:64|224:40,1,96.8000029541017,8|2,0:0|0:0,0:0:0:0:
211,25,203260,5,0,0:0:0:0:
190,12,203343,1,0,0:0:0:0:
166,11,203426,1,0,0:0:0:0:
144,20,203510,1,2,0:0:0:0:
128,38,203593,1,0,0:0:0:0:
122,62,203676,1,8,0:0:0:0:
127,85,203760,1,0,0:0:0:0:
143,104,203843,1,2,0:0:0:0:
164,114,203926,1,0,0:0:0:0:
188,113,204010,1,0,0:0:0:0:
288,88,204177,1,2,0:0:0:0:
288,88,204260,1,0,0:0:0:0:
288,88,204344,1,8,0:0:0:0:
248,212,204510,5,2,0:0:0:0:
248,212,204594,1,0,0:0:0:0:
248,212,204677,1,0,0:0:0:0:
224,208,204760,1,0,0:0:0:0:
200,204,204843,1,2,0:0:0:0:
179,215,204927,1,0,0:0:0:0:
158,227,205010,1,8,0:0:0:0:
137,239,205093,1,0,0:0:0:0:
116,251,205176,1,2,0:0:0:0:
92,247,205260,1,0,0:0:0:0:
68,243,205343,2,0,B|56:184|56:184|72:144,1,96.8000029541017,0|2,0:0|0:0,0:0:0:0:
180,84,205594,1,0,0:0:0:0:
180,84,205677,2,0,B|192:143|192:143|176:183,1,96.8000029541017,8|2,0:0|0:0,0:0:0:0:
108,328,206010,5,0,0:0:0:0:
108,328,206094,1,0,0:0:0:0:
108,328,206177,1,10,0:0:0:0:
204,268,206344,1,10,0:0:0:0:
68,243,206510,1,2,0:0:0:0:
240,356,206676,1,2,0:0:0:0:
258,341,206760,1,0,0:0:0:0:
279,350,206843,1,0,0:0:0:0:
297,335,206927,1,2,0:0:0:0:
319,344,207010,1,8,0:0:0:0:
337,330,207094,1,0,0:0:0:0:
358,339,207176,1,2,0:0:0:0:
376,324,207260,1,0,0:0:0:0:
398,333,207343,5,0,0:0:0:0:
392,309,207426,1,0,0:0:0:0:
387,285,207509,1,2,0:0:0:0:
381,262,207593,1,0,0:0:0:0:
376,238,207676,1,8,0:0:0:0:
379,224,207759,1,0,0:0:0:0:
383,210,207842,1,2,0:0:0:0:
387,196,207926,1,0,0:0:0:0:
391,182,208009,1,0,0:0:0:0:
344,96,208177,1,2,0:0:0:0:
344,96,208260,1,0,0:0:0:0:
344,96,208344,2,0,L|292:92,1,48.4000014770508,8|0,0:0|0:0,0:0:0:0:
208,168,208510,2,0,L|256:171,1,48.4000014770508,2|0,0:0|0:0,0:0:0:0:
176,80,208677,5,0,0:0:0:0:
147,77,208760,1,0,0:0:0:0:
118,75,208843,1,2,0:0:0:0:
89,73,208927,1,0,0:0:0:0:
60,70,209010,1,8,0:0:0:0:
50,93,209093,1,0,0:0:0:0:
40,115,209176,1,2,0:0:0:0:
47,137,209260,1,0,0:0:0:0:
55,160,209344,2,0,B|68:206|68:206|48:256,1,96.8000029541017,0|2,0:0|0:0,0:0:0:0:
12,320,209594,1,0,0:0:0:0:
12,320,209677,2,0,P|36:328|67:325,1,48.4000014770508,8|0,0:0|0:0,0:0:0:0:
127,279,209844,2,0,P|152:279|174:287,1,48.4000014770508,2|0,0:0|0:0,0:0:0:0:
245,259,210010,5,0,0:0:0:0:
250,282,210093,1,0,0:0:0:0:
248,306,210176,1,2,0:0:0:0:
239,328,210260,1,0,0:0:0:0:
223,346,210343,1,8,0:0:0:0:
202,358,210426,1,0,0:0:0:0:
179,363,210510,1,2,0:0:0:0:
155,361,210593,1,0,0:0:0:0:
133,351,210676,1,0,0:0:0:0:
76,272,210844,1,2,0:0:0:0:
76,272,210927,1,0,0:0:0:0:
76,272,211010,2,0,B|92:228|92:228|80:176,1,96.8000029541017,8|2,0:0|0:0,0:0:0:0:
74,155,211260,5,0,0:0:0:0:
68,131,211343,1,0,0:0:0:0:
92,135,211426,1,0,0:0:0:0:
116,139,211510,1,2,0:0:0:0:
139,144,211593,1,0,0:0:0:0:
163,149,211677,2,0,L|219:160,1,48.4000014770508,8|0,0:0|0:0,0:0:0:0:
264,92,211844,2,0,L|249:37,1,48.4000014770508,2|0,0:0|0:0,0:0:0:0:
284,168,212010,1,0,0:0:0:0:
291,196,212093,1,0,0:0:0:0:
299,224,212176,1,2,0:0:0:0:
307,252,212260,1,2,0:0:0:0:
344,120,212427,1,0,0:0:0:0:
372,125,212510,1,2,0:0:0:0:
210,227,212677,5,0,0:0:0:0:
181,222,212760,1,0,0:0:0:0:
153,216,212843,1,2,0:0:0:0:
124,211,212927,1,0,0:0:0:0:
96,205,213010,1,8,0:0:0:0:
102,233,213093,1,0,0:0:0:0:
108,262,213176,1,2,0:0:0:0:
114,290,213260,1,0,0:0:0:0:
120,319,213344,1,0,0:0:0:0:
24,276,213510,1,2,0:0:0:0:
24,276,213594,1,0,0:0:0:0:
24,276,213677,1,8,0:0:0:0:
120,319,213844,1,2,0:0:0:0:
208,280,214010,5,0,0:0:0:0:
230,270,214093,1,0,0:0:0:0:
252,261,214176,1,2,0:0:0:0:
274,268,214260,1,0,0:0:0:0:
296,279,214343,1,8,0:0:0:0:
318,289,214426,1,0,0:0:0:0:
340,299,214510,1,2,0:0:0:0:
362,290,214593,1,0,0:0:0:0:
384,281,214676,1,0,0:0:0:0:
467,247,214844,1,2,0:0:0:0:
471,223,214927,1,0,0:0:0:0:
475,199,215010,2,0,L|485:139,1,48.4000014770508,8|0,0:0|0:0,0:0:0:0:
399,183,215177,5,2,0:0:0:0:
399,183,215260,1,0,0:0:0:0:
399,183,215343,1,0,0:0:0:0:
370,186,215427,1,0,0:0:0:0:
343,177,215510,1,2,0:0:0:0:
321,158,215593,1,0,0:0:0:0:
310,132,215677,1,8,0:0:0:0:
311,103,215760,1,0,0:0:0:0:
323,78,215843,1,2,0:0:0:0:
345,58,215927,1,0,0:0:0:0:
373,51,216010,2,0,B|423:55|423:55|455:15,1,96.8000029541017,0|2,0:0|0:0,0:0:0:0:
504,124,216260,1,0,0:0:0:0:
504,124,216344,2,0,B|454:120|454:120|422:160,1,96.8000029541017,8|2,0:0|0:0,0:0:0:0:
372,235,216677,5,0,0:0:0:0:
358,254,216760,1,0,0:0:0:0:
344,274,216843,1,10,0:0:0:0:
320,272,216927,1,0,0:0:0:0:
296,269,217010,2,0,L|237:264,1,48.4000014770508,10|0,0:0|0:0,0:0:0:0:
188,212,217177,2,0,L|128:206,1,48.4000014770508,2|0,0:0|0:0,0:0:0:0:
60,200,217344,2,0,B|40:144|40:144|56:104,1,96.8000029541017,0|2,0:0|0:0,0:0:0:0:
94,277,217594,1,0,0:0:0:0:
94,277,217676,2,0,B|119:335,1,57.1999973815919,8|0,0:0|0:0,0:0:0:0:
140,132,217843,2,0,B|119:72,1,57.1999973815919,2|0,0:0|0:0,0:0:0:0:
188,212,218010,5,4,0:0:0:0:
214,210,218093,1,0,0:0:0:0:
240,208,218176,1,2,0:0:0:0:
266,206,218260,1,0,0:0:0:0:
293,204,218343,1,8,0:0:0:0:
315,216,218426,1,0,0:0:0:0:
338,230,218510,1,2,0:0:0:0:
364,229,218593,1,0,0:0:0:0:
390,227,218676,1,0,0:0:0:0:
424,148,218844,1,2,0:0:0:0:
424,148,218927,1,0,0:0:0:0:
424,148,219010,1,8,0:0:0:0:
372,80,219177,1,2,0:0:0:0:
301,127,219344,5,0,0:0:0:0:
277,138,219427,1,0,0:0:0:0:
251,142,219510,1,2,0:0:0:0:
225,140,219594,1,0,0:0:0:0:
200,131,219677,1,8,0:0:0:0:
178,117,219760,1,0,0:0:0:0:
161,96,219844,1,2,0:0:0:0:
150,73,219927,1,0,0:0:0:0:
145,47,220010,2,0,B|141:11|141:11|57:39,1,105.599996777344,2|0,0:0|0:0,0:0:0:0:
79,106,220260,2,0,B|49:127|49:127|115:186,1,105.599996777344,2|0,0:0|0:0,0:0:0:0:
155,220,220510,2,0,L|147:284,1,52.7999983886719,2|0,0:0|0:0,0:0:0:0:
136,344,220677,5,0,0:0:0:0:
109,346,220760,1,0,0:0:0:0:
83,350,220843,1,2,0:0:0:0:
62,335,220927,1,0,0:0:0:0:
40,320,221010,1,8,0:0:0:0:
18,305,221093,1,0,0:0:0:0:
0,291,221177,1,2,0:0:0:0:
24,287,221260,1,0,0:0:0:0:
51,282,221343,1,0,0:0:0:0:
145,268,221510,1,2,0:0:0:0:
148,242,221593,1,0,0:0:0:0:
152,216,221676,1,8,0:0:0:0:
72,160,221844,1,2,0:0:0:0:
145,268,222010,5,0,0:0:0:0:
174,279,222093,1,0,0:0:0:0:
204,290,222176,1,2,0:0:0:0:
234,301,222260,1,0,0:0:0:0:
261,284,222343,1,8,0:0:0:0:
287,267,222426,1,0,0:0:0:0:
314,250,222510,2,0,L|312:192,1,52.7999983886719,2|0,0:0|0:0,0:0:0:0:
420,348,222677,1,0,0:0:0:0:
411,317,222760,1,0,0:0:0:0:
414,286,222843,1,2,0:0:0:0:
427,257,222927,2,0,P|451:233|480:224,1,52.7999983886719,0|8,0:0|0:0,0:0:0:0:
488,130,223094,1,0,0:0:0:0:
460,145,223177,2,0,P|424:153|404:148,1,52.7999983886719,2|0,0:0|0:0,0:0:0:0:
332,204,223344,5,0,0:0:0:0:
314,183,223427,1,0,0:0:0:0:
297,163,223510,1,2,0:0:0:0:
280,143,223594,1,0,0:0:0:0:
263,123,223677,1,8,0:0:0:0:
268,100,223760,1,0,0:0:0:0:
279,76,223844,1,2,0:0:0:0:
263,56,223927,1,0,0:0:0:0:
246,35,224010,2,0,B|188:40|188:40|152:8,1,105.599996777344,0|2,0:0|0:0,0:0:0:0:
68,72,224260,1,0,0:0:0:0:
57,97,224344,2,0,B|115:92|115:92|151:124,1,105.599996777344,8|2,0:0|0:0,0:0:0:0:
244,196,224677,5,0,0:0:0:0:
275,192,224760,1,0,0:0:0:0:
294,166,224843,1,2,0:0:0:0:
313,141,224927,1,0,0:0:0:0:
332,116,225010,1,8,0:0:0:0:
351,91,225093,1,0,0:0:0:0:
320,93,225177,1,2,0:0:0:0:
288,96,225260,1,0,0:0:0:0:
257,99,225343,2,0,B|208:74|208:74|200:22,1,105.599996777344,0|2,0:0|0:0,0:0:0:0:
104,92,225593,1,0,0:0:0:0:
104,92,225676,2,0,B|153:117|153:117|161:169,1,105.599996777344,8|2,0:0|0:0,0:0:0:0:
175,241,225927,5,0,0:0:0:0:
198,254,226010,1,0,0:0:0:0:
221,245,226093,1,0,0:0:0:0:
244,233,226177,1,2,0:0:0:0:
268,221,226260,1,0,0:0:0:0:
292,209,226342,2,0,L|344:236,1,52.7999983886719,8|0,0:0|0:0,0:0:0:0:
416,232,226510,2,0,L|463:208,1,52.7999983886719,2|0,0:0|0:0,0:0:0:0:
368,160,226676,2,0,L|271:112,1,105.599996777344,2|0,0:0|0:0,0:0:0:0:
228,52,226927,2,0,B|200:88|200:88|203:159,1,105.599996777344,2|0,0:0|0:0,0:0:0:0:
272,244,227177,5,2,0:0:0:0:
272,244,227260,1,0,0:0:0:0:
272,244,227344,2,0,L|268:180,1,52.7999983886719
202,147,227510,2,0,L|159:195,1,52.7999983886719,10|0,0:0|0:0,0:0:0:0:
160,320,227676,2,0,L|156:256,1,52.7999983886719,8|0,0:0|0:0,0:0:0:0:
90,223,227843,2,0,L|47:271,1,52.7999983886719,2|0,0:0|0:0,0:0:0:0:
88,340,228010,5,2,0:0:0:0:
12,184,228177,1,2,0:0:0:0:
156,267,228344,1,10,0:0:0:0:
80,111,228511,1,2,0:0:0:0:
180,140,228677,5,4,0:0:0:0:
205,145,228760,1,0,0:0:0:0:
231,151,228843,1,2,0:0:0:0:
257,157,228927,1,0,0:0:0:0:
282,163,229010,1,8,0:0:0:0:
301,146,229093,1,0,0:0:0:0:
319,127,229177,1,2,0:0:0:0:
312,102,229260,1,0,0:0:0:0:
304,76,229343,1,0,0:0:0:0:
384,178,229510,1,2,0:0:0:0:
391,203,229593,1,0,0:0:0:0:
399,229,229676,2,0,L|337:329,1,105.599996777344,8|2,0:0|0:0,0:0:0:0:
256,260,230010,5,0,0:0:0:0:
242,231,230093,1,0,0:0:0:0:
217,213,230176,1,2,0:0:0:0:
186,209,230260,1,0,0:0:0:0:
157,221,230344,1,8,0:0:0:0:
127,230,230427,1,0,0:0:0:0:
97,222,230510,1,2,0:0:0:0:
75,200,230594,1,0,0:0:0:0:
67,169,230677,1,0,0:0:0:0:
108,72,230844,1,2,0:0:0:0:
108,72,230927,1,0,0:0:0:0:
108,72,231010,1,8,0:0:0:0:
192,132,231177,1,2,0:0:0:0:
268,60,231343,5,4,0:0:0:0:
294,59,231427,1,0,0:0:0:0:
320,58,231510,1,2,0:0:0:0:
347,57,231594,1,0,0:0:0:0:
373,56,231677,1,8,0:0:0:0:
365,81,231760,1,0,0:0:0:0:
356,106,231843,1,2,0:0:0:0:
380,106,231927,1,0,0:0:0:0:
407,105,232010,2,0,B|380:162|380:162|408:224,1,105.599996777344,0|2,0:0|0:0,0:0:0:0:
464,268,232260,1,0,0:0:0:0:
464,268,232344,2,0,B|490:210|490:210|463:149,1,105.599996777344,8|2,0:0|0:0,0:0:0:0:
380,284,232677,5,0,0:0:0:0:
358,299,232760,1,0,0:0:0:0:
333,307,232843,1,2,0:0:0:0:
307,306,232927,1,0,0:0:0:0:
283,296,233010,1,8,0:0:0:0:
212,220,233177,1,2,0:0:0:0:
132,288,233344,1,0,0:0:0:0:
132,288,233427,1,0,0:0:0:0:
132,288,233510,1,2,0:0:0:0:
132,288,233594,1,2,0:0:0:0:
48,224,233760,1,0,0:0:0:0:
48,224,233844,1,2,0:0:0:0:
48,224,233927,1,0,0:0:0:0:
48,224,234010,5,4,0:0:0:0:
64,120,234177,1,10,0:0:0:0:
144,192,234344,1,8,0:0:0:0:
160,88,234511,1,10,0:0:0:0:
240,160,234677,5,0,0:0:0:0:
256,56,234844,1,10,0:0:0:0:
336,128,235010,1,8,0:0:0:0:
352,24,235176,1,10,0:0:0:0:
352,24,235260,1,0,0:0:0:0:
352,24,235343,5,4,0:0:0:0:
432,92,235510,1,10,0:0:0:0:
336,128,235677,1,8,0:0:0:0:
416,196,235843,1,10,0:0:0:0:
320,232,236010,5,2,0:0:0:0:
400,300,236176,1,10,0:0:0:0:
304,336,236344,1,8,0:0:0:0:
224,268,236510,1,2,0:0:0:0:
224,268,236594,1,0,0:0:0:0:
224,268,236677,5,4,0:0:0:0:
202,283,236760,1,0,0:0:0:0:
181,298,236843,1,2,0:0:0:0:
159,314,236927,1,0,0:0:0:0:
138,329,237010,1,8,0:0:0:0:
114,320,237093,1,0,0:0:0:0:
91,308,237177,1,2,0:0:0:0:
67,297,237260,1,0,0:0:0:0:
87,281,237343,1,4,0:0:0:0:
108,265,237427,1,0,0:0:0:0:
130,249,237510,6,0,L|124:212,4,26.399999194336,4|0|0|0|0,0:2|0:0|0:0|0:0|0:0,0:0:0:0:
72,144,237844,2,0,L|65:106,4,26.399999194336,4|0|0|0|0,0:2|0:0|0:0|0:0|0:0,0:0:0:0:
176,140,238177,6,0,B|200:108|200:108|184:36,1,105.599996777344,12|0,0:0|0:0,0:0:0:0:
264,48,238427,2,0,P|308:40|292:96,1,105.599996777344,10|0,0:0|0:0,0:0:0:0:
338,207,238676,2,0,B|283:200|283:200|272:152,1,105.599996777344,12|0,0:0|0:0,0:0:0:0:
392,120,238927,2,0,L|418:222,1,105.599996777344,10|0,0:0|0:0,0:0:0:0:
440,296,239177,1,0,0:0:0:0:
80,216,239676,5,4,0:0:0:0:
80,216,240010,5,0,0:0:0:0:
148,160,240177,1,2,0:0:0:0:
168,244,240344,1,8,0:0:0:0:
236,188,240510,1,2,0:0:0:0:
236,188,240594,1,0,0:0:0:0:
236,188,240677,2,0,P|284:172|324:200,1,88,0|2,0:0|0:0,0:0:0:0:
360,328,241010,2,0,P|312:344|272:316,1,88,8|2,0:0|0:0,0:0:0:0:
440,280,241344,2,0,B|456:316|456:316|448:380,1,88,0|2,0:0|0:0,0:0:0:0:
316,188,241676,2,0,B|300:152|300:152|308:88,1,88,8|2,0:0|0:0,0:0:0:0:
316,16,242010,5,0,0:0:0:0:
316,16,242094,1,0,0:0:0:0:
316,16,242177,1,2,0:0:0:0:
236,52,242344,1,8,0:0:0:0:
160,8,242510,1,2,0:0:0:0:
112,84,242677,1,0,0:0:0:0:
28,116,242844,1,2,0:0:0:0:
76,188,243010,1,8,0:0:0:0:
20,258,243177,1,2,0:0:0:0:
94,316,243344,5,0,0:0:0:0:
94,316,243427,1,0,0:0:0:0:
94,316,243510,1,2,0:0:0:0:
180,300,243676,2,0,L|284:284,1,88,8|2,0:0|0:0,0:0:0:0:
372,232,244010,2,0,B|339:192|339:192|287:200,1,88,0|2,0:0|0:0,0:0:0:0:
344,324,244343,2,0,B|377:364|377:364|429:356,1,88,8|2,0:0|0:0,0:0:0:0:
464,284,244677,5,0,0:0:0:0:
464,284,244760,1,0,0:0:0:0:
464,284,244844,1,2,0:0:0:0:
452,196,245010,1,8,0:0:0:0:
440,108,245177,1,2,0:0:0:0:
372,164,245344,1,0,0:0:0:0:
360,76,245511,1,2,0:0:0:0:
292,132,245677,1,8,0:0:0:0:
280,44,245844,1,2,0:0:0:0:
208,96,246010,6,0,P|164:104|116:80,1,88,0|2,0:0|0:0,0:0:0:0:
24,200,246344,2,0,P|68:192|116:216,1,88,8|2,0:0|0:0,0:0:0:0:
148,304,246677,2,0,B|184:324|184:324|240:316,1,88,0|2,0:0|0:0,0:0:0:0:
308,212,247010,2,0,B|272:192|272:192|216:200,1,88,8|2,0:0|0:0,0:0:0:0:
372,332,247344,5,0,0:0:0:0:
372,332,247427,1,0,0:0:0:0:
372,332,247510,1,2,0:0:0:0:
404,252,247677,1,8,0:0:0:0:
452,324,247844,1,2,0:0:0:0:
492,244,248010,2,0,L|488:156,1,88,0|2,0:0|0:0,0:0:0:0:
482,58,248344,1,8,0:0:0:0:
482,58,248510,1,2,0:0:0:0:
401,111,248677,5,0,0:0:0:0:
316,64,248844,1,2,0:0:0:0:
316,160,249010,1,8,0:0:0:0:
231,113,249177,1,2,0:0:0:0:
230,205,249344,1,0,0:0:0:0:
145,136,249510,1,2,0:0:0:0:
182,38,249677,1,8,0:0:0:0:
288,44,249844,1,2,0:0:0:0:
312,145,250010,6,0,B|324:195|324:195|356:216,1,88,0|2,0:0|0:0,0:0:0:0:
464,296,250343,2,0,B|494:275|494:275|506:225,1,88,8|2,0:0|0:0,0:0:0:0:
292,356,250677,1,0,0:0:0:0:
292,356,250760,1,0,0:0:0:0:
292,356,250844,1,2,0:0:0:0:
272,272,251010,1,8,0:0:0:0:
204,328,251177,5,2,0:0:0:0:
204,328,251260,1,0,0:0:0:0:
204,328,251344,1,0,0:0:0:0:
184,244,251510,1,2,0:0:0:0:
168,156,251677,2,0,B|112:160|112:160|76:192,1,88,8|2,0:0|0:0,0:0:0:0:
32,304,252010,2,0,B|28:248|28:248|-4:212,1,88,0|2,0:0|0:0,0:0:0:0:
0,52,252343,2,0,B|4:108|4:108|36:144,1,88,8|2,0:0|0:0,0:0:0:0:
112,232,252677,5,0,0:0:0:0:
112,232,252760,1,0,0:0:0:0:
112,232,252844,1,2,0:0:0:0:
188,188,253010,2,0,P|232:177|277:203,1,88,8|2,0:0|0:0,0:0:0:0:
312,272,253344,1,0,0:0:0:0:
388,232,253510,1,2,0:0:0:0:
312,272,253677,1,8,0:0:0:0:
388,232,253843,1,2,0:0:0:0:
384,320,254010,5,0,0:0:0:0:
384,320,254094,1,0,0:0:0:0:
384,320,254177,1,2,0:0:0:0:
316,188,254343,2,0,B|308:144|308:144|332:100,1,88,8|2,0:0|0:0,0:0:0:0:
220,264,254677,2,0,B|228:308|228:308|204:352,1,88,0|2,0:0|0:0,0:0:0:0:
119,143,255010,5,8,0:0:0:0:
119,143,255177,1,0,0:0:0:0:
119,143,255344,2,0,P|71:151|31:127,1,88,0|2,0:0|0:0,0:0:0:0:
220,264,255677,2,0,P|180:245|138:254,1,88,8|2,0:0|0:0,0:0:0:0:
336,152,256010,2,0,P|288:160|248:136,1,88,0|2,0:0|0:0,0:0:0:0:
437,273,256343,2,0,P|397:254|355:263,1,88,8|2,0:0|0:0,0:0:0:0:
328,284,256594,1,0,0:0:0:0:
306,311,256677,6,0,B|280:336|280:336|224:320,1,88,0|2,0:0|0:0,0:0:0:0:
130,298,257010,1,8,0:0:0:0:
130,298,257177,1,2,0:0:0:0:
220,224,257344,1,0,0:0:0:0:
220,224,257427,1,0,0:0:0:0:
220,224,257510,1,2,0:0:0:0:
133,188,257677,1,8,0:0:0:0:
205,119,257844,1,2,0:0:0:0:
205,119,257926,1,0,0:0:0:0:
205,119,258010,5,0,0:0:0:0:
97,94,258176,1,2,0:0:0:0:
40,191,258343,1,8,0:0:0:0:
115,274,258511,1,2,0:0:0:0:
220,224,258677,1,4,0:0:0:0:
246,221,258760,1,0,0:0:0:0:
272,218,258843,1,2,0:0:0:0:
298,216,258927,1,0,0:0:0:0:
325,213,259010,1,4,0:0:0:0:
351,210,259093,1,0,0:0:0:0:
377,208,259177,1,2,0:0:0:0:
403,205,259260,1,0,0:0:0:0:
430,202,259343,1,0,0:0:0:0:
312,56,259510,5,4,0:0:0:0:
256,192,259594,12,4,260677,0:0:0:0:
80,92,260844,5,0,0:0:0:0:
132,164,261010,2,0,P|140:216|116:248,1,88,8|0,0:0|0:0,0:0:0:0:
44,284,261344,1,0,0:0:0:0:
44,284,261510,1,0,0:0:0:0:
116,336,261677,1,8,0:0:0:0:
116,336,261844,1,0,0:0:0:0:
192,292,262010,5,0,0:0:0:0:
192,292,262094,1,0,0:0:0:0:
192,292,262177,1,0,0:0:0:0:
264,344,262344,2,0,B|320:352|320:352|360:332,1,88,8|0,0:0|0:0,0:0:0:0:
428,300,262677,1,0,0:0:0:0:
428,300,262761,1,0,0:0:0:0:
428,300,262844,1,0,0:0:0:0:
364,240,263011,2,0,B|356:184|356:184|370:155,1,88,8|0,0:0|0:0,0:0:0:0:
363,68,263344,6,0,P|406:75|440:104,1,88
244,188,263677,2,0,P|262:148|298:123,1,88,8|0,0:0|0:0,0:0:0:0:
125,69,264010,2,0,P|82:76|48:104,1,88
244,188,264343,2,0,P|225:148|189:123,1,88,8|0,0:0|0:0,0:0:0:0:
84,300,264677,5,0,0:0:0:0:
84,300,264760,1,0,0:0:0:0:
84,300,264844,1,0,0:0:0:0:
144,240,265010,1,8,0:0:0:0:
60,220,265177,1,0,0:0:0:0:
120,160,265344,1,0,0:0:0:0:
120,160,265427,1,0,0:0:0:0:
120,160,265511,1,0,0:0:0:0:
60,220,265677,1,8,0:0:0:0:
144,240,265844,1,0,0:0:0:0:
204,176,266010,5,0,0:0:0:0:
232,260,266177,1,0,0:0:0:0:
204,176,266344,1,8,0:0:0:0:
288,196,266510,1,0,0:0:0:0:
268,112,266677,1,0,0:0:0:0:
268,112,266760,1,0,0:0:0:0:
268,112,266844,1,0,0:0:0:0:
316,284,267010,1,8,0:0:0:0:
316,284,267177,1,0,0:0:0:0:
396,244,267344,6,0,P|448:240|480:268,1,88
340,356,267677,2,0,P|288:360|256:332,1,88,8|0,0:0|0:0,0:0:0:0:
220,260,268010,1,0,0:0:0:0:
140,300,268177,1,0,0:0:0:0:
76,240,268344,2,0,L|3:172,1,88,8|0,0:0|0:0,0:0:0:0:
96,40,268677,5,0,0:0:0:0:
96,40,268760,1,0,0:0:0:0:
96,40,268844,1,0,0:0:0:0:
128,168,269010,2,0,L|164:76,1,88,8|0,0:0|0:0,0:0:0:0:
188,16,269344,1,0,0:0:0:0:
188,16,269427,1,0,0:0:0:0:
188,16,269511,1,0,0:0:0:0:
220,144,269677,2,0,L|256:52,1,88,8|0,0:0|0:0,0:0:0:0:
328,120,270010,5,0,0:0:0:0:
338,127,270093,1,0,0:0:0:0:
351,132,270176,1,0,0:0:0:0:
363,135,270259,1,0,0:0:0:0:
377,135,270343,1,8,0:0:0:0:
390,134,270426,1,0,0:0:0:0:
402,129,270509,1,0,0:0:0:0:
413,123,270593,1,0,0:0:0:0:
423,114,270677,2,0,B|436:72|436:72|424:24,1,88
464,188,271010,2,0,B|451:230|451:230|463:278,1,88,8|0,0:0|0:0,0:0:0:0:
492,356,271344,6,0,L|392:352,1,88,4|0,0:0|0:0,0:0:0:0:
284,268,271677,2,0,L|371:271,1,88,8|0,0:0|0:0,0:0:0:0:
320,352,272010,1,0,0:0:0:0:
320,352,272177,1,0,0:0:0:0:
416,196,272344,1,8,0:0:0:0:
416,196,272511,1,0,0:0:0:0:
372,120,272677,5,0,0:0:0:0:
316,188,272844,1,0,0:0:0:0:
280,108,273010,2,0,L|244:20,1,88,8|0,0:0|0:0,0:0:0:0:
224,176,273344,5,0,0:0:0:0:
280,108,273511,1,0,0:0:0:0:
316,188,273677,2,0,L|352:276,1,88,8|0,0:0|0:0,0:0:0:0:
296,340,274010,5,0,0:0:0:0:
296,340,274177,1,0,0:0:0:0:
216,304,274344,1,8,0:0:0:0:
216,304,274511,1,0,0:0:0:0:
140,344,274677,1,0,0:0:0:0:
140,344,274844,1,0,0:0:0:0:
60,308,275010,1,8,0:0:0:0:
60,308,275176,1,0,0:0:0:0:
92,228,275343,5,0,0:0:0:0:
48,152,275510,1,0,0:0:0:0:
92,76,275677,2,0,L|184:84,1,88,8|0,0:0|0:0,0:0:0:0:
268,92,276010,1,0,0:0:0:0:
268,92,276177,1,0,0:0:0:0:
216,164,276344,1,8,0:0:0:0:
179,83,276510,1,0,0:0:0:0:
128,156,276677,6,0,P|138:205|164:237,1,88
336,260,277010,2,0,P|288:244|247:250,1,88,8|0,0:0|0:0,0:0:0:0:
196,316,277344,1,0,0:0:0:0:
196,316,277510,1,0,0:0:0:0:
112,292,277677,1,8,0:0:0:0:
48,352,277844,1,0,0:0:0:0:
8,192,278010,5,0,0:0:0:0:
95,204,278177,1,0,0:0:0:0:
107,117,278343,1,8,0:0:0:0:
20,104,278510,1,0,0:0:0:0:
8,192,278677,5,0,0:0:0:0:
8,192,278844,1,0,0:0:0:0:
107,117,279010,1,8,0:0:0:0:
107,117,279177,1,0,0:0:0:0:
187,214,279344,6,0,B|221:258|221:258|216:292,1,88
304,272,279677,2,0,B|348:237|348:237|382:243,1,88,8|0,0:0|0:0,0:0:0:0:
276,192,280010,2,0,B|241:147|241:147|247:114,1,88
456,286,280344,2,0,B|411:320|411:320|380:316,1,88,8|0,0:0|0:0,0:0:0:0:
304,272,280677,5,0,0:0:0:0:
224,308,280844,1,0,0:0:0:0:
144,344,281010,2,0,L|60:304,1,88,8|0,0:0|0:0,0:0:0:0:
0,188,281344,5,0,0:0:0:0:
80,224,281511,1,0,0:0:0:0:
160,260,281677,1,8,0:0:0:0:
152,172,281844,1,0,0:0:0:0:
241,309,282010,5,0,0:0:0:0:
241,309,282094,1,0,0:0:0:0:
241,309,282177,1,0,0:0:0:0:
160,260,282344,6,0,P|91:256|39:300,2,140.8,4|0|2,0:0|0:0|0:0,0:0:0:0:
332,340,283344,6,0,L|336:200,1,140.8,0|2,0:0|0:0,0:0:0:0:
448,176,284010,2,0,L|444:316,1,140.8,0|2,0:0|0:0,0:0:0:0:
244,344,284677,6,0,B|184:342|184:342|160:324|159:292|176:270,1,140.8,0|2,0:0|0:0,0:0:0:0:
224,156,285344,2,0,B|283:157|283:157|307:175|308:207|291:229,1,140.8,0|2,0:0|0:0,0:0:0:0:
43,168,286010,5,0,0:0:0:0:
108,90,286344,1,2,0:0:0:0:
144,182,286677,1,0,0:0:0:0:
83,260,287010,1,2,0:0:0:0:
120,352,287344,6,0,L|264:348,3,140.8,0|2|0|2,0:0|0:0|0:0|0:0,0:0:0:0:
340,244,288677,6,0,P|296:200|218:220,3,140.8,0|2|0|2,0:0|0:0|0:0|0:0,0:0:0:0:
344,332,290010,6,0,L|488:328,3,140.8,0|2|0|2,0:0|0:0|0:0|0:0,0:0:0:0:
472,188,291344,6,0,B|421:141|421:141|395:207,3,140.8,0|2|0|2,0:0|0:0|0:0|0:0,0:0:0:0:
320,196,292510,1,2,0:0:0:0:
244,184,292677,5,4,0:0:0:0:
244,184,293010,1,0,0:0:0:0:
272,264,293344,5,0,0:0:0:0:
272,264,293677,1,0,0:0:0:0:
188,252,294010,5,0,0:0:0:0:
188,252,294343,1,0,0:0:0:0:
156,172,294677,5,0,0:0:0:0:
156,172,295010,1,0,0:0:0:0:
68,156,295344,5,0,0:0:0:0:
68,156,295677,1,0,0:0:0:0:
100,236,296011,5,0,0:0:0:0:
100,236,296344,1,0,0:0:0:0:
52,304,296677,5,0,0:0:0:0:
52,304,297010,1,0,0:0:0:0:
20,224,297344,5,0,0:0:0:0:
20,224,297677,1,0,0:0:0:0:
68,156,298010,5,0,0:0:0:0:
256,192,298176,12,4,303176,0:0:0:0:
