osu file format v14

[General]
AudioFilename: audio.mp3
AudioLeadIn: 0
PreviewTime: 37048
Countdown: 0
SampleSet: Normal
StackLeniency: 0.4
Mode: 0
LetterboxInBreaks: 0
WidescreenStoryboard: 1

[Editor]
Bookmarks: 2762,5505,15105,21962,49048,61562,74077,82991,83677,88991,91734,116591,118305
DistanceSpacing: 0.8
BeatDivisor: 4
GridSize: 32
TimelineZoom: 2.4

[Metadata]
Title:Ikaros Feat. Jenga
TitleUnicode:Ikaros Feat. Jenga
Artist:ETIA.
ArtistUnicode:ETIA.
Creator:Starz15
Version:Insane
Source:BMS
Tags:ETIA. Jenga ikaros BOFU2016
BeatmapID:1360084
BeatmapSetID:640119

[Difficulty]
HPDrainRate:5
CircleSize:4
OverallDifficulty:6
ApproachRate:8.9
SliderMultiplier:1.4
SliderTickRate:1

[Events]
//Background and Video events
0,0,"59068154_p1_master1200.jpg",0,0
//Break Periods
2,63327,73402
//Storyboard Layer 0 (Background)
//Storyboard Layer 1 (Fail)
//Storyboard Layer 2 (Pass)
//Storyboard Layer 3 (Foreground)
//Storyboard Sound Samples

[TimingPoints]
20,342.857142857143,4,1,1,60,1,0
2762,-100,4,1,1,30,0,0
3791,-100,4,1,1,40,0,0
4820,-100,4,1,1,50,0,0
5505,-80,4,1,1,60,0,0
10991,-66.6666666666667,4,1,1,60,0,0
16477,-166.666666666667,4,2,1,30,0,0
21962,-58.8235294117647,4,1,1,50,0,0
27877,-66.6666666666667,4,1,1,50,0,0
31134,-76.9230769230769,4,1,1,60,0,0
32848,-66.6666666666667,4,1,1,47,0,0
49220,-200,4,2,1,60,0,0
49734,-55.5555555555556,4,1,1,65,0,1
58734,-55.5555555555556,4,1,1,41,0,1
63105,-55.5555555555556,4,1,1,41,0,0
74077,-100,4,1,1,35,0,0
79562,-58.8235294117647,4,1,1,35,0,0
85048,-50,4,1,1,70,0,1
105534,-50,4,1,1,30,0,1
106734,-200,4,1,1,70,0,1
107334,-83.3333333333333,4,1,1,45,0,0
112134,-200,4,1,1,70,0,0
112477,-52.6315789473684,4,1,1,60,0,0
117020,-50,4,1,1,70,0,0
120191,-200,4,1,1,40,0,0

[Colours]
Combo1 : 192,192,192
Combo2 : 217,0,0
Combo3 : 255,74,74
Combo4 : 255,128,128
Combo5 : 159,159,159
Combo6 : 206,49,159

[HitObjects]
125,109,2762,6,0,L|112:173,3,35
130,187,3105,2,0,L|117:251,3,35
142,262,3448,2,0,L|129:326,3,35
162,334,3791,6,0,L|226:347,3,35
240,329,4134,2,0,L|304:342,3,35
315,317,4477,2,0,L|379:330,3,35
390,298,4820,6,0,L|403:234,3,35
385,220,5163,2,0,L|398:156,3,35
398,138,5505,6,0,B|329:147|329:147|301:172|301:172|207:182,2,175
317,62,6362,1,0,0:0:0:0:
200,86,6534,1,0,0:0:0:0:
155,209,6705,1,0,0:0:0:0:
108,279,6877,6,0,B|132:310|174:304|174:304|184:335|184:335|229:319|270:358,1,175
366,368,7391,2,0,P|435:355|428:260,1,175
368,208,7905,2,0,B|368:144|368:144|336:112|336:112|336:32,1,175
336,46,8420,1,0,0:0:0:0:
265,164,8591,6,0,B|188:205|188:205|105:174,1,175
181,106,9105,2,0,P|201:208|148:279,1,175
94,343,9620,6,0,B|141:325|174:355|174:355|193:335|193:335|227:357|281:352,1,175
393,341,10134,2,0,P|440:311|454:251,1,87.5
379,264,10477,1,0,0:0:0:0:
303,246,10648,2,0,P|324:208|362:188,1,87.5
379,264,10991,6,0,P|316:323|226:252,2,210.000008010865
446,138,11848,2,0,B|400:163|400:163|307:149,1,105.000004005432
249,172,12191,1,0,0:0:0:0:
249,172,12362,6,0,B|295:147|295:147|388:161,1,105.000004005432
372,294,12705,1,0,0:0:0:0:
372,294,12876,2,0,B|326:319|326:319|233:305,1,105.000004005432
312,234,13220,1,0,0:0:0:0:
312,234,13391,6,0,L|98:272,2,210.000008010865
444,264,14248,2,0,L|428:211,3,52.5000020027161
450,180,14591,2,0,L|434:127,3,52.5000020027161
405,104,14934,2,0,L|389:51,1,52.5000020027161
379,44,15105,5,0,0:0:0:0:
371,36,15190,1,0,0:0:0:0:
363,30,15276,1,0,0:0:0:0:
353,27,15362,1,0,0:0:0:0:
342,26,15447,1,0,0:0:0:0:
332,28,15533,1,0,0:0:0:0:
322,32,15619,1,0,0:0:0:0:
314,39,15705,1,0,0:0:0:0:
308,47,15790,5,0,0:0:0:0:
304,57,15876,1,0,0:0:0:0:
303,67,15962,1,0,0:0:0:0:
304,78,16047,1,0,0:0:0:0:
308,87,16133,1,0,0:0:0:0:
314,96,16219,1,0,0:0:0:0:
322,103,16305,1,0,0:0:0:0:
331,107,16390,1,0,0:0:0:0:
340,107,16477,1,0,0:0:0:0:
427,108,16820,5,0,0:0:0:0:
427,108,16991,2,0,L|427:165,2,41.9999987182618
431,258,17677,2,0,P|386:278|347:270,1,83.9999974365235
189,257,18362,2,0,P|234:277|273:269,1,83.9999974365235
312,189,18877,1,0,0:0:0:0:
201,112,19562,6,0,B|217:160|183:148|208:210,1,83.9999974365235
247,316,20420,2,0,P|299:322|337:304,1,83.9999974365235
382,208,21105,2,0,P|387:174|379:152,1,41.9999987182618
288,128,21448,5,0,3:0:0:0:
288,176,21534,1,0,3:0:0:0:
288,224,21619,1,0,3:0:0:0:
288,224,21962,6,0,B|192:224|192:224|144:192|144:192|48:192,1,238.00000453949
149,114,22477,1,0,0:0:0:0:
233,300,22648,2,0,P|305:320|371:178,1,238.00000453949
219,95,23162,1,0,0:0:0:0:
435,84,23334,6,0,B|397:111|357:83|357:83|324:107|324:107|262:57|197:110,1,238.00000453949
138,249,23848,2,0,B|106:217|106:217|106:121,1,119.000002269745
266,345,24191,2,0,B|298:313|298:313|298:217,1,119.000002269745
218,94,24534,1,0,0:0:0:0:
54,280,24705,6,0,P|127:333|219:205,1,238.00000453949
138,249,25220,1,0,0:0:0:0:
310,314,25391,2,0,B|346:342|346:342|453:342,1,119.000002269745
328,176,25734,1,0,0:0:0:0:
219,148,25905,6,0,B|255:176|255:176|328:176,1,119.000002269745
438,204,26248,2,0,B|402:176|402:176|328:176,1,119.000002269745
247,38,26591,2,0,B|219:74|219:74|219:181,1,119.000002269745
410,313,26934,2,0,B|438:277|438:277|438:170,1,119.000002269745
328,176,27277,1,0,0:0:0:0:
141,255,27448,6,0,B|196:245|236:280|236:280|265:248|265:248|311:286|380:262,1,238.00000453949,0|8,0:0|0:0,0:0:0:0:
328,176,27962,1,0,0:0:0:0:
168,340,28133,1,0,0:0:0:0:
48,234,28305,2,0,L|48:114,1,105.000004005432,0|8,0:0|0:0,0:0:0:0:
104,68,28648,6,0,B|156:42|206:73|206:73|206:56|206:56|252:85|320:68,1,210.000008010865
328,176,29162,1,8,0:0:0:0:
251,287,29334,2,0,B|235:239|235:239|251:175,1,105.000004005432
153,141,29677,1,0,0:0:0:0:
153,141,29848,2,0,B|169:189|169:189|153:253,1,105.000004005432,8|0,0:0|0:0,0:0:0:0:
94,321,30191,6,0,P|159:342|219:320,1,105.000004005432
370,229,30534,1,8,0:0:0:0:
324,342,30705,1,0,0:0:0:0:
267,233,30877,1,0,0:0:0:0:
427,299,31048,2,0,B|453:264|453:264|453:189,1,105.000004005432,0|8,0:0|0:0,0:0:0:0:
267,39,31391,6,0,P|238:74|225:118,1,90.9999958343508
444,114,31734,2,0,P|429:71|399:38,1,90.9999958343508,0|8,0:0|0:0,0:0:0:0:
292,229,32077,2,0,P|337:237|381:227,1,90.9999958343508
335,128,32420,2,0,L|321:323,1,181.999991668702
219,323,32934,6,0,L|228:187,1,105.000004005432
234,106,33277,2,0,P|188:175|275:156,1,210.000008010865,8|0,0:0|0:0,0:0:0:0:
198,38,33791,2,0,P|139:73|112:136,1,105.000004005432,0|8,0:0|0:0,0:0:0:0:
316,233,34134,1,0,0:0:0:0:
112,288,34305,6,0,B|192:288|192:288|240:324|240:324|352:324,1,210.000008010865,0|8,0:0|0:0,0:0:0:0:
426,267,34820,2,0,P|421:194|369:151,1,105.000004005432
205,215,35162,2,0,P|223:167|266:137,1,105.000004005432,0|8,0:0|0:0,0:0:0:0:
316,233,35505,1,0,0:0:0:0:
238,337,35677,1,0,3:0:0:0:
211,338,35762,1,0,3:0:0:0:
186,333,35848,1,0,3:0:0:0:
162,322,35934,1,0,3:0:0:0:
142,305,36019,53,0,3:0:0:0:
127,284,36105,1,0,3:0:0:0:
117,260,36191,1,0,3:0:0:0:
114,234,36276,1,0,3:0:0:0:
117,208,36362,1,0,3:0:0:0:
127,184,36448,1,0,3:0:0:0:
143,163,36534,1,0,3:0:0:0:
163,146,36619,1,0,3:0:0:0:
187,135,36705,5,0,3:0:0:0:
212,131,36791,1,0,3:0:0:0:
239,132,36876,1,0,3:0:0:0:
263,141,36962,1,0,3:0:0:0:
285,155,37048,1,0,3:0:0:0:
277,202,37905,5,0,0:0:0:0:
203,257,38077,2,0,P|282:290|353:253,1,157.500006008148
370,229,38420,1,0,0:0:0:0:
330,6,38591,1,0,0:0:0:0:
134,145,38762,1,0,0:0:0:0:
280,112,38934,6,0,B|256:192|256:192|280:240|280:240|256:340,1,210.000008010865
178,330,39448,2,0,P|111:322|76:270,1,105.000004005432
20,195,39791,1,0,0:0:0:0:
134,145,39962,1,0,0:0:0:0:
249,175,40134,5,0,0:0:0:0:
151,260,40305,2,0,B|263:202|253:318|378:249,1,210.000008010865
407,139,40820,1,0,0:0:0:0:
134,145,40991,1,0,0:0:0:0:
249,175,41162,6,0,B|272:137|272:137|269:60,2,105.000004005432
192,289,41677,2,0,P|102:209|136:143,1,210.000008010865
249,175,42191,1,0,0:0:0:0:
265,350,42362,1,0,0:0:0:0:
408,335,42534,6,0,L|458:235,1,105.000004005432
420,94,42877,1,0,0:0:0:0:
343,133,43048,2,0,B|273:133|249:175|249:175|225:132|143:132,1,210.000008010865
250,64,43562,1,0,0:0:0:0:
340,240,43733,1,0,0:0:0:0:
173,307,43905,6,0,B|105:307|105:307|45:275,2,105.000004005432
274,336,44420,2,0,B|394:272|374:384|498:324,1,210.000008010865
380,148,44934,1,0,0:0:0:0:
228,232,45105,2,0,L|244:172,1,52.5000020027161
276,36,45277,1,0,0:0:0:0:
132,128,45448,6,0,P|104:200|112:240,1,105.000004005432
184,324,45791,2,0,B|296:260|272:396|416:304,1,210.000008010865
460,200,46305,1,0,0:0:0:0:
328,192,46477,2,0,L|320:124,1,52.5000020027161
292,208,46648,6,0,P|188:212|180:100,1,210.000008010865
48,48,47162,2,0,B|48:132|48:132|84:168|84:168|84:276,1,210.000008010865
174,350,47677,1,0,0:0:0:0:
328,352,47848,6,0,B|354:324|354:324|353:242,1,105.000004005432
418,83,48191,2,0,B|392:111|392:111|393:193,1,105.000004005432
281,194,48534,5,0,2:0:0:0:
256,187,48619,1,0,2:0:0:0:
244,164,48705,1,0,2:0:0:0:
253,141,48791,1,0,2:0:0:0:
277,132,48876,1,0,2:0:0:0:
300,143,48962,1,0,2:0:0:0:
306,168,49048,1,0,2:0:0:0:
301,188,49134,1,0,2:0:0:0:
281,194,49220,6,0,P|245:168|272:132,1,87.5
260,139,49734,6,0,B|205:137|165:162|165:162|121:152|95:122|95:122|45:140|14:192,1,251.999992309571,8|0,0:0|0:0,0:0:0:0:
186,306,50248,2,0,P|132:334|75:312,2,125.999996154785,0|8|0,0:0|0:0|0:0,0:0:0:0:
337,290,50762,5,0,0:0:0:0:
164,222,50934,1,0,0:0:0:0:
220,377,51105,1,8,0:0:0:0:
303,174,51277,2,0,P|346:164|428:249,1,125.999996154785
355,365,51620,2,0,B|330:318|330:318|351:230,2,125.999996154785,0|8|0,0:0|0:0|0:0,0:0:0:0:
236,292,52134,6,0,B|181:276|136:302|136:302|110:270|110:270|59:308|-12:265,1,251.999992309571,0|8,0:0|0:0,0:0:0:0:
58,174,52648,2,0,P|41:102|69:50,1,125.999996154785
243,0,52991,2,0,B|268:59|268:59|262:121,1,125.999996154785,0|8,0:0|0:0,0:0:0:0:
357,154,53334,6,0,B|308:195|308:195|248:209,1,125.999996154785
242,309,53677,2,0,B|188:275|188:275|157:222,1,125.999996154785,0|8,0:0|0:0,0:0:0:0:
60,249,54020,2,0,B|75:187|75:187|117:141,1,125.999996154785
61,57,54362,2,0,B|125:53|125:53|182:78,2,125.999996154785,0|8|0,0:0|0:0|0:0,0:0:0:0:
116,141,54877,5,0,0:0:0:0:
251,154,55048,1,0,0:0:0:0:
110,267,55220,1,8,0:0:0:0:
284,248,55391,2,0,B|361:224|326:291|426:253,1,125.999996154785
490,123,55734,2,0,B|446:61|446:61|368:45,2,125.999996154785,0|8|0,0:0|0:0|0:0,0:0:0:0:
495,248,56248,5,0,0:0:0:0:
351,343,56420,1,0,0:0:0:0:
294,148,56591,1,8,0:0:0:0:
389,157,56762,2,0,B|379:221|321:239|321:239|341:262|341:262|262:282|271:366,2,251.999992309571
294,148,57620,6,0,B|274:96|274:96|292:11,2,125.999996154785
204,283,58134,2,0,B|224:231|224:231|206:146,2,125.999996154785
99,360,58648,1,0,0:0:0:0:
23,246,58820,1,0,0:0:0:0:
133,172,58991,6,0,B|129:122|129:122|155:47,2,125.999996154785
204,283,59505,1,0,0:0:0:0:
317,356,59677,2,0,B|348:326|348:326|350:219,1,125.999996154785
348,69,60020,1,0,0:0:0:0:
348,69,60191,1,0,0:0:0:0:
126,121,60362,6,0,L|202:119,1,62.9999980773926,0|0,3:0|3:0,3:0:0:0:
351,160,60534,2,0,L|275:162,1,62.9999980773926,0|0,3:0|3:0,3:0:0:0:
128,225,60705,2,0,L|204:223,1,62.9999980773926,0|0,3:0|3:0,3:0:0:0:
350,244,60877,2,0,L|274:246,1,62.9999980773926,0|0,3:0|3:0,3:0:0:0:
149,308,61048,5,0,3:0:0:0:
137,330,61133,1,0,3:0:0:0:
146,354,61219,1,0,3:0:0:0:
170,361,61305,1,0,3:0:0:0:
190,347,61390,1,0,3:0:0:0:
193,322,61476,1,0,3:0:0:0:
174,305,61562,1,0,3:0:0:0:
256,192,63127,5,0,3:0:0:0:
224,160,74077,6,0,B|192:128|192:128|288:128,1,140
324,230,74591,2,0,L|333:311,1,70
379,322,74934,2,0,L|370:241,1,70
188,230,75277,2,0,L|179:311,1,70
133,322,75620,2,0,L|142:241,1,70
189,144,75962,6,0,B|231:136|231:136|274:149,1,70
325,143,76305,2,0,B|283:151|283:151|240:138,1,70
256,64,76820,1,0,0:0:0:0:
256,143,76991,2,0,L|256:213,1,70
163,227,77334,1,0,0:0:0:0:
173,317,77505,2,0,P|204:334|242:337,1,70
312,282,77848,2,0,P|343:265|381:262,1,70
458,247,78191,2,0,B|513:150|404:151|475:38,2,210
307,329,79562,6,0,B|286:275|286:275|303:188,1,119.000002269745,8|0,0:0|0:0,0:0:0:0:
256,24,79905,2,0,B|277:78|277:78|265:137,1,119.000002269745,8|0,0:0|0:0,0:0:0:0:
214,327,80248,2,0,B|193:273|193:273|210:186,1,119.000002269745,8|0,0:0|0:0,0:0:0:0:
351,30,80591,2,0,B|372:84|372:84|360:143,1,119.000002269745,8|0,0:0|0:0,0:0:0:0:
126,213,80934,54,0,B|75:230|75:230|-32:210,1,119.000002269745,8|0,0:0|0:0,0:0:0:0:
145,66,81277,2,0,B|196:49|196:49|260:60,1,119.000002269745,8|0,0:0|0:0,0:0:0:0:
130,291,81620,2,0,B|79:308|79:308|-28:288,1,119.000002269745,8|0,0:0|0:0,0:0:0:0:
150,142,81963,2,0,B|201:125|201:125|265:136,1,119.000002269745,8|0,0:0|0:0,0:0:0:0:
411,218,82305,5,0,0:0:0:0:
224,227,82477,1,0,0:0:0:0:
298,307,82648,5,0,0:0:0:0:
246,39,82820,1,0,0:0:0:0:
174,159,82991,5,0,0:0:0:0:
187,184,83076,1,0,0:0:0:0:
204,207,83162,1,0,0:0:0:0:
224,227,83248,1,0,0:0:0:0:
246,244,83333,1,0,0:0:0:0:
271,258,83419,1,0,0:0:0:0:
298,268,83505,1,0,0:0:0:0:
326,274,83591,1,0,0:0:0:0:
348,277,83677,2,0,B|366:235|366:235|346:157,1,119.000002269745
246,39,84020,5,0,0:0:0:0:
246,39,84105,1,0,0:0:0:0:
246,39,84191,2,0,B|228:81|228:81|248:159,1,119.000002269745
329,322,84534,2,0,P|355:331|399:311,1,59.5000011348725
389,247,84705,2,0,P|301:267|378:318,1,178.500003404617
455,216,85048,6,0,P|389:163|230:254,1,280
193,279,85477,1,0,0:0:0:0:
142,306,85562,1,0,0:0:0:0:
91,278,85648,1,0,0:0:0:0:
94,217,85734,1,0,0:0:0:0:
143,190,85820,1,0,0:0:0:0:
190,220,85905,1,0,0:0:0:0:
193,279,85991,1,0,0:0:0:0:
142,306,86077,6,0,L|142:385,1,70
91,278,86248,2,0,L|91:102,1,140
192,32,86591,6,0,L|192:128,1,70
240,192,86762,2,0,L|240:96,1,70
336,0,86934,2,0,L|336:208,1,140
336,316,87277,2,0,L|336:236,1,70
384,192,87448,2,0,L|384:336,2,140
383,59,87962,6,0,L|463:59,1,70
352,128,88134,2,0,L|272:128,1,70
63,59,88305,2,0,L|223:59,1,140
316,175,88562,5,0,0:0:0:0:
288,224,88648,1,0,0:0:0:0:
232,224,88734,1,0,0:0:0:0:
204,175,88820,1,0,0:0:0:0:
232,127,88906,1,0,0:0:0:0:
282,128,88991,2,0,L|442:128,1,140
512,208,89334,6,0,L|416:208,1,70
256,48,89505,2,0,L|352:48,1,70
422,128,89677,2,0,L|282:128,1,140
96,128,90020,5,0,2:0:0:0:
96,208,90191,1,0,2:0:0:0:
96,288,90362,1,0,2:0:0:0:
306,288,90534,6,0,L|42:288,1,210
180,212,90877,2,0,L|250:212,1,70
192,360,91048,2,0,L|40:360,1,140
56,269,91305,5,0,0:0:0:0:
28,220,91391,1,0,0:0:0:0:
56,172,91477,1,0,0:0:0:0:
111,171,91563,1,0,0:0:0:0:
140,220,91648,1,0,0:0:0:0:
110,268,91734,2,0,L|110:128,1,140
328,136,92077,6,0,L|328:206,1,70
184,136,92248,2,0,L|184:66,1,70
256,136,92420,2,0,L|256:304,1,140
456,336,92762,2,0,L|380:336,1,70
328,296,92934,2,0,L|480:296,2,140
24,296,93448,6,0,L|116:296,1,70
312,216,93620,2,0,L|220:216,1,70
168,344,93791,2,0,L|168:140,1,140
170,85,94048,5,0,0:0:0:0:
198,37,94134,1,0,0:0:0:0:
253,36,94219,1,0,0:0:0:0:
282,85,94305,1,0,0:0:0:0:
257,133,94391,1,0,0:0:0:0:
196,135,94477,2,0,L|20:135,1,140
14,66,94820,6,0,L|84:66,1,70
168,204,94991,2,0,L|98:204,1,70
56,135,95162,2,0,L|196:135,1,140
420,136,95505,5,0,2:0:0:0:
420,216,95677,1,0,2:0:0:0:
420,296,95848,1,0,2:0:0:0:
280,296,96020,6,0,L|424:296,1,140
344,220,96362,2,0,L|200:220,1,140
31,218,96620,5,0,0:0:0:0:
31,161,96706,1,0,0:0:0:0:
78,134,96791,1,0,0:0:0:0:
128,163,96877,1,0,0:0:0:0:
129,217,96963,1,0,0:0:0:0:
80,244,97048,6,0,L|80:320,1,70
31,218,97220,2,0,L|31:78,1,140
226,126,97562,6,0,L|310:126,1,70
440,200,97734,2,0,L|356:200,1,70
182,50,97905,2,0,L|386:50,1,140
370,270,98248,2,0,L|370:190,1,70
440,60,98420,2,0,L|440:236,2,140
296,196,98934,6,0,L|296:112,1,70
440,200,99105,2,0,L|440:284,1,70
370,340,99277,2,0,L|370:168,1,140
355,32,99534,5,0,0:0:0:0:
298,29,99620,1,0,0:0:0:0:
270,76,99705,1,0,0:0:0:0:
296,126,99791,1,0,0:0:0:0:
351,127,99877,1,0,0:0:0:0:
380,80,99962,2,0,L|212:80,1,140
16,176,100305,6,0,L|88:176,1,70
142,236,100477,2,0,L|212:236,1,70
296,126,100648,2,0,L|296:306,1,140
420,344,100991,5,0,2:0:0:0:
420,264,101162,1,0,2:0:0:0:
420,184,101334,1,0,2:0:0:0:
210,344,101505,6,0,L|426:344,1,210
332,268,101848,2,0,L|244:268,1,70
104,196,102020,2,0,L|280:196,1,140
396,196,102277,5,0,0:0:0:0:
424,147,102362,1,0,0:0:0:0:
396,99,102447,1,0,0:0:0:0:
340,99,102533,1,0,0:0:0:0:
312,147,102619,1,0,0:0:0:0:
340,196,102705,2,0,L|340:48,1,140
424,147,103048,6,0,L|424:240,1,70
340,266,103220,2,0,L|340:173,1,70
424,217,103391,2,0,L|424:369,1,140
326,356,103734,2,0,L|256:356,1,70
100,280,103905,2,0,L|240:280,1,140
424,217,104248,6,0,L|284:217,1,140
328,136,104591,2,0,L|328:32,1,70
228,136,104762,2,0,L|228:32,1,70
103,64,104934,5,0,0:0:0:0:
47,64,105020,1,0,0:0:0:0:
19,112,105105,1,0,0:0:0:0:
47,161,105191,1,0,0:0:0:0:
103,161,105277,1,0,0:0:0:0:
131,112,105362,1,0,0:0:0:0:
103,64,105448,6,0,L|104:207,1,140,0|0,0:0|3:0,0:0:0:0:
101,256,105705,1,0,3:0:0:0:
78,295,105790,1,0,3:0:0:0:
86,341,105876,1,0,3:0:0:0:
121,370,105962,1,0,3:0:0:0:
167,370,106047,1,0,3:0:0:0:
202,340,106133,1,0,3:0:0:0:
214,293,106220,1,0,3:0:0:0:
249,263,106306,5,0,3:0:0:0:
295,263,106391,1,0,3:0:0:0:
330,292,106477,1,0,3:0:0:0:
341,333,106562,1,0,3:0:0:0:
376,362,106648,1,0,3:0:0:0:
422,362,106733,1,0,3:0:0:0:
458,332,106820,2,0,L|458:283,1,35,0|0,3:0|2:0,0:0:0:0:
444,204,107334,5,0,0:0:0:0:
444,204,107677,2,0,B|359:237|359:237|269:203,1,167.999994873047
131,216,108363,2,0,B|216:183|216:183|306:217,1,167.999994873047
429,213,109048,2,0,P|484:122|445:55,1,167.999994873047
393,128,109734,6,0,B|346:119|346:119|282:128,2,83.9999974365235
281,210,110248,2,0,P|230:179|223:119,1,83.9999974365235
246,65,110591,1,0,0:0:0:0:
354,207,110762,2,0,L|345:299,1,83.9999974365235
426,369,111105,6,0,L|442:195,1,167.999994873047
408,64,111620,2,0,B|300:31|352:107|224:57,1,167.999994873047
119,62,112134,6,0,L|119:121,1,52.5
119,196,112477,6,0,L|119:29,1,132.999996448517
204,98,112820,5,0,0:0:0:0:
125,315,112991,1,0,0:0:0:0:
341,193,113162,5,0,0:0:0:0:
119,114,113333,1,0,0:0:0:0:
263,304,113505,5,0,0:0:0:0:
356,47,113676,1,0,0:0:0:0:
407,303,113848,6,0,B|382:261|382:261|380:244|380:244|365:234|365:234|316:152,1,132.999996448517
124,114,114191,1,0,0:0:0:0:
263,304,114362,1,0,0:0:0:0:
356,47,114534,6,0,B|314:71|314:71|297:73|297:73|287:88|287:88|205:137,1,132.999996448517
125,315,114877,1,0,0:0:0:0:
340,192,115048,1,0,0:0:0:0:
143,50,115220,5,8,3:0:0:0:
136,65,115305,1,0,3:0:0:0:
138,82,115391,1,8,3:0:0:0:
145,103,115477,1,0,3:0:0:0:
152,118,115562,5,8,3:0:0:0:
150,135,115648,1,0,3:0:0:0:
144,151,115734,1,8,3:0:0:0:
137,166,115819,1,0,3:0:0:0:
139,183,115905,5,8,3:0:0:0:
147,198,115991,1,0,3:0:0:0:
154,213,116076,1,8,3:0:0:0:
152,230,116162,1,0,3:0:0:0:
156,248,116248,5,8,3:0:0:0:
172,242,116334,1,0,3:0:0:0:
193,242,116420,1,8,3:0:0:0:
210,250,116505,1,0,3:0:0:0:
224,260,116591,6,0,L|224:164,5,66.4999982242585,0|0|0|0|0|0,3:0|3:0|3:0|3:0|3:0|3:0,3:0:0:0:
269,128,117105,2,0,B|327:116|356:172|356:172|336:196|336:196|383:238|335:249|384:261|384:261|364:301|375:340,1,280,4|0,0:0|0:0,0:0:0:0:
279,322,117620,2,0,B|240:347|240:347|136:347,1,140
256,192,118305,5,0,0:0:0:0:
253,190,120191,6,0,L|252:233,2,35,0|0|0,2:0|2:0|2:0,2:0:0:0:
