osu file format v14

[General]
AudioFilename: audio.mp3
AudioLeadIn: 0
PreviewTime: 37048
Countdown: 0
SampleSet: Normal
StackLeniency: 0.3
Mode: 0
LetterboxInBreaks: 0
WidescreenStoryboard: 0

[Editor]
Bookmarks: 2762,5505,15105,21962,49048,61562,74077,116591,118305
DistanceSpacing: 0.8
BeatDivisor: 4
GridSize: 4
TimelineZoom: 2.4

[Metadata]
Title:Ikaros Feat. Jenga
TitleUnicode:Ikaros Feat. Jenga
Artist:ETIA.
ArtistUnicode:ETIA.
Creator:Starz15
Version:FURY
Source:BMS
Tags:ETIA. Jenga ikaros BOFU2016
BeatmapID:1357452
BeatmapSetID:640119

[Difficulty]
HPDrainRate:4.9
CircleSize:4.3
OverallDifficulty:8.5
ApproachRate:9.3
SliderMultiplier:1.4
SliderTickRate:1

[Events]
//Background and Video events
0,0,"59068154_p1_master1200.jpg",0,0
//Break Periods
2,63327,73523
//Storyboard Layer 0 (Background)
//Storyboard Layer 1 (Fail)
//Storyboard Layer 2 (Pass)
//Storyboard Layer 3 (Foreground)
//Storyboard Sound Samples

[TimingPoints]
20,342.857142857143,4,1,0,60,1,0
2762,-100,4,1,1,30,0,0
3448,-100,4,1,1,40,0,0
4134,-100,4,1,1,50,0,0
4820,-100,4,1,1,60,0,0
5505,-80,4,1,1,50,0,0
10991,-66.6666666666667,4,1,1,60,0,0
13734,-66.6666666666667,4,1,1,40,0,0
16562,-181.818181818181,4,2,1,30,0,0
21962,-58.8235294117647,4,1,1,50,0,0
27877,-66.6666666666667,4,1,1,50,0,0
31134,-76.9230769230769,4,1,1,50,0,0
32848,-66.6666666666667,4,1,1,40,0,0
49220,-200,4,2,1,40,0,0
49734,-55.5555555555556,4,1,1,50,0,1
58734,-55.5555555555556,4,2,1,45,0,1
63105,-55.5555555555556,4,1,1,41,0,0
74077,-100,4,2,1,35,0,0
79562,-58.8235294117647,4,1,1,35,0,0
85048,-50,4,1,1,60,0,1
105620,-50,4,1,1,40,0,1
106734,-200,4,1,1,70,0,1
107334,-83.3333333333333,4,1,1,40,0,0
112477,-52.6315789473684,4,1,1,70,0,0
115220,-52.6315789473684,4,1,1,40,0,0
117020,-50,4,1,1,50,0,0
120191,-133.333333333333,4,1,1,40,0,0

[Colours]
Combo1 : 192,192,192
Combo2 : 217,0,0
Combo3 : 255,74,74
Combo4 : 255,128,128
Combo5 : 159,159,159
Combo6 : 206,49,159

[HitObjects]
108,225,2762,5,0,0:0:0:0:
104,259,2847,1,0,0:0:0:0:
114,292,2933,1,0,0:0:0:0:
137,318,3019,1,0,0:0:0:0:
169,332,3104,1,0,0:0:0:0:
204,332,3190,1,0,0:0:0:0:
236,318,3276,1,0,0:0:0:0:
259,292,3362,1,0,0:0:0:0:
269,259,3447,5,0,0:0:0:0:
265,224,3533,1,0,0:0:0:0:
247,194,3619,1,0,0:0:0:0:
228,173,3705,1,0,0:0:0:0:
210,143,3791,1,0,0:0:0:0:
206,108,3877,1,0,0:0:0:0:
216,75,3963,1,0,0:0:0:0:
239,49,4048,1,0,0:0:0:0:
271,35,4134,5,0,0:0:0:0:
306,35,4220,1,0,0:0:0:0:
338,49,4305,1,0,0:0:0:0:
361,75,4391,1,0,0:0:0:0:
371,108,4477,1,0,0:0:0:0:
368,143,4562,1,0,0:0:0:0:
357,170,4648,1,0,0:0:0:0:
363,203,4733,1,0,0:0:0:0:
387,228,4819,5,0,0:0:0:0:
421,237,4905,1,0,0:0:0:0:
454,226,4990,1,0,0:0:0:0:
476,200,5076,1,0,0:0:0:0:
481,166,5162,1,0,0:0:0:0:
467,134,5247,1,0,0:0:0:0:
441,113,5334,2,0,L|431:157,1,35
323,269,5505,6,0,P|398:310|483:293,1,175
433,147,6020,1,0,0:0:0:0:
268,204,6191,2,0,L|298:107,2,87.5
197,270,6705,1,0,0:0:0:0:
124,331,6877,6,0,P|104:273|166:181,1,175
197,270,7391,2,0,B|111:250|111:250|88:206|65:160,1,175
111,84,7905,2,0,B|190:96|190:96|208:83|208:83|303:98,1,175
313,167,8420,5,0,0:0:0:0:
347,238,8591,2,0,P|388:146|315:89,1,175
313,167,9105,2,0,B|267:180|267:180|201:167,1,87.5
66,165,9448,1,0,0:0:0:0:
66,165,9620,6,0,B|112:152|112:152|178:165,1,87.5
166,301,9962,1,0,0:0:0:0:
166,301,10134,2,0,B|120:314|120:314|54:301,1,87.5
119,233,10477,5,0,0:0:0:0:
137,231,10562,1,0,0:0:0:0:
155,229,10648,1,0,0:0:0:0:
173,227,10734,1,0,0:0:0:0:
192,225,10819,1,0,0:0:0:0:
210,223,10905,1,0,0:0:0:0:
227,220,10991,6,0,L|349:205,1,105.000004005432
457,135,11334,2,0,B|402:127|402:127|339:149,1,105.000004005432
331,207,11677,1,0,0:0:0:0:
469,258,11848,2,0,B|423:275|423:275|368:267,1,105.000004005432
411,201,12191,5,0,0:0:0:0:
509,320,12362,2,0,P|434:384|348:337,1,210.000008010865
313,209,12877,2,0,B|287:192|287:192|287:281,1,105.000004005432
180,348,13220,1,0,0:0:0:0:
180,348,13391,2,0,B|206:365|206:365|206:276,1,105.000004005432
205,217,13734,5,0,0:0:0:0:
205,206,13819,1,0,0:0:0:0:
205,196,13905,1,0,0:0:0:0:
205,185,13991,1,0,0:0:0:0:
205,175,14076,5,0,0:0:0:0:
205,164,14162,1,0,0:0:0:0:
205,154,14248,1,0,0:0:0:0:
205,143,14334,1,0,0:0:0:0:
205,133,14419,5,0,0:0:0:0:
205,122,14505,1,0,0:0:0:0:
205,112,14591,1,0,0:0:0:0:
205,101,14676,1,0,0:0:0:0:
205,90,14762,5,0,0:0:0:0:
205,80,14848,1,0,0:0:0:0:
205,70,14934,1,0,0:0:0:0:
205,59,15019,1,0,0:0:0:0:
204,48,15105,5,0,0:0:0:0:
251,26,15190,1,0,0:0:0:0:
302,30,15276,1,0,0:0:0:0:
346,58,15362,1,0,0:0:0:0:
370,104,15448,5,0,0:0:0:0:
368,156,15533,1,0,0:0:0:0:
344,202,15619,1,0,0:0:0:0:
305,238,15705,1,0,0:0:0:0:
288,289,15790,5,0,0:0:0:0:
309,338,15876,1,0,0:0:0:0:
357,362,15962,1,0,0:0:0:0:
409,348,16047,1,0,0:0:0:0:
439,304,16133,5,0,0:0:0:0:
439,293,16220,1,0,0:0:0:0:
439,281,16305,1,0,0:0:0:0:
440,269,16391,1,0,0:0:0:0:
439,256,16477,1,0,0:0:0:0:
416,128,16820,5,0,2:0:0:0:
353,80,16990,1,0,2:0:0:0:
343,158,17162,1,0,2:0:0:0:
416,128,17334,1,0,2:0:0:0:
416,128,17677,6,0,L|416:208,1,77.0000023498536,0|0,2:0|2:0,2:0:0:0:
342,309,18362,2,0,L|342:229,1,77.0000023498536,0|0,2:0|2:0,2:0:0:0:
342,232,18877,1,0,0:0:0:0:
287,141,19562,5,0,0:0:0:0:
369,154,19734,1,0,2:0:0:0:
439,194,19905,1,0,2:0:0:0:
442,272,20077,1,0,2:0:0:0:
338,344,20420,6,0,P|312:351|256:331,1,77.0000023498536
278,167,21105,2,0,L|319:173,1,38.5000011749268
293,255,21448,21,0,3:0:0:0:
241,255,21533,1,0,3:0:0:0:
190,255,21619,1,0,3:0:0:0:
190,255,21962,6,0,B|221:168|221:168|205:109|205:109|233:26,1,238.00000453949
304,128,22477,2,0,B|368:144|368:144|432:128,1,119.000002269745
128,128,22820,2,0,B|64:112|64:112|0:128,1,119.000002269745
38,259,23162,1,0,0:0:0:0:
222,315,23334,6,0,P|298:257|205:233,1,238.00000453949,0|0,0:0|0:0,3:0:0:0:
272,117,23848,2,0,B|340:131|340:131|390:187,1,119.000002269745
489,294,24191,2,0,B|419:290|419:290|361:243,1,119.000002269745
293,212,24534,1,0,0:0:0:0:
204,151,24705,6,0,P|99:134|90:240,1,238.00000453949
144,192,25220,2,0,B|112:160|112:160|112:64,1,119.000002269745
90,240,25562,2,0,B|122:272|122:272|122:368,1,119.000002269745
16,320,25905,1,0,0:0:0:0:
208,288,26077,5,0,0:0:0:0:
144,192,26248,1,0,0:0:0:0:
252,215,26420,2,0,B|314:234|314:234|373:219,1,119.000002269745
376,99,26762,2,0,B|314:80|314:80|255:95,1,119.000002269745
144,192,27105,5,0,0:0:0:0:
134,52,27277,1,0,0:0:0:0:
70,215,27448,2,0,P|118:266|215:163,1,238.00000453949,0|8,0:0|0:0,0:0:0:0:
235,49,27962,5,0,0:0:0:0:
278,132,28134,1,0,0:0:0:0:
170,118,28305,1,0,0:0:0:0:
331,61,28477,1,8,0:0:0:0:
355,235,28648,6,0,B|382:186|382:186|375:122,1,105.000004005432
443,231,28991,2,0,B|416:280|416:280|423:344,1,105.000004005432,0|8,0:0|0:0,0:0:0:0:
329,347,29334,2,0,B|278:355|278:355|208:342,1,105.000004005432
176,270,29677,1,0,0:0:0:0:
209,76,29848,2,0,B|225:158|225:158|266:182|266:182|290:304,1,210.000008010865,8|0,0:0|0:0,0:0:0:0:
380,169,30362,5,0,0:0:0:0:
380,169,30534,1,8,0:0:0:0:
273,365,30705,1,0,0:0:0:0:
391,281,30876,1,0,0:0:0:0:
459,342,31048,2,0,B|487:321|487:321|487:232,1,105.000004005432,0|8,0:0|0:0,0:0:0:0:
413,92,31391,6,0,P|371:75|325:76,1,90.9999958343508
147,83,31734,2,0,P|188:99|234:98,1,90.9999958343508,0|8,0:0|0:0,0:0:0:0:
411,205,32077,2,0,P|369:188|323:189,1,90.9999958343508
142,195,32420,2,0,P|183:211|229:210,1,90.9999958343508,0|8,0:0|0:0,0:0:0:0:
291,291,32762,1,0,0:0:0:0:
163,343,32934,6,0,B|142:348|120:339|120:339|100:347|100:347|77:335|35:343,1,105.000004005432
79,246,33277,2,0,P|69:165|174:122,1,210.000008010865,8|0,0:0|0:0,0:0:0:0:
142,195,33791,1,0,0:0:0:0:
375,215,33962,1,8,0:0:0:0:
265,79,34133,1,0,0:0:0:0:
211,328,34305,6,0,B|235:277|235:277|234:210|234:210|266:242|266:242|323:254,1,210.000008010865,0|8,0:0|0:0,0:0:0:0:
352,345,34820,2,0,B|390:353|390:353|406:343|406:343|434:344|434:344|456:342|472:322,1,105.000004005432
447,227,35162,2,0,P|447:127|348:90,1,210.000008010865
289,199,35677,5,0,3:0:0:0:
314,233,35762,1,0,3:0:0:0:
311,275,35848,1,0,3:0:0:0:
281,306,35934,1,0,3:0:0:0:
239,309,36019,1,0,3:0:0:0:
204,284,36105,1,0,3:0:0:0:
194,243,36191,1,0,3:0:0:0:
211,203,36277,1,0,3:0:0:0:
200,161,36363,5,0,3:0:0:0:
166,137,36449,1,0,3:0:0:0:
123,141,36534,1,0,3:0:0:0:
93,171,36620,1,0,3:0:0:0:
90,213,36706,1,0,3:0:0:0:
115,247,36791,1,0,3:0:0:0:
123,292,36877,1,0,3:0:0:0:
96,327,36963,1,0,3:0:0:0:
54,330,37048,1,0,3:0:0:0:
211,123,37905,5,0,0:0:0:0:
100,83,38077,2,0,B|80:138|80:138|89:204,1,105.000004005432
120,208,38334,1,0,0:0:0:0:
142,243,38420,2,0,B|148:289|148:289|128:344,2,105.000004005432
241,248,38934,6,0,B|344:199|347:298|453:236,1,210.000008010865
393,81,39448,2,0,P|345:102|328:178,1,105.000004005432
273,319,39791,2,0,P|189:309|196:185,1,210.000008010865
170,107,40305,2,0,B|213:95|242:120|242:120|268:103|268:103|324:143|394:107,1,210.000008010865
457,83,40820,2,0,P|421:37|361:24,1,105.000004005432
315,216,41162,5,0,0:0:0:0:
464,183,41334,1,0,0:0:0:0:
227,151,41505,1,0,0:0:0:0:
385,274,41677,2,0,B|396:222|396:222|373:132,1,105.000004005432
293,65,42020,5,0,0:0:0:0:
245,259,42191,1,0,0:0:0:0:
320,132,42362,1,0,0:0:0:0:
192,195,42534,6,0,P|163:259|282:335,1,210.000008010865
502,350,43048,2,0,B|425:327|425:327|387:283|387:283|310:261,1,210.000008010865
276,183,43562,2,0,P|267:123|305:78,1,105.000004005432
371,165,43905,5,0,0:0:0:0:
160,212,44077,1,0,0:0:0:0:
266,334,44248,1,0,0:0:0:0:
138,136,44420,2,0,P|82:200|156:293,1,210.000008010865
252,257,44934,6,0,B|329:254|329:254|302:221,1,105.000004005432
258,47,45277,1,0,0:0:0:0:
354,155,45448,1,0,0:0:0:0:
236,171,45620,1,0,0:0:0:0:
391,67,45791,2,0,P|447:136|377:247,1,210.000008010865
326,305,46305,2,0,B|271:312|271:312|174:295,1,105.000004005432
141,185,46648,6,0,P|203:159|256:190,1,105.000004005432
128,307,46991,1,0,0:0:0:0:
52,212,47162,2,0,L|51:75,1,105.000004005432
177,91,47505,1,0,0:0:0:0:
199,236,47677,5,0,0:0:0:0:
367,171,47848,2,0,P|383:120|351:39,1,105.000004005432
316,230,48191,2,0,P|364:249|413:233,1,105.000004005432
256,179,48534,5,0,2:0:0:0:
232,188,48619,1,0,2:0:0:0:
209,197,48705,1,0,2:0:0:0:
185,206,48791,1,0,2:0:0:0:
162,215,48876,1,0,2:0:0:0:
140,208,48962,1,0,2:0:0:0:
116,198,49048,1,0,2:0:0:0:
93,189,49133,1,0,2:0:0:0:
66,179,49220,6,0,L|67:133,1,35
54,45,49734,6,0,P|130:67|157:154,1,125.999996154785,8|0,0:0|0:0,0:0:0:0:
192,217,50077,2,0,B|256:234|256:234|342:204,1,125.999996154785,0|0,0:0|0:0,0:0:0:0:
357,103,50420,2,0,P|397:55|458:46,1,125.999996154785,8|0,0:0|0:0,0:0:0:0:
438,128,50762,5,0,0:0:0:0:
255,139,50934,1,0,0:0:0:0:
360,292,51105,1,8,0:0:0:0:
291,66,51277,2,0,P|189:94|220:212,1,251.999992309571
202,319,51791,6,0,B|137:337|137:337|60:300,1,125.999996154785,8|0,0:0|0:0,0:0:0:0:
219,212,52134,1,0,0:0:0:0:
276,349,52305,1,0,0:0:0:0:
151,258,52477,1,8,0:0:0:0:
285,123,52648,1,0,0:0:0:0:
337,224,52819,6,0,P|275:235|219:211,1,125.999996154785
336,23,53162,2,0,P|380:64|395:125,1,125.999996154785,8|0,0:0|0:0,0:0:0:0:
176,123,53505,2,0,P|192:62|241:24,1,125.999996154785
241,24,53848,6,0,P|223:83|174:121,1,125.999996154785,8|0,0:0|0:0,0:0:0:0:
142,205,54191,2,0,P|97:159|89:97,1,125.999996154785
34,28,54534,2,0,P|93:12|151:35,1,125.999996154785,8|0,0:0|0:0,0:0:0:0:
241,145,54877,6,0,B|272:159|301:147|301:147|307:164|307:164|344:148|370:160,1,125.999996154785
490,183,55220,1,8,0:0:0:0:
479,326,55391,2,0,P|417:328|367:291,1,125.999996154785
413,199,55734,2,0,B|423:146|423:146|392:73,2,125.999996154785,0|8|0,0:0|0:0|0:0,0:0:0:0:
367,291,56248,5,0,0:0:0:0:
230,75,56420,1,0,0:0:0:0:
394,79,56591,1,8,0:0:0:0:
347,166,56762,2,0,B|259:203|259:203|199:186|199:186|92:230,1,251.999992309571
182,281,57277,5,8,0:0:0:0:
230,75,57448,1,0,0:0:0:0:
33,122,57620,1,0,2:0:0:0:
33,122,57791,6,0,B|48:188|48:188|6:249,1,125.999996154785,0|0,2:0|2:0,2:0:0:0:
62,289,58134,2,0,B|111:243|111:243|169:247,1,125.999996154785,0|0,2:0|2:0,2:0:0:0:
193,180,58477,2,0,B|128:159|128:159|103:107,1,125.999996154785,0|0,2:0|2:0,2:0:0:0:
274,63,58820,5,0,0:0:0:0:
274,63,58991,2,0,B|280:113|280:113|270:150|270:150|273:209,1,125.999996154785
338,349,59334,1,0,0:0:0:0:
338,349,59505,1,0,0:0:0:0:
338,349,59677,2,0,B|344:299|344:299|334:262|334:262|337:203,1,125.999996154785
354,90,60020,1,0,0:0:0:0:
354,90,60191,1,0,0:0:0:0:
266,269,60362,6,0,L|267:201,1,62.9999980773926,8|0,3:0|3:0,3:0:0:0:
234,50,60534,2,0,L|232:137,1,62.9999980773926,8|0,3:0|3:0,3:0:0:0:
158,273,60705,2,0,L|159:185,1,62.9999980773926,8|0,3:0|3:0,3:0:0:0:
124,91,60877,5,0,3:0:0:0:
124,78,60962,1,0,3:0:0:0:
133,69,61048,1,0,3:0:0:0:
146,68,61134,1,0,3:0:0:0:
156,75,61220,1,0,3:0:0:0:
160,87,61305,1,0,3:0:0:0:
154,98,61391,1,0,3:0:0:0:
143,104,61477,1,0,3:0:0:0:
131,101,61562,1,0,3:0:0:0:
256,192,63127,5,0,3:0:0:0:
300,207,74077,6,0,P|255:133|212:209,1,210
376,183,74934,2,0,P|372:139|342:104,1,70
136,183,75277,2,0,P|139:139|169:104,1,70
295,288,75620,6,0,P|336:283|371:248,1,70
217,288,75962,2,0,P|176:283|140:248,1,70
256,198,76305,1,0,0:0:0:0:
256,198,76477,2,0,L|256:102,1,70
256,128,76820,5,0,0:0:0:0:
256,128,76991,1,0,0:0:0:0:
216,55,77162,1,0,0:0:0:0:
216,55,77334,2,0,L|312:55,1,70
331,151,77677,1,0,0:0:0:0:
414,188,77848,6,0,P|424:154|415:121,1,70
256,198,78191,2,0,P|281:223|314:233,1,70
327,57,78534,2,0,P|292:65|268:89,1,70
268,89,78877,2,0,P|302:80|326:56,1,70
168,55,79220,2,0,B|163:76|163:76|170:95|158:113|158:113|166:128|155:146|155:146|157:161|154:177,1,105
155,155,79562,6,0,B|213:182|213:182|309:169,1,119.000002269745,8|0,0:0|0:0,0:0:0:0:
113,241,79905,2,0,B|55:267|55:267|-40:254,1,119.000002269745,8|0,0:0|0:0,0:0:0:0:
165,310,80248,2,0,B|222:336|222:336|318:323,1,119.000002269745,8|0,0:0|0:0,0:0:0:0:
379,320,80591,1,8,0:0:0:0:
183,221,80762,1,0,0:0:0:0:
334,108,80934,6,0,B|322:155|322:155|329:195|329:195|318:232,1,119.000002269745,8|0,0:0|0:0,0:0:0:0:
246,305,81277,2,0,B|258:258|258:258|251:218|251:218|262:181,1,119.000002269745,8|0,0:0|0:0,0:0:0:0:
212,34,81620,2,0,B|200:81|200:81|207:121|207:121|196:158,1,119.000002269745,8|0,0:0|0:0,0:0:0:0:
117,306,81963,2,0,B|129:259|129:259|122:219|122:219|133:182,1,119.000002269745,8|0,0:0|0:0,0:0:0:0:
98,51,82305,5,0,0:0:0:0:
40,302,82477,1,0,0:0:0:0:
254,281,82648,1,0,0:0:0:0:
12,235,82820,1,0,0:0:0:0:
214,96,82991,5,0,0:0:0:0:
262,85,83076,1,0,0:0:0:0:
305,111,83162,1,0,0:0:0:0:
319,159,83248,1,0,0:0:0:0:
295,204,83333,1,0,0:0:0:0:
248,221,83419,1,0,0:0:0:0:
201,203,83505,1,0,0:0:0:0:
194,155,83591,1,0,0:0:0:0:
194,155,83677,5,0,0:0:0:0:
194,155,83762,1,0,0:0:0:0:
194,155,83848,1,0,0:0:0:0:
363,63,84020,1,0,0:0:0:0:
508,131,84191,6,0,B|427:175|427:175|373:160|373:160|282:210,1,238.00000453949,8|0,0:0|0:0,0:0:0:0:
294,203,84705,2,0,P|274:246|318:204,1,178.500003404617
226,304,85048,6,0,P|305:338|402:190,1,280
386,134,85477,1,0,0:0:0:0:
333,90,85562,1,0,0:0:0:0:
264,83,85648,1,0,0:0:0:0:
204,115,85734,1,0,0:0:0:0:
171,176,85819,1,0,0:0:0:0:
183,247,85905,1,0,0:0:0:0:
226,304,85991,1,0,0:0:0:0:
292,334,86077,6,0,B|333:345|375:316,1,70
414,282,86248,2,0,B|396:224|396:224|299:154,1,140
183,247,86591,2,0,B|110:232|110:232|76:177,1,140
244,73,86934,2,0,B|244:185|244:185|292:233|292:233|292:377,1,280
347,349,87362,1,0,0:0:0:0:
399,327,87448,6,0,B|394:298|394:298|409:243,1,70
396,214,87620,2,0,B|404:182|404:182|386:130,1,70
385,103,87791,1,0,0:0:0:0:
385,103,87962,6,0,L|311:119,1,70
200,92,88134,2,0,L|250:148,1,70
286,255,88305,2,0,L|309:183,1,70
317,117,88477,5,0,0:0:0:0:
264,82,88562,1,0,0:0:0:0:
200,92,88648,1,0,0:0:0:0:
154,136,88734,1,0,0:0:0:0:
142,200,88819,1,0,0:0:0:0:
171,258,88905,1,0,0:0:0:0:
216,306,88991,6,0,B|261:329|261:329|376:330,1,140
460,361,89334,2,0,B|454:312|454:312|384:218,1,140
390,122,89677,2,0,B|350:150|350:150|304:258,1,140
350,329,90020,5,0,2:0:0:0:
98,244,90192,5,0,2:0:0:0:
272,69,90362,5,0,2:0:0:0:
272,69,90534,6,0,B|246:127|287:176|287:176|253:206|253:206|308:275|238:330,1,280
186,362,91048,2,0,B|115:382|115:382|35:353,1,140
46,286,91305,1,0,0:0:0:0:
37,219,91390,1,0,0:0:0:0:
90,178,91476,1,0,0:0:0:0:
152,203,91562,1,0,0:0:0:0:
156,273,91648,1,0,0:0:0:0:
220,304,91734,2,0,B|291:323|291:323|380:300,1,140
450,274,92077,6,0,L|448:343,1,70
383,239,92248,2,0,L|384:169,1,70
472,74,92420,2,0,B|436:91|387:59|387:59|348:88|348:88|283:51|210:94,1,280
192,161,92848,1,0,0:0:0:0:
181,232,92934,2,0,B|156:260|156:260|114:267,1,70
222,291,93105,2,0,B|227:323|227:323|209:366,1,70
293,294,93277,1,0,0:0:0:0:
293,294,93448,6,0,P|287:209|278:202,1,70
391,243,93620,2,0,P|340:174|329:172,1,70
466,164,93791,2,0,P|373:109|313:127,1,140
283,144,94048,5,0,0:0:0:0:
240,196,94133,1,0,0:0:0:0:
172,199,94219,1,0,0:0:0:0:
126,149,94305,1,0,0:0:0:0:
133,82,94390,1,0,0:0:0:0:
190,41,94477,2,0,B|221:58|253:38|253:38|264:56|264:56|295:41|378:52,1,140
393,140,94820,6,0,B|402:183|402:183|379:253,1,70
474,258,94991,2,0,B|448:293|448:293|380:323,1,70
344,350,95162,2,0,B|292:326|237:352|237:352|218:312|218:312|149:356|78:314,1,280
25,144,95677,1,0,2:0:0:0:
148,247,95848,1,0,2:0:0:0:
196,104,96020,6,0,B|260:104|260:104|272:88|272:88|360:88,1,140
461,218,96362,2,0,B|397:218|397:218|385:202|385:202|297:202,1,140
258,207,96620,5,0,0:0:0:0:
190,191,96705,1,0,0:0:0:0:
148,247,96791,1,0,0:0:0:0:
180,311,96877,1,0,0:0:0:0:
250,303,96962,1,0,0:0:0:0:
312,270,97048,1,0,0:0:0:0:
381,277,97134,1,0,0:0:0:0:
426,339,97220,6,0,B|485:289|444:219|444:219|461:219|461:219|409:159|441:69,1,280
308,78,97734,2,0,B|276:91|276:91|224:84,1,70
190,174,97905,2,0,P|251:159|311:270,1,210,0|0,0:0|0:0,3:0:0:0:
239,237,98248,5,0,0:0:0:0:
167,256,98334,1,0,0:0:0:0:
94,239,98420,2,0,B|89:193|89:193|102:154,1,70
25,267,98591,2,0,B|2:226|2:226|0:185,1,70
0,335,98762,1,0,0:0:0:0:
0,335,98934,6,0,L|73:352,1,70
177,323,99105,2,0,L|250:306,1,70
373,344,99277,2,0,P|445:310|448:240,1,140
414,201,99534,5,0,0:0:0:0:
351,177,99619,1,0,0:0:0:0:
336,112,99705,1,0,0:0:0:0:
383,64,99791,1,0,0:0:0:0:
449,78,99876,1,0,0:0:0:0:
475,142,99962,2,0,B|423:185|372:150|372:150|334:172|334:172|268:137|202:165,1,280
116,145,100477,6,0,P|88:115|89:70,1,70
170,214,100648,2,0,B|159:254|186:279|186:279|170:283|170:283|193:303|171:351,1,140
264,333,100991,5,0,2:0:0:0:
282,100,101162,5,0,2:0:0:0:
80,206,101334,5,0,2:0:0:0:
80,206,101505,6,0,B|134:187|181:221|181:221|226:194|226:194|269:232|343:212,1,280
379,308,102020,2,0,P|425:276|436:197,1,140
409,132,102277,1,0,0:0:0:0:
362,72,102362,1,0,0:0:0:0:
295,45,102448,1,0,0:0:0:0:
226,38,102534,1,0,0:0:0:0:
160,61,102619,1,0,0:0:0:0:
95,93,102705,6,0,B|68:144|122:192|122:192|91:235|91:235|133:297|77:362,1,280
227,343,103220,2,0,B|262:355|262:355|294:349,1,70
281,267,103391,2,0,B|318:209|389:227|389:227|400:276|400:276|496:301|518:197,1,280
486,181,103820,1,0,0:0:0:0:
454,117,103905,2,0,B|480:89|480:89|516:83,1,70
393,82,104077,2,0,B|400:44|400:44|428:20,1,70
322,96,104248,2,0,P|251:52|184:102,1,140
102,134,104591,6,0,B|118:170|118:170|162:189,1,70
254,202,104762,2,0,B|238:166|238:166|194:147,1,70
147,183,104934,1,0,0:0:0:0:
123,247,105019,1,0,0:0:0:0:
141,314,105105,1,0,0:0:0:0:
193,359,105191,1,0,0:0:0:0:
262,365,105276,5,0,0:0:0:0:
322,332,105362,1,0,0:0:0:0:
352,268,105448,2,0,B|384:211|384:211|378:113,1,140,0|0,0:0|3:0,0:0:0:0:
340,103,105705,5,0,3:0:0:0:
340,103,105791,1,0,3:0:0:0:
340,103,105877,1,0,3:0:0:0:
340,103,105962,1,0,3:0:0:0:
340,103,106048,1,0,3:0:0:0:
340,103,106134,1,0,3:0:0:0:
340,103,106220,1,0,3:0:0:0:
340,103,106305,1,0,3:0:0:0:
340,103,106391,1,0,3:0:0:0:
303,108,106476,5,0,3:0:0:0:
267,113,106562,1,0,3:0:0:0:
231,118,106648,1,0,3:0:0:0:
195,124,106733,1,0,3:0:0:0:
159,134,106820,6,0,L|158:170,1,35,0|0,3:0|2:0,3:0:0:0:
149,291,107334,5,0,0:0:0:0:
149,291,107677,2,0,P|225:270|253:170,1,167.999994873047
345,164,108363,2,0,P|288:108|188:134,1,167.999994873047
137,57,109048,2,0,P|117:133|189:207,1,167.999994873047
369,130,109734,6,0,B|286:106|286:106|169:123,2,167.999994873047
430,175,110591,1,0,0:0:0:0:
439,267,110762,2,0,P|374:249|337:170,1,125.999996154785
341,203,111105,2,0,B|274:187|234:215|234:215|204:179|204:179|159:201|92:187,2,251.999992309571
341,203,112477,6,0,P|320:221|334:197,1,66.4999982242585,0|0,3:0|3:0,3:0:0:0:
361,123,112648,1,0,3:0:0:0:
375,282,112819,1,0,3:0:0:0:
231,215,112990,1,0,3:0:0:0:
442,196,113162,5,0,3:0:0:0:
280,311,113333,1,0,3:0:0:0:
262,112,113504,1,0,3:0:0:0:
402,337,113677,5,0,3:0:0:0:
178,232,113848,2,0,L|242:184,1,66.4999982242585,0|0,3:0|3:0,3:0:0:0:
379,88,114019,1,0,3:0:0:0:
262,352,114191,5,0,3:0:0:0:
237,78,114362,1,0,3:0:0:0:
485,194,114534,2,0,L|398:202,1,66.4999982242585,0|0,3:0|3:0,3:0:0:0:
148,220,114705,5,0,3:0:0:0:
414,32,114876,1,0,3:0:0:0:
443,358,115047,1,0,3:0:0:0:
89,179,115220,5,0,3:0:0:0:
100,149,115305,1,0,3:0:0:0:
112,119,115391,1,0,3:0:0:0:
193,293,115562,1,0,3:0:0:0:
181,322,115647,1,0,3:0:0:0:
170,352,115733,1,0,3:0:0:0:
355,201,115905,5,0,3:0:0:0:
385,212,115991,1,0,3:0:0:0:
414,224,116076,1,0,3:0:0:0:
278,82,116248,1,0,3:0:0:0:
248,71,116334,1,0,3:0:0:0:
219,59,116419,1,0,3:0:0:0:
100,149,116591,6,0,P|180:145|74:213,1,332.499991121292,0|0,3:0|3:0,3:0:0:0:
61,316,117105,2,0,B|110:288|169:320|169:320|210:294|210:294|272:323|321:287,1,280,0|0,3:0|3:0,0:0:0:0:
355,201,117620,1,0,0:0:0:0:
157,183,118305,5,0,0:0:0:0:
255,192,120191,6,0,L|250:121,2,52.5000020027161
