osu file format v14

[General]
AudioFilename: audio.mp3
AudioLeadIn: 0
PreviewTime: 108824
Countdown: 0
SampleSet: Soft
StackLeniency: 0.7
Mode: 3
LetterboxInBreaks: 0
SpecialStyle: 0
WidescreenStoryboard: 0

[Editor]
DistanceSpacing: 1.1
BeatDivisor: 4
GridSize: 4
TimelineZoom: 1.6

[Metadata]
Title:Enkan no Kotowari
TitleUnicode:円環の理
Artist:ETIA.
ArtistUnicode:ETIA.
Creator:Koneko-
Version:Normal
Source:BMS
Tags:
BeatmapID:1212881
BeatmapSetID:572401

[Difficulty]
HPDrainRate:7.5
CircleSize:4
OverallDifficulty:7.3
ApproachRate:5
SliderMultiplier:1.4
SliderTickRate:1

[Events]
//Background and Video events
0,0,"Enkan no Kotowari bg.jpg",0,0
//Break Periods
//Storyboard Layer 0 (Background)
//Storyboard Layer 1 (Fail)
//Storyboard Layer 2 (Pass)
//Storyboard Layer 3 (Foreground)
//Storyboard Sound Samples

[TimingPoints]
1450,333.333333333333,4,2,0,25,1,0
12116,-100,4,2,0,25,0,1
12199,-100,4,2,0,25,0,0
21449,-100,4,2,0,25,0,1
21533,-100,4,2,0,25,0,0
21949,-100,4,2,0,25,0,1
22033,-100,4,2,0,25,0,0
22449,-100,4,2,0,25,0,1
22533,-100,4,2,0,25,0,0
22783,-100,4,2,0,25,0,1
22866,-100,4,2,0,25,0,0
28116,-100,4,2,0,25,0,1
33366,-100,4,2,0,25,0,0
33449,-100,4,2,0,25,0,1
38699,-100,4,2,0,25,0,0
38783,-100,4,2,0,25,0,1
40033,-100,4,2,0,25,0,0
40116,-100,4,2,0,25,0,1
41366,-100,4,2,0,25,0,0
41449,-100,4,2,0,25,0,1
42033,-100,4,2,0,25,0,0
42116,-100,4,2,0,25,0,1
42699,-100,4,2,0,25,0,0
42784,-100,4,2,0,25,0,1
42877,-100,4,2,0,25,0,0
44116,-100,4,2,0,25,0,1
44199,-100,4,2,0,25,0,0
53449,-100,4,2,0,25,0,1
53533,-100,4,2,0,25,0,0
53949,-100,4,2,0,25,0,1
54033,-100,4,2,0,25,0,0
54449,-100,4,2,0,25,0,1
54533,-100,4,2,0,25,0,0
55116,-100,4,2,0,25,0,1
55199,-100,4,2,0,25,0,0
60116,-100,4,2,0,25,0,1
60199,-100,4,2,0,25,0,0
61449,-100,4,2,0,25,0,1
61533,-100,4,2,0,25,0,0
62783,-100,4,2,0,25,0,1
62949,-100,4,2,0,25,0,0
63033,-100,4,2,0,25,0,1
63199,-100,4,2,0,25,0,0
63283,-100,4,2,0,25,0,1
63449,-100,4,2,0,25,0,0
64116,-100,4,2,0,25,0,1
64283,-100,4,2,0,25,0,0
64366,-100,4,2,0,25,0,1
64533,-100,4,2,0,25,0,0
64616,-100,4,2,0,25,0,1
64699,-100,4,2,0,25,0,0
64783,-100,4,2,0,25,0,1
64866,-100,4,2,0,25,0,0
64949,-100,4,2,0,25,0,1
65033,-100,4,2,0,25,0,0
76116,-100,4,2,0,25,0,1
76199,-100,4,2,0,25,0,0
86783,-100,4,2,0,25,0,1
86866,-100,4,2,0,25,0,0
87283,-100,4,2,0,25,0,1
87366,-100,4,2,0,25,0,0
87783,-100,4,2,0,25,0,1
87866,-100,4,2,0,25,0,0
88283,-100,4,2,0,25,0,1
88366,-100,4,2,0,25,0,0
88783,-100,4,2,0,25,0,1
88866,-100,4,2,0,25,0,0
89116,-100,4,2,0,25,0,1
89199,-100,4,2,0,25,0,0
89449,-100,4,2,0,25,0,1
89532,-100,4,2,0,25,0,0
89949,-100,4,2,0,25,0,1
90032,-100,4,2,0,25,0,0
90449,-100,4,2,0,25,0,1
90532,-100,4,2,0,25,0,0
90949,-100,4,2,0,25,0,1
91032,-100,4,2,0,25,0,0
91449,-100,4,2,0,25,0,1
91532,-100,4,2,0,25,0,0
91782,-100,4,2,0,25,0,1
91865,-100,4,2,0,25,0,0
92115,-100,4,2,0,25,0,1
92198,-100,4,2,0,25,0,0
92615,-100,4,2,0,25,0,1
92698,-100,4,2,0,25,0,0
93115,-100,4,2,0,25,0,1
93198,-100,4,2,0,25,0,0
93615,-100,4,2,0,25,0,1
93698,-100,4,2,0,25,0,0
94115,-100,4,2,0,25,0,1
94198,-100,4,2,0,25,0,0
94448,-100,4,2,0,25,0,1
94531,-100,4,2,0,25,0,0
94781,-100,4,2,0,25,0,1
94864,-100,4,2,0,25,0,0
95281,-100,4,2,0,25,0,1
95364,-100,4,2,0,25,0,0
95781,-100,4,2,0,25,0,1
95864,-100,4,2,0,25,0,0
96281,-100,4,2,0,25,0,1
96364,-100,4,2,0,25,0,0
96781,-100,4,2,0,25,0,1
96864,-100,4,2,0,25,0,0
97114,-100,4,2,0,25,0,1
97197,-100,4,2,0,25,0,0
97783,-100,4,2,0,25,0,1
100033,-100,4,2,0,25,0,0
100116,-100,4,2,0,25,0,1
102699,-100,4,2,0,25,0,0
102783,-100,4,2,0,25,0,1
104033,-100,4,2,0,25,0,0
104116,-100,4,2,0,25,0,1
105366,-100,4,2,0,25,0,0
105449,-100,4,2,0,25,0,1
106033,-100,4,2,0,25,0,0
106116,-100,4,2,0,25,0,1
106366,-100,4,2,0,25,0,0
106449,-100,4,2,0,25,0,1
106866,-100,4,2,0,25,0,0
106949,-100,4,2,0,25,0,1
107366,-100,4,2,0,25,0,0
107449,-100,4,2,0,25,0,1
107699,-100,4,2,0,25,0,0
107783,-100,4,2,0,25,0,1
108115,-100,4,2,0,25,0,0
108116,-100,4,2,0,25,0,1
108199,-100,4,2,0,25,0,0
109449,333.333333333333,4,2,0,25,1,0
109490,-100,4,2,0,25,0,1
109532,-100,4,2,0,25,0,0
120157,-100,4,2,0,25,0,1
122698,-100,4,2,0,25,0,0
122823,-100,4,2,0,25,0,1
125365,-100,4,2,0,25,0,0
125490,-100,4,2,0,25,0,1
126698,-100,4,2,0,25,0,0
126823,-100,4,2,0,25,0,1
128032,-100,4,2,0,25,0,0
128157,-100,4,2,0,25,0,1
128698,-100,4,2,0,25,0,0
128782,-100,4,2,0,25,0,1
129365,-100,4,2,0,25,0,0
129448,-100,4,2,0,25,0,1
129698,-100,4,2,0,25,0,0
129782,-100,4,2,0,25,0,1
130032,-100,4,2,0,25,0,0
130115,-100,4,2,0,25,0,1
130365,-100,4,2,0,25,0,0
130448,-100,4,2,0,25,0,1
130865,-100,4,2,0,25,0,0

[HitObjects]
64,192,1450,5,0,0:0:0:0:
448,192,2449,1,0,0:0:0:0:
320,192,2783,1,0,0:0:0:0:
192,192,3116,1,0,0:0:0:0:
64,192,3449,1,0,0:0:0:0:
192,192,3783,1,0,0:0:0:0:
320,192,4116,1,0,0:0:0:0:
448,192,5116,1,0,0:0:0:0:
64,192,5449,1,0,0:0:0:0:
320,192,6116,1,0,0:0:0:0:
192,192,6783,1,0,0:0:0:0:
448,192,7783,1,0,0:0:0:0:
320,192,8116,1,0,0:0:0:0:
64,192,8783,1,0,0:0:0:0:
192,192,9449,1,0,0:0:0:0:
448,192,10116,1,0,0:0:0:0:
320,192,10783,1,0,0:0:0:0:
192,192,11116,1,0,0:0:0:0:
320,192,11449,1,0,0:0:0:0:
64,192,12116,1,0,0:0:0:0:
448,192,12116,1,0,0:0:0:0:
192,192,12449,1,0,0:0:0:0:
320,192,12616,1,0,0:0:0:0:
192,192,12783,1,0,0:0:0:0:
448,192,13116,1,0,0:0:0:0:
320,192,13283,1,0,0:0:0:0:
448,192,13449,1,0,0:0:0:0:
64,192,13783,1,0,0:0:0:0:
192,192,13949,1,0,0:0:0:0:
64,192,14116,1,0,0:0:0:0:
320,192,14449,1,0,0:0:0:0:
192,192,14616,1,0,0:0:0:0:
320,192,14783,1,0,0:0:0:0:
192,192,15116,1,0,0:0:0:0:
448,192,15283,1,0,0:0:0:0:
192,192,15449,1,0,0:0:0:0:
448,192,15783,1,0,0:0:0:0:
320,192,15949,1,0,0:0:0:0:
448,192,16116,1,0,0:0:0:0:
64,192,16449,1,0,0:0:0:0:
192,192,16616,1,0,0:0:0:0:
64,192,16783,1,0,0:0:0:0:
320,192,17116,1,0,0:0:0:0:
64,192,17283,1,0,0:0:0:0:
320,192,17449,1,0,0:0:0:0:
192,192,17783,1,0,0:0:0:0:
320,192,17949,1,0,0:0:0:0:
192,192,18116,1,0,0:0:0:0:
448,192,18449,1,0,0:0:0:0:
320,192,18616,1,0,0:0:0:0:
448,192,18783,1,0,0:0:0:0:
64,192,19116,1,0,0:0:0:0:
192,192,19283,1,0,0:0:0:0:
64,192,19449,1,0,0:0:0:0:
320,192,19783,1,0,0:0:0:0:
192,192,19949,1,0,0:0:0:0:
320,192,20116,1,0,0:0:0:0:
448,192,20449,1,0,0:0:0:0:
64,192,20616,1,0,0:0:0:0:
448,192,20783,1,0,0:0:0:0:
192,192,21116,1,0,0:0:0:0:
320,192,21283,1,0,0:0:0:0:
64,192,21449,1,0,0:0:0:0:
448,192,21449,1,0,0:0:0:0:
64,192,21949,1,0,0:0:0:0:
448,192,21949,1,0,0:0:0:0:
192,192,22449,128,0,22783:0:0:0:0:
64,192,22783,1,0,0:0:0:0:
448,192,22783,1,0,0:0:0:0:
320,192,23116,1,0,0:0:0:0:
448,192,23116,1,0,0:0:0:0:
64,192,23449,1,0,0:0:0:0:
320,192,23783,1,0,0:0:0:0:
448,192,23783,1,0,0:0:0:0:
192,192,24116,1,0,0:0:0:0:
64,192,24449,1,0,0:0:0:0:
448,192,24449,1,0,0:0:0:0:
320,192,24783,1,0,0:0:0:0:
64,192,25116,1,0,0:0:0:0:
192,192,25116,1,0,0:0:0:0:
448,192,25449,1,0,0:0:0:0:
192,192,25783,1,0,0:0:0:0:
320,192,25783,1,0,0:0:0:0:
64,192,26116,1,0,0:0:0:0:
320,192,26449,1,0,0:0:0:0:
448,192,26449,1,0,0:0:0:0:
64,192,26783,1,0,0:0:0:0:
192,192,27116,1,0,0:0:0:0:
448,192,27116,1,0,0:0:0:0:
320,192,27449,1,0,0:0:0:0:
64,192,27783,1,0,0:0:0:0:
448,192,27783,1,0,0:0:0:0:
320,192,27949,1,0,0:0:0:0:
64,192,28116,1,0,0:0:0:0:
192,192,28116,1,0,0:0:0:0:
320,192,28283,1,0,0:0:0:0:
448,192,28449,1,0,0:0:0:0:
192,192,28616,1,0,0:0:0:0:
320,192,28783,1,0,0:0:0:0:
64,192,28949,1,0,0:0:0:0:
192,192,29116,1,0,0:0:0:0:
64,192,29283,1,0,0:0:0:0:
320,192,29449,1,0,0:0:0:0:
192,192,29616,1,0,0:0:0:0:
448,192,29783,1,0,0:0:0:0:
320,192,29949,1,0,0:0:0:0:
64,192,30116,1,0,0:0:0:0:
192,192,30283,1,0,0:0:0:0:
320,192,30449,1,0,0:0:0:0:
448,192,30616,1,0,0:0:0:0:
64,192,30783,1,0,0:0:0:0:
192,192,30949,1,0,0:0:0:0:
448,192,31116,1,0,0:0:0:0:
320,192,31283,1,0,0:0:0:0:
192,192,31449,1,0,0:0:0:0:
64,192,31616,1,0,0:0:0:0:
448,192,31783,1,0,0:0:0:0:
320,192,31949,1,0,0:0:0:0:
64,192,32116,1,0,0:0:0:0:
448,192,32283,1,0,0:0:0:0:
192,192,32449,1,0,0:0:0:0:
320,192,32616,1,0,0:0:0:0:
448,192,32783,1,0,0:0:0:0:
192,192,32949,1,0,0:0:0:0:
320,192,33116,1,0,0:0:0:0:
64,192,33283,1,0,0:0:0:0:
192,192,33449,1,0,0:0:0:0:
448,192,33449,128,0,35449:0:0:0:0:
320,192,33783,1,0,0:0:0:0:
64,192,34116,1,0,0:0:0:0:
320,192,34449,1,0,0:0:0:0:
64,192,34783,1,0,0:0:0:0:
192,192,35116,1,0,0:0:0:0:
64,192,35449,128,0,36116:0:0:0:0:
320,192,35783,1,0,0:0:0:0:
448,192,36116,128,0,37783:0:0:0:0:
192,192,36449,1,0,0:0:0:0:
64,192,36783,1,0,0:0:0:0:
320,192,37116,1,0,0:0:0:0:
192,192,37449,1,0,0:0:0:0:
64,192,37783,128,0,38116:0:0:0:0:
320,192,38116,128,0,38449:0:0:0:0:
192,192,38449,128,0,38783:0:0:0:0:
320,192,38616,1,0,0:0:0:0:
448,192,38783,128,0,40116:0:0:0:0:
64,192,38783,1,0,0:0:0:0:
320,192,39116,1,0,0:0:0:0:
192,192,39449,1,0,0:0:0:0:
64,192,39783,128,0,40116:0:0:0:0:
320,192,40116,128,0,41449:0:0:0:0:
192,192,40116,1,0,0:0:0:0:
64,192,40449,1,0,0:0:0:0:
192,192,40783,128,0,41449:0:0:0:0:
448,192,41116,1,0,0:0:0:0:
64,192,41449,1,0,0:0:0:0:
448,192,41449,1,0,0:0:0:0:
192,192,41783,1,0,0:0:0:0:
320,192,42116,1,0,0:0:0:0:
448,192,42116,1,0,0:0:0:0:
192,192,42449,1,0,0:0:0:0:
320,192,42616,1,0,0:0:0:0:
64,192,42783,1,0,0:0:0:0:
448,192,42783,1,0,0:0:0:0:
64,192,43449,1,0,0:0:0:0:
192,192,43616,1,0,0:0:0:0:
320,192,43783,1,0,0:0:0:0:
448,192,43949,1,0,0:0:0:0:
192,192,44116,1,0,0:0:0:0:
64,192,44116,128,0,44616:0:0:0:0:
320,192,44449,1,0,0:0:0:0:
448,192,44616,128,0,45116:0:0:0:0:
192,192,44949,1,0,0:0:0:0:
64,192,45116,128,0,45449:0:0:0:0:
320,192,45449,128,0,45949:0:0:0:0:
448,192,45449,1,0,0:0:0:0:
192,192,45783,1,0,0:0:0:0:
64,192,45949,128,0,46449:0:0:0:0:
320,192,46283,1,0,0:0:0:0:
448,192,46449,128,0,46783:0:0:0:0:
64,192,46783,1,0,0:0:0:0:
320,192,46783,1,0,0:0:0:0:
192,192,46949,1,0,0:0:0:0:
320,192,47116,1,0,0:0:0:0:
448,192,47283,1,0,0:0:0:0:
64,192,47616,128,0,47949:0:0:0:0:
448,192,47783,1,0,0:0:0:0:
320,192,47949,128,0,49033:0:0:0:0:
192,192,48116,1,0,0:0:0:0:
192,192,48449,1,0,0:0:0:0:
64,192,48616,1,0,0:0:0:0:
64,192,48949,1,0,0:0:0:0:
192,192,49116,1,0,0:0:0:0:
448,192,49449,128,0,49949:0:0:0:0:
64,192,49449,1,0,0:0:0:0:
192,192,49783,1,0,0:0:0:0:
64,192,49949,128,0,50449:0:0:0:0:
448,192,50283,1,0,0:0:0:0:
320,192,50449,128,0,50783:0:0:0:0:
192,192,50783,128,0,51283:0:0:0:0:
64,192,50783,1,0,0:0:0:0:
320,192,51116,1,0,0:0:0:0:
448,192,51283,128,0,51783:0:0:0:0:
192,192,51616,1,0,0:0:0:0:
64,192,51783,128,0,52116:0:0:0:0:
320,192,52116,1,0,0:0:0:0:
448,192,52116,1,0,0:0:0:0:
192,192,52283,1,0,0:0:0:0:
448,192,52449,1,0,0:0:0:0:
320,192,52616,1,0,0:0:0:0:
64,192,52949,128,0,53283:0:0:0:0:
448,192,53116,1,0,0:0:0:0:
320,192,53283,128,0,54366:0:0:0:0:
192,192,53449,1,0,0:0:0:0:
64,192,53449,1,0,0:0:0:0:
64,192,53949,1,0,0:0:0:0:
192,192,53949,1,0,0:0:0:0:
64,192,54449,1,0,0:0:0:0:
192,192,54449,1,0,0:0:0:0:
320,192,54783,1,0,0:0:0:0:
64,192,55116,1,0,0:0:0:0:
448,192,55116,1,0,0:0:0:0:
192,192,55449,1,0,0:0:0:0:
320,192,55783,1,0,0:0:0:0:
448,192,55783,1,0,0:0:0:0:
64,192,56116,1,0,0:0:0:0:
192,192,56449,1,0,0:0:0:0:
448,192,56449,1,0,0:0:0:0:
320,192,56783,1,0,0:0:0:0:
64,192,57116,1,0,0:0:0:0:
192,192,57116,1,0,0:0:0:0:
448,192,57449,1,0,0:0:0:0:
192,192,57783,1,0,0:0:0:0:
320,192,57783,1,0,0:0:0:0:
64,192,58116,1,0,0:0:0:0:
320,192,58449,1,0,0:0:0:0:
448,192,58449,1,0,0:0:0:0:
64,192,58783,1,0,0:0:0:0:
192,192,59116,1,0,0:0:0:0:
448,192,59116,1,0,0:0:0:0:
320,192,59449,1,0,0:0:0:0:
64,192,59783,1,0,0:0:0:0:
448,192,59783,1,0,0:0:0:0:
192,192,59949,1,0,0:0:0:0:
320,192,60116,1,0,0:0:0:0:
448,192,60116,1,0,0:0:0:0:
192,192,60283,1,0,0:0:0:0:
448,192,60449,1,0,0:0:0:0:
192,192,60616,1,0,0:0:0:0:
448,192,60783,1,0,0:0:0:0:
192,192,60949,1,0,0:0:0:0:
448,192,61116,1,0,0:0:0:0:
320,192,61283,1,0,0:0:0:0:
64,192,61449,1,0,0:0:0:0:
192,192,61449,1,0,0:0:0:0:
320,192,61616,1,0,0:0:0:0:
64,192,61783,1,0,0:0:0:0:
320,192,61949,1,0,0:0:0:0:
64,192,62116,1,0,0:0:0:0:
320,192,62283,128,0,62449:0:0:0:0:
64,192,62449,1,0,0:0:0:0:
320,192,62616,128,0,62783:0:0:0:0:
64,192,62783,1,0,0:0:0:0:
192,192,62783,1,0,0:0:0:0:
320,192,63033,1,0,0:0:0:0:
448,192,63033,1,0,0:0:0:0:
64,192,63283,1,0,0:0:0:0:
192,192,63283,1,0,0:0:0:0:
320,192,63616,1,0,0:0:0:0:
64,192,63783,128,0,64116:0:0:0:0:
320,192,64116,1,0,0:0:0:0:
448,192,64116,1,0,0:0:0:0:
320,192,64366,1,0,0:0:0:0:
448,192,64366,1,0,0:0:0:0:
64,192,64616,1,0,0:0:0:0:
192,192,64616,1,0,0:0:0:0:
448,192,64783,1,0,0:0:0:0:
448,192,64949,1,0,0:0:0:0:
320,192,65116,128,0,65449:0:0:0:0:
448,192,65449,1,0,0:0:0:0:
64,192,65449,1,0,0:0:0:0:
320,192,66783,128,0,67449:0:0:0:0:
448,192,67449,128,0,68116:0:0:0:0:
64,192,68116,128,0,69449:0:0:0:0:
448,192,69783,128,0,70116:0:0:0:0:
64,192,70116,128,0,70449:0:0:0:0:
448,192,70449,128,0,70783:0:0:0:0:
192,192,70783,128,0,71783:0:0:0:0:
320,192,71783,128,0,72116:0:0:0:0:
64,192,72116,128,0,72783:0:0:0:0:
320,192,72783,128,0,73449:0:0:0:0:
192,192,73449,128,0,74116:0:0:0:0:
448,192,74116,128,0,74783:0:0:0:0:
192,192,74783,128,0,76116:0:0:0:0:
320,192,75449,128,0,76116:0:0:0:0:
64,192,76116,1,0,0:0:0:0:
448,192,76116,1,0,0:0:0:0:
192,192,76449,1,0,0:0:0:0:
320,192,76616,1,0,0:0:0:0:
192,192,76783,1,0,0:0:0:0:
448,192,77116,1,0,0:0:0:0:
320,192,77283,1,0,0:0:0:0:
448,192,77449,1,0,0:0:0:0:
64,192,77783,1,0,0:0:0:0:
192,192,77949,1,0,0:0:0:0:
64,192,78116,1,0,0:0:0:0:
320,192,78449,1,0,0:0:0:0:
192,192,78616,1,0,0:0:0:0:
320,192,78783,1,0,0:0:0:0:
192,192,79116,1,0,0:0:0:0:
448,192,79283,1,0,0:0:0:0:
192,192,79449,1,0,0:0:0:0:
448,192,79783,1,0,0:0:0:0:
320,192,79949,1,0,0:0:0:0:
448,192,80116,1,0,0:0:0:0:
64,192,80449,1,0,0:0:0:0:
192,192,80616,1,0,0:0:0:0:
64,192,80783,1,0,0:0:0:0:
320,192,81116,1,0,0:0:0:0:
64,192,81283,1,0,0:0:0:0:
320,192,81449,1,0,0:0:0:0:
192,192,81783,1,0,0:0:0:0:
320,192,81949,1,0,0:0:0:0:
192,192,82116,1,0,0:0:0:0:
448,192,82449,1,0,0:0:0:0:
320,192,82616,1,0,0:0:0:0:
448,192,82783,1,0,0:0:0:0:
64,192,83116,1,0,0:0:0:0:
192,192,83283,1,0,0:0:0:0:
64,192,83449,1,0,0:0:0:0:
320,192,83783,1,0,0:0:0:0:
192,192,83949,1,0,0:0:0:0:
320,192,84116,1,0,0:0:0:0:
448,192,84449,1,0,0:0:0:0:
64,192,84616,1,0,0:0:0:0:
448,192,84783,1,0,0:0:0:0:
192,192,85116,1,0,0:0:0:0:
320,192,85283,1,0,0:0:0:0:
192,192,85449,128,0,86783:0:0:0:0:
320,192,86783,5,0,0:0:0:0:
448,192,86783,1,0,0:0:0:0:
320,192,87283,1,0,0:0:0:0:
448,192,87283,1,0,0:0:0:0:
64,192,87783,1,0,0:0:0:0:
192,192,87783,1,0,0:0:0:0:
64,192,88283,1,0,0:0:0:0:
192,192,88283,1,0,0:0:0:0:
448,192,88783,1,0,0:0:0:0:
192,192,88783,1,0,0:0:0:0:
320,192,89116,1,0,0:0:0:0:
64,192,89116,1,0,0:0:0:0:
448,192,89449,1,0,0:0:0:0:
192,192,89449,1,0,0:0:0:0:
192,192,89949,1,0,0:0:0:0:
448,192,89949,1,0,0:0:0:0:
64,192,90449,1,0,0:0:0:0:
320,192,90449,1,0,0:0:0:0:
64,192,90949,1,0,0:0:0:0:
320,192,90949,1,0,0:0:0:0:
448,192,91449,1,0,0:0:0:0:
64,192,91449,1,0,0:0:0:0:
320,192,91783,1,0,0:0:0:0:
192,192,91783,1,0,0:0:0:0:
64,192,92116,1,0,0:0:0:0:
448,192,92116,1,0,0:0:0:0:
64,192,92616,1,0,0:0:0:0:
448,192,92616,1,0,0:0:0:0:
320,192,93116,1,0,0:0:0:0:
192,192,93116,1,0,0:0:0:0:
192,192,93616,1,0,0:0:0:0:
320,192,93616,1,0,0:0:0:0:
64,192,94116,1,0,0:0:0:0:
320,192,94116,1,0,0:0:0:0:
448,192,94449,1,0,0:0:0:0:
192,192,94449,1,0,0:0:0:0:
64,192,94783,1,0,0:0:0:0:
320,192,94783,1,0,0:0:0:0:
64,192,95283,1,0,0:0:0:0:
320,192,95283,1,0,0:0:0:0:
192,192,95783,1,0,0:0:0:0:
448,192,95783,1,0,0:0:0:0:
192,192,96283,1,0,0:0:0:0:
448,192,96283,1,0,0:0:0:0:
192,192,96783,1,0,0:0:0:0:
64,192,96783,1,0,0:0:0:0:
320,192,97116,1,0,0:0:0:0:
448,192,97116,1,0,0:0:0:0:
64,192,97449,1,0,0:0:0:0:
192,192,97783,1,0,0:0:0:0:
448,192,97783,1,0,0:0:0:0:
192,192,98116,1,0,0:0:0:0:
448,192,98449,1,0,0:0:0:0:
448,192,98783,1,0,0:0:0:0:
64,192,99116,1,0,0:0:0:0:
64,192,99449,1,0,0:0:0:0:
320,192,99783,1,0,0:0:0:0:
192,192,99949,1,0,0:0:0:0:
64,192,100116,1,0,0:0:0:0:
448,192,100116,1,0,0:0:0:0:
448,192,100449,1,0,0:0:0:0:
192,192,100783,1,0,0:0:0:0:
192,192,101116,1,0,0:0:0:0:
320,192,101449,1,0,0:0:0:0:
320,192,101783,1,0,0:0:0:0:
64,192,102116,1,0,0:0:0:0:
192,192,102449,1,0,0:0:0:0:
320,192,102616,1,0,0:0:0:0:
64,192,102783,1,0,0:0:0:0:
448,192,102783,1,0,0:0:0:0:
320,192,102949,1,0,0:0:0:0:
64,192,103116,1,0,0:0:0:0:
320,192,103283,1,0,0:0:0:0:
64,192,103449,1,0,0:0:0:0:
320,192,103616,1,0,0:0:0:0:
64,192,103783,1,0,0:0:0:0:
192,192,103949,1,0,0:0:0:0:
320,192,104116,1,0,0:0:0:0:
448,192,104116,1,0,0:0:0:0:
192,192,104283,1,0,0:0:0:0:
448,192,104449,1,0,0:0:0:0:
192,192,104616,1,0,0:0:0:0:
448,192,104783,1,0,0:0:0:0:
192,192,104949,1,0,0:0:0:0:
448,192,105116,1,0,0:0:0:0:
320,192,105283,1,0,0:0:0:0:
192,192,105449,128,0,105699:0:0:0:0:
320,192,106116,128,0,106366:0:0:0:0:
192,192,106449,128,0,106699:0:0:0:0:
320,192,106949,128,0,107199:0:0:0:0:
192,192,107449,128,0,107699:0:0:0:0:
320,192,107783,1,0,0:0:0:0:
192,192,107949,1,0,0:0:0:0:
448,192,108116,1,0,0:0:0:0:
448,192,108783,1,0,0:0:0:0:
64,192,108949,1,0,0:0:0:0:
192,192,109116,1,0,0:0:0:0:
320,192,109283,1,0,0:0:0:0:
64,192,109449,1,0,0:0:0:0:
448,192,109449,1,0,0:0:0:0:
192,192,109781,1,0,0:0:0:0:
320,192,109781,1,0,0:0:0:0:
64,192,110115,1,0,0:0:0:0:
320,192,110448,1,0,0:0:0:0:
448,192,110448,1,0,0:0:0:0:
192,192,110781,1,0,0:0:0:0:
64,192,111115,1,0,0:0:0:0:
448,192,111115,1,0,0:0:0:0:
320,192,111448,1,0,0:0:0:0:
64,192,111781,1,0,0:0:0:0:
192,192,111781,1,0,0:0:0:0:
320,192,112115,1,0,0:0:0:0:
64,192,112448,1,0,0:0:0:0:
448,192,112448,1,0,0:0:0:0:
192,192,112781,1,0,0:0:0:0:
320,192,113115,1,0,0:0:0:0:
448,192,113115,1,0,0:0:0:0:
64,192,113448,1,0,0:0:0:0:
192,192,113781,1,0,0:0:0:0:
448,192,113781,1,0,0:0:0:0:
320,192,114115,1,0,0:0:0:0:
64,192,114448,1,0,0:0:0:0:
192,192,114448,1,0,0:0:0:0:
448,192,114781,1,0,0:0:0:0:
320,192,115115,1,0,0:0:0:0:
64,192,115115,1,0,0:0:0:0:
192,192,115448,1,0,0:0:0:0:
320,192,115781,1,0,0:0:0:0:
448,192,115781,1,0,0:0:0:0:
64,192,116115,1,0,0:0:0:0:
192,192,116448,1,0,0:0:0:0:
448,192,116448,1,0,0:0:0:0:
320,192,116781,1,0,0:0:0:0:
64,192,117114,1,0,0:0:0:0:
192,192,117114,1,0,0:0:0:0:
448,192,117448,1,0,0:0:0:0:
64,192,117781,1,0,0:0:0:0:
320,192,117781,1,0,0:0:0:0:
192,192,118114,1,0,0:0:0:0:
320,192,118448,1,0,0:0:0:0:
64,192,118448,1,0,0:0:0:0:
192,192,118781,1,0,0:0:0:0:
320,192,119114,1,0,0:0:0:0:
448,192,119114,1,0,0:0:0:0:
64,192,119448,1,0,0:0:0:0:
448,192,119781,1,0,0:0:0:0:
192,192,119781,1,0,0:0:0:0:
320,192,119948,1,0,0:0:0:0:
64,192,120114,1,0,0:0:0:0:
448,192,120114,1,0,0:0:0:0:
192,192,120448,1,0,0:0:0:0:
320,192,120448,1,0,0:0:0:0:
448,192,120781,1,0,0:0:0:0:
64,192,121114,1,0,0:0:0:0:
192,192,121114,1,0,0:0:0:0:
320,192,121448,1,0,0:0:0:0:
64,192,121781,1,0,0:0:0:0:
448,192,121781,1,0,0:0:0:0:
192,192,122114,1,0,0:0:0:0:
320,192,122448,1,0,0:0:0:0:
448,192,122448,1,0,0:0:0:0:
64,192,122614,1,0,0:0:0:0:
192,192,122781,1,0,0:0:0:0:
448,192,122781,1,0,0:0:0:0:
320,192,123114,1,0,0:0:0:0:
64,192,123114,1,0,0:0:0:0:
192,192,123448,1,0,0:0:0:0:
320,192,123781,1,0,0:0:0:0:
448,192,123781,1,0,0:0:0:0:
64,192,124114,1,0,0:0:0:0:
192,192,124448,1,0,0:0:0:0:
448,192,124448,1,0,0:0:0:0:
320,192,124781,1,0,0:0:0:0:
192,192,125114,1,0,0:0:0:0:
64,192,125114,1,0,0:0:0:0:
448,192,125281,1,0,0:0:0:0:
320,192,125448,1,0,0:0:0:0:
64,192,125448,1,0,0:0:0:0:
192,192,125781,1,0,0:0:0:0:
448,192,125781,1,0,0:0:0:0:
320,192,126114,1,0,0:0:0:0:
192,192,126448,1,0,0:0:0:0:
448,192,126448,1,0,0:0:0:0:
320,192,126614,1,0,0:0:0:0:
64,192,126781,1,0,0:0:0:0:
448,192,126781,1,0,0:0:0:0:
320,192,127114,1,0,0:0:0:0:
192,192,127114,1,0,0:0:0:0:
448,192,127448,1,0,0:0:0:0:
64,192,127781,1,0,0:0:0:0:
320,192,127781,1,0,0:0:0:0:
192,192,127948,1,0,0:0:0:0:
64,192,128114,1,0,0:0:0:0:
448,192,128114,1,0,0:0:0:0:
320,192,128281,1,0,0:0:0:0:
64,192,128448,1,0,0:0:0:0:
320,192,128614,1,0,0:0:0:0:
64,192,128781,1,0,0:0:0:0:
320,192,128948,1,0,0:0:0:0:
64,192,129114,1,0,0:0:0:0:
192,192,129281,1,0,0:0:0:0:
448,192,129448,1,0,0:0:0:0:
192,192,129614,1,0,0:0:0:0:
448,192,129781,1,0,0:0:0:0:
192,192,129948,1,0,0:0:0:0:
448,192,130114,1,0,0:0:0:0:
192,192,130281,128,0,130448:0:0:0:0:
448,192,130448,1,0,0:0:0:0:
320,192,130614,128,0,130781:0:0:0:0:
192,192,130781,1,0,0:0:0:0:
64,192,130781,1,0,0:0:0:0:
448,192,131781,1,0,0:0:0:0:
320,192,132114,1,0,0:0:0:0:
192,192,132448,1,0,0:0:0:0:
64,192,132781,1,0,0:0:0:0:
192,192,133114,1,0,0:0:0:0:
320,192,133448,1,0,0:0:0:0:
448,192,134448,1,0,0:0:0:0:
64,192,134781,1,0,0:0:0:0:
320,192,135448,1,0,0:0:0:0:
192,192,136114,1,0,0:0:0:0:
448,192,137114,1,0,0:0:0:0:
320,192,137448,1,0,0:0:0:0:
64,192,138114,1,0,0:0:0:0:
192,192,138781,1,0,0:0:0:0:
448,192,139448,1,0,0:0:0:0:
320,192,140114,1,0,0:0:0:0:
192,192,140448,1,0,0:0:0:0:
320,192,140781,1,0,0:0:0:0:
