osu file format v14

[General]
AudioFilename: audio.mp3
AudioLeadIn: 0
PreviewTime: 108824
Countdown: 0
SampleSet: Soft
StackLeniency: 0.7
Mode: 3
LetterboxInBreaks: 0
SpecialStyle: 0
WidescreenStoryboard: 1

[Editor]
DistanceSpacing: 1.1
BeatDivisor: 4
GridSize: 4
TimelineZoom: 2.599999

[Metadata]
Title:Enkan no Kotowari
TitleUnicode:円環の理
Artist:ETIA.
ArtistUnicode:ETIA.
Creator:Koneko-
Version:Black Another
Source:BMS
Tags:
BeatmapID:1212879
BeatmapSetID:572401

[Difficulty]
HPDrainRate:9
CircleSize:4
OverallDifficulty:8.8
ApproachRate:5
SliderMultiplier:1.4
SliderTickRate:1

[Events]
//Background and Video events
0,0,"Enkan no Kotowari bg.jpg",0,0
//Break Periods
//Storyboard Layer 0 (Background)
//Storyboard Layer 1 (Fail)
//Storyboard Layer 2 (Pass)
//Storyboard Layer 3 (Foreground)
//Storyboard Sound Samples

[TimingPoints]
1450,333.333333333333,4,2,0,25,1,0
12116,-100,4,2,0,25,0,1
12199,-100,4,2,0,25,0,0
21449,-100,4,2,0,25,0,1
21533,-100,4,2,0,25,0,0
21949,-100,4,2,0,25,0,1
22033,-100,4,2,0,25,0,0
22449,-100,4,2,0,25,0,1
22533,-100,4,2,0,25,0,0
22783,-100,4,2,0,25,0,1
22866,-100,4,2,0,25,0,0
28116,-100,4,2,0,25,0,1
33366,-100,4,2,0,25,0,0
33449,-100,4,2,0,25,0,1
38699,-100,4,2,0,25,0,0
38783,-100,4,2,0,25,0,1
40033,-100,4,2,0,25,0,0
40116,-100,4,2,0,25,0,1
41366,-100,4,2,0,25,0,0
41449,-100,4,2,0,25,0,1
42033,-100,4,2,0,25,0,0
42116,-100,4,2,0,25,0,1
42699,-100,4,2,0,25,0,0
42784,-100,4,2,0,25,0,1
42877,-100,4,2,0,25,0,0
44116,-100,4,2,0,25,0,1
44199,-100,4,2,0,25,0,0
53449,-100,4,2,0,25,0,1
53533,-100,4,2,0,25,0,0
53949,-100,4,2,0,25,0,1
54033,-100,4,2,0,25,0,0
54449,-100,4,2,0,25,0,1
54533,-100,4,2,0,25,0,0
54783,-25,4,2,0,25,0,0
54866,-200,4,2,0,25,0,0
55116,-100,4,2,0,25,0,1
55199,-100,4,2,0,25,0,0
60116,-100,4,2,0,25,0,1
60199,-100,4,2,0,25,0,0
61449,-100,4,2,0,25,0,1
61533,-100,4,2,0,25,0,0
62783,-50,4,2,0,25,0,1
62949,-200,4,2,0,25,0,0
63033,-50,4,2,0,25,0,1
63199,-200,4,2,0,25,0,0
63283,-50,4,2,0,25,0,1
63449,-200,4,2,0,25,0,0
63533,-100,4,2,0,25,0,0
64116,-50,4,2,0,25,0,1
64283,-200,4,2,0,25,0,0
64366,-50,4,2,0,25,0,1
64533,-200,4,2,0,25,0,0
64616,-50,4,2,0,25,0,1
64699,-200,4,2,0,25,0,0
64783,-50,4,2,0,25,0,1
64866,-200,4,2,0,25,0,0
64949,-50,4,2,0,25,0,1
65033,-200,4,2,0,25,0,0
65116,-100,4,2,0,25,0,0
76116,-100,4,2,0,25,0,1
76199,-100,4,2,0,25,0,0
86783,-100,4,2,0,25,0,1
86866,-100,4,2,0,25,0,0
87283,-100,4,2,0,25,0,1
87366,-100,4,2,0,25,0,0
87783,-100,4,2,0,25,0,1
87866,-100,4,2,0,25,0,0
88283,-100,4,2,0,25,0,1
88366,-100,4,2,0,25,0,0
88783,-100,4,2,0,25,0,1
88866,-100,4,2,0,25,0,0
89116,-100,4,2,0,25,0,1
89199,-100,4,2,0,25,0,0
89449,-100,4,2,0,25,0,1
89532,-100,4,2,0,25,0,0
89949,-100,4,2,0,25,0,1
90032,-100,4,2,0,25,0,0
90449,-100,4,2,0,25,0,1
90532,-100,4,2,0,25,0,0
90949,-100,4,2,0,25,0,1
91032,-100,4,2,0,25,0,0
91449,-100,4,2,0,25,0,1
91532,-100,4,2,0,25,0,0
91782,-100,4,2,0,25,0,1
91865,-100,4,2,0,25,0,0
92115,-100,4,2,0,25,0,1
92198,-100,4,2,0,25,0,0
92615,-100,4,2,0,25,0,1
92698,-100,4,2,0,25,0,0
93115,-100,4,2,0,25,0,1
93198,-100,4,2,0,25,0,0
93615,-100,4,2,0,25,0,1
93698,-100,4,2,0,25,0,0
94115,-100,4,2,0,25,0,1
94198,-100,4,2,0,25,0,0
94448,-100,4,2,0,25,0,1
94531,-100,4,2,0,25,0,0
94781,-100,4,2,0,25,0,1
94864,-100,4,2,0,25,0,0
95281,-100,4,2,0,25,0,1
95364,-100,4,2,0,25,0,0
95781,-100,4,2,0,25,0,1
95864,-100,4,2,0,25,0,0
96281,-100,4,2,0,25,0,1
96364,-100,4,2,0,25,0,0
96781,-100,4,2,0,25,0,1
96864,-100,4,2,0,25,0,0
97114,-100,4,2,0,25,0,1
97197,-100,4,2,0,25,0,0
97449,-25,4,2,0,25,0,0
97533,-200,4,2,0,25,0,0
97783,-100,4,2,0,25,0,1
100033,-100,4,2,0,25,0,0
100116,-100,4,2,0,25,0,1
102699,-100,4,2,0,25,0,0
102783,-100,4,2,0,25,0,1
104033,-100,4,2,0,25,0,0
104116,-100,4,2,0,25,0,1
105366,-100,4,2,0,25,0,0
105449,-100,4,2,0,25,0,1
106033,-100,4,2,0,25,0,0
106116,-100,4,2,0,25,0,1
106366,-100,4,2,0,25,0,0
106449,-100,4,2,0,25,0,1
106866,-100,4,2,0,25,0,0
106949,-100,4,2,0,25,0,1
107366,-100,4,2,0,25,0,0
107449,-100,4,2,0,25,0,1
107699,-100,4,2,0,25,0,0
107783,-100,4,2,0,25,0,1
108116,-111.111111111111,4,2,0,25,0,1
108199,-111.111111111111,4,2,0,25,0,0
109449,333.333333333333,4,2,0,25,1,0
109449,-100,4,2,0,25,0,0
109490,-100,4,2,0,25,0,1
109532,-100,4,2,0,25,0,0
120157,-100,4,2,0,25,0,1
122698,-100,4,2,0,25,0,0
122823,-100,4,2,0,25,0,1
125365,-100,4,2,0,25,0,0
125490,-100,4,2,0,25,0,1
126698,-100,4,2,0,25,0,0
126823,-100,4,2,0,25,0,1
128032,-100,4,2,0,25,0,0
128157,-100,4,2,0,25,0,1
128698,-100,4,2,0,25,0,0
128782,-100,4,2,0,25,0,1
129365,-100,4,2,0,25,0,0
129448,-100,4,2,0,25,0,1
129698,-100,4,2,0,25,0,0
129782,-100,4,2,0,25,0,1
130032,-100,4,2,0,25,0,0
130115,-100,4,2,0,25,0,1
130365,-100,4,2,0,25,0,0
130448,-100,4,2,0,25,0,1
130865,-100,4,2,0,25,0,0

[HitObjects]
448,192,1450,5,0,0:0:0:0:
192,192,1450,1,0,0:0:0:0:
192,192,1616,1,0,0:0:0:0:
64,192,1616,1,0,0:0:0:0:
320,192,1783,1,0,0:0:0:0:
64,192,1783,1,0,0:0:0:0:
448,192,1949,1,0,0:0:0:0:
320,192,1949,1,0,0:0:0:0:
448,192,2116,1,0,0:0:0:0:
192,192,2116,1,0,0:0:0:0:
64,192,2283,1,0,0:0:0:0:
320,192,2283,1,0,0:0:0:0:
448,192,2449,1,0,0:0:0:0:
320,192,2449,1,0,0:0:0:0:
192,192,2616,1,0,0:0:0:0:
448,192,2783,1,0,0:0:0:0:
64,192,2783,1,0,0:0:0:0:
320,192,2949,1,0,0:0:0:0:
64,192,2949,1,0,0:0:0:0:
448,192,3116,1,0,0:0:0:0:
320,192,3116,1,0,0:0:0:0:
192,192,3283,1,0,0:0:0:0:
64,192,3283,1,0,0:0:0:0:
448,192,3449,1,0,0:0:0:0:
192,192,3449,1,0,0:0:0:0:
64,192,3783,1,0,0:0:0:0:
320,192,3783,1,0,0:0:0:0:
448,192,4116,1,0,0:0:0:0:
192,192,4116,1,0,0:0:0:0:
64,192,4283,1,0,0:0:0:0:
192,192,4283,1,0,0:0:0:0:
64,192,4449,1,0,0:0:0:0:
320,192,4449,1,0,0:0:0:0:
320,192,4616,1,0,0:0:0:0:
448,192,4616,1,0,0:0:0:0:
192,192,4783,1,0,0:0:0:0:
448,192,4783,1,0,0:0:0:0:
64,192,4949,1,0,0:0:0:0:
320,192,4949,1,0,0:0:0:0:
320,192,5116,1,0,0:0:0:0:
448,192,5116,1,0,0:0:0:0:
192,192,5283,1,0,0:0:0:0:
320,192,5449,1,0,0:0:0:0:
64,192,5449,1,0,0:0:0:0:
448,192,5616,1,0,0:0:0:0:
192,192,5616,1,0,0:0:0:0:
192,192,5783,1,0,0:0:0:0:
64,192,5783,1,0,0:0:0:0:
320,192,5949,1,0,0:0:0:0:
448,192,5949,1,0,0:0:0:0:
64,192,6116,1,0,0:0:0:0:
320,192,6116,1,0,0:0:0:0:
448,192,6449,1,0,0:0:0:0:
320,192,6449,1,0,0:0:0:0:
320,192,6616,1,0,0:0:0:0:
192,192,6616,1,0,0:0:0:0:
192,192,6783,1,0,0:0:0:0:
64,192,6783,1,0,0:0:0:0:
320,192,6949,1,0,0:0:0:0:
448,192,6949,1,0,0:0:0:0:
64,192,7116,1,0,0:0:0:0:
320,192,7116,1,0,0:0:0:0:
192,192,7283,1,0,0:0:0:0:
448,192,7283,1,0,0:0:0:0:
320,192,7449,1,0,0:0:0:0:
192,192,7449,1,0,0:0:0:0:
64,192,7616,1,0,0:0:0:0:
320,192,7616,1,0,0:0:0:0:
448,192,7783,1,0,0:0:0:0:
192,192,7783,1,0,0:0:0:0:
320,192,7949,1,0,0:0:0:0:
448,192,8116,1,0,0:0:0:0:
64,192,8116,1,0,0:0:0:0:
320,192,8283,1,0,0:0:0:0:
192,192,8283,1,0,0:0:0:0:
192,192,8449,1,0,0:0:0:0:
448,192,8449,1,0,0:0:0:0:
320,192,8616,1,0,0:0:0:0:
64,192,8616,1,0,0:0:0:0:
320,192,8783,1,0,0:0:0:0:
448,192,8783,1,0,0:0:0:0:
192,192,8949,1,0,0:0:0:0:
64,192,8949,1,0,0:0:0:0:
320,192,9449,1,0,0:0:0:0:
64,192,9449,1,0,0:0:0:0:
192,192,9616,1,0,0:0:0:0:
320,192,9616,1,0,0:0:0:0:
448,192,9783,1,0,0:0:0:0:
192,192,9783,1,0,0:0:0:0:
320,192,9949,1,0,0:0:0:0:
64,192,9949,1,0,0:0:0:0:
448,192,10116,1,0,0:0:0:0:
320,192,10116,1,0,0:0:0:0:
192,192,10283,1,0,0:0:0:0:
64,192,10283,1,0,0:0:0:0:
448,192,10449,128,0,12116:0:0:0:0:
320,192,10449,1,0,0:0:0:0:
192,192,10616,1,0,0:0:0:0:
64,192,10783,1,0,0:0:0:0:
320,192,10783,1,0,0:0:0:0:
192,192,10949,1,0,0:0:0:0:
64,192,11116,1,0,0:0:0:0:
192,192,11283,1,0,0:0:0:0:
320,192,11449,1,0,0:0:0:0:
64,192,11449,128,0,11949:0:0:0:0:
320,192,12116,1,0,0:0:0:0:
192,192,12116,1,0,0:0:0:0:
64,192,12116,1,0,0:0:0:0:
448,192,12283,1,0,0:0:0:0:
192,192,12449,1,0,0:0:0:0:
64,192,12449,1,0,0:0:0:0:
320,192,12616,1,0,0:0:0:0:
448,192,12616,1,0,0:0:0:0:
192,192,12783,1,0,0:0:0:0:
64,192,12783,1,0,0:0:0:0:
448,192,12783,1,0,0:0:0:0:
320,192,12949,1,0,0:0:0:0:
448,192,13116,1,0,0:0:0:0:
64,192,13116,1,0,0:0:0:0:
320,192,13283,1,0,0:0:0:0:
192,192,13283,1,0,0:0:0:0:
448,192,13449,1,0,0:0:0:0:
64,192,13449,1,0,0:0:0:0:
64,192,13783,1,0,0:0:0:0:
320,192,13783,1,0,0:0:0:0:
192,192,13949,1,0,0:0:0:0:
320,192,14116,1,0,0:0:0:0:
448,192,14116,1,0,0:0:0:0:
64,192,14116,1,0,0:0:0:0:
320,192,14449,1,0,0:0:0:0:
448,192,14449,1,0,0:0:0:0:
192,192,14616,1,0,0:0:0:0:
448,192,14783,1,0,0:0:0:0:
64,192,14783,1,0,0:0:0:0:
192,192,14783,1,0,0:0:0:0:
320,192,14949,1,0,0:0:0:0:
192,192,15116,1,0,0:0:0:0:
64,192,15116,1,0,0:0:0:0:
448,192,15283,1,0,0:0:0:0:
320,192,15283,1,0,0:0:0:0:
192,192,15449,1,0,0:0:0:0:
64,192,15449,1,0,0:0:0:0:
448,192,15449,1,0,0:0:0:0:
320,192,15616,1,0,0:0:0:0:
448,192,15783,1,0,0:0:0:0:
64,192,15783,1,0,0:0:0:0:
320,192,15949,1,0,0:0:0:0:
192,192,15949,1,0,0:0:0:0:
448,192,16116,1,0,0:0:0:0:
64,192,16116,1,0,0:0:0:0:
64,192,16449,1,0,0:0:0:0:
448,192,16449,1,0,0:0:0:0:
320,192,16449,1,0,0:0:0:0:
192,192,16616,1,0,0:0:0:0:
64,192,16783,1,0,0:0:0:0:
320,192,16783,1,0,0:0:0:0:
448,192,16783,1,0,0:0:0:0:
192,192,17116,1,0,0:0:0:0:
448,192,17116,1,0,0:0:0:0:
64,192,17116,1,0,0:0:0:0:
64,192,17283,1,0,0:0:0:0:
320,192,17283,1,0,0:0:0:0:
192,192,17449,1,0,0:0:0:0:
448,192,17449,1,0,0:0:0:0:
320,192,17449,1,0,0:0:0:0:
320,192,17616,1,0,0:0:0:0:
64,192,17783,1,0,0:0:0:0:
448,192,17783,1,0,0:0:0:0:
320,192,17949,1,0,0:0:0:0:
192,192,17949,1,0,0:0:0:0:
64,192,18116,1,0,0:0:0:0:
448,192,18116,1,0,0:0:0:0:
320,192,18116,1,0,0:0:0:0:
192,192,18283,1,0,0:0:0:0:
448,192,18449,1,0,0:0:0:0:
320,192,18449,1,0,0:0:0:0:
64,192,18449,1,0,0:0:0:0:
64,192,18616,1,0,0:0:0:0:
192,192,18616,1,0,0:0:0:0:
448,192,18616,1,0,0:0:0:0:
448,192,18783,1,0,0:0:0:0:
320,192,18783,1,0,0:0:0:0:
64,192,19116,1,0,0:0:0:0:
320,192,19116,1,0,0:0:0:0:
192,192,19283,1,0,0:0:0:0:
320,192,19449,1,0,0:0:0:0:
448,192,19449,1,0,0:0:0:0:
64,192,19449,1,0,0:0:0:0:
320,192,19783,1,0,0:0:0:0:
448,192,19783,1,0,0:0:0:0:
192,192,19949,1,0,0:0:0:0:
64,192,20116,1,0,0:0:0:0:
448,192,20116,128,0,21366:0:0:0:0:
320,192,20116,1,0,0:0:0:0:
320,192,20449,1,0,0:0:0:0:
64,192,20616,1,0,0:0:0:0:
192,192,20783,1,0,0:0:0:0:
320,192,20783,1,0,0:0:0:0:
320,192,21116,1,0,0:0:0:0:
192,192,21283,1,0,0:0:0:0:
64,192,21449,1,0,0:0:0:0:
448,192,21449,1,0,0:0:0:0:
320,192,21449,1,0,0:0:0:0:
192,192,21616,1,0,0:0:0:0:
320,192,21783,1,0,0:0:0:0:
64,192,21949,1,0,0:0:0:0:
448,192,21949,1,0,0:0:0:0:
192,192,21949,1,0,0:0:0:0:
320,192,22116,1,0,0:0:0:0:
448,192,22283,1,0,0:0:0:0:
64,192,22449,1,0,0:0:0:0:
192,192,22449,1,0,0:0:0:0:
448,192,22491,1,0,0:0:0:0:
320,192,22533,1,0,0:0:0:0:
64,192,22574,1,0,0:0:0:0:
192,192,22616,1,0,0:0:0:0:
448,192,22658,1,0,0:0:0:0:
320,192,22699,1,0,0:0:0:0:
192,192,22741,1,0,0:0:0:0:
64,192,22783,1,0,0:0:0:0:
320,192,22783,1,0,0:0:0:0:
448,192,22783,1,0,0:0:0:0:
192,192,22949,1,0,0:0:0:0:
320,192,23116,1,0,0:0:0:0:
448,192,23116,1,0,0:0:0:0:
192,192,23283,1,0,0:0:0:0:
448,192,23449,1,0,0:0:0:0:
64,192,23449,1,0,0:0:0:0:
320,192,23616,1,0,0:0:0:0:
64,192,23783,1,0,0:0:0:0:
192,192,23783,1,0,0:0:0:0:
448,192,23949,1,0,0:0:0:0:
192,192,24116,1,0,0:0:0:0:
64,192,24116,1,0,0:0:0:0:
320,192,24283,1,0,0:0:0:0:
64,192,24449,1,0,0:0:0:0:
448,192,24449,1,0,0:0:0:0:
192,192,24616,1,0,0:0:0:0:
320,192,24783,1,0,0:0:0:0:
64,192,24783,1,0,0:0:0:0:
448,192,24949,1,0,0:0:0:0:
64,192,25116,1,0,0:0:0:0:
192,192,25116,1,0,0:0:0:0:
320,192,25283,1,0,0:0:0:0:
448,192,25449,1,0,0:0:0:0:
64,192,25449,1,0,0:0:0:0:
320,192,25616,1,0,0:0:0:0:
192,192,25783,1,0,0:0:0:0:
64,192,25783,1,0,0:0:0:0:
448,192,25949,1,0,0:0:0:0:
64,192,26116,1,0,0:0:0:0:
320,192,26116,1,0,0:0:0:0:
448,192,26283,1,0,0:0:0:0:
64,192,26449,1,0,0:0:0:0:
192,192,26449,1,0,0:0:0:0:
320,192,26616,1,0,0:0:0:0:
64,192,26783,1,0,0:0:0:0:
448,192,26783,1,0,0:0:0:0:
320,192,26949,1,0,0:0:0:0:
448,192,27116,1,0,0:0:0:0:
192,192,27116,1,0,0:0:0:0:
64,192,27283,1,0,0:0:0:0:
192,192,27449,1,0,0:0:0:0:
320,192,27449,1,0,0:0:0:0:
448,192,27616,1,0,0:0:0:0:
64,192,27783,1,0,0:0:0:0:
192,192,27783,1,0,0:0:0:0:
320,192,27949,1,0,0:0:0:0:
448,192,27949,1,0,0:0:0:0:
64,192,28116,1,0,0:0:0:0:
448,192,28116,1,0,0:0:0:0:
192,192,28116,1,0,0:0:0:0:
320,192,28199,1,0,0:0:0:0:
448,192,28283,1,0,0:0:0:0:
192,192,28366,1,0,0:0:0:0:
64,192,28449,1,0,0:0:0:0:
320,192,28449,1,0,0:0:0:0:
448,192,28449,1,0,0:0:0:0:
192,192,28533,1,0,0:0:0:0:
448,192,28616,1,0,0:0:0:0:
64,192,28699,1,0,0:0:0:0:
448,192,28783,1,0,0:0:0:0:
320,192,28783,1,0,0:0:0:0:
64,192,28866,1,0,0:0:0:0:
192,192,28949,1,0,0:0:0:0:
320,192,29033,1,0,0:0:0:0:
448,192,29116,1,0,0:0:0:0:
64,192,29116,1,0,0:0:0:0:
192,192,29116,1,0,0:0:0:0:
320,192,29199,1,0,0:0:0:0:
192,192,29283,1,0,0:0:0:0:
448,192,29366,1,0,0:0:0:0:
320,192,29449,1,0,0:0:0:0:
64,192,29449,1,0,0:0:0:0:
192,192,29533,1,0,0:0:0:0:
448,192,29616,1,0,0:0:0:0:
320,192,29699,1,0,0:0:0:0:
64,192,29783,1,0,0:0:0:0:
192,192,29783,1,0,0:0:0:0:
448,192,29783,1,0,0:0:0:0:
320,192,29866,1,0,0:0:0:0:
64,192,29949,1,0,0:0:0:0:
192,192,30033,1,0,0:0:0:0:
64,192,30116,1,0,0:0:0:0:
448,192,30116,1,0,0:0:0:0:
320,192,30199,1,0,0:0:0:0:
192,192,30283,1,0,0:0:0:0:
448,192,30366,1,0,0:0:0:0:
64,192,30449,1,0,0:0:0:0:
192,192,30449,1,0,0:0:0:0:
320,192,30449,1,0,0:0:0:0:
448,192,30533,1,0,0:0:0:0:
64,192,30616,1,0,0:0:0:0:
192,192,30699,1,0,0:0:0:0:
64,192,30783,1,0,0:0:0:0:
320,192,30783,1,0,0:0:0:0:
448,192,30866,1,0,0:0:0:0:
64,192,30949,1,0,0:0:0:0:
192,192,31033,1,0,0:0:0:0:
448,192,31116,1,0,0:0:0:0:
320,192,31116,1,0,0:0:0:0:
64,192,31116,1,0,0:0:0:0:
192,192,31199,1,0,0:0:0:0:
448,192,31283,1,0,0:0:0:0:
320,192,31366,1,0,0:0:0:0:
192,192,31449,1,0,0:0:0:0:
64,192,31449,1,0,0:0:0:0:
320,192,31533,1,0,0:0:0:0:
64,192,31616,1,0,0:0:0:0:
192,192,31699,1,0,0:0:0:0:
448,192,31783,1,0,0:0:0:0:
320,192,31783,1,0,0:0:0:0:
64,192,31783,1,0,0:0:0:0:
192,192,31866,1,0,0:0:0:0:
320,192,31949,1,0,0:0:0:0:
448,192,32033,1,0,0:0:0:0:
64,192,32116,1,0,0:0:0:0:
192,192,32116,1,0,0:0:0:0:
320,192,32199,1,0,0:0:0:0:
448,192,32283,1,0,0:0:0:0:
320,192,32366,1,0,0:0:0:0:
192,192,32449,1,0,0:0:0:0:
64,192,32449,1,0,0:0:0:0:
448,192,32449,1,0,0:0:0:0:
320,192,32533,1,0,0:0:0:0:
192,192,32616,1,0,0:0:0:0:
448,192,32699,1,0,0:0:0:0:
320,192,32783,1,0,0:0:0:0:
64,192,32783,1,0,0:0:0:0:
192,192,32866,1,0,0:0:0:0:
448,192,32949,1,0,0:0:0:0:
192,192,33033,1,0,0:0:0:0:
448,192,33116,1,0,0:0:0:0:
64,192,33116,1,0,0:0:0:0:
320,192,33116,1,0,0:0:0:0:
192,192,33199,1,0,0:0:0:0:
320,192,33283,1,0,0:0:0:0:
448,192,33283,1,0,0:0:0:0:
192,192,33366,1,0,0:0:0:0:
448,192,33449,128,0,35449:0:0:0:0:
320,192,33449,1,0,0:0:0:0:
64,192,33449,1,0,0:0:0:0:
192,192,33533,1,0,0:0:0:0:
320,192,33616,1,0,0:0:0:0:
64,192,33699,1,0,0:0:0:0:
320,192,33783,1,0,0:0:0:0:
192,192,33783,1,0,0:0:0:0:
64,192,33866,1,0,0:0:0:0:
320,192,33949,1,0,0:0:0:0:
192,192,34033,1,0,0:0:0:0:
64,192,34116,1,0,0:0:0:0:
192,192,34199,1,0,0:0:0:0:
320,192,34283,1,0,0:0:0:0:
64,192,34366,1,0,0:0:0:0:
192,192,34449,1,0,0:0:0:0:
320,192,34449,1,0,0:0:0:0:
64,192,34533,1,0,0:0:0:0:
320,192,34616,1,0,0:0:0:0:
192,192,34699,1,0,0:0:0:0:
64,192,34783,1,0,0:0:0:0:
320,192,34866,1,0,0:0:0:0:
64,192,34949,1,0,0:0:0:0:
192,192,35033,1,0,0:0:0:0:
320,192,35116,1,0,0:0:0:0:
64,192,35116,1,0,0:0:0:0:
192,192,35199,1,0,0:0:0:0:
64,192,35283,1,0,0:0:0:0:
320,192,35366,1,0,0:0:0:0:
64,192,35449,128,0,36116:0:0:0:0:
192,192,35449,1,0,0:0:0:0:
448,192,35533,1,0,0:0:0:0:
320,192,35616,1,0,0:0:0:0:
192,192,35699,1,0,0:0:0:0:
448,192,35783,1,0,0:0:0:0:
320,192,35783,1,0,0:0:0:0:
192,192,35866,1,0,0:0:0:0:
448,192,35949,1,0,0:0:0:0:
320,192,36033,1,0,0:0:0:0:
448,192,36116,128,0,37783:0:0:0:0:
192,192,36116,1,0,0:0:0:0:
320,192,36199,1,0,0:0:0:0:
64,192,36283,1,0,0:0:0:0:
192,192,36366,1,0,0:0:0:0:
64,192,36449,1,0,0:0:0:0:
320,192,36449,1,0,0:0:0:0:
192,192,36533,1,0,0:0:0:0:
64,192,36616,1,0,0:0:0:0:
320,192,36699,1,0,0:0:0:0:
192,192,36783,1,0,0:0:0:0:
64,192,36866,1,0,0:0:0:0:
192,192,36949,1,0,0:0:0:0:
320,192,37033,1,0,0:0:0:0:
192,192,37116,1,0,0:0:0:0:
64,192,37116,1,0,0:0:0:0:
320,192,37199,1,0,0:0:0:0:
64,192,37283,1,0,0:0:0:0:
192,192,37366,1,0,0:0:0:0:
320,192,37449,1,0,0:0:0:0:
64,192,37533,1,0,0:0:0:0:
192,192,37616,1,0,0:0:0:0:
320,192,37699,1,0,0:0:0:0:
64,192,37783,128,0,38116:0:0:0:0:
192,192,37783,1,0,0:0:0:0:
448,192,37866,1,0,0:0:0:0:
320,192,37949,1,0,0:0:0:0:
192,192,38033,1,0,0:0:0:0:
320,192,38116,128,0,38449:0:0:0:0:
448,192,38116,1,0,0:0:0:0:
64,192,38199,1,0,0:0:0:0:
192,192,38283,1,0,0:0:0:0:
64,192,38366,1,0,0:0:0:0:
192,192,38449,128,0,38783:0:0:0:0:
448,192,38449,1,0,0:0:0:0:
64,192,38533,1,0,0:0:0:0:
320,192,38616,1,0,0:0:0:0:
448,192,38616,1,0,0:0:0:0:
64,192,38699,1,0,0:0:0:0:
64,192,38783,1,0,0:0:0:0:
320,192,38783,1,0,0:0:0:0:
448,192,38783,1,0,0:0:0:0:
192,192,38866,1,0,0:0:0:0:
320,192,38949,1,0,0:0:0:0:
192,192,39033,1,0,0:0:0:0:
64,192,39116,1,0,0:0:0:0:
448,192,39116,1,0,0:0:0:0:
320,192,39199,1,0,0:0:0:0:
64,192,39283,1,0,0:0:0:0:
192,192,39366,1,0,0:0:0:0:
320,192,39449,1,0,0:0:0:0:
448,192,39449,1,0,0:0:0:0:
192,192,39533,1,0,0:0:0:0:
64,192,39616,1,0,0:0:0:0:
320,192,39699,1,0,0:0:0:0:
192,192,39783,1,0,0:0:0:0:
64,192,39783,1,0,0:0:0:0:
448,192,39866,1,0,0:0:0:0:
320,192,39949,1,0,0:0:0:0:
192,192,40033,1,0,0:0:0:0:
320,192,40116,1,0,0:0:0:0:
448,192,40116,1,0,0:0:0:0:
64,192,40116,1,0,0:0:0:0:
192,192,40199,1,0,0:0:0:0:
448,192,40283,1,0,0:0:0:0:
320,192,40366,1,0,0:0:0:0:
64,192,40449,1,0,0:0:0:0:
192,192,40449,1,0,0:0:0:0:
320,192,40533,1,0,0:0:0:0:
448,192,40616,1,0,0:0:0:0:
64,192,40699,1,0,0:0:0:0:
192,192,40783,1,0,0:0:0:0:
320,192,40783,1,0,0:0:0:0:
448,192,40866,1,0,0:0:0:0:
64,192,40949,1,0,0:0:0:0:
192,192,41033,1,0,0:0:0:0:
448,192,41116,1,0,0:0:0:0:
320,192,41116,1,0,0:0:0:0:
192,192,41199,1,0,0:0:0:0:
64,192,41283,1,0,0:0:0:0:
320,192,41366,1,0,0:0:0:0:
64,192,41449,1,0,0:0:0:0:
448,192,41449,1,0,0:0:0:0:
192,192,41449,1,0,0:0:0:0:
320,192,41533,1,0,0:0:0:0:
192,192,41616,1,0,0:0:0:0:
448,192,41699,1,0,0:0:0:0:
64,192,41783,1,0,0:0:0:0:
192,192,41783,1,0,0:0:0:0:
448,192,41866,1,0,0:0:0:0:
320,192,41949,1,0,0:0:0:0:
64,192,42033,1,0,0:0:0:0:
320,192,42116,1,0,0:0:0:0:
448,192,42116,1,0,0:0:0:0:
192,192,42116,1,0,0:0:0:0:
64,192,42199,1,0,0:0:0:0:
320,192,42283,1,0,0:0:0:0:
192,192,42366,1,0,0:0:0:0:
448,192,42449,1,0,0:0:0:0:
64,192,42449,1,0,0:0:0:0:
320,192,42533,1,0,0:0:0:0:
192,192,42616,1,0,0:0:0:0:
64,192,42616,1,0,0:0:0:0:
320,192,42699,1,0,0:0:0:0:
64,192,42783,1,0,0:0:0:0:
448,192,42783,1,0,0:0:0:0:
192,192,42783,1,0,0:0:0:0:
192,192,42949,1,0,0:0:0:0:
320,192,43116,1,0,0:0:0:0:
448,192,43116,1,0,0:0:0:0:
192,192,43283,1,0,0:0:0:0:
64,192,43449,128,0,43616:0:0:0:0:
448,192,43449,128,0,44116:0:0:0:0:
320,192,43616,128,0,43783:0:0:0:0:
192,192,43783,1,0,0:0:0:0:
64,192,43783,128,0,43949:0:0:0:0:
192,192,43949,128,0,44116:0:0:0:0:
64,192,44116,128,0,44616:0:0:0:0:
320,192,44116,1,0,0:0:0:0:
320,192,44449,1,0,0:0:0:0:
448,192,44449,1,0,0:0:0:0:
448,192,44616,128,0,45116:0:0:0:0:
192,192,44783,1,0,0:0:0:0:
64,192,44949,1,0,0:0:0:0:
320,192,44949,1,0,0:0:0:0:
64,192,45116,128,0,45449:0:0:0:0:
320,192,45116,1,0,0:0:0:0:
192,192,45283,1,0,0:0:0:0:
320,192,45449,128,0,45949:0:0:0:0:
448,192,45449,1,0,0:0:0:0:
64,192,45616,1,0,0:0:0:0:
448,192,45783,1,0,0:0:0:0:
64,192,45783,1,0,0:0:0:0:
64,192,45949,128,0,46449:0:0:0:0:
448,192,45949,1,0,0:0:0:0:
320,192,46005,1,0,0:0:0:0:
192,192,46061,1,0,0:0:0:0:
448,192,46116,1,0,0:0:0:0:
192,192,46283,1,0,0:0:0:0:
448,192,46283,1,0,0:0:0:0:
448,192,46449,128,0,46783:0:0:0:0:
320,192,46449,1,0,0:0:0:0:
192,192,46616,1,0,0:0:0:0:
64,192,46783,1,0,0:0:0:0:
320,192,46783,1,0,0:0:0:0:
192,192,46949,1,0,0:0:0:0:
320,192,47116,1,0,0:0:0:0:
448,192,47116,1,0,0:0:0:0:
64,192,47283,1,0,0:0:0:0:
320,192,47449,1,0,0:0:0:0:
64,192,47616,128,0,47949:0:0:0:0:
192,192,47616,1,0,0:0:0:0:
448,192,47783,1,0,0:0:0:0:
320,192,47783,1,0,0:0:0:0:
320,192,47949,128,0,49033:0:0:0:0:
192,192,48116,1,0,0:0:0:0:
64,192,48116,1,0,0:0:0:0:
448,192,48283,1,0,0:0:0:0:
192,192,48449,1,0,0:0:0:0:
64,192,48449,1,0,0:0:0:0:
192,192,48616,1,0,0:0:0:0:
448,192,48616,1,0,0:0:0:0:
64,192,48672,1,0,0:0:0:0:
448,192,48727,1,0,0:0:0:0:
192,192,48783,1,0,0:0:0:0:
64,192,48949,1,0,0:0:0:0:
448,192,48949,1,0,0:0:0:0:
192,192,49116,1,0,0:0:0:0:
320,192,49199,1,0,0:0:0:0:
192,192,49283,1,0,0:0:0:0:
320,192,49366,1,0,0:0:0:0:
448,192,49449,128,0,49949:0:0:0:0:
64,192,49449,1,0,0:0:0:0:
192,192,49616,1,0,0:0:0:0:
64,192,49783,1,0,0:0:0:0:
320,192,49783,1,0,0:0:0:0:
64,192,49949,128,0,50449:0:0:0:0:
320,192,49949,1,0,0:0:0:0:
192,192,50116,1,0,0:0:0:0:
448,192,50283,1,0,0:0:0:0:
320,192,50283,1,0,0:0:0:0:
320,192,50449,128,0,50783:0:0:0:0:
448,192,50449,1,0,0:0:0:0:
64,192,50616,1,0,0:0:0:0:
192,192,50783,128,0,51283:0:0:0:0:
448,192,50783,1,0,0:0:0:0:
64,192,50949,1,0,0:0:0:0:
320,192,51116,1,0,0:0:0:0:
448,192,51116,1,0,0:0:0:0:
448,192,51283,128,0,51783:0:0:0:0:
64,192,51283,1,0,0:0:0:0:
192,192,51338,1,0,0:0:0:0:
320,192,51394,1,0,0:0:0:0:
64,192,51449,1,0,0:0:0:0:
64,192,51616,1,0,0:0:0:0:
320,192,51616,1,0,0:0:0:0:
64,192,51783,128,0,52116:0:0:0:0:
192,192,51783,1,0,0:0:0:0:
320,192,51949,1,0,0:0:0:0:
192,192,52116,1,0,0:0:0:0:
448,192,52116,1,0,0:0:0:0:
320,192,52283,1,0,0:0:0:0:
64,192,52449,1,0,0:0:0:0:
448,192,52449,128,0,53449:0:0:0:0:
192,192,52449,1,0,0:0:0:0:
320,192,52616,1,0,0:0:0:0:
64,192,52783,1,0,0:0:0:0:
320,192,52949,1,0,0:0:0:0:
192,192,52949,1,0,0:0:0:0:
64,192,53116,1,0,0:0:0:0:
320,192,53283,128,0,54366:0:0:0:0:
192,192,53283,1,0,0:0:0:0:
192,192,53449,1,0,0:0:0:0:
64,192,53449,1,0,0:0:0:0:
448,192,53783,1,0,0:0:0:0:
64,192,53949,1,0,0:0:0:0:
192,192,53949,1,0,0:0:0:0:
64,192,54283,1,0,0:0:0:0:
192,192,54449,1,0,0:0:0:0:
448,192,54449,1,0,0:0:0:0:
64,192,54449,1,0,0:0:0:0:
320,192,54533,1,0,0:0:0:0:
192,192,54616,1,0,0:0:0:0:
320,192,54699,1,0,0:0:0:0:
64,192,54783,1,0,0:0:0:0:
448,192,54783,1,0,0:0:0:0:
64,192,55116,1,0,0:0:0:0:
448,192,55116,1,0,0:0:0:0:
320,192,55116,1,0,0:0:0:0:
192,192,55199,1,0,0:0:0:0:
320,192,55283,1,0,0:0:0:0:
448,192,55449,1,0,0:0:0:0:
192,192,55449,1,0,0:0:0:0:
320,192,55533,1,0,0:0:0:0:
64,192,55616,1,0,0:0:0:0:
320,192,55783,1,0,0:0:0:0:
448,192,55783,1,0,0:0:0:0:
192,192,55783,1,0,0:0:0:0:
64,192,55866,1,0,0:0:0:0:
320,192,55949,1,0,0:0:0:0:
64,192,56116,1,0,0:0:0:0:
448,192,56116,1,0,0:0:0:0:
192,192,56199,1,0,0:0:0:0:
320,192,56283,1,0,0:0:0:0:
192,192,56449,1,0,0:0:0:0:
64,192,56449,1,0,0:0:0:0:
448,192,56449,1,0,0:0:0:0:
320,192,56533,1,0,0:0:0:0:
448,192,56616,1,0,0:0:0:0:
64,192,56783,1,0,0:0:0:0:
320,192,56783,1,0,0:0:0:0:
448,192,56866,1,0,0:0:0:0:
192,192,56949,1,0,0:0:0:0:
64,192,57116,1,0,0:0:0:0:
448,192,57116,1,0,0:0:0:0:
192,192,57116,1,0,0:0:0:0:
320,192,57199,1,0,0:0:0:0:
64,192,57283,1,0,0:0:0:0:
64,192,57449,1,0,0:0:0:0:
320,192,57449,1,0,0:0:0:0:
192,192,57533,1,0,0:0:0:0:
448,192,57616,1,0,0:0:0:0:
192,192,57783,1,0,0:0:0:0:
64,192,57783,1,0,0:0:0:0:
448,192,57783,1,0,0:0:0:0:
320,192,57866,1,0,0:0:0:0:
448,192,57949,1,0,0:0:0:0:
64,192,58116,1,0,0:0:0:0:
320,192,58116,1,0,0:0:0:0:
448,192,58199,1,0,0:0:0:0:
192,192,58283,1,0,0:0:0:0:
320,192,58449,1,0,0:0:0:0:
448,192,58449,1,0,0:0:0:0:
192,192,58449,1,0,0:0:0:0:
64,192,58533,1,0,0:0:0:0:
320,192,58616,1,0,0:0:0:0:
64,192,58783,1,0,0:0:0:0:
448,192,58783,1,0,0:0:0:0:
192,192,58866,1,0,0:0:0:0:
320,192,58949,1,0,0:0:0:0:
192,192,59116,1,0,0:0:0:0:
448,192,59116,1,0,0:0:0:0:
64,192,59116,1,0,0:0:0:0:
320,192,59199,1,0,0:0:0:0:
64,192,59283,1,0,0:0:0:0:
448,192,59449,1,0,0:0:0:0:
192,192,59449,1,0,0:0:0:0:
64,192,59533,1,0,0:0:0:0:
320,192,59616,1,0,0:0:0:0:
64,192,59783,1,0,0:0:0:0:
192,192,59783,1,0,0:0:0:0:
448,192,59783,1,0,0:0:0:0:
320,192,59866,1,0,0:0:0:0:
64,192,59949,1,0,0:0:0:0:
448,192,59949,1,0,0:0:0:0:
448,192,60116,1,0,0:0:0:0:
320,192,60116,1,0,0:0:0:0:
64,192,60116,1,0,0:0:0:0:
192,192,60283,1,0,0:0:0:0:
64,192,60283,1,0,0:0:0:0:
448,192,60449,1,0,0:0:0:0:
320,192,60449,1,0,0:0:0:0:
192,192,60616,1,0,0:0:0:0:
64,192,60616,1,0,0:0:0:0:
448,192,60783,1,0,0:0:0:0:
320,192,60783,1,0,0:0:0:0:
192,192,60949,1,0,0:0:0:0:
64,192,60949,1,0,0:0:0:0:
448,192,61116,1,0,0:0:0:0:
320,192,61116,1,0,0:0:0:0:
64,192,61283,1,0,0:0:0:0:
192,192,61283,1,0,0:0:0:0:
320,192,61366,1,0,0:0:0:0:
448,192,61366,1,0,0:0:0:0:
64,192,61449,1,0,0:0:0:0:
192,192,61449,1,0,0:0:0:0:
448,192,61449,1,0,0:0:0:0:
448,192,61616,1,0,0:0:0:0:
320,192,61616,1,0,0:0:0:0:
64,192,61783,1,0,0:0:0:0:
192,192,61783,1,0,0:0:0:0:
320,192,61949,1,0,0:0:0:0:
448,192,61949,1,0,0:0:0:0:
64,192,62116,1,0,0:0:0:0:
192,192,62116,1,0,0:0:0:0:
320,192,62199,1,0,0:0:0:0:
64,192,62283,1,0,0:0:0:0:
448,192,62283,1,0,0:0:0:0:
192,192,62324,1,0,0:0:0:0:
320,192,62366,1,0,0:0:0:0:
448,192,62408,1,0,0:0:0:0:
64,192,62449,1,0,0:0:0:0:
192,192,62449,1,0,0:0:0:0:
320,192,62533,1,0,0:0:0:0:
448,192,62616,1,0,0:0:0:0:
64,192,62616,1,0,0:0:0:0:
192,192,62658,1,0,0:0:0:0:
320,192,62699,1,0,0:0:0:0:
448,192,62741,1,0,0:0:0:0:
64,192,62783,1,0,0:0:0:0:
192,192,62783,1,0,0:0:0:0:
320,192,62783,1,0,0:0:0:0:
320,192,63033,1,0,0:0:0:0:
192,192,63033,1,0,0:0:0:0:
448,192,63033,1,0,0:0:0:0:
64,192,63283,1,0,0:0:0:0:
192,192,63283,1,0,0:0:0:0:
320,192,63283,1,0,0:0:0:0:
320,192,63616,1,0,0:0:0:0:
448,192,63616,1,0,0:0:0:0:
192,192,63783,1,0,0:0:0:0:
320,192,63866,1,0,0:0:0:0:
192,192,63949,1,0,0:0:0:0:
320,192,64033,1,0,0:0:0:0:
64,192,64116,1,0,0:0:0:0:
192,192,64116,1,0,0:0:0:0:
448,192,64116,1,0,0:0:0:0:
64,192,64366,1,0,0:0:0:0:
192,192,64366,1,0,0:0:0:0:
448,192,64366,1,0,0:0:0:0:
320,192,64616,1,0,0:0:0:0:
448,192,64616,1,0,0:0:0:0:
192,192,64616,1,0,0:0:0:0:
64,192,64783,1,0,0:0:0:0:
192,192,64783,1,0,0:0:0:0:
448,192,64783,1,0,0:0:0:0:
64,192,64949,1,0,0:0:0:0:
192,192,64949,1,0,0:0:0:0:
448,192,64949,1,0,0:0:0:0:
320,192,65116,1,0,0:0:0:0:
192,192,65199,1,0,0:0:0:0:
320,192,65283,1,0,0:0:0:0:
192,192,65366,1,0,0:0:0:0:
448,192,65449,1,0,0:0:0:0:
64,192,65449,128,0,65616:0:0:0:0:
320,192,65449,1,0,0:0:0:0:
192,192,65616,128,0,65783:0:0:0:0:
320,192,65783,128,0,65949:0:0:0:0:
64,192,65949,128,0,66116:0:0:0:0:
448,192,66116,128,0,66283:0:0:0:0:
192,192,66283,128,0,66449:0:0:0:0:
320,192,66449,128,0,66616:0:0:0:0:
448,192,66616,128,0,66783:0:0:0:0:
64,192,66783,128,0,66949:0:0:0:0:
320,192,66783,128,0,67449:0:0:0:0:
192,192,66949,128,0,67116:0:0:0:0:
448,192,67116,128,0,67283:0:0:0:0:
64,192,67283,128,0,67449:0:0:0:0:
192,192,67449,128,0,67616:0:0:0:0:
448,192,67449,128,0,68116:0:0:0:0:
64,192,67616,128,0,67783:0:0:0:0:
192,192,67783,128,0,67949:0:0:0:0:
320,192,67949,128,0,68116:0:0:0:0:
192,192,68116,128,0,68283:0:0:0:0:
64,192,68116,128,0,69449:0:0:0:0:
320,192,68283,128,0,68449:0:0:0:0:
448,192,68449,128,0,68616:0:0:0:0:
192,192,68616,128,0,68783:0:0:0:0:
448,192,68783,128,0,68949:0:0:0:0:
192,192,68949,128,0,69116:0:0:0:0:
320,192,69116,128,0,69283:0:0:0:0:
448,192,69283,128,0,69449:0:0:0:0:
192,192,69449,128,0,69616:0:0:0:0:
320,192,69616,128,0,69783:0:0:0:0:
64,192,69783,128,0,69949:0:0:0:0:
448,192,69783,128,0,70116:0:0:0:0:
192,192,69949,128,0,70116:0:0:0:0:
320,192,70116,128,0,70283:0:0:0:0:
64,192,70116,128,0,70449:0:0:0:0:
192,192,70283,128,0,70449:0:0:0:0:
320,192,70449,128,0,70616:0:0:0:0:
448,192,70449,128,0,70783:0:0:0:0:
64,192,70616,128,0,70783:0:0:0:0:
320,192,70783,128,0,70949:0:0:0:0:
192,192,70783,128,0,71783:0:0:0:0:
64,192,70949,128,0,71116:0:0:0:0:
448,192,71116,128,0,71283:0:0:0:0:
320,192,71283,128,0,71449:0:0:0:0:
64,192,71449,128,0,71616:0:0:0:0:
448,192,71616,128,0,71783:0:0:0:0:
64,192,71783,128,0,71949:0:0:0:0:
320,192,71783,128,0,72116:0:0:0:0:
448,192,71949,128,0,72116:0:0:0:0:
192,192,72116,128,0,72283:0:0:0:0:
64,192,72116,128,0,72783:0:0:0:0:
320,192,72283,128,0,72449:0:0:0:0:
192,192,72449,128,0,72616:0:0:0:0:
448,192,72616,128,0,72783:0:0:0:0:
320,192,72783,128,0,73449:0:0:0:0:
192,192,72783,128,0,72949:0:0:0:0:
448,192,72949,128,0,73116:0:0:0:0:
192,192,73116,128,0,73283:0:0:0:0:
64,192,73283,128,0,73449:0:0:0:0:
448,192,73449,128,0,73616:0:0:0:0:
192,192,73449,128,0,74116:0:0:0:0:
320,192,73616,128,0,73783:0:0:0:0:
64,192,73783,128,0,73949:0:0:0:0:
320,192,73949,128,0,74116:0:0:0:0:
64,192,74116,128,0,74283:0:0:0:0:
448,192,74116,128,0,74783:0:0:0:0:
320,192,74283,128,0,74449:0:0:0:0:
192,192,74449,128,0,74616:0:0:0:0:
64,192,74616,128,0,74783:0:0:0:0:
320,192,74783,128,0,74949:0:0:0:0:
192,192,74783,128,0,75949:0:0:0:0:
448,192,74949,128,0,75116:0:0:0:0:
64,192,75116,128,0,75283:0:0:0:0:
320,192,75283,128,0,75449:0:0:0:0:
64,192,75449,128,0,75949:0:0:0:0:
448,192,75449,128,0,75616:0:0:0:0:
320,192,75616,128,0,75783:0:0:0:0:
448,192,75783,128,0,75949:0:0:0:0:
320,192,75949,1,0,0:0:0:0:
192,192,76116,1,0,0:0:0:0:
448,192,76116,1,0,0:0:0:0:
64,192,76116,128,0,76283:0:0:0:0:
320,192,76283,128,0,76449:0:0:0:0:
192,192,76449,1,0,0:0:0:0:
64,192,76449,128,0,76616:0:0:0:0:
320,192,76616,1,0,0:0:0:0:
448,192,76616,1,0,0:0:0:0:
64,192,76783,1,0,0:0:0:0:
192,192,76783,128,0,76949:0:0:0:0:
320,192,76949,128,0,77116:0:0:0:0:
448,192,77116,1,0,0:0:0:0:
64,192,77116,128,0,77283:0:0:0:0:
192,192,77283,1,0,0:0:0:0:
320,192,77283,128,0,77449:0:0:0:0:
64,192,77449,1,0,0:0:0:0:
448,192,77449,128,0,77616:0:0:0:0:
192,192,77616,128,0,77783:0:0:0:0:
64,192,77783,1,0,0:0:0:0:
448,192,77783,128,0,77949:0:0:0:0:
192,192,77949,1,0,0:0:0:0:
320,192,77949,1,0,0:0:0:0:
448,192,78116,1,0,0:0:0:0:
192,192,78116,128,0,78283:0:0:0:0:
64,192,78116,1,0,0:0:0:0:
320,192,78283,128,0,78449:0:0:0:0:
64,192,78449,1,0,0:0:0:0:
448,192,78449,128,0,78616:0:0:0:0:
64,192,78616,1,0,0:0:0:0:
192,192,78616,128,0,78783:0:0:0:0:
64,192,78783,1,0,0:0:0:0:
448,192,78783,128,0,78949:0:0:0:0:
320,192,78783,1,0,0:0:0:0:
320,192,78949,128,0,79116:0:0:0:0:
192,192,79116,1,0,0:0:0:0:
64,192,79116,128,0,79283:0:0:0:0:
448,192,79283,1,0,0:0:0:0:
320,192,79283,1,0,0:0:0:0:
64,192,79449,1,0,0:0:0:0:
192,192,79449,128,0,79616:0:0:0:0:
320,192,79616,128,0,79783:0:0:0:0:
448,192,79783,1,0,0:0:0:0:
64,192,79783,128,0,79949:0:0:0:0:
192,192,79949,1,0,0:0:0:0:
320,192,79949,128,0,80116:0:0:0:0:
64,192,80116,1,0,0:0:0:0:
448,192,80116,128,0,80283:0:0:0:0:
192,192,80283,128,0,80449:0:0:0:0:
320,192,80449,1,0,0:0:0:0:
64,192,80449,128,0,80616:0:0:0:0:
448,192,80449,1,0,0:0:0:0:
448,192,80616,1,0,0:0:0:0:
320,192,80616,1,0,0:0:0:0:
64,192,80783,1,0,0:0:0:0:
192,192,80783,128,0,80949:0:0:0:0:
448,192,80783,1,0,0:0:0:0:
320,192,80949,1,0,0:0:0:0:
192,192,81116,1,0,0:0:0:0:
448,192,81116,128,0,81283:0:0:0:0:
64,192,81116,1,0,0:0:0:0:
64,192,81283,1,0,0:0:0:0:
320,192,81283,128,0,81449:0:0:0:0:
192,192,81449,1,0,0:0:0:0:
448,192,81449,128,0,81616:0:0:0:0:
64,192,81449,1,0,0:0:0:0:
192,192,81616,128,0,81783:0:0:0:0:
64,192,81783,1,0,0:0:0:0:
448,192,81783,128,0,81949:0:0:0:0:
320,192,81949,1,0,0:0:0:0:
192,192,81949,1,0,0:0:0:0:
448,192,82116,1,0,0:0:0:0:
64,192,82116,128,0,82283:0:0:0:0:
320,192,82283,128,0,82449:0:0:0:0:
448,192,82449,1,0,0:0:0:0:
64,192,82449,128,0,82616:0:0:0:0:
192,192,82449,1,0,0:0:0:0:
320,192,82616,1,0,0:0:0:0:
192,192,82616,128,0,82783:0:0:0:0:
448,192,82616,1,0,0:0:0:0:
64,192,82783,1,0,0:0:0:0:
448,192,82783,128,0,82949:0:0:0:0:
320,192,82949,128,0,83116:0:0:0:0:
64,192,83116,1,0,0:0:0:0:
192,192,83116,128,0,83283:0:0:0:0:
448,192,83283,1,0,0:0:0:0:
320,192,83283,1,0,0:0:0:0:
192,192,83449,1,0,0:0:0:0:
64,192,83449,128,0,83616:0:0:0:0:
448,192,83449,1,0,0:0:0:0:
448,192,83616,128,0,83783:0:0:0:0:
320,192,83783,1,0,0:0:0:0:
64,192,83783,128,0,83949:0:0:0:0:
448,192,83949,1,0,0:0:0:0:
192,192,83949,128,0,84116:0:0:0:0:
64,192,84116,1,0,0:0:0:0:
320,192,84116,128,0,84283:0:0:0:0:
448,192,84116,1,0,0:0:0:0:
64,192,84283,128,0,84449:0:0:0:0:
320,192,84449,1,0,0:0:0:0:
448,192,84449,128,0,84616:0:0:0:0:
64,192,84616,1,0,0:0:0:0:
192,192,84616,1,0,0:0:0:0:
448,192,84783,1,0,0:0:0:0:
320,192,84783,128,0,84949:0:0:0:0:
64,192,84783,1,0,0:0:0:0:
64,192,84949,128,0,85116:0:0:0:0:
448,192,85116,1,0,0:0:0:0:
192,192,85116,128,0,85283:0:0:0:0:
448,192,85283,1,0,0:0:0:0:
320,192,85283,128,0,85449:0:0:0:0:
64,192,85449,1,0,0:0:0:0:
192,192,85533,1,0,0:0:0:0:
320,192,85616,1,0,0:0:0:0:
448,192,85699,1,0,0:0:0:0:
64,192,85783,1,0,0:0:0:0:
192,192,85866,1,0,0:0:0:0:
448,192,85949,1,0,0:0:0:0:
64,192,86033,1,0,0:0:0:0:
448,192,86116,1,0,0:0:0:0:
320,192,86199,1,0,0:0:0:0:
192,192,86283,1,0,0:0:0:0:
64,192,86366,1,0,0:0:0:0:
448,192,86449,1,0,0:0:0:0:
320,192,86533,1,0,0:0:0:0:
64,192,86616,1,0,0:0:0:0:
192,192,86699,1,0,0:0:0:0:
320,192,86783,5,0,0:0:0:0:
448,192,86783,1,0,0:0:0:0:
64,192,86783,1,0,0:0:0:0:
192,192,86866,1,0,0:0:0:0:
320,192,86949,1,0,0:0:0:0:
448,192,87033,1,0,0:0:0:0:
192,192,87116,1,0,0:0:0:0:
320,192,87199,1,0,0:0:0:0:
192,192,87283,1,0,0:0:0:0:
448,192,87283,1,0,0:0:0:0:
64,192,87283,1,0,0:0:0:0:
320,192,87366,1,0,0:0:0:0:
192,192,87449,1,0,0:0:0:0:
64,192,87533,1,0,0:0:0:0:
320,192,87616,1,0,0:0:0:0:
192,192,87699,1,0,0:0:0:0:
64,192,87783,1,0,0:0:0:0:
448,192,87783,1,0,0:0:0:0:
320,192,87783,1,0,0:0:0:0:
192,192,87866,1,0,0:0:0:0:
448,192,87949,1,0,0:0:0:0:
64,192,88033,1,0,0:0:0:0:
192,192,88116,1,0,0:0:0:0:
320,192,88199,1,0,0:0:0:0:
64,192,88283,1,0,0:0:0:0:
192,192,88283,1,0,0:0:0:0:
448,192,88283,1,0,0:0:0:0:
320,192,88366,1,0,0:0:0:0:
192,192,88449,1,0,0:0:0:0:
64,192,88533,1,0,0:0:0:0:
448,192,88616,1,0,0:0:0:0:
448,192,88783,1,0,0:0:0:0:
64,192,88783,1,0,0:0:0:0:
320,192,88783,1,0,0:0:0:0:
192,192,88866,1,0,0:0:0:0:
320,192,88949,1,0,0:0:0:0:
64,192,89033,1,0,0:0:0:0:
320,192,89116,1,0,0:0:0:0:
192,192,89116,1,0,0:0:0:0:
448,192,89116,1,0,0:0:0:0:
64,192,89199,1,0,0:0:0:0:
320,192,89283,1,0,0:0:0:0:
192,192,89366,1,0,0:0:0:0:
320,192,89449,5,0,0:0:0:0:
448,192,89449,1,0,0:0:0:0:
64,192,89449,1,0,0:0:0:0:
192,192,89533,1,0,0:0:0:0:
320,192,89616,1,0,0:0:0:0:
448,192,89699,1,0,0:0:0:0:
192,192,89783,1,0,0:0:0:0:
320,192,89866,1,0,0:0:0:0:
192,192,89949,1,0,0:0:0:0:
448,192,89949,1,0,0:0:0:0:
64,192,89949,1,0,0:0:0:0:
320,192,90033,1,0,0:0:0:0:
192,192,90116,1,0,0:0:0:0:
64,192,90199,1,0,0:0:0:0:
320,192,90283,1,0,0:0:0:0:
192,192,90366,1,0,0:0:0:0:
64,192,90449,1,0,0:0:0:0:
448,192,90449,1,0,0:0:0:0:
320,192,90449,1,0,0:0:0:0:
192,192,90533,1,0,0:0:0:0:
448,192,90616,1,0,0:0:0:0:
64,192,90699,1,0,0:0:0:0:
192,192,90783,1,0,0:0:0:0:
320,192,90866,1,0,0:0:0:0:
64,192,90949,1,0,0:0:0:0:
192,192,90949,1,0,0:0:0:0:
448,192,90949,1,0,0:0:0:0:
320,192,91033,1,0,0:0:0:0:
192,192,91116,1,0,0:0:0:0:
64,192,91199,1,0,0:0:0:0:
448,192,91283,1,0,0:0:0:0:
448,192,91449,1,0,0:0:0:0:
64,192,91449,1,0,0:0:0:0:
320,192,91449,1,0,0:0:0:0:
192,192,91533,1,0,0:0:0:0:
320,192,91616,1,0,0:0:0:0:
64,192,91699,1,0,0:0:0:0:
320,192,91783,1,0,0:0:0:0:
192,192,91783,1,0,0:0:0:0:
448,192,91783,1,0,0:0:0:0:
64,192,91866,1,0,0:0:0:0:
320,192,91949,1,0,0:0:0:0:
448,192,91949,1,0,0:0:0:0:
192,192,92033,1,0,0:0:0:0:
64,192,92033,1,0,0:0:0:0:
320,192,92116,5,0,0:0:0:0:
64,192,92116,1,0,0:0:0:0:
448,192,92116,1,0,0:0:0:0:
192,192,92199,1,0,0:0:0:0:
320,192,92283,1,0,0:0:0:0:
64,192,92283,1,0,0:0:0:0:
448,192,92366,1,0,0:0:0:0:
192,192,92449,1,0,0:0:0:0:
320,192,92533,1,0,0:0:0:0:
64,192,92616,1,0,0:0:0:0:
448,192,92616,1,0,0:0:0:0:
192,192,92616,1,0,0:0:0:0:
320,192,92699,1,0,0:0:0:0:
192,192,92783,1,0,0:0:0:0:
64,192,92866,1,0,0:0:0:0:
320,192,92949,1,0,0:0:0:0:
448,192,92949,1,0,0:0:0:0:
192,192,93033,1,0,0:0:0:0:
320,192,93116,1,0,0:0:0:0:
448,192,93116,1,0,0:0:0:0:
64,192,93116,1,0,0:0:0:0:
192,192,93199,1,0,0:0:0:0:
448,192,93283,1,0,0:0:0:0:
320,192,93283,1,0,0:0:0:0:
64,192,93366,1,0,0:0:0:0:
192,192,93449,1,0,0:0:0:0:
320,192,93533,1,0,0:0:0:0:
448,192,93616,1,0,0:0:0:0:
192,192,93616,1,0,0:0:0:0:
64,192,93616,1,0,0:0:0:0:
320,192,93699,1,0,0:0:0:0:
192,192,93783,1,0,0:0:0:0:
64,192,93866,1,0,0:0:0:0:
448,192,93949,1,0,0:0:0:0:
320,192,93949,1,0,0:0:0:0:
320,192,94116,1,0,0:0:0:0:
64,192,94116,1,0,0:0:0:0:
448,192,94116,1,0,0:0:0:0:
192,192,94199,1,0,0:0:0:0:
320,192,94283,1,0,0:0:0:0:
448,192,94283,1,0,0:0:0:0:
64,192,94366,1,0,0:0:0:0:
448,192,94449,1,0,0:0:0:0:
320,192,94449,1,0,0:0:0:0:
192,192,94449,1,0,0:0:0:0:
64,192,94533,1,0,0:0:0:0:
448,192,94616,1,0,0:0:0:0:
320,192,94616,1,0,0:0:0:0:
192,192,94699,1,0,0:0:0:0:
320,192,94783,5,0,0:0:0:0:
448,192,94783,1,0,0:0:0:0:
64,192,94783,1,0,0:0:0:0:
192,192,94866,1,0,0:0:0:0:
320,192,94949,1,0,0:0:0:0:
64,192,94949,1,0,0:0:0:0:
448,192,95033,1,0,0:0:0:0:
192,192,95116,1,0,0:0:0:0:
320,192,95199,1,0,0:0:0:0:
192,192,95283,1,0,0:0:0:0:
448,192,95283,1,0,0:0:0:0:
64,192,95283,1,0,0:0:0:0:
320,192,95366,1,0,0:0:0:0:
192,192,95449,1,0,0:0:0:0:
64,192,95533,1,0,0:0:0:0:
320,192,95616,1,0,0:0:0:0:
448,192,95616,1,0,0:0:0:0:
192,192,95699,1,0,0:0:0:0:
64,192,95783,1,0,0:0:0:0:
448,192,95783,1,0,0:0:0:0:
320,192,95783,1,0,0:0:0:0:
192,192,95866,1,0,0:0:0:0:
448,192,95949,1,0,0:0:0:0:
320,192,95949,1,0,0:0:0:0:
64,192,96033,1,0,0:0:0:0:
192,192,96116,1,0,0:0:0:0:
320,192,96199,1,0,0:0:0:0:
64,192,96283,1,0,0:0:0:0:
192,192,96283,1,0,0:0:0:0:
448,192,96283,1,0,0:0:0:0:
320,192,96366,1,0,0:0:0:0:
192,192,96449,1,0,0:0:0:0:
64,192,96533,1,0,0:0:0:0:
448,192,96616,1,0,0:0:0:0:
320,192,96616,1,0,0:0:0:0:
448,192,96783,1,0,0:0:0:0:
64,192,96783,1,0,0:0:0:0:
320,192,96783,1,0,0:0:0:0:
192,192,96866,1,0,0:0:0:0:
320,192,96949,1,0,0:0:0:0:
448,192,96949,1,0,0:0:0:0:
64,192,97033,1,0,0:0:0:0:
320,192,97116,1,0,0:0:0:0:
448,192,97116,1,0,0:0:0:0:
64,192,97199,1,0,0:0:0:0:
192,192,97199,1,0,0:0:0:0:
448,192,97283,1,0,0:0:0:0:
320,192,97324,1,0,0:0:0:0:
192,192,97366,1,0,0:0:0:0:
64,192,97408,1,0,0:0:0:0:
320,192,97449,1,0,0:0:0:0:
448,192,97449,1,0,0:0:0:0:
64,192,97783,1,0,0:0:0:0:
448,192,97783,1,0,0:0:0:0:
192,192,97783,1,0,0:0:0:0:
320,192,97866,1,0,0:0:0:0:
64,192,97949,1,0,0:0:0:0:
448,192,97949,1,0,0:0:0:0:
192,192,98033,1,0,0:0:0:0:
320,192,98116,1,0,0:0:0:0:
448,192,98116,1,0,0:0:0:0:
192,192,98199,1,0,0:0:0:0:
64,192,98283,1,0,0:0:0:0:
448,192,98283,1,0,0:0:0:0:
320,192,98366,1,0,0:0:0:0:
192,192,98449,1,0,0:0:0:0:
64,192,98449,1,0,0:0:0:0:
320,192,98533,1,0,0:0:0:0:
448,192,98616,1,0,0:0:0:0:
64,192,98616,1,0,0:0:0:0:
192,192,98699,1,0,0:0:0:0:
320,192,98783,1,0,0:0:0:0:
448,192,98783,1,0,0:0:0:0:
192,192,98866,1,0,0:0:0:0:
448,192,98949,1,0,0:0:0:0:
64,192,98949,1,0,0:0:0:0:
192,192,99033,1,0,0:0:0:0:
320,192,99116,1,0,0:0:0:0:
64,192,99116,1,0,0:0:0:0:
448,192,99199,1,0,0:0:0:0:
192,192,99283,1,0,0:0:0:0:
64,192,99283,1,0,0:0:0:0:
448,192,99366,1,0,0:0:0:0:
64,192,99449,1,0,0:0:0:0:
320,192,99449,1,0,0:0:0:0:
448,192,99533,1,0,0:0:0:0:
192,192,99533,1,0,0:0:0:0:
64,192,99616,1,0,0:0:0:0:
320,192,99616,1,0,0:0:0:0:
192,192,99699,1,0,0:0:0:0:
320,192,99783,1,0,0:0:0:0:
448,192,99783,1,0,0:0:0:0:
64,192,99866,1,0,0:0:0:0:
192,192,99866,1,0,0:0:0:0:
448,192,99949,1,0,0:0:0:0:
320,192,99949,1,0,0:0:0:0:
64,192,100033,1,0,0:0:0:0:
192,192,100033,1,0,0:0:0:0:
320,192,100116,1,0,0:0:0:0:
64,192,100116,1,0,0:0:0:0:
448,192,100116,1,0,0:0:0:0:
192,192,100199,1,0,0:0:0:0:
448,192,100283,1,0,0:0:0:0:
320,192,100283,1,0,0:0:0:0:
64,192,100366,1,0,0:0:0:0:
192,192,100449,1,0,0:0:0:0:
320,192,100449,1,0,0:0:0:0:
64,192,100533,1,0,0:0:0:0:
320,192,100616,1,0,0:0:0:0:
448,192,100616,1,0,0:0:0:0:
192,192,100699,1,0,0:0:0:0:
448,192,100783,1,0,0:0:0:0:
64,192,100783,1,0,0:0:0:0:
320,192,100866,1,0,0:0:0:0:
64,192,100949,1,0,0:0:0:0:
192,192,100949,1,0,0:0:0:0:
448,192,101033,1,0,0:0:0:0:
320,192,101116,1,0,0:0:0:0:
64,192,101116,1,0,0:0:0:0:
192,192,101199,1,0,0:0:0:0:
320,192,101283,1,0,0:0:0:0:
448,192,101283,1,0,0:0:0:0:
192,192,101366,1,0,0:0:0:0:
64,192,101449,1,0,0:0:0:0:
448,192,101449,1,0,0:0:0:0:
320,192,101533,1,0,0:0:0:0:
192,192,101616,1,0,0:0:0:0:
64,192,101616,1,0,0:0:0:0:
448,192,101699,1,0,0:0:0:0:
64,192,101783,1,0,0:0:0:0:
320,192,101783,1,0,0:0:0:0:
448,192,101866,1,0,0:0:0:0:
192,192,101949,1,0,0:0:0:0:
64,192,101949,1,0,0:0:0:0:
320,192,102033,1,0,0:0:0:0:
448,192,102116,1,0,0:0:0:0:
64,192,102116,1,0,0:0:0:0:
320,192,102199,1,0,0:0:0:0:
192,192,102199,1,0,0:0:0:0:
448,192,102283,1,0,0:0:0:0:
64,192,102283,1,0,0:0:0:0:
320,192,102366,1,0,0:0:0:0:
64,192,102449,1,0,0:0:0:0:
192,192,102449,1,0,0:0:0:0:
448,192,102533,1,0,0:0:0:0:
320,192,102533,1,0,0:0:0:0:
192,192,102616,1,0,0:0:0:0:
64,192,102616,1,0,0:0:0:0:
320,192,102699,1,0,0:0:0:0:
448,192,102699,1,0,0:0:0:0:
64,192,102783,1,0,0:0:0:0:
448,192,102783,1,0,0:0:0:0:
192,192,102783,1,0,0:0:0:0:
320,192,102866,1,0,0:0:0:0:
192,192,102949,1,0,0:0:0:0:
64,192,102949,1,0,0:0:0:0:
448,192,103033,1,0,0:0:0:0:
64,192,103116,1,0,0:0:0:0:
320,192,103116,1,0,0:0:0:0:
192,192,103199,1,0,0:0:0:0:
64,192,103283,1,0,0:0:0:0:
448,192,103283,1,0,0:0:0:0:
320,192,103366,1,0,0:0:0:0:
192,192,103449,1,0,0:0:0:0:
448,192,103449,1,0,0:0:0:0:
320,192,103533,1,0,0:0:0:0:
64,192,103616,1,0,0:0:0:0:
192,192,103616,1,0,0:0:0:0:
448,192,103699,1,0,0:0:0:0:
64,192,103783,1,0,0:0:0:0:
320,192,103783,1,0,0:0:0:0:
192,192,103866,1,0,0:0:0:0:
448,192,103949,1,0,0:0:0:0:
320,192,103949,1,0,0:0:0:0:
64,192,104033,1,0,0:0:0:0:
192,192,104033,1,0,0:0:0:0:
448,192,104116,1,0,0:0:0:0:
320,192,104116,1,0,0:0:0:0:
64,192,104116,1,0,0:0:0:0:
192,192,104199,1,0,0:0:0:0:
448,192,104283,1,0,0:0:0:0:
320,192,104283,1,0,0:0:0:0:
192,192,104366,1,0,0:0:0:0:
448,192,104449,1,0,0:0:0:0:
64,192,104449,1,0,0:0:0:0:
320,192,104533,1,0,0:0:0:0:
448,192,104616,1,0,0:0:0:0:
64,192,104616,1,0,0:0:0:0:
192,192,104699,1,0,0:0:0:0:
64,192,104783,1,0,0:0:0:0:
320,192,104783,1,0,0:0:0:0:
448,192,104866,1,0,0:0:0:0:
192,192,104866,1,0,0:0:0:0:
64,192,104949,1,0,0:0:0:0:
320,192,104949,1,0,0:0:0:0:
192,192,105033,1,0,0:0:0:0:
64,192,105116,1,0,0:0:0:0:
448,192,105116,1,0,0:0:0:0:
320,192,105199,1,0,0:0:0:0:
192,192,105199,1,0,0:0:0:0:
64,192,105283,1,0,0:0:0:0:
448,192,105283,1,0,0:0:0:0:
320,192,105366,1,0,0:0:0:0:
192,192,105366,1,0,0:0:0:0:
448,192,105449,1,0,0:0:0:0:
64,192,105449,1,0,0:0:0:0:
192,192,105449,1,0,0:0:0:0:
320,192,105533,1,0,0:0:0:0:
448,192,105533,1,0,0:0:0:0:
192,192,105616,1,0,0:0:0:0:
64,192,105616,1,0,0:0:0:0:
320,192,105699,1,0,0:0:0:0:
448,192,105699,1,0,0:0:0:0:
192,192,105783,1,0,0:0:0:0:
64,192,105783,1,0,0:0:0:0:
320,192,105866,1,0,0:0:0:0:
448,192,105866,1,0,0:0:0:0:
192,192,105949,1,0,0:0:0:0:
64,192,105949,1,0,0:0:0:0:
320,192,106033,1,0,0:0:0:0:
448,192,106033,1,0,0:0:0:0:
192,192,106116,1,0,0:0:0:0:
64,192,106116,1,0,0:0:0:0:
320,192,106199,1,0,0:0:0:0:
448,192,106199,1,0,0:0:0:0:
64,192,106283,1,0,0:0:0:0:
192,192,106324,1,0,0:0:0:0:
448,192,106366,1,0,0:0:0:0:
320,192,106408,1,0,0:0:0:0:
64,192,106449,1,0,0:0:0:0:
192,192,106449,1,0,0:0:0:0:
448,192,106616,1,0,0:0:0:0:
64,192,106616,1,0,0:0:0:0:
192,192,106699,1,0,0:0:0:0:
320,192,106699,1,0,0:0:0:0:
448,192,106783,1,0,0:0:0:0:
64,192,106783,1,0,0:0:0:0:
448,192,106949,1,0,0:0:0:0:
64,192,106949,1,0,0:0:0:0:
320,192,106949,1,0,0:0:0:0:
64,192,107116,1,0,0:0:0:0:
192,192,107116,1,0,0:0:0:0:
448,192,107283,1,0,0:0:0:0:
320,192,107283,1,0,0:0:0:0:
192,192,107449,1,0,0:0:0:0:
64,192,107449,1,0,0:0:0:0:
448,192,107449,1,0,0:0:0:0:
320,192,107533,1,0,0:0:0:0:
192,192,107616,1,0,0:0:0:0:
448,192,107616,1,0,0:0:0:0:
320,192,107699,1,0,0:0:0:0:
192,192,107783,1,0,0:0:0:0:
64,192,107783,1,0,0:0:0:0:
320,192,107866,1,0,0:0:0:0:
448,192,107866,1,0,0:0:0:0:
192,192,107949,1,0,0:0:0:0:
64,192,107949,1,0,0:0:0:0:
320,192,108033,1,0,0:0:0:0:
448,192,108033,1,0,0:0:0:0:
64,192,108116,1,0,0:0:0:0:
192,192,108116,1,0,0:0:0:0:
448,192,108116,1,0,0:0:0:0:
64,192,108783,128,0,108949:0:0:0:0:
192,192,108949,128,0,109116:0:0:0:0:
448,192,109116,128,0,109283:0:0:0:0:
320,192,109283,128,0,109449:0:0:0:0:
64,192,109449,128,0,109949:0:0:0:0:
192,192,109449,1,0,0:0:0:0:
448,192,109449,1,0,0:0:0:0:
448,192,109532,1,0,0:0:0:0:
320,192,109615,1,0,0:0:0:0:
192,192,109782,1,0,0:0:0:0:
448,192,109782,1,0,0:0:0:0:
320,192,109865,1,0,0:0:0:0:
192,192,109949,128,0,110282:0:0:0:0:
448,192,109949,1,0,0:0:0:0:
448,192,110115,1,0,0:0:0:0:
64,192,110115,1,0,0:0:0:0:
64,192,110199,1,0,0:0:0:0:
448,192,110282,128,0,110449:0:0:0:0:
320,192,110282,1,0,0:0:0:0:
192,192,110449,128,0,110615:0:0:0:0:
64,192,110449,1,0,0:0:0:0:
320,192,110449,1,0,0:0:0:0:
448,192,110532,1,0,0:0:0:0:
320,192,110615,128,0,110782:0:0:0:0:
64,192,110615,1,0,0:0:0:0:
448,192,110782,128,0,111032:0:0:0:0:
64,192,110782,1,0,0:0:0:0:
64,192,110865,1,0,0:0:0:0:
192,192,110949,1,0,0:0:0:0:
192,192,111115,1,0,0:0:0:0:
448,192,111115,1,0,0:0:0:0:
64,192,111115,1,0,0:0:0:0:
320,192,111199,1,0,0:0:0:0:
64,192,111282,128,0,111449:0:0:0:0:
192,192,111282,1,0,0:0:0:0:
320,192,111449,1,0,0:0:0:0:
320,192,111532,1,0,0:0:0:0:
448,192,111615,128,0,111782:0:0:0:0:
64,192,111615,1,0,0:0:0:0:
320,192,111782,1,0,0:0:0:0:
64,192,111782,1,0,0:0:0:0:
192,192,111782,1,0,0:0:0:0:
448,192,111865,1,0,0:0:0:0:
192,192,111949,128,0,112949:0:0:0:0:
64,192,111949,1,0,0:0:0:0:
448,192,112115,1,0,0:0:0:0:
64,192,112115,1,0,0:0:0:0:
448,192,112199,1,0,0:0:0:0:
320,192,112282,1,0,0:0:0:0:
64,192,112449,1,0,0:0:0:0:
448,192,112449,1,0,0:0:0:0:
320,192,112532,1,0,0:0:0:0:
448,192,112615,1,0,0:0:0:0:
320,192,112782,1,0,0:0:0:0:
64,192,112782,1,0,0:0:0:0:
64,192,112865,1,0,0:0:0:0:
448,192,112949,128,0,113115:0:0:0:0:
320,192,112949,1,0,0:0:0:0:
192,192,113115,128,0,113282:0:0:0:0:
64,192,113115,1,0,0:0:0:0:
320,192,113115,1,0,0:0:0:0:
448,192,113199,1,0,0:0:0:0:
320,192,113282,128,0,113449:0:0:0:0:
64,192,113282,1,0,0:0:0:0:
64,192,113449,128,0,113782:0:0:0:0:
448,192,113449,1,0,0:0:0:0:
448,192,113532,1,0,0:0:0:0:
192,192,113615,1,0,0:0:0:0:
320,192,113782,128,0,113949:0:0:0:0:
448,192,113782,1,0,0:0:0:0:
192,192,113782,1,0,0:0:0:0:
64,192,113865,1,0,0:0:0:0:
192,192,113949,128,0,114115:0:0:0:0:
448,192,113949,1,0,0:0:0:0:
64,192,114115,1,0,0:0:0:0:
320,192,114115,1,0,0:0:0:0:
64,192,114199,1,0,0:0:0:0:
448,192,114282,128,0,114449:0:0:0:0:
320,192,114282,1,0,0:0:0:0:
192,192,114449,1,0,0:0:0:0:
64,192,114449,1,0,0:0:0:0:
320,192,114449,1,0,0:0:0:0:
448,192,114532,1,0,0:0:0:0:
320,192,114615,128,0,114949:0:0:0:0:
192,192,114615,1,0,0:0:0:0:
448,192,114782,1,0,0:0:0:0:
64,192,114782,1,0,0:0:0:0:
448,192,114865,1,0,0:0:0:0:
192,192,114949,128,0,115115:0:0:0:0:
64,192,114949,1,0,0:0:0:0:
64,192,115115,1,0,0:0:0:0:
448,192,115115,1,0,0:0:0:0:
320,192,115115,1,0,0:0:0:0:
192,192,115199,1,0,0:0:0:0:
320,192,115282,128,0,115782:0:0:0:0:
64,192,115282,1,0,0:0:0:0:
64,192,115449,1,0,0:0:0:0:
448,192,115449,1,0,0:0:0:0:
448,192,115532,1,0,0:0:0:0:
192,192,115615,1,0,0:0:0:0:
448,192,115782,1,0,0:0:0:0:
64,192,115782,1,0,0:0:0:0:
192,192,115782,1,0,0:0:0:0:
320,192,115865,1,0,0:0:0:0:
64,192,115949,1,0,0:0:0:0:
192,192,116004,1,0,0:0:0:0:
320,192,116060,1,0,0:0:0:0:
448,192,116115,128,0,116282:0:0:0:0:
64,192,116115,1,0,0:0:0:0:
64,192,116199,1,0,0:0:0:0:
320,192,116282,128,0,116449:0:0:0:0:
192,192,116282,1,0,0:0:0:0:
64,192,116449,128,0,116615:0:0:0:0:
448,192,116449,1,0,0:0:0:0:
192,192,116532,1,0,0:0:0:0:
320,192,116615,128,0,116782:0:0:0:0:
448,192,116615,1,0,0:0:0:0:
64,192,116782,128,0,116948:0:0:0:0:
192,192,116782,1,0,0:0:0:0:
448,192,116782,1,0,0:0:0:0:
448,192,116865,1,0,0:0:0:0:
320,192,116948,128,0,117115:0:0:0:0:
192,192,116948,1,0,0:0:0:0:
192,192,117115,128,0,117282:0:0:0:0:
448,192,117115,1,0,0:0:0:0:
64,192,117198,1,0,0:0:0:0:
448,192,117282,128,0,117448:0:0:0:0:
320,192,117282,1,0,0:0:0:0:
64,192,117448,128,0,119782:0:0:0:0:
320,192,117448,1,0,0:0:0:0:
320,192,117532,1,0,0:0:0:0:
192,192,117615,1,0,0:0:0:0:
448,192,117782,1,0,0:0:0:0:
320,192,117782,1,0,0:0:0:0:
192,192,117865,1,0,0:0:0:0:
448,192,117948,1,0,0:0:0:0:
320,192,118115,1,0,0:0:0:0:
448,192,118198,1,0,0:0:0:0:
192,192,118282,1,0,0:0:0:0:
320,192,118365,1,0,0:0:0:0:
192,192,118448,1,0,0:0:0:0:
448,192,118448,128,0,118615:0:0:0:0:
320,192,118615,1,0,0:0:0:0:
448,192,118698,1,0,0:0:0:0:
192,192,118782,1,0,0:0:0:0:
320,192,118782,1,0,0:0:0:0:
448,192,118865,1,0,0:0:0:0:
192,192,118948,1,0,0:0:0:0:
320,192,119032,1,0,0:0:0:0:
448,192,119115,1,0,0:0:0:0:
192,192,119115,1,0,0:0:0:0:
320,192,119198,1,0,0:0:0:0:
448,192,119282,1,0,0:0:0:0:
320,192,119337,1,0,0:0:0:0:
192,192,119393,1,0,0:0:0:0:
448,192,119448,1,0,0:0:0:0:
320,192,119504,1,0,0:0:0:0:
192,192,119560,1,0,0:0:0:0:
448,192,119615,1,0,0:0:0:0:
320,192,119671,1,0,0:0:0:0:
192,192,119726,1,0,0:0:0:0:
448,192,119782,1,0,0:0:0:0:
320,192,119782,1,0,0:0:0:0:
192,192,119865,1,0,0:0:0:0:
448,192,119948,1,0,0:0:0:0:
64,192,119948,1,0,0:0:0:0:
320,192,120004,1,0,0:0:0:0:
192,192,120060,1,0,0:0:0:0:
64,192,120115,1,0,0:0:0:0:
448,192,120115,1,0,0:0:0:0:
320,192,120115,1,0,0:0:0:0:
192,192,120198,1,0,0:0:0:0:
448,192,120282,1,0,0:0:0:0:
320,192,120282,1,0,0:0:0:0:
64,192,120365,1,0,0:0:0:0:
448,192,120448,1,0,0:0:0:0:
192,192,120448,1,0,0:0:0:0:
320,192,120448,1,0,0:0:0:0:
64,192,120532,1,0,0:0:0:0:
192,192,120615,1,0,0:0:0:0:
448,192,120615,1,0,0:0:0:0:
320,192,120698,1,0,0:0:0:0:
64,192,120782,1,0,0:0:0:0:
448,192,120782,1,0,0:0:0:0:
320,192,120865,1,0,0:0:0:0:
192,192,120948,1,0,0:0:0:0:
64,192,120948,1,0,0:0:0:0:
448,192,121032,1,0,0:0:0:0:
320,192,121115,1,0,0:0:0:0:
192,192,121115,1,0,0:0:0:0:
64,192,121115,1,0,0:0:0:0:
448,192,121198,1,0,0:0:0:0:
64,192,121282,1,0,0:0:0:0:
320,192,121282,1,0,0:0:0:0:
192,192,121365,1,0,0:0:0:0:
320,192,121448,1,0,0:0:0:0:
448,192,121448,1,0,0:0:0:0:
64,192,121532,1,0,0:0:0:0:
320,192,121615,1,0,0:0:0:0:
192,192,121615,1,0,0:0:0:0:
64,192,121698,1,0,0:0:0:0:
192,192,121782,1,0,0:0:0:0:
448,192,121782,1,0,0:0:0:0:
320,192,121782,1,0,0:0:0:0:
64,192,121865,1,0,0:0:0:0:
448,192,121948,1,0,0:0:0:0:
192,192,121948,1,0,0:0:0:0:
320,192,122032,1,0,0:0:0:0:
448,192,122115,1,0,0:0:0:0:
64,192,122115,1,0,0:0:0:0:
192,192,122198,1,0,0:0:0:0:
64,192,122282,1,0,0:0:0:0:
320,192,122282,1,0,0:0:0:0:
448,192,122365,1,0,0:0:0:0:
192,192,122448,1,0,0:0:0:0:
64,192,122448,1,0,0:0:0:0:
320,192,122448,1,0,0:0:0:0:
448,192,122532,1,0,0:0:0:0:
64,192,122615,1,0,0:0:0:0:
192,192,122615,1,0,0:0:0:0:
320,192,122698,1,0,0:0:0:0:
448,192,122782,1,0,0:0:0:0:
192,192,122782,1,0,0:0:0:0:
64,192,122782,1,0,0:0:0:0:
320,192,122865,1,0,0:0:0:0:
64,192,122948,1,0,0:0:0:0:
448,192,122948,1,0,0:0:0:0:
192,192,123032,1,0,0:0:0:0:
64,192,123115,1,0,0:0:0:0:
320,192,123115,1,0,0:0:0:0:
448,192,123115,1,0,0:0:0:0:
192,192,123198,1,0,0:0:0:0:
448,192,123282,1,0,0:0:0:0:
64,192,123282,1,0,0:0:0:0:
320,192,123365,1,0,0:0:0:0:
64,192,123448,1,0,0:0:0:0:
448,192,123448,1,0,0:0:0:0:
192,192,123532,1,0,0:0:0:0:
320,192,123615,1,0,0:0:0:0:
448,192,123615,1,0,0:0:0:0:
192,192,123698,1,0,0:0:0:0:
448,192,123782,1,0,0:0:0:0:
64,192,123782,1,0,0:0:0:0:
320,192,123782,1,0,0:0:0:0:
192,192,123865,1,0,0:0:0:0:
448,192,123948,1,0,0:0:0:0:
64,192,123948,1,0,0:0:0:0:
320,192,124032,1,0,0:0:0:0:
64,192,124115,1,0,0:0:0:0:
192,192,124115,1,0,0:0:0:0:
448,192,124198,1,0,0:0:0:0:
192,192,124282,1,0,0:0:0:0:
64,192,124282,1,0,0:0:0:0:
320,192,124365,1,0,0:0:0:0:
64,192,124448,1,0,0:0:0:0:
192,192,124448,1,0,0:0:0:0:
448,192,124448,1,0,0:0:0:0:
320,192,124532,1,0,0:0:0:0:
448,192,124615,1,0,0:0:0:0:
64,192,124615,1,0,0:0:0:0:
192,192,124698,1,0,0:0:0:0:
320,192,124782,1,0,0:0:0:0:
64,192,124782,1,0,0:0:0:0:
448,192,124865,1,0,0:0:0:0:
64,192,124948,1,0,0:0:0:0:
320,192,124948,1,0,0:0:0:0:
192,192,125032,1,0,0:0:0:0:
320,192,125115,1,0,0:0:0:0:
448,192,125115,1,0,0:0:0:0:
64,192,125115,1,0,0:0:0:0:
192,192,125198,1,0,0:0:0:0:
448,192,125282,1,0,0:0:0:0:
320,192,125282,1,0,0:0:0:0:
64,192,125365,1,0,0:0:0:0:
192,192,125448,1,0,0:0:0:0:
448,192,125448,1,0,0:0:0:0:
320,192,125448,1,0,0:0:0:0:
64,192,125532,1,0,0:0:0:0:
192,192,125615,1,0,0:0:0:0:
448,192,125698,1,0,0:0:0:0:
64,192,125782,1,0,0:0:0:0:
192,192,125782,1,0,0:0:0:0:
320,192,125865,1,0,0:0:0:0:
448,192,125865,1,0,0:0:0:0:
64,192,125948,1,0,0:0:0:0:
192,192,126032,1,0,0:0:0:0:
320,192,126032,1,0,0:0:0:0:
448,192,126115,1,0,0:0:0:0:
64,192,126115,1,0,0:0:0:0:
192,192,126198,1,0,0:0:0:0:
448,192,126282,1,0,0:0:0:0:
320,192,126282,1,0,0:0:0:0:
192,192,126365,1,0,0:0:0:0:
64,192,126365,1,0,0:0:0:0:
320,192,126448,1,0,0:0:0:0:
448,192,126448,1,0,0:0:0:0:
192,192,126532,1,0,0:0:0:0:
64,192,126615,1,0,0:0:0:0:
448,192,126615,1,0,0:0:0:0:
320,192,126698,1,0,0:0:0:0:
64,192,126782,1,0,0:0:0:0:
448,192,126782,1,0,0:0:0:0:
192,192,126782,1,0,0:0:0:0:
320,192,126865,1,0,0:0:0:0:
64,192,126948,1,0,0:0:0:0:
192,192,127032,1,0,0:0:0:0:
448,192,127115,1,0,0:0:0:0:
320,192,127115,1,0,0:0:0:0:
192,192,127198,1,0,0:0:0:0:
64,192,127198,1,0,0:0:0:0:
448,192,127282,1,0,0:0:0:0:
320,192,127365,1,0,0:0:0:0:
64,192,127365,1,0,0:0:0:0:
448,192,127448,1,0,0:0:0:0:
192,192,127448,1,0,0:0:0:0:
64,192,127532,1,0,0:0:0:0:
448,192,127615,1,0,0:0:0:0:
320,192,127615,1,0,0:0:0:0:
64,192,127698,1,0,0:0:0:0:
320,192,127782,1,0,0:0:0:0:
448,192,127782,1,0,0:0:0:0:
64,192,127865,1,0,0:0:0:0:
192,192,127865,1,0,0:0:0:0:
320,192,127948,1,0,0:0:0:0:
448,192,127948,1,0,0:0:0:0:
64,192,128032,1,0,0:0:0:0:
192,192,128032,1,0,0:0:0:0:
64,192,128115,1,0,0:0:0:0:
448,192,128115,1,0,0:0:0:0:
320,192,128115,1,0,0:0:0:0:
192,192,128198,1,0,0:0:0:0:
64,192,128282,1,0,0:0:0:0:
320,192,128282,1,0,0:0:0:0:
448,192,128365,1,0,0:0:0:0:
64,192,128448,1,0,0:0:0:0:
320,192,128448,1,0,0:0:0:0:
192,192,128532,1,0,0:0:0:0:
448,192,128615,1,0,0:0:0:0:
64,192,128615,1,0,0:0:0:0:
320,192,128698,1,0,0:0:0:0:
192,192,128698,1,0,0:0:0:0:
448,192,128782,1,0,0:0:0:0:
64,192,128782,1,0,0:0:0:0:
320,192,128865,1,0,0:0:0:0:
192,192,128865,1,0,0:0:0:0:
448,192,128948,1,0,0:0:0:0:
64,192,128948,1,0,0:0:0:0:
192,192,129032,1,0,0:0:0:0:
448,192,129115,1,0,0:0:0:0:
320,192,129115,1,0,0:0:0:0:
64,192,129198,1,0,0:0:0:0:
448,192,129282,1,0,0:0:0:0:
320,192,129282,1,0,0:0:0:0:
64,192,129365,1,0,0:0:0:0:
192,192,129365,1,0,0:0:0:0:
448,192,129448,1,0,0:0:0:0:
320,192,129448,1,0,0:0:0:0:
64,192,129532,1,0,0:0:0:0:
192,192,129532,1,0,0:0:0:0:
320,192,129615,1,0,0:0:0:0:
448,192,129615,1,0,0:0:0:0:
64,192,129698,1,0,0:0:0:0:
192,192,129698,1,0,0:0:0:0:
448,192,129782,1,0,0:0:0:0:
320,192,129782,1,0,0:0:0:0:
192,192,129865,1,0,0:0:0:0:
64,192,129865,1,0,0:0:0:0:
320,192,129948,1,0,0:0:0:0:
448,192,129948,1,0,0:0:0:0:
64,192,130032,1,0,0:0:0:0:
192,192,130032,1,0,0:0:0:0:
448,192,130115,1,0,0:0:0:0:
320,192,130115,1,0,0:0:0:0:
64,192,130198,1,0,0:0:0:0:
192,192,130198,1,0,0:0:0:0:
448,192,130282,1,0,0:0:0:0:
320,192,130282,1,0,0:0:0:0:
64,192,130323,1,0,0:0:0:0:
192,192,130365,1,0,0:0:0:0:
320,192,130407,1,0,0:0:0:0:
448,192,130448,1,0,0:0:0:0:
64,192,130448,1,0,0:0:0:0:
192,192,130532,1,0,0:0:0:0:
320,192,130532,1,0,0:0:0:0:
64,192,130615,1,0,0:0:0:0:
448,192,130615,1,0,0:0:0:0:
192,192,130657,1,0,0:0:0:0:
320,192,130698,1,0,0:0:0:0:
448,192,130740,1,0,0:0:0:0:
64,192,130782,1,0,0:0:0:0:
192,192,130782,1,0,0:0:0:0:
320,192,130948,1,0,0:0:0:0:
192,192,131115,1,0,0:0:0:0:
448,192,131282,1,0,0:0:0:0:
192,192,131448,1,0,0:0:0:0:
64,192,131615,1,0,0:0:0:0:
448,192,131782,1,0,0:0:0:0:
320,192,131782,1,0,0:0:0:0:
192,192,131948,1,0,0:0:0:0:
448,192,132115,1,0,0:0:0:0:
64,192,132115,1,0,0:0:0:0:
320,192,132282,1,0,0:0:0:0:
448,192,132448,1,0,0:0:0:0:
64,192,132448,1,0,0:0:0:0:
192,192,132615,1,0,0:0:0:0:
320,192,132782,1,0,0:0:0:0:
448,192,132782,1,0,0:0:0:0:
64,192,133115,1,0,0:0:0:0:
192,192,133115,1,0,0:0:0:0:
64,192,133448,1,0,0:0:0:0:
320,192,133448,1,0,0:0:0:0:
192,192,133615,1,0,0:0:0:0:
448,192,133782,1,0,0:0:0:0:
320,192,133948,1,0,0:0:0:0:
192,192,134115,1,0,0:0:0:0:
64,192,134282,1,0,0:0:0:0:
320,192,134448,1,0,0:0:0:0:
448,192,134448,1,0,0:0:0:0:
192,192,134615,1,0,0:0:0:0:
320,192,134782,1,0,0:0:0:0:
64,192,134782,1,0,0:0:0:0:
448,192,134948,1,0,0:0:0:0:
192,192,135115,1,0,0:0:0:0:
320,192,135282,1,0,0:0:0:0:
448,192,135448,1,0,0:0:0:0:
64,192,135448,1,0,0:0:0:0:
448,192,135782,1,0,0:0:0:0:
320,192,135948,1,0,0:0:0:0:
192,192,136115,1,0,0:0:0:0:
64,192,136115,1,0,0:0:0:0:
320,192,136282,1,0,0:0:0:0:
64,192,136448,1,0,0:0:0:0:
192,192,136615,1,0,0:0:0:0:
448,192,136782,1,0,0:0:0:0:
64,192,136948,1,0,0:0:0:0:
320,192,137115,1,0,0:0:0:0:
448,192,137115,1,0,0:0:0:0:
192,192,137282,1,0,0:0:0:0:
448,192,137448,1,0,0:0:0:0:
64,192,137448,1,0,0:0:0:0:
320,192,137615,1,0,0:0:0:0:
192,192,137782,1,0,0:0:0:0:
448,192,137948,1,0,0:0:0:0:
64,192,138115,1,0,0:0:0:0:
320,192,138115,1,0,0:0:0:0:
192,192,138782,1,0,0:0:0:0:
448,192,139448,1,0,0:0:0:0:
320,192,140115,1,0,0:0:0:0:
192,192,140448,1,0,0:0:0:0:
320,192,140782,1,0,0:0:0:0:
