osu file format v14

[General]
AudioFilename: ayyy... ETIA. - Claiomh Solais.mp3
AudioLeadIn: 0
PreviewTime: 88222
Countdown: 0
SampleSet: Drum
StackLeniency: 0.7
Mode: 3
LetterboxInBreaks: 0
SpecialStyle: 0
WidescreenStoryboard: 1

[Editor]
DistanceSpacing: 0.9
BeatDivisor: 4
GridSize: 16
TimelineZoom: 2.9

[Metadata]
Title:Claiomh Solais
TitleUnicode:Claiomh Solais
Artist:ETIA.
ArtistUnicode:ETIA.
Creator:Arzenvald
Version:Insanity
Source:
Tags:Jihadvent electronic techno Ninjatertel ExUsagi ajeemaniz Nwolf Ntiger
BeatmapID:2028493
BeatmapSetID:308342

[Difficulty]
HPDrainRate:8
CircleSize:7
OverallDifficulty:7.5
ApproachRate:5
SliderMultiplier:1.4
SliderTickRate:1

[Events]
//Background and Video events
0,0,"BGUSAGI.jpg",0,0
//Break Periods
//Storyboard Layer 0 (Background)
//Storyboard Layer 1 (Fail)
//Storyboard Layer 2 (Pass)
//Storyboard Layer 3 (Foreground)
//Storyboard Layer 4 (Overlay)
//Storyboard Sound Samples

[TimingPoints]
1414,319.148936170213,4,3,1,70,1,0
21839,-100,4,3,1,70,0,1
42265,-100,4,3,1,70,0,0
88222,-100,4,3,1,70,0,1
108648,-100,4,3,1,70,0,0
125243,363.636363636364,4,3,1,70,1,0
125243,-87.7659574771531,4,3,1,70,0,0
125970,449.438202247191,4,3,1,70,1,0
125970,-71.0106383167581,4,3,1,70,0,0
126868,428.571428571429,4,3,1,70,1,0
126868,-74.4680850984608,4,3,1,70,0,0
127082,685.714285714286,4,3,1,70,1,0
127082,-46.5425531822056,4,3,1,70,0,0
127424,1004.18410041841,4,3,1,70,1,0
127424,-33.1944444472568,4,3,1,70,0,0
127926,1025.64102564103,4,3,1,70,1,0
127926,-32.4999999991875,4,3,1,70,0,0

[HitObjects]
109,192,1414,5,0,0:0:0:0:
182,192,1573,1,0,0:0:0:0:
256,192,1733,1,0,0:0:0:0:
329,192,1892,1,0,0:0:0:0:
402,192,1919,128,0,3967:0:0:0:0:
109,192,2850,128,0,3967:0:0:0:0:
109,192,6520,1,0,0:0:0:0:
182,192,6679,1,0,0:0:0:0:
256,192,6839,1,0,0:0:0:0:
329,192,6999,1,0,0:0:0:0:
402,192,7025,128,0,9073:0:0:0:0:
256,192,7796,128,0,9073:0:0:0:0:
109,192,9073,1,0,0:0:0:0:
36,192,10323,128,0,11626:0:0:0:0:
475,192,10988,128,0,11626:0:0:0:0:
402,192,11626,1,2,0:0:0:0:
256,192,11626,128,0,11786:0:0:0:0:
182,192,11786,1,0,0:0:0:0:
109,192,11945,1,0,0:0:0:0:
256,192,12105,1,2,0:0:0:0:
36,192,12105,128,0,12265:0:0:0:0:
475,192,12265,1,0,0:0:0:0:
329,192,12265,1,8,0:0:0:0:
182,192,12584,1,0,0:0:0:0:
109,192,12743,1,2,0:0:0:0:
109,192,12903,1,2,0:0:0:0:
182,192,13222,1,0,0:0:0:0:
36,192,13382,1,2,0:0:0:0:
329,192,13541,1,8,0:0:0:0:
475,192,13541,1,0,0:0:0:0:
109,192,13701,128,0,13860:0:0:0:0:
256,192,13860,128,0,14020:0:0:0:0:
402,192,14020,128,0,14179:0:0:0:0:
36,192,14179,1,2,0:0:0:0:
182,192,14179,128,0,14339:0:0:0:0:
329,192,14339,1,0,0:0:0:0:
475,192,14499,1,0,0:0:0:0:
256,192,14658,1,0,0:0:0:0:
109,192,14658,128,2,14818:0:0:0:0:
475,192,14818,1,8,0:0:0:0:
402,192,15137,1,0,0:0:0:0:
182,192,15296,1,2,0:0:0:0:
182,192,15456,1,2,0:0:0:0:
475,192,15775,1,0,0:0:0:0:
329,192,15935,1,2,0:0:0:0:
182,192,16094,1,8,0:0:0:0:
475,192,16094,1,0,0:0:0:0:
402,192,16254,1,0,0:0:0:0:
36,192,16254,128,0,16414:0:0:0:0:
182,192,16414,128,0,16573:0:0:0:0:
329,192,16573,128,0,16733:0:0:0:0:
182,192,16733,1,2,0:0:0:0:
475,192,16733,128,0,16892:0:0:0:0:
36,192,16892,1,0,0:0:0:0:
182,192,17052,1,0,0:0:0:0:
36,192,17211,1,2,0:0:0:0:
475,192,17211,1,0,0:0:0:0:
256,192,17211,128,0,17371:0:0:0:0:
109,192,17371,1,8,0:0:0:0:
402,192,17371,1,0,0:0:0:0:
475,192,17690,1,0,0:0:0:0:
36,192,17690,128,0,17850:0:0:0:0:
329,192,17850,1,2,0:0:0:0:
256,192,18009,1,0,0:0:0:0:
36,192,18009,128,2,18169:0:0:0:0:
36,192,18328,1,0,0:0:0:0:
256,192,18488,1,2,0:0:0:0:
329,192,18648,1,8,0:0:0:0:
475,192,18648,1,0,0:0:0:0:
109,192,18807,128,0,18967:0:0:0:0:
256,192,18967,128,0,19126:0:0:0:0:
402,192,19126,128,0,19286:0:0:0:0:
36,192,19286,128,0,19765:0:0:0:0:
475,192,19765,128,0,20243:0:0:0:0:
109,192,20243,128,0,20562:0:0:0:0:
402,192,20562,128,0,21839:0:0:0:0:
109,192,21201,128,0,21839:0:0:0:0:
256,192,21201,128,0,21839:0:0:0:0:
36,192,21839,1,2,0:0:0:0:
182,192,21839,1,4,0:0:0:0:
475,192,21839,128,0,22318:0:0:0:0:
109,192,21999,1,0,0:0:0:0:
36,192,22158,1,8,0:0:0:0:
182,192,22158,1,2,0:0:0:0:
109,192,22318,1,0,0:0:0:0:
256,192,22318,1,0,0:0:0:0:
402,192,22318,128,0,23754:0:0:0:0:
36,192,22477,128,2,22637:0:0:0:0:
475,192,22477,1,0,0:0:0:0:
182,192,22637,1,0,0:0:0:0:
109,192,22796,1,8,0:0:0:0:
256,192,22796,1,2,0:0:0:0:
475,192,22796,128,0,22956:0:0:0:0:
256,192,22956,1,0,0:0:0:0:
36,192,23116,128,2,23275:0:0:0:0:
182,192,23116,1,0,0:0:0:0:
329,192,23116,1,0,0:0:0:0:
182,192,23275,1,0,0:0:0:0:
109,192,23435,1,8,0:0:0:0:
256,192,23435,1,2,0:0:0:0:
475,192,23435,128,0,23594:0:0:0:0:
109,192,23594,1,0,0:0:0:0:
36,192,23754,1,2,0:0:0:0:
182,192,23754,1,0,0:0:0:0:
329,192,23754,128,0,23914:0:0:0:0:
109,192,23914,128,0,24073:0:0:0:0:
36,192,24073,128,8,24392:0:0:0:0:
256,192,24073,128,2,24233:0:0:0:0:
475,192,24073,1,0,0:0:0:0:
402,192,24233,128,0,24392:0:0:0:0:
109,192,24392,128,2,24871:0:0:0:0:
256,192,24392,1,0,0:0:0:0:
329,192,24552,1,0,0:0:0:0:
182,192,24711,1,8,0:0:0:0:
475,192,24711,1,2,0:0:0:0:
36,192,24871,128,0,26307:0:0:0:0:
256,192,24871,1,0,0:0:0:0:
402,192,24871,1,0,0:0:0:0:
109,192,25031,1,2,0:0:0:0:
329,192,25031,128,0,25190:0:0:0:0:
256,192,25190,1,0,0:0:0:0:
182,192,25350,1,8,0:0:0:0:
329,192,25350,1,2,0:0:0:0:
475,192,25350,128,0,25509:0:0:0:0:
182,192,25509,1,0,0:0:0:0:
109,192,25669,1,2,0:0:0:0:
256,192,25669,128,0,25828:0:0:0:0:
475,192,25669,1,0,0:0:0:0:
475,192,25828,1,0,0:0:0:0:
182,192,25988,128,8,26148:0:0:0:0:
329,192,25988,1,2,0:0:0:0:
402,192,25988,1,0,0:0:0:0:
402,192,26148,1,0,0:0:0:0:
182,192,26307,128,2,26467:0:0:0:0:
256,192,26307,1,0,0:0:0:0:
475,192,26307,1,0,0:0:0:0:
36,192,26467,128,0,26626:0:0:0:0:
256,192,26626,128,8,26786:0:0:0:0:
329,192,26626,1,2,0:0:0:0:
475,192,26626,128,0,26945:0:0:0:0:
109,192,26786,128,0,26945:0:0:0:0:
36,192,26945,1,2,0:0:0:0:
329,192,26945,128,0,27424:0:0:0:0:
182,192,27105,1,0,0:0:0:0:
256,192,27265,1,8,0:0:0:0:
475,192,27265,1,2,0:0:0:0:
109,192,27424,1,0,0:0:0:0:
402,192,27424,128,0,27903:0:0:0:0:
475,192,27424,1,0,0:0:0:0:
36,192,27584,1,2,0:0:0:0:
182,192,27584,128,0,27743:0:0:0:0:
109,192,27743,1,0,0:0:0:0:
36,192,27903,128,8,28860:0:0:0:0:
182,192,27903,1,2,0:0:0:0:
256,192,27903,1,0,0:0:0:0:
475,192,27903,128,0,28062:0:0:0:0:
256,192,28062,1,0,0:0:0:0:
109,192,28222,1,2,0:0:0:0:
329,192,28222,128,0,28382:0:0:0:0:
475,192,28222,1,0,0:0:0:0:
109,192,28382,1,0,0:0:0:0:
182,192,28541,128,8,28701:0:0:0:0:
256,192,28541,1,2,0:0:0:0:
402,192,28541,1,0,0:0:0:0:
402,192,28701,1,0,0:0:0:0:
182,192,28860,1,2,0:0:0:0:
329,192,28860,128,0,29020:0:0:0:0:
475,192,28860,1,0,0:0:0:0:
109,192,29020,128,0,29179:0:0:0:0:
36,192,29179,128,8,29499:0:0:0:0:
256,192,29179,128,2,29339:0:0:0:0:
475,192,29179,1,0,0:0:0:0:
402,192,29339,128,0,29499:0:0:0:0:
182,192,29499,128,2,29977:0:0:0:0:
329,192,29499,1,0,0:0:0:0:
256,192,29658,1,0,0:0:0:0:
109,192,29818,1,2,0:0:0:0:
402,192,29818,1,8,0:0:0:0:
36,192,29977,1,0,0:0:0:0:
256,192,29977,128,0,30456:0:0:0:0:
475,192,29977,1,0,0:0:0:0:
36,192,30137,128,2,30296:0:0:0:0:
475,192,30137,1,0,0:0:0:0:
182,192,30296,1,0,0:0:0:0:
36,192,30456,1,2,0:0:0:0:
109,192,30456,128,8,30775:0:0:0:0:
402,192,30456,128,0,30616:0:0:0:0:
475,192,30456,1,0,0:0:0:0:
329,192,30616,1,0,0:0:0:0:
256,192,30775,128,2,30935:0:0:0:0:
329,192,30775,1,0,0:0:0:0:
475,192,30775,128,0,31414:0:0:0:0:
182,192,30935,1,0,0:0:0:0:
109,192,31094,128,2,31254:0:0:0:0:
182,192,31094,1,8,0:0:0:0:
402,192,31094,1,0,0:0:0:0:
36,192,31254,1,0,0:0:0:0:
36,192,31414,1,2,0:0:0:0:
329,192,31414,128,0,31573:0:0:0:0:
109,192,31573,1,0,0:0:0:0:
256,192,31573,1,0,0:0:0:0:
402,192,31573,128,0,31733:0:0:0:0:
36,192,31733,1,2,0:0:0:0:
182,192,31733,128,8,31892:0:0:0:0:
256,192,31892,128,0,32052:0:0:0:0:
329,192,31892,1,0,0:0:0:0:
475,192,31892,1,0,0:0:0:0:
36,192,32052,1,2,0:0:0:0:
109,192,32052,128,4,32371:0:0:0:0:
182,192,32052,1,0,0:0:0:0:
402,192,32052,1,0,0:0:0:0:
329,192,32211,128,0,32371:0:0:0:0:
36,192,32371,128,8,32690:0:0:0:0:
256,192,32371,1,2,0:0:0:0:
475,192,32371,1,0,0:0:0:0:
329,192,32531,128,0,32690:0:0:0:0:
182,192,32690,128,2,32850:0:0:0:0:
475,192,32690,128,0,32850:0:0:0:0:
329,192,32850,1,0,0:0:0:0:
36,192,33009,128,8,33169:0:0:0:0:
182,192,33009,128,2,33169:0:0:0:0:
475,192,33009,1,0,0:0:0:0:
475,192,33169,1,0,0:0:0:0:
109,192,33328,128,2,33488:0:0:0:0:
256,192,33328,128,0,33488:0:0:0:0:
402,192,33328,1,0,0:0:0:0:
402,192,33488,1,0,0:0:0:0:
36,192,33648,1,8,0:0:0:0:
182,192,33648,128,2,33807:0:0:0:0:
329,192,33648,128,0,33807:0:0:0:0:
475,192,33807,1,0,0:0:0:0:
109,192,33967,128,2,34126:0:0:0:0:
256,192,33967,128,0,34126:0:0:0:0:
402,192,33967,1,0,0:0:0:0:
402,192,34126,128,0,34286:0:0:0:0:
36,192,34286,128,8,34445:0:0:0:0:
182,192,34286,128,2,34445:0:0:0:0:
329,192,34286,1,0,0:0:0:0:
329,192,34445,128,0,34605:0:0:0:0:
109,192,34605,128,2,34924:0:0:0:0:
402,192,34605,1,0,0:0:0:0:
402,192,34765,128,0,34924:0:0:0:0:
36,192,34924,128,8,35243:0:0:0:0:
256,192,34924,1,2,0:0:0:0:
475,192,34924,1,0,0:0:0:0:
329,192,35084,128,0,35243:0:0:0:0:
109,192,35243,128,2,35403:0:0:0:0:
402,192,35243,128,0,35403:0:0:0:0:
256,192,35403,1,0,0:0:0:0:
36,192,35562,1,8,0:0:0:0:
329,192,35562,128,2,35722:0:0:0:0:
475,192,35562,128,0,35722:0:0:0:0:
36,192,35722,1,0,0:0:0:0:
109,192,35882,1,2,0:0:0:0:
256,192,35882,128,0,36041:0:0:0:0:
402,192,35882,128,0,36041:0:0:0:0:
109,192,36041,1,0,0:0:0:0:
182,192,36201,128,8,36360:0:0:0:0:
329,192,36201,128,2,36360:0:0:0:0:
475,192,36201,1,0,0:0:0:0:
36,192,36360,1,0,0:0:0:0:
109,192,36520,1,2,0:0:0:0:
256,192,36520,128,0,36679:0:0:0:0:
402,192,36520,128,0,36679:0:0:0:0:
109,192,36679,128,0,36839:0:0:0:0:
182,192,36839,1,8,0:0:0:0:
329,192,36839,128,2,36999:0:0:0:0:
475,192,36839,128,0,36999:0:0:0:0:
182,192,36999,128,0,37158:0:0:0:0:
36,192,37158,1,2,0:0:0:0:
402,192,37158,128,0,37477:0:0:0:0:
109,192,37318,128,0,37477:0:0:0:0:
36,192,37477,1,8,0:0:0:0:
256,192,37477,1,2,0:0:0:0:
475,192,37477,128,0,37796:0:0:0:0:
182,192,37637,128,0,37796:0:0:0:0:
36,192,37796,128,2,37956:0:0:0:0:
329,192,37796,128,0,37956:0:0:0:0:
182,192,37956,1,0,0:0:0:0:
36,192,38116,1,8,0:0:0:0:
329,192,38116,128,2,38275:0:0:0:0:
475,192,38116,128,0,38275:0:0:0:0:
36,192,38275,1,0,0:0:0:0:
109,192,38435,128,2,38594:0:0:0:0:
256,192,38435,128,0,38594:0:0:0:0:
402,192,38435,1,0,0:0:0:0:
402,192,38594,1,0,0:0:0:0:
182,192,38754,128,2,38914:0:0:0:0:
329,192,38754,128,8,38914:0:0:0:0:
475,192,38754,1,0,0:0:0:0:
36,192,38914,1,0,0:0:0:0:
109,192,39073,1,2,0:0:0:0:
256,192,39073,128,0,39233:0:0:0:0:
402,192,39073,128,0,39233:0:0:0:0:
109,192,39233,128,0,39392:0:0:0:0:
36,192,39392,128,2,39552:0:0:0:0:
182,192,39392,128,8,39552:0:0:0:0:
402,192,39392,1,0,0:0:0:0:
402,192,39552,128,0,39711:0:0:0:0:
109,192,39711,128,2,40190:0:0:0:0:
256,192,39711,1,0,0:0:0:0:
475,192,39711,1,0,0:0:0:0:
329,192,39871,1,0,0:0:0:0:
475,192,39871,1,0,0:0:0:0:
36,192,40031,1,8,0:0:0:0:
182,192,40031,1,2,0:0:0:0:
402,192,40031,1,0,0:0:0:0:
182,192,40190,1,0,0:0:0:0:
329,192,40190,1,0,0:0:0:0:
475,192,40190,128,0,40669:0:0:0:0:
36,192,40350,1,2,0:0:0:0:
329,192,40350,1,0,0:0:0:0:
109,192,40429,1,0,0:0:0:0:
182,192,40509,1,0,0:0:0:0:
256,192,40589,1,0,0:0:0:0:
36,192,40669,128,8,40988:0:0:0:0:
182,192,40669,1,2,0:0:0:0:
402,192,40669,1,0,0:0:0:0:
329,192,40749,1,0,0:0:0:0:
256,192,40828,1,0,0:0:0:0:
182,192,40908,1,0,0:0:0:0:
109,192,40988,1,4,0:0:0:0:
475,192,40988,1,2,0:0:0:0:
329,192,41068,1,2,0:0:0:0:
182,192,41148,1,2,0:0:0:0:
329,192,41227,1,2,0:0:0:0:
36,192,41307,1,2,0:0:0:0:
402,192,41307,1,0,0:0:0:0:
182,192,41387,1,2,0:0:0:0:
329,192,41467,1,2,0:0:0:0:
182,192,41546,1,2,0:0:0:0:
109,192,41626,1,2,0:0:0:0:
475,192,41626,1,8,0:0:0:0:
182,192,41706,1,10,0:0:0:0:
36,192,41786,1,2,0:0:0:0:
402,192,41786,1,8,0:0:0:0:
329,192,41866,1,10,0:0:0:0:
109,192,41945,1,2,0:0:0:0:
475,192,41945,1,8,0:0:0:0:
182,192,42025,1,2,0:0:0:0:
256,192,42025,1,8,0:0:0:0:
36,192,42105,1,2,0:0:0:0:
402,192,42105,1,8,0:0:0:0:
256,192,42185,1,2,0:0:0:0:
329,192,42185,1,8,0:0:0:0:
36,192,42265,128,2,42424:0:0:0:0:
182,192,42265,128,8,42424:0:0:0:0:
475,192,42265,1,4,0:0:0:0:
36,192,42743,128,2,42903:0:0:0:0:
182,192,42743,128,0,42903:0:0:0:0:
402,192,42743,1,0,0:0:0:0:
109,192,42903,1,8,0:0:0:0:
329,192,42903,1,2,0:0:0:0:
475,192,42903,1,0,0:0:0:0:
256,192,43062,128,0,43222:0:0:0:0:
329,192,43222,128,0,43382:0:0:0:0:
256,192,43382,128,0,43541:0:0:0:0:
36,192,43541,1,2,0:0:0:0:
402,192,43541,128,0,43701:0:0:0:0:
182,192,43701,128,0,43860:0:0:0:0:
402,192,43860,128,0,44179:0:0:0:0:
36,192,44020,1,2,0:0:0:0:
182,192,44020,128,0,44179:0:0:0:0:
36,192,44179,1,8,0:0:0:0:
475,192,44179,1,0,0:0:0:0:
109,192,44339,1,2,0:0:0:0:
256,192,44339,128,0,44499:0:0:0:0:
402,192,44339,128,0,44499:0:0:0:0:
109,192,44658,1,2,0:0:0:0:
256,192,44658,128,0,44818:0:0:0:0:
402,192,44658,128,0,44818:0:0:0:0:
36,192,44818,128,4,44977:0:0:0:0:
182,192,44818,128,2,44977:0:0:0:0:
475,192,44818,1,0,0:0:0:0:
36,192,45296,128,2,45456:0:0:0:0:
182,192,45296,128,0,45456:0:0:0:0:
402,192,45296,1,0,0:0:0:0:
329,192,45376,1,2,0:0:0:0:
256,192,45456,1,10,0:0:0:0:
402,192,45616,1,0,0:0:0:0:
109,192,45775,1,2,0:0:0:0:
182,192,45855,1,2,0:0:0:0:
402,192,45935,1,2,0:0:0:0:
329,192,46015,1,2,0:0:0:0:
256,192,46094,128,0,47371:0:0:0:0:
109,192,47211,1,2,0:0:0:0:
109,192,47291,1,2,0:0:0:0:
329,192,47371,1,2,0:0:0:0:
402,192,47371,1,4,0:0:0:0:
475,192,47371,1,0,0:0:0:0:
475,192,48009,128,0,48648:0:0:0:0:
402,192,48648,128,0,49286:0:0:0:0:
109,192,49286,128,0,49924:0:0:0:0:
36,192,49924,128,0,50562:0:0:0:0:
329,192,50562,128,0,52477:0:0:0:0:
182,192,51201,128,0,52477:0:0:0:0:
475,192,51839,1,0,0:0:0:0:
402,192,51999,1,0,0:0:0:0:
256,192,52158,1,0,0:0:0:0:
109,192,52318,1,0,0:0:0:0:
36,192,52477,1,0,0:0:0:0:
109,192,52637,1,0,0:0:0:0:
182,192,52796,1,0,0:0:0:0:
256,192,52956,1,0,0:0:0:0:
109,192,53116,1,0,0:0:0:0:
182,192,53275,1,0,0:0:0:0:
329,192,53435,1,0,0:0:0:0:
402,192,53594,1,0,0:0:0:0:
475,192,53754,1,0,0:0:0:0:
402,192,53914,1,0,0:0:0:0:
329,192,54073,1,0,0:0:0:0:
256,192,54233,1,0,0:0:0:0:
402,192,54392,1,0,0:0:0:0:
329,192,54552,1,0,0:0:0:0:
182,192,54711,1,0,0:0:0:0:
109,192,54871,1,0,0:0:0:0:
36,192,55031,1,0,0:0:0:0:
182,192,55190,1,0,0:0:0:0:
402,192,55350,1,0,0:0:0:0:
256,192,55509,1,0,0:0:0:0:
402,192,55669,1,0,0:0:0:0:
475,192,55988,128,0,57584:0:0:0:0:
329,192,56148,128,0,56626:0:0:0:0:
182,192,56307,128,0,56786:0:0:0:0:
36,192,56467,128,0,57584:0:0:0:0:
402,192,56626,128,0,57584:0:0:0:0:
256,192,56786,128,0,56945:0:0:0:0:
109,192,56945,128,0,57584:0:0:0:0:
329,192,57424,1,2,0:0:0:0:
256,192,57504,1,2,0:0:0:0:
182,192,57584,1,2,0:0:0:0:
329,192,57584,1,4,0:0:0:0:
256,192,57903,1,8,0:0:0:0:
36,192,58062,128,0,58541:0:0:0:0:
182,192,58382,128,0,58541:0:0:0:0:
256,192,58541,1,8,0:0:0:0:
329,192,58541,128,0,58701:0:0:0:0:
475,192,58701,128,0,58860:0:0:0:0:
36,192,58860,1,4,0:0:0:0:
182,192,58860,1,2,0:0:0:0:
329,192,58860,1,0,0:0:0:0:
109,192,59179,1,8,0:0:0:0:
256,192,59179,128,0,59339:0:0:0:0:
402,192,59179,128,0,59339:0:0:0:0:
36,192,59499,128,0,60137:0:0:0:0:
182,192,59499,128,0,60137:0:0:0:0:
329,192,59818,1,8,0:0:0:0:
475,192,59818,128,0,60137:0:0:0:0:
256,192,60137,1,4,0:0:0:0:
329,192,60137,1,2,0:0:0:0:
402,192,60137,1,0,0:0:0:0:
182,192,60296,1,0,0:0:0:0:
109,192,60456,1,8,0:0:0:0:
256,192,60456,1,0,0:0:0:0:
36,192,60616,1,0,0:0:0:0:
329,192,60616,1,0,0:0:0:0:
109,192,60669,1,0,0:0:0:0:
182,192,60722,1,0,0:0:0:0:
256,192,60775,1,0,0:0:0:0:
475,192,60775,1,0,0:0:0:0:
402,192,60882,1,0,0:0:0:0:
329,192,60988,1,0,0:0:0:0:
182,192,61094,1,8,0:0:0:0:
402,192,61094,1,0,0:0:0:0:
109,192,61201,1,0,0:0:0:0:
329,192,61201,1,0,0:0:0:0:
36,192,61307,1,0,0:0:0:0:
256,192,61307,1,0,0:0:0:0:
109,192,61414,1,2,0:0:0:0:
329,192,61414,1,4,0:0:0:0:
402,192,61414,1,0,0:0:0:0:
475,192,61414,1,0,0:0:0:0:
182,192,61493,1,0,0:0:0:0:
256,192,61573,1,0,0:0:0:0:
329,192,61653,1,0,0:0:0:0:
36,192,61733,1,8,0:0:0:0:
402,192,61733,1,0,0:0:0:0:
109,192,61812,1,0,0:0:0:0:
256,192,61892,1,0,0:0:0:0:
329,192,61972,1,0,0:0:0:0:
36,192,62052,1,2,0:0:0:0:
109,192,62052,1,4,0:0:0:0:
182,192,62052,1,0,0:0:0:0:
402,192,62052,1,0,0:0:0:0:
329,192,62132,1,0,0:0:0:0:
256,192,62211,1,0,0:0:0:0:
475,192,62211,1,0,0:0:0:0:
182,192,62291,1,0,0:0:0:0:
109,192,62371,1,8,0:0:0:0:
402,192,62371,1,0,0:0:0:0:
475,192,62371,1,0,0:0:0:0:
329,192,62451,1,0,0:0:0:0:
36,192,62531,1,0,0:0:0:0:
256,192,62531,1,0,0:0:0:0:
182,192,62610,1,0,0:0:0:0:
109,192,62690,128,2,63488:0:0:0:0:
329,192,62690,128,4,63488:0:0:0:0:
402,192,62690,1,0,0:0:0:0:
475,192,62690,1,0,0:0:0:0:
36,192,63488,1,2,0:0:0:0:
256,192,63488,128,4,63648:0:0:0:0:
475,192,63488,128,0,63648:0:0:0:0:
109,192,63967,128,4,64126:0:0:0:0:
182,192,63967,1,2,0:0:0:0:
329,192,63967,1,0,0:0:0:0:
402,192,63967,128,0,64126:0:0:0:0:
36,192,64126,1,0,0:0:0:0:
182,192,64206,1,0,0:0:0:0:
329,192,64286,1,0,0:0:0:0:
475,192,64366,1,0,0:0:0:0:
109,192,64445,128,2,64605:0:0:0:0:
182,192,64445,1,4,0:0:0:0:
329,192,64445,1,0,0:0:0:0:
402,192,64445,128,0,64605:0:0:0:0:
256,192,64765,128,0,65084:0:0:0:0:
36,192,64924,128,2,65084:0:0:0:0:
109,192,64924,1,8,0:0:0:0:
402,192,64924,1,0,0:0:0:0:
475,192,64924,128,0,65084:0:0:0:0:
109,192,65243,1,4,0:0:0:0:
256,192,65243,1,2,0:0:0:0:
402,192,65243,1,0,0:0:0:0:
329,192,65323,1,0,0:0:0:0:
475,192,65403,1,0,0:0:0:0:
182,192,65483,1,0,0:0:0:0:
36,192,65562,1,8,0:0:0:0:
329,192,65562,1,0,0:0:0:0:
475,192,65642,1,0,0:0:0:0:
182,192,65722,1,0,0:0:0:0:
36,192,65802,1,0,0:0:0:0:
329,192,65882,1,2,0:0:0:0:
475,192,65882,1,0,0:0:0:0:
182,192,65961,1,0,0:0:0:0:
36,192,66041,1,0,0:0:0:0:
329,192,66121,1,0,0:0:0:0:
36,192,66201,1,8,0:0:0:0:
475,192,66201,1,0,0:0:0:0:
109,192,66281,1,0,0:0:0:0:
256,192,66360,1,0,0:0:0:0:
402,192,66440,1,0,0:0:0:0:
36,192,66520,1,4,0:0:0:0:
182,192,66520,1,2,0:0:0:0:
475,192,66520,1,0,0:0:0:0:
402,192,66600,1,0,0:0:0:0:
256,192,66679,1,0,0:0:0:0:
109,192,66759,1,0,0:0:0:0:
329,192,66839,1,8,0:0:0:0:
475,192,66839,1,0,0:0:0:0:
182,192,66919,1,0,0:0:0:0:
36,192,66999,1,4,0:0:0:0:
256,192,66999,1,2,0:0:0:0:
475,192,66999,1,0,0:0:0:0:
329,192,67078,1,0,0:0:0:0:
36,192,67158,1,2,0:0:0:0:
182,192,67158,1,0,0:0:0:0:
402,192,67238,1,2,0:0:0:0:
256,192,67318,1,2,0:0:0:0:
109,192,67398,1,2,0:0:0:0:
402,192,67477,1,8,0:0:0:0:
475,192,67477,1,2,0:0:0:0:
109,192,67557,1,2,0:0:0:0:
182,192,67557,1,0,0:0:0:0:
402,192,67637,1,2,0:0:0:0:
475,192,67637,1,0,0:0:0:0:
109,192,67717,1,2,0:0:0:0:
182,192,67717,1,0,0:0:0:0:
36,192,67796,128,4,68116:0:0:0:0:
256,192,67796,128,2,67956:0:0:0:0:
402,192,67796,128,0,67956:0:0:0:0:
475,192,67796,1,0,0:0:0:0:
182,192,67956,128,0,68275:0:0:0:0:
402,192,68116,128,0,68275:0:0:0:0:
36,192,68275,128,4,68594:0:0:0:0:
256,192,68275,128,2,68435:0:0:0:0:
475,192,68275,128,0,68435:0:0:0:0:
182,192,68435,128,0,68754:0:0:0:0:
329,192,68594,128,0,68754:0:0:0:0:
36,192,68754,128,4,69073:0:0:0:0:
256,192,68754,128,2,68914:0:0:0:0:
475,192,68754,128,0,68914:0:0:0:0:
402,192,68914,128,0,69233:0:0:0:0:
182,192,69073,128,0,69233:0:0:0:0:
36,192,69233,128,4,69552:0:0:0:0:
256,192,69233,128,2,69392:0:0:0:0:
475,192,69233,128,0,69392:0:0:0:0:
402,192,69392,128,0,69711:0:0:0:0:
109,192,69552,128,0,69711:0:0:0:0:
36,192,69711,128,4,69871:0:0:0:0:
256,192,69711,128,2,69871:0:0:0:0:
475,192,69711,128,0,70110:0:0:0:0:
36,192,69951,128,4,70110:0:0:0:0:
182,192,69951,128,2,70110:0:0:0:0:
402,192,69951,128,0,70350:0:0:0:0:
36,192,70190,128,4,70350:0:0:0:0:
182,192,70190,128,2,70350:0:0:0:0:
329,192,70190,128,0,70350:0:0:0:0:
109,192,70350,128,4,70509:0:0:0:0:
256,192,70350,128,2,70509:0:0:0:0:
475,192,70350,128,0,70669:0:0:0:0:
329,192,70509,128,0,70828:0:0:0:0:
109,192,70669,128,0,70828:0:0:0:0:
36,192,70828,128,4,70988:0:0:0:0:
256,192,70828,128,2,70988:0:0:0:0:
475,192,70828,128,0,71148:0:0:0:0:
329,192,70988,128,0,71307:0:0:0:0:
182,192,71148,128,0,71307:0:0:0:0:
36,192,71307,128,4,71467:0:0:0:0:
256,192,71307,128,2,71467:0:0:0:0:
475,192,71307,128,0,71626:0:0:0:0:
109,192,71467,128,0,71786:0:0:0:0:
329,192,71626,128,0,71786:0:0:0:0:
36,192,71786,128,4,71945:0:0:0:0:
256,192,71786,128,2,71945:0:0:0:0:
475,192,71786,128,0,72105:0:0:0:0:
109,192,71945,128,0,72265:0:0:0:0:
402,192,72105,128,0,72265:0:0:0:0:
36,192,72265,128,4,72664:0:0:0:0:
256,192,72265,128,2,72424:0:0:0:0:
475,192,72265,128,0,72424:0:0:0:0:
109,192,72504,128,4,72903:0:0:0:0:
329,192,72504,128,2,72664:0:0:0:0:
475,192,72504,128,0,72664:0:0:0:0:
182,192,72743,128,4,72903:0:0:0:0:
329,192,72743,128,2,72903:0:0:0:0:
475,192,72743,128,0,72903:0:0:0:0:
36,192,72903,128,4,73222:0:0:0:0:
256,192,72903,128,2,73062:0:0:0:0:
402,192,72903,128,0,73062:0:0:0:0:
182,192,73062,128,0,73382:0:0:0:0:
109,192,73222,128,0,73382:0:0:0:0:
36,192,73382,128,4,73701:0:0:0:0:
329,192,73382,128,2,73541:0:0:0:0:
475,192,73382,128,0,73541:0:0:0:0:
256,192,73541,128,0,73860:0:0:0:0:
182,192,73701,128,0,73860:0:0:0:0:
36,192,73860,128,4,74179:0:0:0:0:
109,192,73860,128,2,74020:0:0:0:0:
402,192,73860,128,0,74020:0:0:0:0:
329,192,74020,128,0,74339:0:0:0:0:
256,192,74179,128,0,74339:0:0:0:0:
36,192,74339,128,4,74818:0:0:0:0:
182,192,74339,128,2,74499:0:0:0:0:
475,192,74339,128,0,74499:0:0:0:0:
256,192,74499,128,0,74818:0:0:0:0:
475,192,74658,128,0,74818:0:0:0:0:
182,192,74818,128,4,74977:0:0:0:0:
329,192,74818,128,2,74977:0:0:0:0:
402,192,74818,128,0,75217:0:0:0:0:
109,192,75057,128,4,75217:0:0:0:0:
256,192,75057,128,2,75217:0:0:0:0:
329,192,75057,128,0,75456:0:0:0:0:
36,192,75296,128,4,75456:0:0:0:0:
182,192,75296,128,2,75456:0:0:0:0:
402,192,75296,128,0,75456:0:0:0:0:
109,192,75456,128,4,75616:0:0:0:0:
256,192,75456,128,2,75616:0:0:0:0:
475,192,75456,128,0,75775:0:0:0:0:
329,192,75616,128,0,75935:0:0:0:0:
402,192,75775,128,0,75935:0:0:0:0:
36,192,75935,128,4,76094:0:0:0:0:
182,192,75935,128,2,76094:0:0:0:0:
475,192,75935,128,0,76254:0:0:0:0:
256,192,76094,128,0,76414:0:0:0:0:
329,192,76254,128,0,76414:0:0:0:0:
109,192,76414,128,4,76573:0:0:0:0:
402,192,76414,128,2,76573:0:0:0:0:
475,192,76414,128,0,76733:0:0:0:0:
182,192,76573,128,0,76892:0:0:0:0:
256,192,76733,128,0,76892:0:0:0:0:
109,192,76892,128,4,77052:0:0:0:0:
329,192,76892,128,2,77052:0:0:0:0:
475,192,76892,128,0,77211:0:0:0:0:
36,192,77052,128,0,77371:0:0:0:0:
402,192,77211,128,0,77371:0:0:0:0:
182,192,77371,128,4,77690:0:0:0:0:
329,192,77371,128,2,77690:0:0:0:0:
109,192,77610,128,4,77929:0:0:0:0:
256,192,77610,128,2,77690:0:0:0:0:
402,192,77610,128,0,77929:0:0:0:0:
36,192,77850,128,4,77929:0:0:0:0:
182,192,77850,128,2,77929:0:0:0:0:
329,192,77850,128,0,77929:0:0:0:0:
475,192,77850,128,0,77929:0:0:0:0:
109,192,78009,1,4,0:0:0:0:
256,192,78009,1,2,0:0:0:0:
402,192,78009,1,0,0:0:0:0:
109,192,78169,1,0,0:0:0:0:
475,192,78169,1,0,0:0:0:0:
36,192,78328,1,8,0:0:0:0:
182,192,78328,1,2,0:0:0:0:
256,192,78328,1,0,0:0:0:0:
402,192,78328,1,0,0:0:0:0:
475,192,78408,1,0,0:0:0:0:
256,192,78488,1,0,0:0:0:0:
402,192,78568,1,0,0:0:0:0:
182,192,78648,1,2,0:0:0:0:
475,192,78648,1,0,0:0:0:0:
109,192,78807,1,0,0:0:0:0:
329,192,78807,1,0,0:0:0:0:
182,192,78887,1,0,0:0:0:0:
36,192,78967,1,8,0:0:0:0:
256,192,78967,1,2,0:0:0:0:
329,192,78967,1,0,0:0:0:0:
475,192,78967,1,0,0:0:0:0:
109,192,79046,1,0,0:0:0:0:
182,192,79126,1,0,0:0:0:0:
402,192,79126,1,0,0:0:0:0:
36,192,79286,1,2,0:0:0:0:
182,192,79286,1,0,0:0:0:0:
256,192,79366,1,0,0:0:0:0:
109,192,79445,1,0,0:0:0:0:
329,192,79445,1,0,0:0:0:0:
36,192,79605,1,8,0:0:0:0:
182,192,79605,1,2,0:0:0:0:
256,192,79605,1,0,0:0:0:0:
402,192,79605,1,0,0:0:0:0:
256,192,79765,1,0,0:0:0:0:
475,192,79765,1,0,0:0:0:0:
36,192,79924,1,2,0:0:0:0:
182,192,79924,1,0,0:0:0:0:
329,192,79924,1,0,0:0:0:0:
475,192,80084,1,0,0:0:0:0:
109,192,80164,1,0,0:0:0:0:
256,192,80164,1,0,0:0:0:0:
402,192,80164,1,0,0:0:0:0:
36,192,80243,1,8,0:0:0:0:
329,192,80243,1,2,0:0:0:0:
109,192,80403,1,0,0:0:0:0:
256,192,80403,1,0,0:0:0:0:
475,192,80403,1,0,0:0:0:0:
36,192,80562,1,2,0:0:0:0:
475,192,80562,1,0,0:0:0:0:
256,192,80722,1,0,0:0:0:0:
402,192,80722,1,0,0:0:0:0:
36,192,80882,1,8,0:0:0:0:
182,192,80882,1,2,0:0:0:0:
329,192,80882,1,0,0:0:0:0:
475,192,80882,1,0,0:0:0:0:
36,192,81041,1,0,0:0:0:0:
256,192,81201,1,2,0:0:0:0:
475,192,81201,1,0,0:0:0:0:
109,192,81360,1,0,0:0:0:0:
402,192,81360,1,0,0:0:0:0:
109,192,81520,1,8,0:0:0:0:
256,192,81520,1,2,0:0:0:0:
329,192,81520,1,0,0:0:0:0:
475,192,81520,1,0,0:0:0:0:
36,192,81679,1,0,0:0:0:0:
182,192,81679,1,0,0:0:0:0:
329,192,81839,1,2,0:0:0:0:
475,192,81839,1,0,0:0:0:0:
109,192,81999,1,0,0:0:0:0:
402,192,81999,1,0,0:0:0:0:
36,192,82158,1,8,0:0:0:0:
182,192,82158,1,2,0:0:0:0:
329,192,82158,1,0,0:0:0:0:
475,192,82158,1,0,0:0:0:0:
36,192,82318,1,0,0:0:0:0:
256,192,82318,1,0,0:0:0:0:
109,192,82477,1,2,0:0:0:0:
329,192,82477,1,0,0:0:0:0:
475,192,82477,1,0,0:0:0:0:
182,192,82637,1,0,0:0:0:0:
36,192,82717,1,0,0:0:0:0:
256,192,82717,1,0,0:0:0:0:
402,192,82717,1,0,0:0:0:0:
109,192,82796,1,8,0:0:0:0:
329,192,82796,1,2,0:0:0:0:
182,192,82956,1,0,0:0:0:0:
402,192,82956,1,0,0:0:0:0:
475,192,82956,1,0,0:0:0:0:
36,192,83116,128,4,83275:0:0:0:0:
329,192,83116,128,2,84392:0:0:0:0:
402,192,83116,1,0,0:0:0:0:
109,192,83275,128,0,83435:0:0:0:0:
182,192,83435,128,8,83594:0:0:0:0:
256,192,83435,1,0,0:0:0:0:
475,192,83435,1,0,0:0:0:0:
36,192,83594,128,0,83754:0:0:0:0:
182,192,83754,128,0,83914:0:0:0:0:
109,192,83914,128,0,84073:0:0:0:0:
36,192,84073,128,8,84233:0:0:0:0:
256,192,84073,1,0,0:0:0:0:
475,192,84073,1,0,0:0:0:0:
182,192,84233,128,0,84392:0:0:0:0:
36,192,84392,1,0,0:0:0:0:
475,192,84392,1,0,0:0:0:0:
329,192,84472,1,0,0:0:0:0:
36,192,84552,1,0,0:0:0:0:
182,192,84552,1,0,0:0:0:0:
109,192,84711,1,8,0:0:0:0:
402,192,84711,1,0,0:0:0:0:
256,192,84791,1,0,0:0:0:0:
109,192,84871,1,0,0:0:0:0:
402,192,84871,1,0,0:0:0:0:
256,192,84951,1,0,0:0:0:0:
36,192,85031,128,0,85190:0:0:0:0:
182,192,85031,128,0,85190:0:0:0:0:
475,192,85031,1,0,0:0:0:0:
182,192,85270,128,0,85429:0:0:0:0:
329,192,85270,128,0,85429:0:0:0:0:
402,192,85270,1,0,0:0:0:0:
36,192,85509,128,2,85669:0:0:0:0:
182,192,85509,128,0,85669:0:0:0:0:
329,192,85509,1,0,0:0:0:0:
109,192,85669,128,2,86068:0:0:0:0:
256,192,85669,1,0,0:0:0:0:
475,192,85669,128,0,85828:0:0:0:0:
402,192,85828,128,0,85988:0:0:0:0:
36,192,85988,1,8,0:0:0:0:
256,192,85988,1,0,0:0:0:0:
329,192,85988,128,0,86148:0:0:0:0:
109,192,86148,128,2,86945:0:0:0:0:
36,192,86148,1,0,0:0:0:0:
475,192,86148,128,0,86307:0:0:0:0:
329,192,86307,128,0,86467:0:0:0:0:
402,192,86467,128,0,86626:0:0:0:0:
36,192,86626,1,8,0:0:0:0:
256,192,86626,1,0,0:0:0:0:
475,192,86626,128,0,86786:0:0:0:0:
329,192,86786,128,0,86945:0:0:0:0:
36,192,86945,1,0,0:0:0:0:
475,192,86945,1,0,0:0:0:0:
182,192,87025,1,0,0:0:0:0:
329,192,87105,1,0,0:0:0:0:
475,192,87105,1,0,0:0:0:0:
109,192,87265,1,8,0:0:0:0:
402,192,87265,1,0,0:0:0:0:
109,192,87424,1,2,0:0:0:0:
402,192,87424,1,0,0:0:0:0:
256,192,87504,1,2,0:0:0:0:
36,192,87584,128,2,87743:0:0:0:0:
182,192,87584,128,0,87743:0:0:0:0:
475,192,87584,128,0,87743:0:0:0:0:
36,192,87823,128,2,87983:0:0:0:0:
329,192,87823,128,8,87983:0:0:0:0:
475,192,87823,128,0,87983:0:0:0:0:
182,192,88062,128,8,88222:0:0:0:0:
329,192,88062,128,2,88222:0:0:0:0:
475,192,88062,128,0,88222:0:0:0:0:
36,192,88222,128,4,89499:0:0:0:0:
109,192,88222,1,2,0:0:0:0:
256,192,88222,1,0,0:0:0:0:
402,192,88222,1,0,0:0:0:0:
182,192,88382,1,0,0:0:0:0:
109,192,88541,1,8,0:0:0:0:
256,192,88541,1,2,0:0:0:0:
475,192,88541,1,0,0:0:0:0:
402,192,88701,1,0,0:0:0:0:
182,192,88860,1,2,0:0:0:0:
329,192,88860,128,0,89499:0:0:0:0:
475,192,88860,1,0,0:0:0:0:
256,192,89020,1,0,0:0:0:0:
109,192,89179,1,8,0:0:0:0:
402,192,89179,1,2,0:0:0:0:
475,192,89179,1,0,0:0:0:0:
256,192,89339,1,0,0:0:0:0:
109,192,89499,128,2,90775:0:0:0:0:
182,192,89499,1,0,0:0:0:0:
402,192,89499,1,0,0:0:0:0:
256,192,89658,1,0,0:0:0:0:
36,192,89818,1,8,0:0:0:0:
402,192,89818,1,2,0:0:0:0:
475,192,89818,1,0,0:0:0:0:
329,192,89977,1,0,0:0:0:0:
36,192,90137,1,2,0:0:0:0:
182,192,90137,1,0,0:0:0:0:
402,192,90137,128,0,90775:0:0:0:0:
256,192,90296,1,0,0:0:0:0:
36,192,90456,1,8,0:0:0:0:
329,192,90456,1,2,0:0:0:0:
475,192,90456,1,0,0:0:0:0:
256,192,90616,1,0,0:0:0:0:
36,192,90775,1,2,0:0:0:0:
182,192,90775,1,0,0:0:0:0:
475,192,90775,128,0,92052:0:0:0:0:
256,192,90935,1,0,0:0:0:0:
109,192,91094,1,8,0:0:0:0:
182,192,91094,1,2,0:0:0:0:
402,192,91094,1,0,0:0:0:0:
329,192,91254,1,0,0:0:0:0:
36,192,91414,1,2,0:0:0:0:
182,192,91414,128,0,92052:0:0:0:0:
256,192,91414,1,0,0:0:0:0:
109,192,91573,1,0,0:0:0:0:
36,192,91733,1,8,0:0:0:0:
256,192,91733,1,2,0:0:0:0:
402,192,91733,1,0,0:0:0:0:
329,192,91892,1,0,0:0:0:0:
36,192,92052,128,2,94605:0:0:0:0:
256,192,92052,1,0,0:0:0:0:
402,192,92052,1,0,0:0:0:0:
329,192,92211,1,0,0:0:0:0:
109,192,92371,1,8,0:0:0:0:
256,192,92371,1,2,0:0:0:0:
475,192,92371,1,0,0:0:0:0:
182,192,92531,1,0,0:0:0:0:
256,192,92690,1,2,0:0:0:0:
402,192,92690,1,0,0:0:0:0:
475,192,92690,128,0,93328:0:0:0:0:
329,192,92850,1,0,0:0:0:0:
109,192,93009,1,8,0:0:0:0:
256,192,93009,1,2,0:0:0:0:
402,192,93009,1,0,0:0:0:0:
182,192,93169,1,0,0:0:0:0:
109,192,93328,1,2,0:0:0:0:
256,192,93328,1,0,0:0:0:0:
402,192,93328,128,0,93488:0:0:0:0:
329,192,93488,128,0,93648:0:0:0:0:
475,192,93488,1,0,0:0:0:0:
109,192,93648,1,8,0:0:0:0:
256,192,93648,128,2,93807:0:0:0:0:
402,192,93648,1,0,0:0:0:0:
182,192,93807,128,0,93967:0:0:0:0:
329,192,93807,1,0,0:0:0:0:
109,192,93967,128,2,94126:0:0:0:0:
256,192,93967,1,0,0:0:0:0:
402,192,93967,128,0,94605:0:0:0:0:
182,192,94126,1,0,0:0:0:0:
109,192,94286,1,8,0:0:0:0:
256,192,94286,1,2,0:0:0:0:
475,192,94286,128,0,94445:0:0:0:0:
182,192,94445,1,0,0:0:0:0:
109,192,94605,128,2,94765:0:0:0:0:
256,192,94605,1,0,0:0:0:0:
475,192,94605,128,0,95882:0:0:0:0:
36,192,94765,1,0,0:0:0:0:
182,192,94765,128,0,94924:0:0:0:0:
109,192,94924,1,8,0:0:0:0:
256,192,94924,128,2,95084:0:0:0:0:
402,192,94924,1,0,0:0:0:0:
182,192,95084,1,0,0:0:0:0:
329,192,95084,128,0,95243:0:0:0:0:
109,192,95243,128,2,95882:0:0:0:0:
256,192,95243,1,0,0:0:0:0:
402,192,95243,128,0,95403:0:0:0:0:
329,192,95403,1,0,0:0:0:0:
36,192,95562,128,8,95722:0:0:0:0:
256,192,95562,1,2,0:0:0:0:
402,192,95562,1,0,0:0:0:0:
329,192,95722,1,0,0:0:0:0:
36,192,95882,128,2,97717:0:0:0:0:
182,192,95882,1,0,0:0:0:0:
256,192,95882,1,0,0:0:0:0:
109,192,96041,128,0,96440:0:0:0:0:
329,192,96041,1,0,0:0:0:0:
256,192,96201,1,8,0:0:0:0:
475,192,96201,128,2,97717:0:0:0:0:
402,192,96360,128,0,96759:0:0:0:0:
182,192,96360,1,0,0:0:0:0:
109,192,96520,128,2,97078:0:0:0:0:
256,192,96520,1,0,0:0:0:0:
329,192,96679,1,0,0:0:0:0:
182,192,96679,128,0,96839:0:0:0:0:
256,192,96839,1,8,0:0:0:0:
402,192,96839,128,2,97398:0:0:0:0:
329,192,96999,128,0,97158:0:0:0:0:
182,192,96999,1,0,0:0:0:0:
109,192,97158,128,2,98036:0:0:0:0:
256,192,97158,1,0,0:0:0:0:
329,192,97318,1,0,0:0:0:0:
256,192,97477,1,8,0:0:0:0:
402,192,97477,128,2,98036:0:0:0:0:
182,192,97637,1,0,0:0:0:0:
36,192,97796,1,2,0:0:0:0:
256,192,97796,1,0,0:0:0:0:
475,192,97796,1,0,0:0:0:0:
329,192,97956,1,0,0:0:0:0:
109,192,98116,1,8,0:0:0:0:
402,192,98116,1,0,0:0:0:0:
256,192,98116,128,2,98435:0:0:0:0:
182,192,98275,128,0,98435:0:0:0:0:
329,192,98275,128,0,98435:0:0:0:0:
36,192,98435,1,4,0:0:0:0:
109,192,98435,1,2,0:0:0:0:
402,192,98435,1,0,0:0:0:0:
475,192,98435,1,0,0:0:0:0:
182,192,98594,1,0,0:0:0:0:
329,192,98594,1,0,0:0:0:0:
475,192,98594,1,0,0:0:0:0:
36,192,98754,1,10,0:0:0:0:
109,192,98914,1,0,0:0:0:0:
256,192,98914,1,0,0:0:0:0:
402,192,98914,1,0,0:0:0:0:
36,192,99073,1,2,0:0:0:0:
182,192,99073,1,0,0:0:0:0:
475,192,99073,1,0,0:0:0:0:
329,192,99233,1,0,0:0:0:0:
36,192,99392,1,8,0:0:0:0:
256,192,99392,1,2,0:0:0:0:
402,192,99392,1,0,0:0:0:0:
109,192,99552,1,0,0:0:0:0:
182,192,99552,1,0,0:0:0:0:
475,192,99552,1,0,0:0:0:0:
36,192,99711,1,2,0:0:0:0:
256,192,99791,1,0,0:0:0:0:
109,192,99871,1,0,0:0:0:0:
329,192,99871,1,0,0:0:0:0:
475,192,99871,1,0,0:0:0:0:
256,192,100031,1,10,0:0:0:0:
109,192,100190,1,0,0:0:0:0:
329,192,100190,1,0,0:0:0:0:
475,192,100190,1,0,0:0:0:0:
36,192,100350,1,2,0:0:0:0:
256,192,100350,1,0,0:0:0:0:
475,192,100350,1,0,0:0:0:0:
329,192,100509,1,0,0:0:0:0:
109,192,100669,1,8,0:0:0:0:
256,192,100669,1,2,0:0:0:0:
475,192,100669,1,0,0:0:0:0:
36,192,100828,1,0,0:0:0:0:
256,192,100828,1,0,0:0:0:0:
402,192,100828,1,0,0:0:0:0:
36,192,100988,1,2,0:0:0:0:
182,192,100988,1,0,0:0:0:0:
475,192,100988,1,0,0:0:0:0:
109,192,101148,1,0,0:0:0:0:
329,192,101148,1,0,0:0:0:0:
475,192,101148,1,0,0:0:0:0:
256,192,101307,1,10,0:0:0:0:
36,192,101467,1,0,0:0:0:0:
182,192,101467,1,0,0:0:0:0:
329,192,101467,1,0,0:0:0:0:
109,192,101626,1,2,0:0:0:0:
256,192,101626,1,0,0:0:0:0:
402,192,101626,1,0,0:0:0:0:
329,192,101786,1,0,0:0:0:0:
109,192,101945,1,8,0:0:0:0:
256,192,101945,1,2,0:0:0:0:
402,192,101945,1,0,0:0:0:0:
36,192,102105,1,0,0:0:0:0:
182,192,102105,1,0,0:0:0:0:
475,192,102105,1,0,0:0:0:0:
329,192,102265,1,2,0:0:0:0:
109,192,102344,1,0,0:0:0:0:
182,192,102424,1,0,0:0:0:0:
402,192,102424,1,0,0:0:0:0:
475,192,102424,1,0,0:0:0:0:
109,192,102584,1,8,0:0:0:0:
329,192,102584,1,2,0:0:0:0:
475,192,102584,1,0,0:0:0:0:
36,192,102743,1,0,0:0:0:0:
256,192,102743,1,0,0:0:0:0:
109,192,102903,1,2,0:0:0:0:
182,192,102903,1,8,0:0:0:0:
329,192,102903,1,0,0:0:0:0:
402,192,102903,1,0,0:0:0:0:
109,192,103142,1,8,0:0:0:0:
182,192,103142,1,2,0:0:0:0:
402,192,103142,1,0,0:0:0:0:
475,192,103142,1,0,0:0:0:0:
36,192,103382,1,2,0:0:0:0:
182,192,103382,1,8,0:0:0:0:
329,192,103382,1,0,0:0:0:0:
475,192,103382,1,0,0:0:0:0:
256,192,103701,128,0,103860:0:0:0:0:
36,192,103860,128,2,104179:0:0:0:0:
182,192,103860,1,0,0:0:0:0:
329,192,103860,1,0,0:0:0:0:
475,192,103860,128,0,104179:0:0:0:0:
109,192,104020,1,2,0:0:0:0:
402,192,104020,1,0,0:0:0:0:
182,192,104179,1,0,0:0:0:0:
256,192,104179,128,0,104818:0:0:0:0:
329,192,104179,1,0,0:0:0:0:
109,192,104259,1,0,0:0:0:0:
36,192,104339,1,0,0:0:0:0:
109,192,104419,1,0,0:0:0:0:
182,192,104499,1,0,0:0:0:0:
329,192,104499,1,0,0:0:0:0:
402,192,104578,1,0,0:0:0:0:
475,192,104658,1,0,0:0:0:0:
402,192,104738,1,0,0:0:0:0:
36,192,104818,128,2,105296:0:0:0:0:
182,192,104818,128,0,105296:0:0:0:0:
329,192,104818,1,0,0:0:0:0:
256,192,105137,128,0,105296:0:0:0:0:
329,192,105137,128,0,105296:0:0:0:0:
402,192,105296,128,2,105775:0:0:0:0:
475,192,105296,128,0,105775:0:0:0:0:
256,192,105456,1,8,0:0:0:0:
329,192,105456,1,0,0:0:0:0:
36,192,105616,128,2,105775:0:0:0:0:
109,192,105616,128,0,105775:0:0:0:0:
182,192,105775,128,0,106094:0:0:0:0:
256,192,105775,128,0,106094:0:0:0:0:
36,192,105935,1,2,0:0:0:0:
109,192,105935,1,0,0:0:0:0:
36,192,106094,1,4,0:0:0:0:
109,192,106094,1,2,0:0:0:0:
329,192,106094,128,0,106733:0:0:0:0:
475,192,106094,128,0,106733:0:0:0:0:
182,192,106254,1,0,0:0:0:0:
109,192,106414,1,0,0:0:0:0:
256,192,106414,1,0,0:0:0:0:
36,192,106573,1,2,0:0:0:0:
182,192,106653,1,2,0:0:0:0:
109,192,106733,128,2,107371:0:0:0:0:
256,192,106733,128,8,107371:0:0:0:0:
402,192,106733,1,0,0:0:0:0:
329,192,106892,1,0,0:0:0:0:
402,192,107052,1,0,0:0:0:0:
475,192,107052,1,0,0:0:0:0:
36,192,107371,128,0,107929:0:0:0:0:
182,192,107371,1,0,0:0:0:0:
329,192,107371,128,0,107929:0:0:0:0:
475,192,107371,1,0,0:0:0:0:
182,192,107531,1,0,0:0:0:0:
475,192,107531,1,0,0:0:0:0:
182,192,107850,1,0,0:0:0:0:
475,192,107850,1,0,0:0:0:0:
256,192,108009,128,0,108568:0:0:0:0:
402,192,108009,128,0,108568:0:0:0:0:
36,192,108169,1,0,0:0:0:0:
182,192,108169,1,0,0:0:0:0:
109,192,108328,128,0,108568:0:0:0:0:
109,192,108648,1,4,0:0:0:0:
256,192,108648,1,2,0:0:0:0:
402,192,108648,1,0,0:0:0:0:
36,192,109445,128,0,109605:0:0:0:0:
109,192,109605,128,0,109765:0:0:0:0:
329,192,109765,128,0,109924:0:0:0:0:
182,192,109924,1,0,0:0:0:0:
402,192,109924,128,0,110882:0:0:0:0:
256,192,110403,1,0,0:0:0:0:
475,192,110403,128,0,111201:0:0:0:0:
36,192,110882,1,0,0:0:0:0:
182,192,110882,128,0,116945:0:0:0:0:
256,192,111201,128,0,112477:0:0:0:0:
402,192,111201,1,0,0:0:0:0:
36,192,111839,128,0,113116:0:0:0:0:
329,192,112477,128,0,113754:0:0:0:0:
109,192,113116,128,0,113754:0:0:0:0:
36,192,113754,1,0,0:0:0:0:
256,192,113754,128,0,118860:0:0:0:0:
475,192,113754,128,0,115031:0:0:0:0:
36,192,115031,128,0,115669:0:0:0:0:
329,192,115031,128,0,115669:0:0:0:0:
109,192,115669,128,0,116307:0:0:0:0:
402,192,115669,128,0,118860:0:0:0:0:
329,192,116307,128,0,118222:0:0:0:0:
475,192,116945,128,0,117584:0:0:0:0:
182,192,117584,128,0,120137:0:0:0:0:
109,192,118222,128,0,118860:0:0:0:0:
36,192,118860,128,0,120137:0:0:0:0:
329,192,118860,128,0,120775:0:0:0:0:
109,192,119179,1,0,0:0:0:0:
256,192,119499,1,0,0:0:0:0:
109,192,120137,128,0,121414:0:0:0:0:
475,192,120137,128,0,120775:0:0:0:0:
182,192,120456,1,0,0:0:0:0:
36,192,120775,1,0,0:0:0:0:
256,192,120775,128,0,121414:0:0:0:0:
402,192,120775,128,0,121414:0:0:0:0:
36,192,121414,128,0,122690:0:0:0:0:
182,192,121414,128,0,122690:0:0:0:0:
329,192,121414,128,0,122690:0:0:0:0:
402,192,121733,1,0,0:0:0:0:
475,192,122052,1,0,0:0:0:0:
256,192,122690,128,0,122770:0:0:0:0:
402,192,122690,128,0,123009:0:0:0:0:
475,192,122690,128,0,123967:0:0:0:0:
182,192,123009,128,0,123089:0:0:0:0:
329,192,123009,128,0,123328:0:0:0:0:
109,192,123328,128,0,123408:0:0:0:0:
256,192,123328,128,0,123648:0:0:0:0:
36,192,123648,128,0,123727:0:0:0:0:
182,192,123648,128,0,123967:0:0:0:0:
109,192,123967,128,0,125243:0:0:0:0:
256,192,123967,128,0,125879:0:0:0:0:
402,192,123967,128,0,126756:0:0:0:0:
36,192,125243,128,0,126756:0:0:0:0:
256,192,125970,1,0,0:0:0:0:
36,192,126868,1,0,0:0:0:0:
256,192,126868,128,0,127082:0:0:0:0:
109,192,127082,1,0,0:0:0:0:
329,192,127082,128,0,127424:0:0:0:0:
182,192,127424,1,0,0:0:0:0:
402,192,127424,128,0,127926:0:0:0:0:
256,192,127926,1,0,0:0:0:0:
475,192,127926,128,0,129720:0:0:0:0:
36,192,128951,128,0,129720:0:0:0:0:
182,192,128951,128,0,129720:0:0:0:0:
329,192,128951,128,0,129720:0:0:0:0:
