osu file format v14

[General]
AudioFilename: ayyy... ETIA. - Claiomh Solais.mp3
AudioLeadIn: 0
PreviewTime: 88222
Countdown: 0
SampleSet: None
StackLeniency: 0.7
Mode: 1
LetterboxInBreaks: 0
WidescreenStoryboard: 1

[Editor]
DistanceSpacing: 0.9
BeatDivisor: 4
GridSize: 32
TimelineZoom: 3.199997

[Metadata]
Title:Claiomh Solais
TitleUnicode:Claiomh Solais
Artist:ETIA.
ArtistUnicode:ETIA.
Creator:Arzenvald
Version:Futsuu
Source:
Tags:Jihadvent electronic techno Ninjatertel ExUsagi ajeemaniz Nwolf Ntiger
BeatmapID:2028491
BeatmapSetID:308342

[Difficulty]
HPDrainRate:7
CircleSize:2
OverallDifficulty:4
ApproachRate:9
SliderMultiplier:1.3999999666214
SliderTickRate:1

[Events]
//Background and Video events
0,0,"BGWEFF.jpg",0,0
//Break Periods
//Storyboard Layer 0 (Background)
//Storyboard Layer 1 (Fail)
//Storyboard Layer 2 (Pass)
//Storyboard Layer 3 (Foreground)
//Storyboard Sound Samples

[TimingPoints]
1414,319.148936170213,4,1,0,40,1,0
21839,-100,4,1,0,95,0,1
42265,-100,4,1,0,95,0,0
46174,-100,4,1,0,50,0,0
56307,-100,4,1,0,54,0,0
56467,-100,4,1,0,58,0,0
56626,-100,4,1,0,62,0,0
56945,-100,4,1,0,70,0,0
57584,-100,4,1,0,90,0,0
88222,-100,4,1,0,95,0,1
103382,-100,4,1,0,95,0,0
103860,-100,4,1,0,95,0,1
108648,-100,4,1,0,95,0,0
108727,-100,4,1,0,50,0,0
125243,363.636363636364,4,1,0,40,1,0
125243,-87.7659574771531,4,1,0,40,0,0
125970,449.438202247191,4,1,0,40,1,0
125970,-71.0106383167581,4,1,0,40,0,0
126868,428.571428571429,4,1,0,40,1,0
126868,-74.4680850984608,4,1,0,40,0,0
127082,685.714285714286,4,1,0,40,1,0
127082,-46.5425531822056,4,1,0,40,0,0
127424,1004.18410041841,4,1,0,40,1,0
127424,-33.1944444472568,4,1,0,40,0,0
127926,1025.64102564103,4,1,0,40,1,0
127926,-32.4999999991875,4,1,0,40,0,0

[HitObjects]
224,160,1414,5,0,0:0:0:0:
288,160,1892,1,8,0:0:0:0:
256,192,3009,12,0,3967,0:0:0:0:
224,160,6520,5,0,0:0:0:0:
288,160,6999,1,8,0:0:0:0:
256,192,8116,12,0,8914,0:0:0:0:
224,160,9073,5,0,0:0:0:0:
288,160,10350,1,8,0:0:0:0:
288,160,10988,1,8,0:0:0:0:
224,160,11626,5,0,0:0:0:0:
288,160,12265,1,8,0:0:0:0:
288,160,13541,1,8,0:0:0:0:
288,160,13860,1,8,0:0:0:0:
224,160,14179,1,0,0:0:0:0:
288,160,14818,1,8,0:0:0:0:
288,160,16094,1,8,0:0:0:0:
224,160,16414,1,0,0:0:0:0:
288,160,16733,1,8,0:0:0:0:
288,160,17371,1,8,0:0:0:0:
224,160,17690,1,0,0:0:0:0:
224,160,18009,1,0,0:0:0:0:
288,160,18648,1,8,0:0:0:0:
224,160,18967,1,0,0:0:0:0:
288,160,19286,1,8,0:0:0:0:
288,160,20562,1,8,0:0:0:0:
288,224,21839,5,12,0:0:0:0:
224,160,22318,1,0,0:0:0:0:
288,160,22796,1,8,0:0:0:0:
288,160,22956,1,8,0:0:0:0:
288,160,23116,1,8,0:0:0:0:
288,160,23435,1,8,0:0:0:0:
288,160,23754,1,8,0:0:0:0:
224,160,24073,1,0,0:0:0:0:
224,160,24233,1,0,0:0:0:0:
224,160,24392,1,0,0:0:0:0:
224,160,24871,1,0,0:0:0:0:
288,160,25350,1,8,0:0:0:0:
288,160,25509,1,8,0:0:0:0:
288,160,25669,1,8,0:0:0:0:
288,160,25988,1,8,0:0:0:0:
288,160,26307,1,8,0:0:0:0:
224,160,26626,1,0,0:0:0:0:
224,160,26786,1,0,0:0:0:0:
288,160,26945,1,8,0:0:0:0:
288,160,27424,1,8,0:0:0:0:
288,160,27903,1,8,0:0:0:0:
224,160,28062,1,0,0:0:0:0:
224,160,28222,1,0,0:0:0:0:
224,160,28541,1,0,0:0:0:0:
224,160,28860,1,0,0:0:0:0:
224,160,29179,1,0,0:0:0:0:
224,160,29339,1,0,0:0:0:0:
288,160,29499,1,8,0:0:0:0:
288,160,29977,1,8,0:0:0:0:
288,160,30456,1,8,0:0:0:0:
224,160,30775,1,0,0:0:0:0:
224,160,31094,1,0,0:0:0:0:
224,160,31254,1,0,0:0:0:0:
224,160,31414,1,0,0:0:0:0:
288,224,32052,1,12,0:0:0:0:
224,160,32531,1,0,0:0:0:0:
288,160,33009,1,8,0:0:0:0:
224,160,33169,1,0,0:0:0:0:
288,160,33328,1,8,0:0:0:0:
288,160,33648,1,8,0:0:0:0:
288,160,33967,1,8,0:0:0:0:
224,160,34286,1,0,0:0:0:0:
288,160,34445,1,8,0:0:0:0:
224,160,34605,1,0,0:0:0:0:
224,160,35084,1,0,0:0:0:0:
288,160,35562,1,8,0:0:0:0:
224,160,35722,1,0,0:0:0:0:
288,160,35882,1,8,0:0:0:0:
288,160,36201,1,8,0:0:0:0:
288,160,36520,1,8,0:0:0:0:
224,160,36839,1,0,0:0:0:0:
224,160,36999,1,0,0:0:0:0:
288,160,37158,1,8,0:0:0:0:
288,160,37637,1,8,0:0:0:0:
288,160,38116,1,8,0:0:0:0:
224,160,38275,1,0,0:0:0:0:
224,160,38435,1,0,0:0:0:0:
224,160,38754,1,0,0:0:0:0:
224,160,39073,1,0,0:0:0:0:
224,160,39392,1,0,0:0:0:0:
224,160,39552,1,0,0:0:0:0:
288,160,39711,1,8,0:0:0:0:
288,160,40190,1,8,0:0:0:0:
288,160,40669,1,8,0:0:0:0:
224,224,40988,1,4,0:0:0:0:
288,160,41148,1,8,0:0:0:0:
288,160,41307,1,8,0:0:0:0:
224,160,41626,1,0,0:0:0:0:
224,224,42265,5,4,0:0:0:0:
224,224,42743,1,4,0:0:0:0:
224,224,44020,1,4,0:0:0:0:
288,224,44339,1,12,0:0:0:0:
224,224,44818,1,4,0:0:0:0:
224,224,45296,1,4,0:0:0:0:
224,160,46094,1,0,0:0:0:0:
288,224,47371,1,12,0:0:0:0:
288,160,48648,1,8,0:0:0:0:
288,160,49286,1,8,0:0:0:0:
224,160,49924,1,0,0:0:0:0:
288,160,50562,1,8,0:0:0:0:
224,160,51201,1,0,0:0:0:0:
288,160,52477,1,8,0:0:0:0:
288,160,53754,1,8,0:0:0:0:
224,160,54392,1,0,0:0:0:0:
288,160,55031,1,8,0:0:0:0:
288,160,55988,1,8,0:0:0:0:
288,160,56307,1,8,0:0:0:0:
288,160,56467,1,8,0:0:0:0:
288,160,56626,1,8,0:0:0:0:
224,160,56945,1,0,0:0:0:0:
288,224,57584,1,12,0:0:0:0:
224,160,57903,1,0,0:0:0:0:
224,160,58541,1,0,0:0:0:0:
288,224,58860,1,12,0:0:0:0:
224,160,59179,1,0,0:0:0:0:
224,160,59339,1,0,0:0:0:0:
224,160,59818,1,0,0:0:0:0:
288,224,60137,1,12,0:0:0:0:
224,160,60456,1,0,0:0:0:0:
224,160,60616,1,0,0:0:0:0:
224,160,60775,1,0,0:0:0:0:
224,160,61094,1,0,0:0:0:0:
288,224,61414,1,12,0:0:0:0:
288,160,61733,1,8,0:0:0:0:
288,160,61892,1,8,0:0:0:0:
288,160,62052,1,8,0:0:0:0:
224,224,62690,1,4,0:0:0:0:
288,160,63009,1,8,0:0:0:0:
288,160,63328,1,8,0:0:0:0:
224,224,63488,1,4,0:0:0:0:
224,224,63967,1,4,0:0:0:0:
224,224,64445,1,4,0:0:0:0:
224,224,64924,1,4,0:0:0:0:
288,224,65243,1,12,0:0:0:0:
288,160,65562,1,8,0:0:0:0:
288,160,65722,1,8,0:0:0:0:
288,160,65882,1,8,0:0:0:0:
224,160,66201,1,0,0:0:0:0:
288,224,66520,1,12,0:0:0:0:
224,160,66839,1,0,0:0:0:0:
224,160,66999,1,0,0:0:0:0:
224,160,67158,1,0,0:0:0:0:
224,224,67796,5,4,0:0:0:0:
224,224,68275,1,4,0:0:0:0:
224,224,68754,1,4,0:0:0:0:
224,224,69233,1,4,0:0:0:0:
288,224,69711,1,12,0:0:0:0:
288,224,70190,1,12,0:0:0:0:
288,224,70350,1,12,0:0:0:0:
224,224,70828,1,4,0:0:0:0:
224,224,71307,1,4,0:0:0:0:
224,224,71786,1,4,0:0:0:0:
288,224,72265,1,12,0:0:0:0:
288,224,72743,1,12,0:0:0:0:
288,224,72903,1,12,0:0:0:0:
224,224,73382,1,4,0:0:0:0:
224,224,73860,1,4,0:0:0:0:
224,224,74339,1,4,0:0:0:0:
288,224,74818,1,12,0:0:0:0:
288,224,75296,1,12,0:0:0:0:
288,224,75456,1,12,0:0:0:0:
224,224,75935,1,4,0:0:0:0:
224,224,76414,1,4,0:0:0:0:
224,224,76892,1,4,0:0:0:0:
288,224,77371,1,12,0:0:0:0:
288,224,77850,1,12,0:0:0:0:
288,224,78009,1,12,0:0:0:0:
288,160,78328,1,8,0:0:0:0:
288,160,78488,1,8,0:0:0:0:
288,160,78648,1,8,0:0:0:0:
224,160,78967,1,0,0:0:0:0:
224,160,79126,1,0,0:0:0:0:
224,160,79286,1,0,0:0:0:0:
288,224,79924,1,12,0:0:0:0:
288,224,80164,1,12,0:0:0:0:
288,224,80403,1,12,0:0:0:0:
288,224,80562,1,12,0:0:0:0:
288,160,80882,1,8,0:0:0:0:
288,160,81041,1,8,0:0:0:0:
288,160,81201,1,8,0:0:0:0:
224,160,81520,1,0,0:0:0:0:
224,160,81839,1,0,0:0:0:0:
288,224,82477,1,12,0:0:0:0:
288,224,82717,1,12,0:0:0:0:
288,224,82956,1,12,0:0:0:0:
288,224,83116,1,12,0:0:0:0:
288,224,85031,1,12,0:0:0:0:
288,224,85270,1,12,0:0:0:0:
288,224,85509,1,12,0:0:0:0:
288,224,85669,1,12,0:0:0:0:
288,224,86148,1,12,0:0:0:0:
288,224,87584,1,12,0:0:0:0:
288,224,87823,1,12,0:0:0:0:
288,224,88062,1,12,0:0:0:0:
288,224,88222,5,12,0:0:0:0:
224,160,88541,1,0,0:0:0:0:
288,160,88860,1,8,0:0:0:0:
224,160,89179,1,0,0:0:0:0:
288,160,89339,1,8,0:0:0:0:
224,160,89499,1,0,0:0:0:0:
224,160,89818,1,0,0:0:0:0:
288,160,90137,1,8,0:0:0:0:
288,160,90456,1,8,0:0:0:0:
224,160,90616,1,0,0:0:0:0:
288,160,90775,1,8,0:0:0:0:
224,160,91094,1,0,0:0:0:0:
288,160,91414,1,8,0:0:0:0:
288,160,91733,1,8,0:0:0:0:
224,160,91892,1,0,0:0:0:0:
224,160,92052,1,0,0:0:0:0:
224,160,92371,1,0,0:0:0:0:
288,160,92690,1,8,0:0:0:0:
288,160,93328,1,8,0:0:0:0:
288,160,93488,1,8,0:0:0:0:
288,160,93648,1,8,0:0:0:0:
288,160,93967,1,8,0:0:0:0:
224,160,94605,1,0,0:0:0:0:
224,160,94765,1,0,0:0:0:0:
224,160,94924,1,0,0:0:0:0:
224,160,95243,1,0,0:0:0:0:
224,160,95882,1,0,0:0:0:0:
288,160,96041,1,8,0:0:0:0:
288,160,96201,1,8,0:0:0:0:
288,160,96520,1,8,0:0:0:0:
224,160,96679,1,0,0:0:0:0:
224,160,96839,1,0,0:0:0:0:
288,160,97158,1,8,0:0:0:0:
288,160,97477,1,8,0:0:0:0:
224,160,97796,1,0,0:0:0:0:
288,224,98435,1,12,0:0:0:0:
224,160,98754,1,0,0:0:0:0:
224,160,98914,1,0,0:0:0:0:
288,160,99073,1,8,0:0:0:0:
224,160,99392,1,0,0:0:0:0:
288,160,99711,1,8,0:0:0:0:
224,160,100031,1,0,0:0:0:0:
224,160,100190,1,0,0:0:0:0:
224,160,100350,1,0,0:0:0:0:
288,160,100988,1,8,0:0:0:0:
224,160,101307,1,0,0:0:0:0:
224,160,101626,1,0,0:0:0:0:
288,160,101945,1,8,0:0:0:0:
288,160,102105,1,8,0:0:0:0:
288,160,102265,1,8,0:0:0:0:
288,224,102903,1,12,0:0:0:0:
288,224,103142,1,12,0:0:0:0:
288,224,103382,1,12,0:0:0:0:
224,224,103860,1,4,0:0:0:0:
288,160,104339,1,8,0:0:0:0:
288,160,104499,1,8,0:0:0:0:
224,160,104818,1,0,0:0:0:0:
288,160,105296,1,8,0:0:0:0:
288,160,105616,1,8,0:0:0:0:
288,160,105775,1,8,0:0:0:0:
224,160,105935,1,0,0:0:0:0:
288,224,106094,1,12,0:0:0:0:
288,224,106733,1,12,0:0:0:0:
288,224,107371,1,12,0:0:0:0:
288,224,108009,1,12,0:0:0:0:
224,224,108648,1,4,0:0:0:0:
288,160,109605,1,8,0:0:0:0:
224,160,109924,1,0,0:0:0:0:
288,160,110403,1,8,0:0:0:0:
288,160,110882,1,8,0:0:0:0:
224,160,111201,1,0,0:0:0:0:
288,160,111839,1,8,0:0:0:0:
224,160,112477,1,0,0:0:0:0:
224,160,113116,1,0,0:0:0:0:
288,160,113754,1,8,0:0:0:0:
224,160,115031,1,0,0:0:0:0:
288,160,115669,1,8,0:0:0:0:
288,160,116307,1,8,0:0:0:0:
288,160,116945,1,8,0:0:0:0:
288,160,117584,1,8,0:0:0:0:
288,160,118222,1,8,0:0:0:0:
224,160,118860,1,0,0:0:0:0:
224,160,120137,1,0,0:0:0:0:
288,160,120775,1,8,0:0:0:0:
224,160,121414,1,0,0:0:0:0:
288,160,122690,1,8,0:0:0:0:
288,160,123009,1,8,0:0:0:0:
224,160,123328,1,0,0:0:0:0:
288,160,123967,1,8,0:0:0:0:
224,160,125243,1,0,0:0:0:0:
224,160,126868,1,0,0:0:0:0:
256,192,127082,12,0,129720,0:0:0:0:
